osu file format v14

[General]
AudioFilename: audio.mp3
AudioLeadIn: 0
PreviewTime: 47975
Countdown: 0
SampleSet: Soft
StackLeniency: 0.7
Mode: 0
LetterboxInBreaks: 0
WidescreenStoryboard: 0

[Editor]
Bookmarks: 57634,64658
DistanceSpacing: 0.4
BeatDivisor: 4
GridSize: 16
TimelineZoom: 1.7

[Metadata]
Title:Dakushoku Odoru Automata
TitleUnicode:濁色踊るオートマタ
Artist:Metomate
ArtistUnicode:めと
Creator:Hey lululu
Version:DANCING IN MUD
Source:SOUND VOLTEX VIVID WAVE
Tags:The 9th KAC オリジナル楽曲コンテスト Original Song Contest sdvx_v japanese rock jrock j-rock video game lu^3 Silent_rock Silent Rock
BeatmapID:3300420
BeatmapSetID:1616450

[Difficulty]
HPDrainRate:6
CircleSize:4.3
OverallDifficulty:9
ApproachRate:9.3
SliderMultiplier:1.8
SliderTickRate:1

[Events]
//Background and Video events
0,0,"BG.jpg",0,0
//Break Periods
2,84331,85772
//Storyboard Layer 0 (Background)
//Storyboard Layer 1 (Fail)
//Storyboard Layer 2 (Pass)
//Storyboard Layer 3 (Foreground)
//Storyboard Layer 4 (Overlay)
//Storyboard Sound Samples

[TimingPoints]
572,292.682926829268,4,2,1,40,1,0
572,-200,4,2,1,40,0,0
7011,-66.6666666666667,4,2,1,70,0,0
7450,-83.3333333333333,4,2,1,80,0,0
16376,-76.9230769230769,4,2,1,80,0,0
16669,-100,4,2,1,80,0,0
17254,-100,4,2,1,70,0,0
24718,-125,4,2,1,70,0,0
24864,-166.666666666667,4,2,1,70,0,0
25011,-100,4,2,1,70,0,0
35693,292.682926829268,3,2,2,65,1,0
35693,-125,3,2,2,65,0,0
42717,-83.3333333333333,3,2,1,65,0,0
45351,-125,3,2,1,65,0,0
45936,-100,3,2,1,65,0,0
46083,-83.3333333333333,3,2,1,65,0,0
46229,-83.3333333333333,3,2,1,75,0,0
48863,-83.3333333333333,3,2,3,75,0,0
49741,-83.3333333333333,3,2,1,75,0,0
50327,-52.6315789473684,3,2,1,75,0,0
50619,-83.3333333333333,3,2,1,80,0,0
53400,-100,3,2,1,80,0,0
54132,-83.3333333333333,3,2,1,80,0,0
57058,-83.3333333333333,3,2,3,80,0,0
57644,-100,3,2,1,80,0,0
58229,-83.3333333333333,3,2,1,80,0,0
58522,-100,3,2,1,80,0,0
59107,-83.3333333333333,3,2,1,80,0,0
59400,-100,3,2,1,80,0,0
60278,-83.3333333333333,3,2,1,80,0,0
60571,-100,3,2,3,80,0,0
60863,-100,3,2,1,80,0,0
61156,-83.3333333333333,3,2,1,80,0,0
62619,-83.3333333333333,3,2,3,80,0,0
62912,-83.3333333333333,3,2,1,80,0,0
67449,-100,3,2,1,80,0,0
68766,-83.3333333333333,3,2,1,80,0,0
71692,-100,3,2,1,80,0,0
72278,-83.3333333333333,3,2,1,80,0,0
83107,292.682926829268,4,2,1,80,1,0
83546,-100,4,2,3,80,0,0
83838,-66.6666666666667,4,2,1,80,0,0
86326,-100,4,2,1,80,0,0
86911,-66.6666666666667,4,2,1,80,0,0
87204,-83.3333333333333,4,2,1,80,0,0
107106,-83.3333333333333,4,2,3,80,0,0
107399,-83.3333333333333,4,2,1,80,0,0

[Colours]
Combo1 : 128,128,128
Combo2 : 255,128,128
Combo3 : 170,170,0
Combo4 : 128,64,0

[HitObjects]
21,235,572,6,0,B|53:216|53:216|102:247|102:247|100:287,1,135,2|2,0:0|0:0,0:0:0:0:
100,286,1450,2,0,L|91:304,1,11.25,2|0,0:0|0:0,0:0:0:0:
334,308,2474,5,0,0:0:0:0:
402,277,2620,1,0,0:0:0:0:
479,316,2767,1,0,0:0:0:0:
501,355,2913,2,0,P|490:307|483:210,1,135,2|2,0:0|0:0,0:0:0:0:
482,221,3791,1,2,0:0:0:0:
337,24,4084,6,0,L|341:10,1,11.25,2|0,0:0|0:0,0:0:0:0:
393,79,4376,1,2,0:0:0:0:
288,190,4523,1,2,0:0:0:0:
288,190,4815,5,2,0:0:0:0:
208,140,4962,1,0,0:0:0:0:
288,190,5108,1,2,0:0:0:0:
335,370,5400,5,2,0:0:0:0:
431,309,5547,1,0,0:0:0:0:
335,370,5693,1,2,0:0:0:0:
256,192,5767,12,0,6864,0:0:0:0:
335,370,7011,6,0,B|323:356|323:356|332:376,1,33.7500012874604
257,296,7157,2,0,B|240:291|240:291|258:303,1,33.7500012874604
152,271,7303,2,0,B|136:279|136:279|158:274,1,33.7500012874604,8|0,3:2|0:0,0:0:0:0:
25,276,7450,6,0,P|49:297|17:276,1,161.999995056153,4|0,3:2|0:0,0:0:0:0:
37,236,7742,2,0,L|49:293,1,53.9999983520508,0|0,3:2|0:0,0:0:0:0:
126,183,7889,2,0,B|178:167|178:167|239:173|239:173|304:159,1,161.999995056153,10|0,3:2|0:0,0:0:0:0:
351,114,8181,1,2,3:2:0:0:
302,242,8328,1,0,3:2:0:0:
455,147,8474,2,0,P|468:175|487:203,1,53.9999983520508,10|0,3:2|0:0,0:0:0:0:
512,384,8620,6,0,P|494:332|340:316,1,215.999993408203,2|0,3:2|3:2,0:0:0:0:
267,330,8986,1,0,3:2:0:0:
267,330,9059,2,0,L|215:350,1,53.9999983520508,8|0,3:2|0:0,0:0:0:0:
141,298,9206,1,0,3:2:0:0:
307,182,9352,6,0,B|337:183|337:183|359:221|359:221|323:249,1,107.999996704102,2|0,0:0|3:2,0:0:0:0:
222,213,9571,2,0,L|95:188,1,107.999996704102,2|0,0:0|0:0,0:0:0:0:
42,213,9791,1,2,3:2:0:0:
133,32,9937,6,0,B|173:1|173:1|248:29|248:29|239:80,1,161.999995056153,4|0,3:2|0:0,0:0:0:0:
101,107,10230,2,0,B|88:111|72:113|72:113|33:132|33:132|11:136|-8:145,1,107.999996704102,10|0,3:2|0:0,0:0:0:0:
252,140,10523,5,0,3:2:0:0:
245,165,10596,1,2,0:0:0:0:
261,192,10669,1,2,0:0:0:0:
275,215,10742,1,2,0:0:0:0:
268,240,10815,1,8,3:2:0:0:
170,299,10962,6,0,P|261:293|317:360,1,161.999995056153,6|0,3:2|0:0,0:0:0:0:
377,381,11254,1,10,1:2:0:0:
458,176,11401,6,0,B|441:180|441:180|424:192|424:192|395:203,1,53.9999983520508,10|0,1:2|3:0,0:0:0:0:
200,142,11547,2,0,B|183:138|183:138|166:126|166:126|137:115,1,53.9999983520508,8|0,1:2|3:0,0:0:0:0:
360,120,11693,2,0,B|346:126|346:126|329:138|329:138|312:142,1,53.9999983520508,10|0,1:2|3:0,0:0:0:0:
102,197,11840,2,0,B|88:192|88:192|71:180|71:180|54:176,1,53.9999983520508,8|0,1:2|3:0,0:0:0:0:
62,281,11986,5,10,1:2:0:0:
76,302,12059,1,0,1:2:0:0:
93,324,12132,2,0,B|129:289|171:297|171:297|220:272|200:214,1,161.999995056153,4|0,3:2|0:0,0:0:0:0:
180,164,12425,2,0,L|195:232,1,53.9999983520508,0|0,3:2|0:0,0:0:0:0:
295,307,12571,2,0,B|314:325|326:355|326:355|338:322|318:279,1,107.999996704102,8|0,3:2|0:0,0:0:0:0:
417,192,12864,5,0,3:2:0:0:
411,210,12937,1,2,0:0:0:0:
421,248,13011,1,2,3:2:0:0:
459,271,13084,1,2,0:0:0:0:
511,259,13157,1,10,3:2:0:0:
425,94,13303,6,0,B|376:100|376:100|331:115|331:115|245:127,1,161.999995056153,2|0,3:2|0:0,0:0:0:0:
187,138,13596,2,0,L|204:78,1,53.9999983520508,0|0,3:2|0:0,0:0:0:0:
174,0,13742,1,10,3:2:0:0:
174,0,13815,1,0,0:0:0:0:
174,0,13889,1,2,0:0:0:0:
280,46,14035,1,2,0:0:0:0:
84,120,14181,6,0,P|96:146|108:185,1,53.9999983520508,2|0,3:2|0:0,0:0:0:0:
260,227,14328,2,0,P|248:253|236:292,1,53.9999983520508,10|0,3:2|0:0,0:0:0:0:
123,259,14474,6,0,B|83:275|13:280|13:280|65:297|94:290,1,161.999995056153,4|0,3:2|0:0,0:0:0:0:
140,337,14767,1,2,3:2:0:0:
159,328,14840,1,2,0:0:0:0:
178,322,14913,1,8,3:2:0:0:
415,181,15059,5,2,3:2:0:0:
432,214,15132,1,2,0:0:0:0:
419,250,15206,1,2,3:2:0:0:
261,158,15352,2,0,P|246:175|262:172,1,53.9999983520508,0|0,3:2|0:0,0:0:0:0:
315,98,15498,5,10,3:2:0:0:
0,14,15645,2,0,L|163:41,1,161.999995056153,4|0,3:2|0:0,0:0:0:0:
175,69,15937,6,0,L|236:84,1,53.9999983520508,8|0,1:2|0:0,0:0:0:0:
330,199,16084,2,0,L|391:214,1,53.9999983520508,8|0,1:2|0:0,0:0:0:0:
459,186,16230,1,8,1:2:0:0:
490,44,16376,6,0,P|459:47|422:84,1,58.4999973220826,8|0,1:2|0:0,0:0:0:0:
291,272,16523,2,0,P|260:269|223:232,1,58.4999973220826,8|0,1:2|0:0,0:0:0:0:
82,167,16669,6,0,B|86:149|111:134|111:134|60:209|33:288|100:310|82:274,1,225,8|0,1:2|0:0,0:0:0:0:
72,375,17108,2,0,P|52:364|30:366,1,45,0|0,3:2|0:0,0:0:0:0:
188,338,17254,6,0,B|214:326|214:326|261:346|261:346|268:367|268:367|307:388|307:388|342:379,1,180,4|0,3:2|0:0,0:0:0:0:
495,192,17986,2,0,B|523:161|513:119|513:119|500:156|471:186,1,135,2|0,3:1|0:0,0:0:0:0:
478,263,18279,1,0,3:2:0:0:
169,113,19011,6,0,L|156:171,1,45,8|0,3:2|0:0,0:0:0:0:
78,185,19157,2,0,B|108:172|108:172|174:210|174:210|129:239,1,135,2|0,3:1|0:0,0:0:0:0:
81,260,19450,1,0,3:2:0:0:
57,384,19596,1,0,3:2:0:0:
356,180,20181,6,0,L|339:130,1,45,8|0,3:2|0:0,0:0:0:0:
401,13,20328,2,0,B|381:30|381:30|289:54|289:54|261:86,1,135,2|0,3:1|0:0,0:0:0:0:
241,138,20620,1,0,3:2:0:0:
154,22,20913,5,0,3:2:0:0:
154,22,20986,1,0,3:2:0:0:
154,22,21059,1,8,3:2:0:0:
254,64,21279,5,0,3:2:0:0:
139,221,21498,5,0,3:2:0:0:
139,221,21791,1,0,3:2:0:0:
227,198,21937,6,0,B|281:176|281:176|288:178|288:178|306:216|306:216|316:220|316:220|384:195,1,180,4|0,3:2|0:0,0:0:0:0:
373,199,22376,1,8,3:2:0:0:
246,278,22523,1,0,3:2:0:0:
389,315,22669,6,0,B|439:330|439:330|486:361|486:361|537:378,1,135,2|0,3:1|0:0,0:0:0:0:
511,369,22962,1,0,3:2:0:0:
512,181,23254,2,0,P|501:225|495:167,1,180,2|0,3:1|0:0,0:0:0:0:
495,167,23840,6,0,P|470:210|508:177,1,135,2|0,3:1|0:0,0:0:0:0:
463,94,24132,1,0,3:2:0:0:
376,165,24279,1,0,3:2:0:0:
264,48,24425,2,0,B|256:80|256:80|275:122|275:122|261:182,1,135,8|0,3:2|0:0,0:0:0:0:
189,204,24718,6,0,L|173:252,1,36,4|0,3:3|0:0,0:0:0:0:
249,266,24864,2,0,L|233:314,1,26.9999991760254,4|0,3:3|0:0,0:0:0:0:
61,331,25011,6,0,L|52:280,1,45,0|0,3:2|0:0,0:0:0:0:
369,167,25450,5,0,3:2:0:0:
463,263,25596,2,0,L|472:212,1,45,0|0,3:2|0:0,0:0:0:0:
258,31,25889,5,2,0:0:0:0:
169,0,26035,2,0,L|182:52,1,45,10|0,3:2|0:0,0:0:0:0:
309,116,26181,2,0,P|323:153|320:122,1,135,4|0,3:2|0:0,0:0:0:0:
388,73,26474,2,0,P|390:97|397:127,1,45,0|0,3:2|0:0,0:0:0:0:
221,190,26620,6,0,P|169:196|94:231,1,135,8|0,3:2|0:0,0:0:0:0:
14,226,26913,2,0,P|8:255|-13:287,1,45,0|0,3:2|0:0,0:0:0:0:
34,357,27059,2,0,P|49:341|61:321,1,45,0|0,3:2|0:0,0:0:0:0:
139,384,27206,1,8,3:2:0:0:
256,277,27352,6,0,B|284:267|284:267|347:296|347:296|347:333,1,135,2|0,3:2|0:0,0:0:0:0:
274,350,27645,1,0,3:2:0:0:
416,220,27791,2,0,B|407:190|407:190|435:129|435:129|416:80,1,135,8|0,3:2|0:0,0:0:0:0:
382,19,28084,1,2,3:2:0:0:
374,27,28157,1,0,3:2:0:0:
376,40,28230,1,2,3:2:0:0:
452,125,28376,1,8,3:2:0:0:
311,91,28523,6,0,L|151:123,1,135,2|0,3:2|0:0,0:0:0:0:
178,117,28815,1,0,3:2:0:0:
208,3,28962,2,0,L|320:25,1,90,8|0,3:2|0:0,0:0:0:0:
396,132,29254,6,0,P|418:129|436:115,1,45,2|0,3:2|0:0,0:0:0:0:
511,127,29401,2,0,P|507:149|493:166,1,45,2|0,3:2|0:0,0:0:0:0:
340,220,29547,5,8,3:2:0:0:
512,348,29693,2,0,B|492:351|492:351|452:329|452:329|408:328|408:328|365:308,1,135,2|0,3:2|0:0,0:0:0:0:
385,317,29986,5,0,3:2:0:0:
317,352,30230,5,0,1:2:0:0:
226,319,30425,5,0,1:2:0:0:
127,349,30620,5,0,1:2:0:0:
0,293,30815,5,0,1:2:0:0:
218,223,31157,5,0,3:2:0:0:
112,129,31303,2,0,L|232:159,1,90,12|0,3:2|0:0,0:0:0:0:
291,135,31596,1,0,3:2:0:0:
384,266,31742,1,2,3:2:0:0:
452,208,31889,2,0,P|444:190|432:152,1,45,8|0,3:2|0:0,0:0:0:0:
474,25,32035,6,0,B|507:13|531:-8|531:-8|518:25|486:46,1,135,2|0,3:2|0:0,0:0:0:0:
426,80,32328,1,0,3:2:0:0:
284,6,32474,1,10,3:2:0:0:
193,94,32620,1,0,3:0:0:0:
106,43,32767,2,0,L|81:131,1,90,2|2,0:0|0:0,0:0:0:0:
210,213,33206,6,0,P|259:172|331:170,1,135,0|0,3:2|0:0,0:0:0:0:
391,224,33498,1,0,3:2:0:0:
243,332,33645,1,0,3:2:0:0:
119,235,33791,2,0,P|132:213|137:179,1,45,8|0,3:2|0:0,0:0:0:0:
28,249,33937,5,0,3:2:0:0:
209,168,34084,2,0,P|212:190|209:212,1,45,4|0,3:3|0:0,0:0:0:0:
148,334,34230,1,0,1:2:0:0:
345,384,34376,6,0,P|322:326|309:227,1,135,2|0,3:2|0:0,0:0:0:0:
348,193,34669,1,2,3:2:0:0:
425,225,34815,1,2,3:2:0:0:
499,173,34962,5,10,3:2:0:0:
319,270,35108,1,2,0:0:0:0:
224,128,35254,1,2,3:2:0:0:
334,59,35401,6,0,P|339:84|356:122,1,45,2|0,3:2|0:0,0:0:0:0:
454,94,35547,2,0,P|435:82|418:67,1,45,2|0,3:2|0:0,0:0:0:0:
490,18,35693,5,4,3:2:0:0:
406,185,35985,1,10,3:2:0:0:
230,42,36278,1,10,3:2:0:0:
154,96,36424,2,0,L|75:122,1,72,2|2,3:2|3:2,0:0:0:0:
85,118,36863,5,10,3:2:0:0:
163,270,37010,1,8,3:2:0:0:
297,176,37156,1,10,3:2:0:0:
451,43,37449,6,0,B|483:33|483:33|533:49|533:49|487:67,1,108,2|0,3:2|0:0,0:0:0:0:
504,136,37741,2,0,L|460:145,1,36,2|0,3:2|0:0,0:0:0:0:
363,257,38034,2,0,L|319:266,1,36,10|0,3:2|0:0,0:0:0:0:
272,315,38180,1,0,3:2:0:0:
186,166,38327,6,0,P|199:122|212:15,1,144,2|2,3:2|0:0,0:0:0:0:
211,24,38766,1,8,3:2:0:0:
312,148,38912,1,10,3:2:0:0:
173,259,39058,1,0,3:2:0:0:
328,134,39205,6,0,P|336:189|361:244,1,108,2|0,3:2|0:0,0:0:0:0:
428,243,39497,2,0,P|446:228|472:219,1,36,10|0,3:2|0:0,0:0:0:0:
260,354,39790,2,0,P|278:369|304:378,1,36,10|0,3:2|0:0,0:0:0:0:
358,359,39936,1,0,3:2:0:0:
243,230,40083,6,0,P|190:245|153:249,1,72,0|0,3:2|0:0,0:0:0:0:
66,201,40375,1,8,3:2:0:0:
148,157,40522,1,8,3:2:0:0:
261,215,40668,2,0,P|315:246|382:255,1,108,8|0,3:2|0:0,0:0:0:0:
427,285,40961,5,2,3:2:0:0:
463,215,41253,1,2,3:2:0:0:
410,155,41546,1,8,3:2:0:0:
494,0,41692,1,0,3:2:0:0:
399,51,41839,6,0,L|277:74,1,108,2|0,3:2|0:0,0:0:0:0:
292,71,42132,1,2,0:0:0:0:
204,161,42278,1,10,3:2:0:0:
321,256,42424,1,8,3:2:0:0:
272,327,42571,1,2,3:2:0:0:
272,327,42644,1,0,3:2:0:0:
272,327,42717,6,0,L|207:349,1,53.9999983520508,4|0,3:2|3:0,0:0:0:0:
2,315,43156,2,0,L|67:293,1,53.9999983520508,2|0,3:2|3:0,0:0:0:0:
509,314,43595,6,0,L|457:296,1,53.9999983520508,2|0,3:2|3:0,0:0:0:0:
240,327,44034,2,0,L|291:344,1,53.9999983520508,2|0,3:2|0:0,0:0:0:0:
385,282,44180,1,2,0:0:0:0:
339,212,44327,1,8,3:2:0:0:
431,148,44473,6,0,L|410:203,1,53.9999983520508,4|0,3:2|3:0,0:0:0:0:
138,14,44912,2,0,L|159:69,1,53.9999983520508,0|0,3:2|3:0,0:0:0:0:
233,59,45058,1,8,3:2:0:0:
135,189,45205,1,4,3:3:0:0:
51,103,45351,6,0,P|33:159|11:207,1,108,0|0,3:2|0:0,0:0:0:0:
12,203,45644,1,8,3:2:0:0:
130,113,45790,1,0,3:2:0:0:
225,190,45936,6,0,L|280:205,1,45,8|0,3:2|0:0,0:0:0:0:
308,274,46083,2,0,L|248:289,1,53.9999983520508,8|0,3:2|0:0,0:0:0:0:
163,288,46229,5,6,3:2:0:0:
74,307,46375,1,2,0:0:0:0:
5,246,46522,1,10,3:2:0:0:
66,315,46668,1,2,0:0:0:0:
186,198,46814,2,0,P|256:175|359:166,1,161.999995056153,10|0,3:2|3:0,0:0:0:0:
403,206,47107,5,0,3:2:0:0:
308,283,47253,1,2,3:2:0:0:
213,100,47400,1,8,3:2:0:0:
294,299,47546,1,0,3:2:0:0:
299,174,47692,5,8,3:2:0:0:
285,176,47765,1,0,3:2:0:0:
272,179,47838,1,0,3:2:0:0:
259,181,47911,1,0,3:2:0:0:
246,184,47984,1,2,3:2:0:0:
391,54,48863,6,0,B|402:36|402:36|417:43|417:43|401:79,1,53.9999983520508,8|8,3:2|3:2,0:0:0:0:
499,128,49010,6,0,B|518:120|518:120|526:135|526:135|491:153,1,53.9999983520508,10|8,3:2|3:2,0:0:0:0:
310,156,49156,6,0,B|296:151|296:151|323:133|323:133|321:157,1,53.9999983520508,10|8,3:2|3:2,0:0:0:0:
446,268,49302,6,0,B|443:253|443:253|472:269|472:269|449:279,1,53.9999983520508,10|8,3:2|3:2,0:0:0:0:
206,259,49449,6,0,B|196:232|196:232|233:264,1,53.9999983520508,10|8,3:2|3:2,0:0:0:0:
306,381,49595,6,0,B|332:368|332:368|283:365,1,53.9999983520508,10|8,3:2|3:2,0:0:0:0:
92,383,49741,5,10,3:2:0:0:
92,383,49778,2,0,L|78:337,1,26.9999991760254,2|0,0:0|0:0,0:0:0:0:
237,131,49888,5,10,3:2:0:0:
237,131,49925,2,0,L|223:177,1,26.9999991760254,2|0,0:0|0:0,0:0:0:0:
284,242,50180,5,10,3:2:0:0:
85,241,50327,2,0,B|43:187|-2:186|-37:232|9:249|28:272|76:202|111:171|177:201,1,256.499993150711,10|0,3:2|0:0,0:0:0:0:
101,108,50619,6,0,B|110:53|110:53|190:27|190:27|255:64,1,161.999995056153,4|0,3:2|0:0,0:0:0:0:
215,151,50912,2,0,B|207:179|207:179|224:222|224:222|213:258,1,107.999996704102,8|0,3:2|3:0,0:0:0:0:
348,100,51205,2,0,P|329:156|355:104,1,161.999995056153,10|0,3:2|0:0,0:0:0:0:
410,62,51497,6,0,B|463:52|507:25|507:25|486:48|470:75,1,161.999995056153,0|0,3:2|0:0,0:0:0:0:
470,164,51790,1,10,3:2:0:0:
450,242,51936,1,2,3:2:0:0:
293,191,52083,2,0,P|265:199|233:228,1,53.9999983520508,10|0,3:2|0:0,0:0:0:0:
169,219,52229,2,0,P|173:192|187:169,1,53.9999983520508,2|0,3:2|0:0,0:0:0:0:
49,291,52375,6,0,P|47:348|38:294,1,161.999995056153,10|0,3:2|0:0,0:0:0:0:
49,210,52668,2,0,B|52:186|62:164|62:164|34:111|34:111|49:87|62:54,1,161.999995056153,10|0,3:2|0:0,0:0:0:0:
17,2,52961,1,10,3:2:0:0:
122,114,53107,1,0,3:0:0:0:
230,52,53253,6,0,L|250:-6,1,53.9999983520508,2|0,3:2|0:0,0:0:0:0:
304,75,53400,2,0,L|324:17,1,45,2|0,3:2|0:0,0:0:0:0:
467,136,53546,5,2,1:2:0:0:
414,149,53619,1,2,1:2:0:0:
390,178,53692,1,2,1:2:0:0:
391,207,53766,1,2,1:2:0:0:
419,243,53839,5,2,3:2:0:0:
408,201,53913,1,2,3:2:0:0:
364,169,53986,1,2,3:2:0:0:
283,171,54059,1,2,3:2:0:0:
229,225,54132,6,0,P|169:197|55:197,1,161.999995056153,4|0,3:2|0:0,0:0:0:0:
13,136,54424,2,0,P|8:165|-10:206,1,53.9999983520508,8|0,3:2|0:0,0:0:0:0:
79,269,54571,1,2,3:2:0:0:
154,125,54717,1,8,3:2:0:0:
311,280,54863,1,2,0:2:0:0:
311,280,54936,1,2,0:0:0:0:
311,280,55010,6,0,P|272:218|277:128,1,161.999995056153,2|0,3:2|0:0,0:0:0:0:
356,89,55302,2,0,B|431:107|431:107|389:120,1,107.999996704102,2|0,3:2|3:0,0:0:0:0:
253,27,55595,2,0,P|244:52|207:75,1,53.9999983520508,10|0,3:2|0:0,0:0:0:0:
121,39,55741,2,0,P|147:34|168:18,1,53.9999983520508,2|0,3:2|0:0,0:0:0:0:
72,119,55888,6,0,B|42:107|8:64|8:64|21:118|8:153,1,161.999995056153,10|0,3:2|0:0,0:0:0:0:
67,198,56180,2,0,B|52:235|52:235|87:304|87:304|71:358,1,161.999995056153,10|0,3:2|0:0,0:0:0:0:
0,384,56473,2,0,L|129:352,1,107.999996704102,10|0,3:2|0:0,0:0:0:0:
197,316,56692,1,8,3:2:0:0:
222,325,56766,6,0,L|235:272,1,53.9999983520508,0|0,3:2|3:2,0:0:0:0:
336,383,56912,1,0,3:2:0:0:
431,271,57058,6,0,P|430:245|456:216,1,53.9999983520508,10|10,3:2|3:2,0:0:0:0:
465,349,57205,2,0,P|482:329|521:327,1,53.9999983520508,10|8,3:2|3:2,0:0:0:0:
226,343,57351,5,10,3:2:0:0:
173,355,57424,1,10,3:2:0:0:
121,368,57497,1,10,3:2:0:0:
15,201,57644,6,0,B|33:174|71:170|71:170|101:142|86:87,1,135,4|0,3:2|0:0,0:0:0:0:
29,69,57936,1,0,3:2:0:0:
29,69,58083,1,0,3:2:0:0:
79,256,58229,2,0,P|175:256|222:307,1,161.999995056153,10|0,3:2|0:0,0:0:0:0:
241,211,58522,6,0,P|184:219|151:202,1,90,2|0,3:2|0:0,0:0:0:0:
100,333,58814,1,0,3:2:0:0:
100,333,58961,1,0,3:2:0:0:
259,368,59107,2,0,B|294:348|294:348|380:369|380:369|442:350,1,161.999995056153,10|0,3:2|0:0,0:0:0:0:
376,285,59400,5,4,3:2:0:0:
376,285,59546,1,0,3:2:0:0:
467,162,59692,2,0,L|362:194,1,90,8|0,3:2|0:0,0:0:0:0:
259,203,59985,2,0,L|239:256,1,45,0|0,3:2|3:2,0:0:0:0:
177,219,60132,2,0,L|157:272,1,45,0|0,3:2|3:2,0:0:0:0:
11,274,60278,6,0,B|35:277|54:263|54:263|109:266|123:335|74:377,1,161.999995056153,2|0,3:2|0:0,0:0:0:0:
191,375,60571,2,0,B|210:363|210:363|283:386,1,90,8|8,3:2|3:2,0:0:0:0:
341,343,60790,1,8,3:2:0:0:
326,330,60863,2,0,L|345:281,3,45,0|0|0|0,3:2|3:2|3:2|3:2,0:0:0:0:
266,279,61156,5,4,3:2:0:0:
169,217,61302,1,0,3:2:0:0:
80,336,61449,1,10,3:2:0:0:
181,222,61595,1,2,3:2:0:0:
95,119,61741,6,0,L|118:45,1,53.9999983520508,10|0,3:2|0:0,0:0:0:0:
11,84,61888,2,0,L|34:10,1,53.9999983520508,2|0,0:0|0:0,0:0:0:0:
11,174,62034,5,2,3:2:0:0:
197,97,62180,2,0,P|255:33|390:53,1,215.999993408203,2|8,3:2|3:2,0:0:0:0:
435,122,62546,1,0,3:0:0:0:
420,108,62619,6,0,P|399:129|392:160,1,53.9999983520508,0|0,3:2|3:2,0:0:0:0:
311,190,62766,2,0,P|306:163|314:138,1,53.9999983520508,0|0,3:2|3:2,0:0:0:0:
471,198,62912,5,8,1:2:0:0:
256,320,63058,1,8,1:2:0:0:
52,167,63351,5,10,1:2:0:0:
266,311,63497,1,10,1:2:0:0:
52,167,63643,1,10,1:2:0:0:
245,57,63790,6,0,L|303:66,1,53.9999983520508,2|0,1:2|1:2,0:0:0:0:
364,116,63936,2,0,L|422:125,1,53.9999983520508,2|0,1:2|1:2,0:0:0:0:
510,216,64083,5,0,3:2:0:0:
504,220,64156,1,0,3:2:0:0:
500,225,64229,1,0,3:2:0:0:
496,230,64302,1,0,3:2:0:0:
483,259,64376,5,10,0:0:0:0:
464,227,64449,1,2,0:0:0:0:
413,202,64522,1,2,0:0:0:0:
341,213,64595,1,2,0:0:0:0:
293,274,64668,6,0,B|296:250|296:250|313:234|313:234|302:149|226:142|189:192,1,215.999993408203,4|0,3:2|0:0,0:0:0:0:
209,266,65107,1,2,3:2:0:0:
55,82,65400,1,0,3:2:0:0:
60,55,65473,1,0,3:2:0:0:
66,29,65546,5,8,3:2:0:0:
168,76,65692,1,0,3:2:0:0:
305,33,65839,1,2,0:0:0:0:
424,86,65985,1,0,3:2:0:0:
301,108,66132,6,0,L|244:129,1,53.9999983520508,0|0,3:2|0:0,0:0:0:0:
209,194,66278,2,0,L|266:215,1,53.9999983520508,0|0,3:2|0:0,0:0:0:0:
435,86,66424,6,0,B|467:75|503:36|503:36|500:56|500:56|484:80|481:116,1,161.999995056153,2|0,3:2|0:0,0:0:0:0:
430,169,66717,2,0,B|435:192|435:192|399:240|399:240|407:266,1,107.999996704102,2|0,3:2|3:2,0:0:0:0:
425,381,67010,1,2,0:0:0:0:
250,368,67156,1,0,3:2:0:0:
250,368,67229,1,0,3:2:0:0:
250,368,67302,6,0,P|268:350|280:305,1,53.9999983520508,8|0,3:2|3:2,0:0:0:0:
193,307,67449,2,0,P|171:322|145:329,1,45,2|0,3:2|0:0,0:0:0:0:
120,122,67595,5,2,3:2:0:0:
173,135,67668,1,2,3:2:0:0:
197,164,67741,1,2,3:2:0:0:
196,193,67815,1,2,3:2:0:0:
168,229,67888,5,2,0:0:0:0:
179,187,67962,1,2,0:0:0:0:
223,155,68035,1,2,0:0:0:0:
304,157,68108,1,2,0:0:0:0:
358,211,68181,6,0,P|392:147|504:118,1,180,4|2,3:2|3:2,0:0:0:0:
489,115,68619,1,2,3:2:0:0:
424,18,68766,2,0,P|388:45|323:35,1,107.999996704102,2|0,3:2|0:0,0:0:0:0:
255,2,68985,1,0,0:0:0:0:
249,25,69058,5,10,3:2:0:0:
107,156,69205,1,2,3:2:0:0:
6,7,69351,2,0,P|56:22|101:60,1,107.999996704102,2|0,3:2|3:2,0:0:0:0:
193,99,69644,2,0,L|255:115,1,53.9999983520508,10|0,3:2|0:0,0:0:0:0:
303,184,69790,2,0,L|365:200,1,53.9999983520508,2|0,3:2|0:0,0:0:0:0:
443,274,69936,6,0,L|471:211,1,53.9999983520508,10|0,3:2|0:0,0:0:0:0:
76,356,70229,6,0,L|48:293,1,53.9999983520508,10|0,3:2|0:0,0:0:0:0:
345,108,70522,6,0,L|373:45,1,53.9999983520508,10|0,3:2|0:0,0:0:0:0:
238,0,70741,5,8,3:2:0:0:
228,13,70814,1,0,3:2:0:0:
91,104,70961,1,0,3:2:0:0:
0,0,71107,6,0,L|113:33,1,107.999996704102,8|2,3:2|0:0,0:0:0:0:
181,110,71327,1,2,0:0:0:0:
210,125,71400,2,0,P|226:117|243:82,3,53.9999983520508,2|0|0|0,3:2|3:2|3:2|3:2,0:0:0:0:
316,159,71692,6,0,P|385:170|417:236,1,135,4|0,3:2|0:0,0:0:0:0:
421,305,71985,1,2,3:2:0:0:
421,305,72132,1,0,3:2:0:0:
476,121,72278,2,0,P|504:83|478:126,1,161.999995056153,2|0,3:2|0:0,0:0:0:0:
421,40,72571,6,0,B|383:61|383:61|301:40|301:40|251:56,1,161.999995056153,8|0,3:2|0:0,0:0:0:0:
224,114,72863,1,2,0:0:0:0:
115,21,73009,1,0,3:2:0:0:
115,21,73083,1,0,3:2:0:0:
115,21,73156,2,0,L|97:98,1,53.9999983520508,10|0,3:2|0:0,0:0:0:0:
24,112,73302,1,0,3:2:0:0:
91,234,73449,5,6,3:2:0:0:
91,234,73595,1,0,0:0:0:0:
195,118,73741,2,0,P|245:82|348:69,1,161.999995056153,10|0,3:2|0:0,0:0:0:0:
421,95,74034,2,0,P|404:115|392:143,1,53.9999983520508,2|0,3:2|3:0,0:0:0:0:
500,210,74180,2,0,P|483:190|471:162,1,53.9999983520508,0|0,3:2|0:0,0:0:0:0:
387,233,74327,6,0,P|423:249|380:236,1,161.999995056153,2|0,3:2|0:0,0:0:0:0:
302,215,74619,1,2,3:2:0:0:
181,288,74766,1,0,3:2:0:0:
58,146,74912,1,2,3:2:0:0:
222,38,75132,5,8,3:2:0:0:
236,51,75205,2,0,L|190:178,1,107.999996704102,4|0,3:2|0:0,0:0:0:0:
291,233,75497,1,8,3:2:0:0:
408,201,75644,1,2,0:0:0:0:
501,283,75790,6,0,P|492:261|487:224,1,53.9999983520508,2|0,3:2|0:0,0:0:0:0:
366,143,75936,2,0,P|375:168|389:191,1,53.9999983520508,2|0,3:2|0:0,0:0:0:0:
347,288,76083,5,6,3:2:0:0:
196,380,76229,1,2,3:2:0:0:
47,262,76375,2,0,P|61:239|72:211,1,53.9999983520508,8|0,3:2|0:0,0:0:0:0:
161,187,76522,2,0,P|152:212|148:239,1,53.9999983520508,10|0,3:2|0:0,0:0:0:0:
121,313,76668,5,10,3:2:0:0:
368,384,76814,1,2,3:2:0:0:
454,217,76961,6,0,P|464:188|483:153,1,53.9999983520508,8|0,3:2|3:0,0:0:0:0:
386,0,77107,2,0,P|376:29|357:64,1,53.9999983520508,8|0,3:2|3:0,0:0:0:0:
50,100,77400,6,0,P|28:110|-22:123,1,53.9999983520508,10|0,3:2|3:0,0:0:0:0:
175,348,77546,2,0,P|151:340|106:316,1,53.9999983520508,10|0,3:2|3:0,0:0:0:0:
243,134,77692,2,0,P|223:153|175:178,1,53.9999983520508,10|0,3:2|3:0,0:0:0:0:
18,258,77839,6,0,L|36:201,1,53.9999983520508,2|0,3:2|3:2,0:0:0:0:
300,382,77985,2,0,L|282:325,1,53.9999983520508,2|0,3:2|3:2,0:0:0:0:
382,208,78132,5,8,3:2:0:0:
389,192,78205,1,0,3:2:0:0:
402,181,78278,1,0,3:2:0:0:
418,175,78351,1,0,3:2:0:0:
435,175,78424,5,2,0:0:0:0:
403,218,78498,1,2,0:0:0:0:
358,247,78571,1,2,0:0:0:0:
305,259,78644,1,2,0:0:0:0:
253,252,78717,5,6,3:2:0:0:
188,118,78863,2,0,P|175:174|150:228,1,107.999996704102,2|0,3:2|0:0,0:0:0:0:
49,272,79156,1,2,3:2:0:0:
0,178,79302,2,0,P|19:165|63:158,1,53.9999983520508,10|0,3:2|0:0,0:0:0:0:
156,305,79449,2,0,P|175:318|219:325,1,53.9999983520508,2|0,3:2|0:0,0:0:0:0:
301,253,79595,5,14,3:2:0:0:
455,223,79814,5,10,3:2:0:0:
506,361,80034,5,10,3:2:0:0:
412,116,80253,6,0,L|430:58,2,53.9999983520508,2|2|0,3:2|3:2|3:2,0:0:0:0:
379,127,80473,2,0,B|364:159|364:159|383:203|383:203|373:234,1,107.999996704102,6|0,3:2|3:2,0:0:0:0:
361,365,80766,2,0,B|357:335|357:335|321:362,1,53.9999983520508,0|0,3:0|0:0,0:0:0:0:
172,337,80985,1,0,3:0:0:0:
172,337,81058,2,0,B|149:355|149:355|95:326|95:326|102:283,1,107.999996704102,0|0,3:2|0:0,0:0:0:0:
150,261,81278,1,8,3:2:0:0:
161,259,81351,5,2,3:2:0:0:
287,214,81497,1,0,3:2:0:0:
110,201,81644,6,0,L|177:219,1,53.9999983520508,8|0,3:2|0:0,0:0:0:0:
286,241,81790,2,0,L|353:259,1,53.9999983520508,8|0,3:2|0:0,0:0:0:0:
497,238,81936,5,2,3:2:0:0:
484,199,82009,1,2,0:0:0:0:
456,171,82082,1,2,3:2:0:0:
417,160,82155,1,2,3:2:0:0:
378,167,82228,5,0,3:2:0:0:
224,308,82375,1,0,3:2:0:0:
54,128,82522,5,2,3:2:0:0:
238,322,82668,1,2,3:2:0:0:
295,158,82814,6,0,L|276:95,1,53.9999983520508,10|0,3:2|0:0,0:0:0:0:
376,87,82961,2,0,L|357:24,1,53.9999983520508,8|8,3:2|3:2,0:0:0:0:
145,5,83107,6,0,B|137:27|137:27|160:66|160:66|151:93,1,90,8|0,3:2|0:0,0:0:0:0:
188,113,83326,2,0,B|196:135|196:135|173:174|173:174|182:201,1,90,8|0,3:2|0:0,0:0:0:0:
221,282,83546,5,8,3:2:0:0:
176,284,83619,1,8,3:2:0:0:
132,295,83692,1,8,3:2:0:0:
92,315,83765,1,8,3:2:0:0:
55,341,83838,6,0,L|41:299,6,33.7500012874604
126,381,84131,5,4,3:2:0:0:
89,186,86326,5,8,3:2:0:0:
44,178,86399,1,0,3:2:0:0:
0,171,86472,1,0,3:2:0:0:
186,113,86765,6,0,P|205:132|225:143,1,45,0|0,3:2|0:0,0:0:0:0:
272,216,86911,2,0,P|313:147|437:154,1,202.500007724762,14|0,3:2|0:0,0:0:0:0:
497,197,87204,2,0,P|502:227|518:256,1,53.9999983520508,2|2,3:2|0:0,0:0:0:0:
430,290,87350,1,2,3:2:0:0:
422,315,87424,1,2,0:0:0:0:
406,339,87497,1,8,3:2:0:0:
239,285,87643,6,0,B|222:285|193:271|193:271|130:287|130:287|101:274|48:267,1,161.999995056153,2|0,3:2|0:0,0:0:0:0:
164,183,87936,2,0,P|173:158|169:131,1,53.9999983520508,8|0,1:2|0:0,0:0:0:0:
143,191,88082,2,0,P|118:180|102:159,1,53.9999983520508,8|0,1:2|0:0,0:0:0:0:
112,82,88228,1,2,0:0:0:0:
224,31,88375,5,8,1:2:0:0:
344,103,88521,1,2,0:0:0:0:
478,41,88667,1,8,1:2:0:0:
386,17,88814,6,0,L|213:48,1,161.999995056153,4|0,3:2|0:0,0:0:0:0:
198,132,89107,2,0,L|120:151,1,53.9999983520508,0|0,3:2|0:0,0:0:0:0:
0,88,89253,2,0,B|28:105|49:109|49:109|15:178,1,107.999996704102,8|0,3:2|0:0,0:0:0:0:
50,305,89546,5,0,3:2:0:0:
68,285,89619,1,2,0:0:0:0:
101,267,89692,1,2,3:2:0:0:
148,259,89765,1,2,0:0:0:0:
206,266,89838,1,8,3:2:0:0:
261,309,89911,1,0,0:0:0:0:
300,384,89985,6,0,B|316:357|316:357|364:357|406:319|406:319|466:335,1,161.999995056153,2|0,3:2|0:0,0:0:0:0:
477,249,90277,2,0,P|494:278|518:295,1,53.9999983520508,0|0,3:2|0:0,0:0:0:0:
388,179,90424,2,0,P|375:149|401:184,1,161.999995056153,10|0,3:2|0:0,0:0:0:0:
337,74,90716,2,0,P|319:101|289:126,1,53.9999983520508,2|0,0:0|0:0,0:0:0:0:
215,150,90863,1,2,3:2:0:0:
98,5,91009,1,10,3:2:0:0:
198,0,91155,6,0,P|164:67|111:144,1,161.999995056153,4|0,3:2|0:0,0:0:0:0:
0,186,91448,2,0,B|18:180|18:180|29:173|29:173|60:181|93:205|69:259,1,107.999996704102,2|8,3:2|3:2,0:0:0:0:
143,365,91741,1,2,3:2:0:0:
188,375,91814,1,2,3:2:0:0:
228,350,91887,1,2,3:2:0:0:
306,257,92033,1,2,0:0:0:0:
419,283,92180,6,0,P|426:316|439:343,1,53.9999983520508,10|0,3:2|0:0,0:0:0:0:
512,263,92326,2,0,P|456:210|437:114,1,161.999995056153,6|0,3:2|0:0,0:0:0:0:
436,129,92619,6,0,P|421:144|369:158,1,53.9999983520508,10|0,1:2|0:0,0:0:0:0:
302,235,92765,6,0,P|281:231|239:196,1,53.9999983520508,10|0,1:2|0:0,0:0:0:0:
215,114,92911,5,10,1:2:0:0:
35,138,93058,6,0,P|23:164|2:187,1,53.9999983520508,10|0,1:2|0:0,0:0:0:0:
193,288,93204,6,0,P|175:308|164:333,1,53.9999983520508,10|0,1:2|0:0,0:0:0:0:
60,382,93350,5,10,1:2:0:0:
123,205,93497,6,0,P|220:145|336:135,1,215.999993408203,4|2,3:2|3:2,0:0:0:0:
392,165,93863,1,2,3:2:0:0:
404,196,93936,1,10,3:2:0:0:
512,250,94082,1,0,3:2:0:0:
512,132,94228,5,2,3:2:0:0:
358,297,94375,1,2,3:2:0:0:
262,63,94521,1,8,3:2:0:0:
246,103,94594,1,8,3:2:0:0:
230,143,94667,1,12,3:2:0:0:
31,319,94960,5,2,3:2:0:0:
160,243,95106,1,10,3:2:0:0:
71,191,95253,1,0,3:2:0:0:
163,366,95399,1,2,3:2:0:0:
287,230,95546,1,2,3:2:0:0:
375,303,95692,1,2,3:2:0:0:
400,313,95765,1,8,3:2:0:0:
424,323,95838,1,4,3:2:0:0:
483,86,96131,5,2,3:2:0:0:
376,173,96277,1,10,3:2:0:0:
270,5,96424,1,0,3:2:0:0:
181,66,96570,2,0,P|174:97|162:129,1,53.9999983520508,2|2,3:2|0:0,0:0:0:0:
205,244,96716,2,0,P|212:213|224:181,1,53.9999983520508,2|2,3:2|0:0,0:0:0:0:
111,174,96863,1,8,3:2:0:0:
58,188,96936,1,8,3:2:0:0:
6,202,97009,1,10,3:2:0:0:
132,382,97302,5,2,3:2:0:0:
350,299,97521,5,2,3:2:0:0:
185,204,97741,5,2,3:2:0:0:
334,140,97936,5,2,3:2:0:0:
217,2,98131,5,2,3:2:0:0:
398,182,98472,5,2,3:2:0:0:
420,198,98546,1,2,0:0:0:0:
446,204,98619,1,14,3:2:0:0:
504,145,98765,1,2,3:2:0:0:
366,273,98911,1,2,3:2:0:0:
251,94,99058,1,2,3:2:0:0:
202,230,99204,5,8,3:2:0:0:
202,230,99277,1,8,3:2:0:0:
202,230,99350,2,0,P|157:183|53:198,1,161.999995056153,12|0,3:2|0:0,0:0:0:0:
0,228,99643,2,0,P|15:253|25:281,1,53.9999983520508,0|0,3:2|0:0,0:0:0:0:
106,326,99789,1,10,3:2:0:0:
157,151,99936,1,2,3:2:0:0:
337,237,100082,6,0,P|362:229|386:199,1,53.9999983520508,2|0,3:2|3:2,0:0:0:0:
475,242,100228,2,0,P|465:266|445:284,1,53.9999983520508,2|0,3:2|0:0,0:0:0:0:
357,325,100375,1,10,3:2:0:0:
240,238,100521,6,0,P|260:184|232:72,1,161.999995056153,6|0,3:2|0:0,0:0:0:0:
172,42,100814,2,0,P|132:-3|157:48,1,161.999995056153,2|0,3:2|0:0,0:0:0:0:
130,122,101106,1,0,3:2:0:0:
22,104,101253,1,2,3:2:0:0:
22,104,101326,2,0,P|10:137|-9:163,2,53.9999983520508,2|2|0,0:0|3:2|0:0,0:0:0:0:
96,192,101546,1,8,3:2:0:0:
104,217,101619,1,8,3:2:0:0:
118,240,101692,1,8,3:2:0:0:
377,363,101985,5,10,3:2:0:0:
476,292,102131,1,10,3:2:0:0:
308,173,102277,1,10,3:2:0:0:
435,89,102424,5,2,3:2:0:0:
434,78,102497,1,0,3:2:0:0:
438,69,102570,1,0,3:2:0:0:
446,62,102643,1,0,3:2:0:0:
483,51,102716,6,0,L|501:108,1,53.9999983520508,10|8,3:2|3:2,0:0:0:0:
439,182,102863,1,10,3:2:0:0:
235,27,103155,5,0,3:2:0:0:
208,22,103228,1,0,3:2:0:0:
181,17,103301,1,12,3:2:0:0:
263,196,103594,2,0,B|243:213|243:213|211:215|211:215|169:254|187:304|233:319,1,161.999995056153,0|0,3:2|0:0,0:0:0:0:
282,318,103887,1,8,3:2:0:0:
427,123,104033,6,0,P|365:57|288:53,1,161.999995056153,4|0,3:2|0:0,0:0:0:0:
297,50,104326,5,0,3:2:0:0:
200,124,104570,5,0,3:2:0:0:
332,186,104765,5,2,3:2:0:0:
155,253,104960,5,2,3:2:0:0:
340,361,105155,5,2,3:2:0:0:
505,181,105497,5,2,3:2:0:0:
505,181,105643,2,0,B|466:194|466:194|412:243|412:243|353:262,1,161.999995056153,2|0,3:2|0:0,0:0:0:0:
251,277,105936,2,0,P|275:241|277:171,1,107.999996704102,8|0,3:2|3:2,0:0:0:0:
186,111,106228,1,0,3:2:0:0:
402,0,106375,6,0,P|384:51|417:208,1,215.999993408203,6|2,3:2|3:2,0:0:0:0:
462,283,106741,1,2,0:0:0:0:
485,304,106814,1,2,0:0:0:0:
345,377,106960,1,2,3:2:0:0:
159,295,107106,6,0,P|163:268|132:232,1,53.9999983520508,10|8,3:2|3:2,0:0:0:0:
121,319,107253,2,0,P|96:312|80:284,1,53.9999983520508,10|8,3:2|3:2,0:0:0:0:
103,144,107399,5,2,3:2:0:0:
100,151,107472,1,0,3:2:0:0:
99,158,107545,1,0,3:2:0:0:
96,165,107618,1,0,3:2:0:0:
80,185,107692,6,0,L|142:168,1,53.9999983520508,0|0,3:2|3:2,0:0:0:0:
246,163,107838,2,0,L|308:180,1,53.9999983520508,0|0,3:2|3:2,0:0:0:0:
439,207,107985,5,12,1:2:0:0:
343,239,108180,5,8,1:2:0:0:
230,209,108375,5,8,1:2:0:0:
123,255,108570,5,8,1:2:0:0:
0,191,108765,5,8,1:2:0:0:
195,0,109155,6,0,B|217:21|254:34|254:34|219:122,1,161.999995056153,12|0,3:2|0:0,0:0:0:0:
140,120,109448,2,0,P|129:143|115:171,1,53.9999983520508,2|0,3:2|0:0,0:0:0:0:
262,221,109594,2,0,P|249:244|238:269,1,53.9999983520508,10|0,3:2|0:0,0:0:0:0:
132,314,109741,5,10,3:2:0:0:
276,382,109887,2,0,P|331:338|430:343,1,161.999995056153,2|0,3:2|0:0,0:0:0:0:
512,369,110180,2,0,L|492:300,1,53.9999983520508,10|0,3:2|0:0,0:0:0:0:
439,255,110326,1,8,3:2:0:0:
359,213,110472,5,10,3:2:0:0:
345,236,110545,1,10,3:2:0:0:
332,259,110618,1,8,1:2:0:0:
201,315,110838,5,8,1:2:0:0:
96,267,111058,5,8,1:2:0:0:
10,330,111204,5,10,1:2:0:0:
119,268,111399,5,10,1:2:0:0:
256,384,111594,5,10,1:2:0:0:
256,384,111789,5,10,1:2:0:0:
393,268,111984,5,10,1:2:0:0:
502,330,112179,5,10,1:2:0:0:
333,203,112375,5,4,3:0:0:0:
333,203,112448,1,4,3:0:0:0:
333,203,112521,2,0,P|321:175|316:135,1,53.9999983520508,4|4,3:0|3:0,0:0:0:0:
159,129,112667,5,8,3:2:0:0:
159,129,112740,1,8,3:2:0:0:
159,129,112813,2,0,P|171:101|176:61,1,53.9999983520508,8|0,3:2|3:2,0:0:0:0:
266,0,112960,6,0,L|251:77,1,53.9999983520508,10|0,3:2|3:0,0:0:0:0:
222,329,113106,2,0,L|211:382,1,53.9999983520508,10|0,3:2|3:0,0:0:0:0:
