osu file format v14

[General]
AudioFilename: audio.mp3
AudioLeadIn: 0
PreviewTime: 47975
Countdown: 0
SampleSet: Soft
StackLeniency: 0.7
Mode: 0
LetterboxInBreaks: 0
WidescreenStoryboard: 1

[Editor]
Bookmarks: 57634,64658
DistanceSpacing: 1.4
BeatDivisor: 4
GridSize: 16
TimelineZoom: 1.7

[Metadata]
Title:Dakushoku Odoru Automata
TitleUnicode:濁色踊るオートマタ
Artist:Metomate
ArtistUnicode:めと
Creator:Hey lululu
Version:ADVANCED
Source:SOUND VOLTEX VIVID WAVE
Tags:The 9th KAC オリジナル楽曲コンテスト Original Song Contest sdvx_v japanese rock jrock j-rock video game lu^3 Silent_rock Silent Rock
BeatmapID:3300419
BeatmapSetID:1616450

[Difficulty]
HPDrainRate:4.5
CircleSize:3.8
OverallDifficulty:7
ApproachRate:7.5
SliderMultiplier:1.2
SliderTickRate:1

[Events]
//Background and Video events
0,0,"BG.jpg",0,0
//Break Periods
2,84331,85501
//Storyboard Layer 0 (Background)
//Storyboard Layer 1 (Fail)
//Storyboard Layer 2 (Pass)
//Storyboard Layer 3 (Foreground)
//Storyboard Layer 4 (Overlay)
//Storyboard Sound Samples

[TimingPoints]
572,292.682926829268,4,2,1,40,1,0
572,-125,4,2,1,40,0,0
7011,-125,4,2,1,70,0,0
7303,-100,4,2,1,70,0,0
7450,-100,4,2,1,80,0,0
17254,-111.111111111111,4,2,1,70,0,0
26181,-100,4,2,1,70,0,0
35693,292.682926829268,3,2,2,65,1,0
35693,-111.111111111111,3,2,2,65,0,0
42717,-111.111111111111,3,2,1,65,0,0
46229,-100,3,2,1,75,0,0
48863,-100,3,2,3,75,0,0
49741,-100,3,2,1,75,0,0
50619,-100,3,2,1,80,0,0
57058,-100,3,2,3,80,0,0
57644,-100,3,2,1,80,0,0
60571,-100,3,2,3,80,0,0
60863,-100,3,2,1,80,0,0
62619,-100,3,2,3,80,0,0
62912,-100,3,2,1,80,0,0
83107,292.682926829268,4,2,1,80,1,0
83546,-100,4,2,3,80,0,0
83838,-100,4,2,1,80,0,0
107106,-100,4,2,3,80,0,0
107399,-100,4,2,1,80,0,0

[Colours]
Combo1 : 128,128,128
Combo2 : 255,128,128
Combo3 : 170,170,0
Combo4 : 128,64,0

[HitObjects]
162,113,572,6,0,P|89:136|22:92,2,144,2|2|2,0:0|0:0|0:0,0:0:0:0:
162,114,2474,2,0,L|215:129,1,48
249,186,2767,1,0,0:0:0:0:
298,133,2913,6,0,P|339:116|401:105,1,96,2|0,0:0|0:0,0:0:0:0:
451,144,3352,2,0,P|425:194|427:243,1,96,2|0,0:0|0:0,0:0:0:0:
448,301,3791,1,2,0:0:0:0:
310,257,4084,5,2,0:0:0:0:
211,361,4376,1,2,0:0:0:0:
211,361,4523,2,0,P|148:354|117:319,1,96,2|2,0:0|0:0,0:0:0:0:
114,266,4962,1,0,0:0:0:0:
114,266,5108,1,2,0:0:0:0:
225,174,5401,5,2,0:0:0:0:
284,133,5547,1,0,0:0:0:0:
219,102,5693,1,2,0:0:0:0:
256,192,5767,12,0,6718,0:0:0:0:
204,53,7303,5,8,3:2:0:0:
204,53,7450,2,0,P|163:100|188:163,1,120,4|0,3:2|3:2,0:0:0:0:
230,218,7889,2,0,L|155:239,1,60,10|0,3:2|0:0,0:0:0:0:
129,306,8181,1,2,3:2:0:0:
191,363,8328,1,0,3:2:0:0:
259,315,8474,1,10,3:2:0:0:
326,364,8620,6,0,P|333:302|350:232,1,120,2|0,3:2|3:2,0:0:0:0:
419,204,9059,2,0,P|396:187|378:155,1,60,8|0,3:2|3:2,0:0:0:0:
385,76,9352,2,0,L|484:42,2,90,2|2|2,0:0|0:0|3:2,0:0:0:0:
303,94,9937,6,0,B|226:79|267:62|176:43,1,120,4|10,3:2|3:2,0:0:0:0:
137,110,10376,1,0,0:0:0:0:
56,84,10523,2,0,L|62:54,3,30,0|2|2|2,3:2|0:0|0:0|0:0,0:0:0:0:
25,112,10815,1,8,3:2:0:0:
69,183,10962,6,0,P|95:247|97:306,1,120,6|10,3:2|1:2,0:0:0:0:
157,356,11401,2,0,P|167:327|186:296,1,60,10|8,1:2|1:2,0:0:0:0:
252,257,11693,1,10,1:2:0:0:
329,289,11840,1,8,1:2:0:0:
385,226,11986,1,10,1:2:0:0:
385,226,12059,1,0,1:2:0:0:
385,226,12132,6,0,B|360:181|360:181|384:94,1,120,4|0,3:2|3:2,0:0:0:0:
379,30,12571,2,0,L|292:48,1,60,8|0,3:2|0:0,0:0:0:0:
239,67,12864,2,0,L|220:120,3,30,0|2|2|2,3:2|0:0|3:2|0:0,0:0:0:0:
186,97,13157,1,10,3:2:0:0:
113,54,13303,6,0,P|94:118|56:181,1,120,2|0,3:2|3:2,0:0:0:0:
138,210,13742,2,0,P|149:246|148:284,1,60,10|2,3:2|0:0,0:0:0:0:
127,349,14035,1,2,0:0:0:0:
208,328,14181,1,2,3:2:0:0:
286,359,14328,1,10,3:2:0:0:
356,314,14474,6,0,P|364:258|322:210,1,120,4|2,3:2|3:2,0:0:0:0:
464,116,15059,2,0,L|481:156,2,30,2|2|2,3:2|0:0|3:2,0:0:0:0:
442,34,15352,1,0,3:2:0:0:
357,26,15498,1,10,3:2:0:0:
308,95,15645,6,0,P|267:126|179:149,1,120,4|8,3:2|1:2,0:0:0:0:
132,100,16084,2,0,P|113:127|84:157,1,60,8|8,1:2|1:2,0:0:0:0:
31,201,16376,1,8,1:2:0:0:
102,246,16523,1,8,1:2:0:0:
85,328,16669,2,0,P|179:346|267:390,1,180,8|0,1:2|3:2,0:0:0:0:
312,333,17254,6,0,B|351:311|351:311|422:328,1,107.999996704102,4|0,3:2|0:0,0:0:0:0:
319,118,17986,2,0,P|345:77|325:19,1,107.999996704102,2|0,3:1|3:2,0:0:0:0:
256,44,18425,1,0,0:0:0:0:
23,238,19011,5,8,3:2:0:0:
23,238,19157,2,0,L|138:263,1,107.999996704102,2|0,3:1|3:2,0:0:0:0:
167,326,19596,1,0,3:2:0:0:
458,244,20181,1,8,3:2:0:0:
458,244,20328,2,0,B|467:204|467:204|490:183|490:183|499:133,1,107.999996704102,2|0,3:1|3:2,0:0:0:0:
421,28,20913,5,0,3:2:0:0:
421,28,20986,1,0,3:2:0:0:
421,28,21059,2,0,P|463:31|511:6,2,80.9999975280762,8|0|0,3:2|3:2|3:2,0:0:0:0:
283,91,21791,5,0,3:2:0:0:
283,91,21937,2,0,P|235:71|162:67,1,107.999996704102,4|0,3:2|0:0,0:0:0:0:
118,110,22376,1,8,3:2:0:0:
154,176,22523,1,0,3:2:0:0:
96,225,22669,2,0,P|83:283|68:331,1,107.999996704102,2|0,3:1|3:2,0:0:0:0:
218,349,23254,2,0,P|275:336|325:338,1,107.999996704102,2|0,3:1|0:0,0:0:0:0:
468,291,23840,6,0,B|503:260|503:260|478:181,1,107.999996704102,2|0,3:1|3:2,0:0:0:0:
425,153,24279,1,0,3:2:0:0:
466,89,24425,2,0,L|448:29,1,53.9999983520508,8|0,3:2|0:0,0:0:0:0:
375,24,24718,1,4,3:3:0:0:
375,24,24864,1,4,3:3:0:0:
313,68,25011,5,0,3:2:0:0:
117,183,25450,1,0,3:2:0:0:
186,213,25596,1,0,3:2:0:0:
284,328,25889,1,2,0:0:0:0:
284,328,26035,1,10,3:2:0:0:
353,280,26181,6,0,P|399:256|488:251,1,120,4|0,3:2|3:2,0:0:0:0:
469,163,26620,2,0,L|487:76,1,60,8|0,3:2|0:0,0:0:0:0:
456,23,26913,1,0,3:2:0:0:
382,62,27059,1,0,3:2:0:0:
307,23,27206,1,8,3:2:0:0:
244,79,27352,6,0,P|239:151|221:222,1,120,2|0,3:2|3:2,0:0:0:0:
148,221,27791,2,0,L|84:238,1,60,8|0,3:2|0:0,0:0:0:0:
32,298,28084,2,0,L|-6:287,2,30,2|0|2,3:2|3:2|3:2,0:0:0:0:
105,344,28376,1,8,3:2:0:0:
181,308,28523,6,0,B|219:323|219:323|261:325|261:325|304:337,1,120,2|0,3:2|3:2,0:0:0:0:
368,290,28962,2,0,P|379:251|367:206,1,60,8|0,3:2|0:0,0:0:0:0:
312,178,29254,1,2,3:2:0:0:
366,113,29401,1,2,3:2:0:0:
307,53,29547,1,8,3:2:0:0:
377,7,29693,6,0,L|499:37,1,120,2|0,3:2|3:2,0:0:0:0:
496,176,30230,2,0,L|419:203,1,80,0|0,1:2|1:2,0:0:0:0:
331,269,30620,2,0,L|408:296,1,80,0|0,1:2|1:2,0:0:0:0:
226,374,31157,5,0,3:2:0:0:
226,374,31303,2,0,P|201:318|216:253,1,120,12|0,3:2|3:2,0:0:0:0:
270,201,31742,1,2,3:2:0:0:
220,132,31889,1,8,3:2:0:0:
264,61,32035,6,0,L|387:32,1,120,2|0,3:2|3:2,0:0:0:0:
463,16,32474,2,0,B|455:38|455:38|459:53|459:53|454:82,1,60,10|0,3:2|3:0,0:0:0:0:
416,149,32767,1,2,0:0:0:0:
416,149,32913,1,2,0:0:0:0:
416,317,33206,6,0,P|369:271|311:263,1,120,0|0,3:2|3:2,0:0:0:0:
261,325,33645,1,0,3:2:0:0:
214,255,33791,1,8,3:2:0:0:
140,294,33937,2,0,L|60:311,1,60,0|4,3:2|3:3,0:0:0:0:
11,259,34230,1,0,1:2:0:0:
68,197,34376,6,0,P|85:156|82:77,1,120,2|2,3:2|3:2,0:0:0:0:
17,37,34815,1,2,3:2:0:0:
17,37,34962,1,10,3:2:0:0:
93,2,35108,1,2,0:0:0:0:
163,46,35254,1,2,3:2:0:0:
243,20,35401,2,0,L|328:26,1,60,2|2,3:2|3:2,0:0:0:0:
362,70,35693,6,0,P|336:108|357:172,2,107.999996704102,4|10|10,3:2|3:2|3:2,0:0:0:0:
434,48,36424,1,2,3:2:0:0:
478,109,36571,2,0,L|461:174,1,53.9999983520508,2|0,3:2|0:0,0:0:0:0:
470,236,36863,1,10,3:2:0:0:
399,264,37010,1,8,3:2:0:0:
432,331,37156,1,10,3:2:0:0:
282,308,37449,6,0,P|220:313|184:367,2,107.999996704102,2|2|10,3:2|3:2|3:2,0:0:0:0:
313,239,38180,1,0,3:2:0:0:
261,183,38327,1,2,3:2:0:0:
422,23,38766,5,8,3:2:0:0:
452,92,38912,1,10,3:2:0:0:
389,134,39058,1,0,3:2:0:0:
317,108,39205,2,0,L|203:77,1,107.999996704102,2|10,3:2|3:2,0:0:0:0:
66,118,39790,2,0,P|53:157|36:187,2,53.9999983520508,10|0|0,3:2|3:2|3:2,0:0:0:0:
167,230,40375,5,8,3:2:0:0:
197,299,40521,1,8,3:2:0:0:
134,341,40667,1,8,3:2:0:0:
9,254,40961,6,0,P|26:264|76:270,1,53.9999983520508,2|0,3:2|0:0,0:0:0:0:
58,195,41253,2,0,P|75:184|125:179,1,53.9999983520508,2|0,3:2|0:0,0:0:0:0:
167,230,41546,1,8,3:2:0:0:
226,183,41692,1,0,3:2:0:0:
298,206,41839,1,2,3:2:0:0:
420,117,42132,6,0,L|439:58,1,53.9999983520508,2|10,0:0|3:2,0:0:0:0:
494,17,42424,1,8,3:2:0:0:
494,17,42571,1,2,3:2:0:0:
509,90,42717,5,4,3:2:0:0:
331,231,43156,5,2,3:2:0:0:
227,29,43595,5,2,3:2:0:0:
430,128,44034,5,2,3:2:0:0:
430,128,44180,2,0,L|355:151,1,53.9999983520508,2|8,0:0|3:2,0:0:0:0:
303,130,44473,5,4,3:2:0:0:
110,250,44912,5,0,3:2:0:0:
110,250,45058,2,0,P|117:220|124:179,1,53.9999983520508,8|4,3:2|3:3,0:0:0:0:
93,126,45351,5,0,3:2:0:0:
93,126,45644,1,8,3:2:0:0:
156,85,45790,1,0,3:2:0:0:
226,112,45936,1,8,3:2:0:0:
297,87,46083,1,8,3:2:0:0:
377,63,46229,6,0,L|364:145,1,60,6|2,3:2|0:0,0:0:0:0:
393,202,46522,1,10,3:2:0:0:
393,202,46668,1,2,0:0:0:0:
311,220,46814,2,0,L|298:302,1,60,10|0,3:2|3:0,0:0:0:0:
252,347,47107,6,0,P|226:313|136:298,2,120,0|8|8,3:2|3:2|3:2,0:0:0:0:
332,372,47839,2,0,L|377:391,2,30,0|0|2,3:2|3:2|3:2,0:0:0:0:
436,176,48863,6,0,L|448:122,3,30,8|8|10|8,3:2|3:2|3:2|3:2,0:0:0:0:
410,118,49156,2,0,L|416:88,3,30,10|8|10|8,3:2|3:2|3:2|3:2,0:0:0:0:
383,62,49449,2,0,L|389:32,3,30,10|8|10|8,3:2|3:2|3:2|3:2,0:0:0:0:
362,0,49741,5,10,3:2:0:0:
290,44,49888,1,10,3:2:0:0:
127,67,50180,1,10,3:2:0:0:
127,67,50327,2,0,P|172:73|217:107,1,90,10|0,3:2|0:0,0:0:0:0:
238,126,50619,6,0,L|217:253,1,120,4|8,3:2|3:2,0:0:0:0:
146,288,51058,2,0,B|78:305|101:327|28:341,1,120,0|2,3:0|3:2,0:0:0:0:
21,256,51497,6,0,P|29:225|36:186,1,60,0|0,3:2|3:0,0:0:0:0:
100,145,51790,2,0,P|108:176|115:215,1,60,10|2,3:2|3:2,0:0:0:0:
193,176,52083,1,10,3:2:0:0:
273,154,52229,1,2,3:2:0:0:
318,221,52375,6,0,P|374:238|436:251,2,120,10|10|10,3:2|3:2|3:2,0:0:0:0:
271,291,53107,1,0,3:0:0:0:
200,244,53253,5,2,3:2:0:0:
120,273,53400,1,2,3:2:0:0:
64,210,53546,2,0,L|35:219,3,30,2|2|2|2,1:2|1:2|1:2|1:2,0:0:0:0:
90,176,53839,2,0,L|118:166,3,30,2|2|2|2,3:2|3:2|3:2|3:2,0:0:0:0:
61,144,54132,6,0,P|47:95|73:22,1,120,4|8,3:2|3:2,0:0:0:0:
141,68,54571,1,2,3:2:0:0:
213,26,54717,2,0,L|295:19,1,60,8|2,3:2|0:2,0:0:0:0:
273,105,55010,6,0,P|299:151|380:160,2,120,2|2|10,3:2|3:2|3:2,0:0:0:0:
342,57,55741,1,2,3:2:0:0:
424,38,55888,2,0,L|488:63,1,60,10|0,3:2|0:0,0:0:0:0:
489,143,56180,2,0,L|433:121,1,60,10|0,3:2|0:0,0:0:0:0:
360,166,56473,1,10,3:2:0:0:
410,280,56692,5,8,3:2:0:0:
410,280,56766,2,0,L|334:304,1,60,0|0,3:2|3:2,0:0:0:0:
269,287,57058,2,0,L|275:257,3,30,10|10|10|8,3:2|3:2|3:2|3:2,0:0:0:0:
227,293,57351,2,0,L|220:322,3,30,10|10|10|8,3:2|3:2|3:2|3:2,0:0:0:0:
198,261,57644,5,4,3:2:0:0:
71,150,57936,2,0,P|43:160|-1:173,1,60,0|0,3:2|3:2,0:0:0:0:
11,253,58229,2,0,P|39:261|67:272,1,60,10|0,3:2|0:0,0:0:0:0:
110,345,58522,5,2,3:2:0:0:
168,187,58814,2,0,P|179:152|184:113,1,60,0|0,3:2|3:2,0:0:0:0:
261,97,59107,2,0,P|266:126|275:154,1,60,10|0,3:2|0:0,0:0:0:0:
342,206,59400,6,0,L|419:227,1,60,4|0,3:2|3:2,0:0:0:0:
475,185,59692,1,8,3:2:0:0:
422,344,59985,2,0,L|345:365,1,60,0|0,3:2|3:2,0:0:0:0:
285,320,60278,5,2,3:2:0:0:
121,357,60571,1,8,3:2:0:0:
23,220,60863,2,0,L|36:173,3,30,0|0|0|0,3:2|3:2|3:2|3:2,0:0:0:0:
72,200,61156,6,0,L|139:185,1,60,4|0,3:2|3:2,0:0:0:0:
197,237,61449,2,0,L|264:222,1,60,10|2,3:2|3:2,0:0:0:0:
303,154,61741,1,10,3:2:0:0:
376,195,61888,1,2,0:0:0:0:
441,136,62034,5,2,3:2:0:0:
441,136,62180,2,0,P|456:97|410:28,1,120,2|8,3:2|3:2,0:0:0:0:
337,14,62619,2,0,L|254:33,1,60,0|0,3:2|3:2,0:0:0:0:
195,43,62912,5,8,1:2:0:0:
195,43,63058,1,8,1:2:0:0:
276,189,63351,1,10,1:2:0:0:
236,262,63497,1,10,1:2:0:0:
165,215,63644,1,10,1:2:0:0:
89,252,63790,6,0,L|69:304,3,30,2|0|2|0,1:2|1:2|1:2|1:2,0:0:0:0:
60,318,64083,2,0,L|132:348,1,60,0|0,3:2|3:2,0:0:0:0:
194,368,64375,1,10,0:0:0:0:
194,368,64522,1,2,0:0:0:0:
248,304,64668,6,0,P|314:282|390:275,1,120,4|0,3:2|0:0,0:0:0:0:
413,206,65107,2,0,L|440:89,1,120,2|0,3:2|3:2,0:0:0:0:
386,23,65546,6,0,P|347:33|317:42,1,60,8|0,3:2|3:2,0:0:0:0:
268,98,65839,1,2,0:0:0:0:
268,98,65985,1,0,3:2:0:0:
216,31,66132,2,0,P|177:21|147:12,1,60,0|0,3:2|3:2,0:0:0:0:
128,93,66424,6,0,P|113:38|44:20,2,120,2|2|2,3:2|3:2|0:0,0:0:0:0:
69,153,67156,1,0,3:2:0:0:
69,153,67229,1,0,3:2:0:0:
69,153,67302,6,0,L|55:218,1,60,8|2,3:2|3:2,0:0:0:0:
97,285,67595,2,0,L|73:303,3,30,2|2|2|2,3:2|3:2|3:2|3:2,0:0:0:0:
138,291,67888,2,0,L|162:273,3,30,2|2|2|2,0:0|0:0|0:0|0:0,0:0:0:0:
166,314,68180,6,0,B|199:343|199:343|275:307,1,120,4|2,3:2|3:2,0:0:0:0:
312,238,68619,1,2,3:2:0:0:
389,272,68766,2,0,L|421:210,1,60,2|0,3:2|0:0,0:0:0:0:
456,145,69058,6,0,P|437:115|436:85,1,60,10|2,3:2|3:2,0:0:0:0:
365,42,69351,2,0,P|348:73|323:89,1,60,2|0,3:2|3:2,0:0:0:0:
260,136,69644,2,0,L|167:163,1,90,10|0,3:2|0:0,0:0:0:0:
134,176,69936,5,10,3:2:0:0:
196,331,70229,1,10,3:2:0:0:
350,264,70522,1,10,3:2:0:0:
292,152,70741,5,8,3:2:0:0:
292,152,70814,2,0,P|297:117|312:72,1,60,0|0,3:2|3:2,0:0:0:0:
238,41,71107,2,0,P|232:75|218:121,1,60,8|2,3:2|0:0,0:0:0:0:
150,137,71400,2,0,L|163:175,3,30,2|0|0|0,3:2|3:2|3:2|3:2,0:0:0:0:
128,193,71692,5,4,3:2:0:0:
220,333,71985,2,0,P|224:305|237:266,1,60,2|0,3:2|3:2,0:0:0:0:
306,232,72278,2,0,P|363:243|402:273,1,90,2|0,3:2|0:0,0:0:0:0:
426,239,72571,6,0,P|411:183|430:114,1,120,8|2,3:2|0:0,0:0:0:0:
479,59,73010,1,0,3:2:0:0:
479,59,73083,1,0,3:2:0:0:
479,59,73156,2,0,L|415:35,1,60,10|0,3:2|3:2,0:0:0:0:
338,30,73449,6,0,P|314:67|311:93,1,60,6|0,3:2|0:0,0:0:0:0:
228,91,73741,2,0,P|237:134|253:154,1,60,10|8,3:2|3:2,0:0:0:0:
326,186,74034,1,2,3:2:0:0:
326,186,74180,1,0,3:2:0:0:
300,264,74327,6,0,L|239:283,1,60,2|0,3:2|0:0,0:0:0:0:
172,327,74619,1,2,3:2:0:0:
172,327,74766,1,0,3:2:0:0:
134,252,74912,2,0,P|147:205|150:177,1,60,2|0,3:2|0:0,0:0:0:0:
122,160,75132,1,8,3:2:0:0:
122,160,75205,6,0,B|107:119|107:119|137:39,1,120,4|8,3:2|3:2,0:0:0:0:
207,88,75644,1,2,0:0:0:0:
273,36,75790,1,2,3:2:0:0:
352,62,75936,1,2,3:2:0:0:
429,27,76083,6,0,L|449:89,1,60,6|2,3:2|3:2,0:0:0:0:
483,159,76375,1,8,3:2:0:0:
409,200,76522,1,10,3:2:0:0:
459,266,76668,2,0,L|438:340,1,60,10|2,3:2|3:2,0:0:0:0:
363,353,76961,5,8,3:2:0:0:
363,353,77107,1,8,3:2:0:0:
235,243,77400,1,10,3:2:0:0:
173,300,77546,1,10,3:2:0:0:
92,276,77692,1,10,3:2:0:0:
47,204,77839,6,0,L|19:216,3,30,2|0|2|0,3:2|3:2|3:2|3:2,0:0:0:0:
68,167,78132,2,0,L|95:154,3,30,8|0|0|0,3:2|3:2|3:2|3:2,0:0:0:0:
38,137,78424,2,0,L|14:88,3,30,2|2|2|2,0:0|0:0|0:0|0:0,0:0:0:0:
33,68,78717,6,0,P|92:38|148:32,1,120,6|0,3:2|0:0,0:0:0:0:
191,102,79156,2,0,P|250:132|306:138,1,120,2|2,3:2|3:2,0:0:0:0:
384,116,79595,6,0,L|405:19,2,90,14|10|10,3:2|3:2|3:2,0:0:0:0:
432,184,80180,2,0,L|450:228,3,30,2|2|2|0,3:2|3:2|3:2|3:2,0:0:0:0:
417,245,80473,5,6,3:2:0:0:
365,311,80619,2,0,P|309:315|227:344,1,120,0|0,3:2|0:0,0:0:0:0:
209,316,80985,1,0,3:0:0:0:
209,316,81058,2,0,P|219:283|222:245,1,60,0|0,3:2|0:0,0:0:0:0:
156,204,81351,5,2,3:2:0:0:
156,204,81497,1,0,3:2:0:0:
228,160,81644,2,0,L|295:174,1,60,8|8,3:2|3:2,0:0:0:0:
365,143,81936,2,0,L|377:101,3,30,2|2|2|2,3:2|0:0|3:2|3:2,0:0:0:0:
349,79,82229,6,0,P|337:57|343:-2,1,60,0|0,3:2|3:2,0:0:0:0:
422,32,82522,1,2,3:2:0:0:
422,32,82668,1,2,3:2:0:0:
462,105,82814,2,0,L|480:175,1,60,10|8,3:2|3:2,0:0:0:0:
476,247,83107,6,0,P|436:262|395:303,1,90,8|8,3:2|3:2,0:0:0:0:
286,242,83546,1,8,3:2:0:0:
286,242,83619,1,8,3:2:0:0:
286,242,83692,2,0,L|230:257,5,30,8|8|0|0|0|0,3:2|3:2|0:0|0:0|0:0|0:0,0:0:0:0:
232,284,84131,5,4,3:2:0:0:
122,115,86326,6,0,L|105:167,2,30,8|0|0,3:2|3:2|3:2,0:0:0:0:
281,63,86765,1,0,3:2:0:0:
281,63,86911,2,0,P|302:86|350:99,1,60,14|0,3:2|0:0,0:0:0:0:
412,94,87204,2,0,L|432:59,2,30,2|2|2,3:2|0:0|3:2,0:0:0:0:
451,163,87497,1,8,3:2:0:0:
408,235,87643,6,0,L|372:359,1,120,2|8,3:2|1:2,0:0:0:0:
304,303,88082,1,8,1:2:0:0:
225,332,88228,1,2,0:0:0:0:
182,259,88375,2,0,L|112:236,1,60,8|2,1:2|0:0,0:0:0:0:
53,284,88667,1,8,1:2:0:0:
10,211,88814,6,0,P|6:158|43:84,1,120,4|0,3:2|3:2,0:0:0:0:
107,60,89253,2,0,L|185:78,1,60,8|0,3:2|0:0,0:0:0:0:
241,110,89546,2,0,L|224:158,3,30,0|2|2|2,3:2|0:0|3:2|0:0,0:0:0:0:
252,174,89838,1,8,3:2:0:0:
324,130,89985,6,0,P|378:113|461:108,1,120,2|0,3:2|3:2,0:0:0:0:
486,178,90424,2,0,L|473:243,1,60,10|0,3:2|3:2,0:0:0:0:
498,317,90716,1,2,0:0:0:0:
417,292,90863,1,2,3:2:0:0:
347,339,91009,1,10,3:2:0:0:
286,281,91155,6,0,P|211:271|156:244,1,120,4|2,3:2|3:2,0:0:0:0:
82,109,91741,2,0,L|93:69,2,30,2|2|2,3:2|3:2|3:2,0:0:0:0:
21,167,92033,1,2,0:0:0:0:
79,227,92180,1,10,3:2:0:0:
146,177,92326,6,0,L|271:144,1,120,6|10,3:2|1:2,0:0:0:0:
330,195,92765,1,10,1:2:0:0:
330,195,92911,1,10,1:2:0:0:
373,122,93058,1,10,1:2:0:0:
456,111,93204,1,10,1:2:0:0:
490,35,93350,1,10,1:2:0:0:
410,1,93497,6,0,P|344:27|276:36,1,120,4|2,3:2|3:2,0:0:0:0:
255,22,93863,1,2,3:2:0:0:
255,22,93936,1,10,3:2:0:0:
213,94,94082,1,0,3:2:0:0:
141,51,94228,2,0,P|123:84|97:117,1,60,2|2,3:2|3:2,0:0:0:0:
53,165,94521,1,8,3:2:0:0:
53,165,94594,1,8,3:2:0:0:
53,165,94667,6,0,P|122:190|176:238,1,120,12|2,3:2|3:2,0:0:0:0:
171,301,95106,2,0,L|237:321,1,60,10|0,3:2|3:2,0:0:0:0:
285,256,95399,1,2,3:2:0:0:
360,293,95546,1,2,3:2:0:0:
407,223,95692,1,2,3:2:0:0:
407,223,95765,1,8,3:2:0:0:
407,223,95838,6,0,P|423:170|423:98,1,120,4|2,3:2|3:2,0:0:0:0:
354,58,96277,2,0,L|299:91,1,60,10|0,3:2|3:2,0:0:0:0:
233,137,96570,2,0,L|216:190,3,30,2|2|2|2,3:2|0:0|3:2|0:0,0:0:0:0:
190,192,96863,1,8,3:2:0:0:
190,192,96936,1,8,3:2:0:0:
190,192,97009,6,0,P|121:208|54:232,1,120,10|2,3:2|3:2,0:0:0:0:
28,106,97521,2,0,P|28:74|69:24,1,90,2|2,3:2|3:2,0:0:0:0:
170,51,97936,2,0,P|170:83|132:126,1,80,2|2,3:2|3:2,0:0:0:0:
54,295,98472,6,0,L|45:246,2,30,2|2|14,3:2|0:0|3:2,0:0:0:0:
132,263,98765,1,2,3:2:0:0:
200,310,98911,2,0,P|228:325|270:332,1,60,2|2,3:2|3:2,0:0:0:0:
332,297,99204,1,8,3:2:0:0:
332,297,99277,1,8,3:2:0:0:
332,297,99350,6,0,P|314:232|334:177,1,120,12|0,3:2|3:2,0:0:0:0:
362,105,99789,2,0,L|303:91,1,60,10|2,3:2|3:2,0:0:0:0:
221,73,100082,2,0,L|210:28,2,30,2|0|2,3:2|3:2|3:2,0:0:0:0:
177,142,100375,1,10,3:2:0:0:
104,99,100521,6,0,P|85:150|35:213,1,120,6|2,3:2|3:2,0:0:0:0:
104,263,100960,2,0,P|137:293|150:321,1,60,10|0,3:2|3:2,0:0:0:0:
226,285,101253,2,0,L|245:242,3,30,2|2|2|0,3:2|0:0|3:2|0:0,0:0:0:0:
276,239,101546,1,8,3:2:0:0:
276,239,101619,1,8,3:2:0:0:
276,239,101692,6,0,P|337:254|402:290,1,120,8|10,3:2|3:2,0:0:0:0:
457,232,102131,1,10,3:2:0:0:
457,232,102277,1,10,3:2:0:0:
454,147,102424,2,0,L|473:99,3,30,2|0|0|0,3:2|3:2|3:2|3:2,0:0:0:0:
436,88,102716,1,10,3:2:0:0:
436,88,102789,1,8,3:2:0:0:
436,88,102863,6,0,P|388:105|330:116,1,90,10|0,3:2|3:0,0:0:0:0:
313,134,103155,2,0,L|301:174,2,30,0|0|12,3:2|3:2|3:2,0:0:0:0:
174,38,103594,2,0,P|144:18|49:23,1,120,0|8,3:2|3:2,0:0:0:0:
22,90,104033,6,0,L|41:208,1,120,4|0,3:2|3:2,0:0:0:0:
118,242,104570,2,0,L|203:225,1,80,0|2,3:2|3:2,0:0:0:0:
201,338,104960,2,0,L|122:353,1,80,2|2,3:2|3:2,0:0:0:0:
293,257,105497,6,0,B|342:266|342:266|371:285|371:285|422:291,1,120,2|0,3:2|3:0,0:0:0:0:
462,226,105936,2,0,P|455:197|459:154,1,60,8|0,3:2|3:2,0:0:0:0:
497,94,106228,1,0,3:2:0:0:
418,63,106375,6,0,P|349:88|291:97,1,120,6|2,3:2|3:2,0:0:0:0:
221,76,106814,2,0,L|211:30,2,30,2|0|2,0:0|0:0|3:2,0:0:0:0:
166,140,107106,2,0,L|155:178,5,30,10|8|10|8|2|0,3:2|3:2|3:2|3:2|3:2|3:2,0:0:0:0:
120,190,107546,6,0,L|111:218,5,30,0|0|0|0|0|0,3:2|3:2|3:2|3:2|3:2|3:2,0:0:0:0:
139,250,107985,2,0,P|170:276|223:275,1,80,12|8,1:2|1:2,0:0:0:0:
296,211,108375,2,0,P|327:185|380:186,2,80,8|8|8,1:2|1:2|1:2,0:0:0:0:
456,367,109155,6,0,L|472:296,1,60,12|0,3:2|0:0,0:0:0:0:
490,226,109448,1,2,3:2:0:0:
490,226,109594,1,10,3:2:0:0:
407,242,109741,1,10,3:2:0:0:
375,164,109887,6,0,P|325:139|243:132,1,120,2|10,3:2|3:2,0:0:0:0:
192,178,110326,1,8,3:2:0:0:
117,140,110472,1,10,3:2:0:0:
117,140,110546,1,10,3:2:0:0:
117,140,110619,2,0,P|137:102|145:52,2,90,8|8|8,1:2|1:2|1:2,0:0:0:0:
89,219,111204,6,0,P|49:234|8:261,2,80,10|10|10,1:2|1:2|1:2,0:0:0:0:
164,301,111789,2,0,P|197:322|235:336,2,80,10|10|10,1:2|1:2|1:2,0:0:0:0:
193,192,112375,6,0,L|186:162,3,30,4|4|4|4,3:0|3:0|3:0|3:0,0:0:0:0:
230,209,112667,2,0,L|236:238,3,30,8|8|8|0,3:2|3:2|3:2|3:2,0:0:0:0:
268,191,112960,2,0,P|297:187|333:173,1,60,10|10,3:2|3:2,0:0:0:0:
