osu file format v14

[General]
AudioFilename: audio.mp3
AudioLeadIn: 0
PreviewTime: 50805
Countdown: 0
SampleSet: Soft
StackLeniency: 0.7
Mode: 0
LetterboxInBreaks: 0
WidescreenStoryboard: 1

[Editor]
DistanceSpacing: 1.1
BeatDivisor: 4
GridSize: 32
TimelineZoom: 1

[Metadata]
Title:Over The Testament (TV Size)
TitleUnicode:Over The Testament (TV Size)
Artist:Metamorphose feat. Yoko Ishida
ArtistUnicode:Metamorphose feat. Yoko Ishida
Creator:My Angel Ram
Version:Sotarks' Testament
Source:新妹魔王の契約者 BURST
Tags:Japanese JPop J Pop J-Pop of Sister New Devil BURST Shinmai Maou no 石田燿子 Sotarks Reform Kujinn PikAqours Chiga Basensorex
BeatmapID:3220384
BeatmapSetID:1502678

[Difficulty]
HPDrainRate:6.2
CircleSize:4
OverallDifficulty:9.2
ApproachRate:9.3
SliderMultiplier:1.82
SliderTickRate:1

[Events]
//Background and Video events
0,0,"i guess gmt doesnt like boobas.jpg",0,0
//Break Periods
//Storyboard Layer 0 (Background)
//Storyboard Layer 1 (Fail)
//Storyboard Layer 2 (Pass)
//Storyboard Layer 3 (Foreground)
//Storyboard Layer 4 (Overlay)
//Storyboard Sound Samples

[TimingPoints]
616,324.324324324324,4,2,22,42,1,0
616,-192.307692307692,4,2,22,42,0,0
5805,-161.290322580645,4,2,22,42,0,0
8399,-108.695652173913,4,2,22,72,0,0
10994,-98.0392156862745,4,2,22,82,0,0
21372,-138.888888888889,4,2,22,52,0,0
26480,-138.888888888889,4,2,22,5,0,0
26561,-138.888888888889,4,2,22,52,0,0
30453,-138.888888888889,4,2,22,72,0,0
31670,-138.888888888889,4,2,22,5,0,0
31751,-121.951219512195,4,2,22,62,0,0
39534,-108.695652173913,4,2,22,72,0,0
42048,-108.695652173913,4,2,22,5,0,0
42129,-108.695652173913,4,2,22,72,0,0
52507,-98.0392156862745,4,2,22,82,0,0
74399,-108.695652173913,4,2,22,72,0,0
86075,-89.2857142857143,4,2,22,72,0,0
86318,-89.2857142857143,4,2,22,5,0,0
86399,-81.9672131147541,4,2,22,72,0,0
86643,-81.9672131147541,4,2,22,5,0,0
86724,-312.5,4,2,22,72,0,0
88913,-312.5,4,2,22,5,0,0

[Colours]
Combo1 : 69,176,241
Combo2 : 121,222,255
Combo3 : 253,193,179

[HitObjects]
79,88,616,6,0,P|132:84|177:120,1,94.6399994223633,6|2,1:2|3:2,0:0:0:0:
251,90,1102,2,0,P|304:94|349:58,1,94.6399994223633,2|2,0:2|0:2,0:2:0:0:
430,68,1588,1,0,3:2:0:0:
430,68,1751,2,0,P|418:94|417:133,1,47.3199997111816,2|0,0:2|0:2,0:2:0:0:
445,243,2075,2,0,P|428:219|395:199,1,47.3199997111816,2|0,0:2|3:2,0:2:0:0:
287,176,2399,2,0,P|315:173|349:154,1,47.3199997111816,2|0,0:2|0:2,0:2:0:0:
292,90,2724,1,2,0:2:0:0:
292,90,3048,1,2,1:2:0:0:
236,313,3210,5,6,1:2:0:0:
185,224,3372,1,2,0:2:0:0:
131,337,3534,1,2,3:2:0:0:
288,231,3697,2,0,P|280:182|270:126,1,94.6399994223633,2|2,0:2|0:2,0:2:0:0:
315,59,4183,1,0,3:2:0:0:
187,126,4345,2,0,L|134:111,1,47.3199997111816,2|0,0:2|0:2,0:2:0:0:
164,279,4670,2,0,L|203:240,1,47.3199997111816,2|0,0:2|3:2,0:2:0:0:
34,180,4994,2,0,L|47:233,1,47.3199997111816,2|0,0:2|0:2,0:2:0:0:
125,190,5318,1,2,0:2:0:0:
125,190,5643,1,0,1:2:0:0:
273,324,5805,6,0,P|305:315|340:306,1,56.4199977616578,6|2,1:2|0:2,0:2:0:0:
458,218,6129,2,0,P|430:210|403:203,1,56.4199977616578,2|2,1:2|0:2,0:2:0:0:
265,129,6453,2,0,P|271:160|277:195,1,56.4199977616578,0|2,1:2|0:2,0:2:0:0:
146,284,6778,2,0,P|150:256|156:228,1,56.4199977616578,0|2,1:2|0:2,0:2:0:0:
96,120,7102,2,0,P|123:112|150:105,1,56.4199977616578,0|2,1:2|0:2,0:2:0:0:
289,24,7426,2,0,P|261:16|234:9,1,56.4199977616578,0|2,1:2|0:2,0:2:0:0:
282,138,7751,2,0,P|287:166|292:194,1,56.4199977616578,0|2,1:2|0:2,0:2:0:0:
152,285,8075,2,0,P|156:257|162:229,1,56.4199977616578,2|2,1:2|0:2,0:2:0:0:
69,40,8399,5,14,0:2:0:0:
282,138,8561,1,2,1:2:0:0:
68,250,8724,1,2,1:2:0:0:
234,9,8886,5,14,0:2:0:0:
305,285,9048,1,0,1:2:0:0:
224,33,9210,1,2,1:2:0:0:
193,328,9372,5,8,0:2:0:0:
406,183,9534,1,6,1:2:0:0:
180,89,9697,1,0,1:2:0:0:
378,333,9859,5,10,0:2:0:0:
323,90,10021,1,0,1:2:0:0:
152,261,10183,1,0,1:2:0:0:
306,4,10345,5,10,0:2:0:0:
372,298,10507,1,14,0:2:0:0:
372,298,10994,6,0,P|319:310|253:327,1,92.8200005665283,6|0,1:2|0:2,0:2:0:0:
142,114,11318,5,8,0:2:0:0:
74,348,11480,1,0,1:2:0:0:
65,68,11643,5,10,0:2:0:0:
163,296,11805,1,0,1:2:0:0:
158,22,11967,5,8,0:2:0:0:
54,247,12129,1,0,1:2:0:0:
243,85,12291,6,0,P|288:73|333:63,1,92.8200005665283,10|0,0:2|0:2,0:2:0:0:
503,266,12615,5,8,0:2:0:0:
415,31,12777,1,0,1:2:0:0:
411,314,12940,5,10,0:2:0:0:
496,80,13102,1,0,1:2:0:0:
512,362,13264,5,8,0:2:0:0:
395,128,13426,1,0,1:2:0:0:
395,128,13507,1,0,1:2:0:0:
395,128,13588,6,0,P|389:182|382:244,1,92.8200005665283,10|0,0:2|0:0,0:2:0:0:
261,105,13913,5,8,0:2:0:0:
499,198,14075,1,0,1:2:0:0:
176,223,14237,5,8,0:2:0:0:
414,130,14399,1,0,1:2:0:0:
219,9,14561,5,10,0:2:0:0:
319,276,14724,1,0,1:2:0:0:
323,44,14886,5,10,0:2:0:0:
223,311,15049,1,0,1:2:0:0:
193,105,15210,1,10,0:2:0:0:
293,372,15372,2,0,B|351:347|412:320|412:320|432:336|462:359,1,185.640001133057,6|2,1:2|1:2,0:2:0:0:
350,127,15859,1,8,0:2:0:0:
154,384,16021,6,0,P|97:343|152:228,1,185.640001133057,6|0,1:2|1:2,0:2:0:0:
296,76,16507,5,8,0:2:0:0:
39,160,16670,1,0,1:2:0:0:
359,179,16832,5,8,0:2:0:0:
105,89,16995,1,0,1:2:0:0:
362,8,17156,5,8,0:2:0:0:
221,309,17318,2,0,P|210:220|196:106,1,185.640001133057,6|0,1:2|1:2,0:2:0:0:
87,302,17805,5,8,0:2:0:0:
347,206,17968,1,0,1:2:0:0:
119,77,18129,5,8,0:2:0:0:
248,322,18291,1,0,1:2:0:0:
387,40,18453,5,8,0:2:0:0:
151,183,18615,2,0,B|207:157|245:204|226:216|270:258|313:230,1,185.640001133057,6|0,1:2|1:2,0:2:0:0:
477,103,19102,5,8,0:2:0:0:
380,328,19264,1,0,1:2:0:0:
342,55,19426,5,8,0:2:0:0:
482,273,19588,1,0,1:2:0:0:
489,7,19751,5,8,0:2:0:0:
347,238,19913,2,0,P|338:192|330:146,1,92.8200005665283,6|0,1:2|0:0,0:2:0:0:
209,9,20237,2,0,P|200:54|192:100,1,92.8200005665283,2|14,1:2|0:2,0:0:0:0:
71,253,20561,1,2,0:2:0:0:
307,147,20724,1,10,0:2:0:0:
117,37,20886,1,2,1:2:0:0:
252,272,21048,1,10,0:3:0:0:
140,62,21210,1,6,0:3:0:0:
88,315,21372,6,0,P|124:305|164:295,1,65.5200015996094,6|0,1:2|0:2,0:2:0:0:
16,138,21697,2,0,P|7:169|0:201,1,65.5200015996094,10|0,0:2|0:2,0:2:0:0:
203,145,22021,2,0,P|179:122|156:98,1,65.5200015996094,2|0,3:2|1:2,0:2:0:0:
108,208,22345,1,10,0:2:0:0:
261,72,22507,2,0,B|342:62|297:113|397:106,1,131.040003199219,2|0,1:2|1:2,0:2:0:0:
484,40,22994,2,0,P|442:73|436:161,1,131.040003199219,8|0,0:2|3:2,0:2:0:0:
366,276,23480,1,0,1:2:0:0:
512,205,23643,1,10,0:2:0:0:
382,106,23805,1,2,0:2:0:0:
472,295,23967,6,0,P|479:255|487:213,1,65.5200015996094,2|0,1:2|0:2,0:2:0:0:
382,106,24291,1,10,0:2:0:0:
366,276,24453,2,0,P|359:236|351:194,1,65.5200015996094,2|0,0:2|3:2,0:2:0:0:
227,324,24778,2,0,P|234:284|242:242,1,65.5200015996094,2|8,1:2|0:2,0:0:0:0:
89,143,25102,2,0,P|100:211|111:284,1,131.040003199219,2|0,1:2|1:2,0:2:0:0:
210,77,25588,2,0,P|171:66|135:56,1,65.5200015996094,10|0,0:2|0:2,0:2:0:0:
216,226,25913,1,2,1:2:0:0:
294,57,26075,1,2,1:2:0:0:
107,134,26237,2,0,P|118:202|126:257,1,98.2800023994141,8|0,0:2|0:0,0:0:0:0:
83,303,26561,6,0,P|122:312|160:321,1,65.5200015996094,2|0,1:2|0:2,0:2:0:0:
107,134,26886,2,0,P|84:157|62:181,1,65.5200015996094,10|0,0:2|0:2,0:2:0:0:
247,231,27210,2,0,P|237:199|227:168,1,65.5200015996094,2|0,3:2|1:2,0:2:0:0:
147,230,27534,1,10,0:2:0:0:
340,176,27697,2,0,P|408:188|494:202,1,131.040003199219,2|0,1:2|1:2,0:2:0:0:
386,67,28183,1,10,0:2:0:0:
297,247,28345,2,0,P|265:255|233:264,1,65.5200015996094,2|0,0:2|3:2,0:2:0:0:
113,75,28670,1,2,1:2:0:0:
255,164,28832,1,10,0:2:0:0:
86,268,28994,1,2,0:2:0:0:
226,61,29156,6,0,P|290:58|346:106,2,131.040003199219,2|8|0,1:2|0:2|3:2,0:2:0:0:
255,164,29967,1,0,1:2:0:0:
351,0,30129,1,10,0:2:0:0:
281,280,30291,1,2,1:2:0:0:
91,95,30453,5,10,0:2:0:0:
341,209,30615,2,0,L|352:151,1,32.7600007998047,0|0,1:2|1:2,0:0:0:0:
135,281,30778,1,10,0:2:0:0:
411,84,30940,2,0,P|423:149|439:234,1,131.040003199219,6|2,1:2|1:2,0:2:0:0:
217,94,31426,2,0,P|210:62|240:88,1,98.2800023994141,14|0,0:2|0:2,0:2:0:0:
213,170,31751,6,0,P|168:161|121:152,1,74.6200011386109,4|0,1:2|0:2,0:2:0:0:
49,346,32075,2,0,P|94:337|141:328,1,74.6200011386109,10|0,0:2|0:2,0:2:0:0:
300,242,32399,1,2,1:2:0:0:
300,242,32561,2,0,P|293:287|287:327,1,74.6200011386109,0|2,1:2|3:2,0:0:0:0:
467,384,32886,2,0,P|456:312|442:230,1,149.240002277222,10|0,0:2|1:2,0:2:0:0:
509,67,33372,2,0,P|459:122|367:103,1,149.240002277222,8|0,0:2|1:2,0:2:0:0:
252,15,33859,1,0,1:2:0:0:
329,218,34021,1,10,0:2:0:0:
386,0,34183,1,2,0:2:0:0:
225,182,34345,6,0,P|242:266|259:356,1,149.240002277222,2|10,1:2|0:2,0:2:0:0:
388,118,34832,2,0,P|351:110|314:103,1,74.6200011386109,2|0,0:2|1:2,0:2:0:0:
432,254,35156,1,2,1:2:0:0:
374,27,35318,1,0,3:2:0:0:
225,182,35480,2,0,P|268:243|350:239,1,149.240002277222,10|0,0:2|1:2,0:2:0:0:
243,70,35967,2,0,P|206:77|169:84,1,74.6200011386109,10|0,0:2|0:2,0:2:0:0:
19,161,36291,2,0,P|55:168|92:175,1,74.6200011386109,2|0,1:2|1:2,0:2:0:0:
238,258,36615,1,10,0:2:0:0:
169,84,36778,1,2,1:2:0:0:
122,339,36940,6,0,P|90:292|133:186,2,149.240002277222,2|10|0,1:2|0:2|1:2,0:2:0:0:
238,162,37751,1,0,1:2:0:0:
333,356,37913,1,2,3:2:0:0:
183,265,38075,1,8,0:2:0:0:
355,148,38237,2,0,P|348:193|342:233,1,74.6200011386109,2|0,3:2|1:2,0:2:0:0:
138,67,38561,2,0,P|209:50|302:28,1,149.240002277222,8|2,0:2|1:2,0:2:0:0:
198,239,39048,1,2,1:2:0:0:
57,39,39210,1,10,0:2:0:0:
233,139,39372,1,2,0:2:0:0:
0,242,39534,5,14,0:2:0:0:
191,31,39697,1,0,1:2:0:0:
226,328,39859,1,10,0:2:0:0:
37,124,40021,2,0,B|88:100|132:130|110:144|150:178|215:146,1,167.439994379151,6|2,1:2|1:2,0:2:0:0:
357,52,40507,1,8,0:2:0:0:
241,233,40670,2,0,P|228:151|212:49,1,167.439994379151,6|0,1:2|1:2,0:2:0:0:
433,246,41156,2,0,L|416:312,1,41.8599985947876,8|8,0:2|0:2,0:0:0:0:
315,163,41318,1,8,0:3:0:0:
315,163,41399,1,8,0:3:0:0:
315,163,41480,2,0,L|380:144,1,41.8599985947876,8|8,0:3|0:3,0:2:0:0:
290,309,41643,1,8,0:3:0:0:
290,309,41724,1,8,0:3:0:0:
290,309,41805,2,0,P|243:267|174:275,1,125.579995784363,14|8,0:2|0:2,0:0:0:0:
81,312,42129,6,0,P|88:267|98:201,1,83.7199971895753,6|0,1:2|1:2,0:2:0:0:
31,47,42453,1,10,0:2:0:0:
183,269,42615,2,0,P|176:224|166:158,1,83.7199971895753,2|0,1:2|0:2,0:2:0:0:
240,22,42940,1,2,1:2:0:0:
65,131,43102,1,8,0:2:0:0:
266,225,43264,2,0,P|343:234|401:151,1,167.439994379151,6|0,1:2|1:2,0:2:0:0:
512,74,43751,2,0,P|505:115|499:156,1,83.7199971895753,10|2,0:2|0:2,0:2:0:0:
375,335,44075,2,0,P|368:293|362:252,1,83.7199971895753,2|2,1:2|1:2,0:2:0:0:
227,69,44399,1,10,0:2:0:0:
227,69,44724,5,6,1:2:0:0:
166,293,44886,1,0,1:2:0:0:
237,37,45048,1,10,0:2:0:0:
334,285,45210,2,0,P|291:277|243:268,1,83.7199971895753,2|0,1:2|0:2,0:2:0:0:
52,208,45534,2,0,P|95:200|143:191,1,83.7199971895753,2|8,1:2|0:2,0:0:0:0:
400,79,45859,2,0,B|354:61|313:100|335:111|292:148|249:131,1,167.439994379151,6|0,1:2|1:2,0:2:0:0:
411,196,46345,1,10,0:2:0:0:
427,207,46670,5,10,0:2:0:0:
267,41,46832,1,2,1:2:0:0:
257,292,46994,1,10,0:3:0:0:
416,83,47156,1,6,0:3:0:0:
192,194,47318,5,6,1:2:0:0:
471,321,47480,1,0,1:2:0:0:
215,205,47643,1,2,1:2:0:0:
438,58,47805,5,10,0:2:0:0:
257,292,47967,1,0,1:2:0:0:
336,48,48129,1,2,1:2:0:0:
443,335,48291,5,14,0:2:0:0:
192,194,48453,1,0,1:2:0:0:
416,83,48615,1,2,1:2:0:0:
227,353,48778,5,10,0:2:0:0:
161,62,48940,1,0,1:2:0:0:
221,322,49102,1,2,1:2:0:0:
258,0,49264,5,14,0:2:0:0:
20,205,49426,1,2,1:2:0:0:
362,305,49588,5,10,0:2:0:0:
160,59,49751,2,0,P|149:139|134:242,1,167.439994379151,6|0,1:2|1:2,0:2:0:0:
251,0,50237,5,8,0:2:0:0:
159,324,50399,1,0,1:2:0:0:
160,59,50561,5,8,0:2:0:0:
252,383,50723,1,0,1:2:0:0:
368,126,50886,5,10,0:2:0:0:
0,258,51048,1,2,1:2:0:0:
395,115,51210,1,14,0:2:0:0:
395,115,52507,6,0,P|387:167|377:236,1,92.8200005665283,14|2,0:2|0:2,0:2:0:0:
243,384,52832,2,0,P|236:338|229:292,1,92.8200005665283,10|0,0:2|1:2,0:2:0:0:
72,107,53156,2,0,P|118:117|180:131,1,92.8200005665283,8|0,0:2|1:2,0:2:0:0:
331,29,53480,1,10,0:2:0:0:
220,258,53643,1,2,1:2:0:0:
118,22,53805,2,0,P|163:11|208:1,1,92.8200005665283,10|0,0:2|1:2,0:2:0:0:
361,237,54129,1,10,0:2:0:0:
162,127,54291,2,0,P|154:172|148:218,1,92.8200005665283,2|8,1:2|0:2,0:2:0:0:
347,367,54615,2,0,P|340:321|333:275,1,92.8200005665283,2|8,1:2|0:2,0:2:0:0:
443,26,54940,5,2,1:2:0:0:
443,26,55021,1,0,1:2:0:0:
443,26,55102,2,0,P|397:36|352:46,1,92.8200005665283,14|0,0:2|0:0,0:2:0:0:
162,127,55426,2,0,P|207:137|252:147,1,92.8200005665283,10|0,0:2|1:2,0:0:0:0:
374,346,55751,2,0,P|367:300|360:254,1,92.8200005665283,8|0,0:2|1:2,0:2:0:0:
428,67,56075,1,10,0:2:0:0:
245,182,56237,1,2,1:2:0:0:
475,285,56399,2,0,P|481:239|488:193,1,92.8200005665283,10|0,0:2|0:2,0:2:0:0:
303,40,56724,1,10,0:2:0:0:
269,274,56886,2,0,P|314:264|359:254,1,92.8200005665283,2|8,1:2|0:2,0:2:0:0:
198,88,57210,1,2,1:2:0:0:
198,88,57291,1,0,1:2:0:0:
198,88,57372,1,8,0:2:0:0:
138,341,57534,1,2,1:2:0:0:
461,168,57697,6,0,P|418:116|302:130,1,185.640001133057,14|8,0:2|0:2,0:2:0:0:
457,340,58183,1,0,1:2:0:0:
232,220,58345,2,0,P|187:230|142:240,1,92.8200005665283,10|0,0:2|1:2,0:2:0:0:
16,76,58670,2,0,P|61:86|106:96,1,92.8200005665283,10|0,0:2|1:2,0:2:0:0:
262,0,58994,2,0,P|269:46|276:92,1,92.8200005665283,10|0,0:2|0:2,0:2:0:0:
203,321,59318,1,10,0:2:0:0:
372,68,59480,2,0,P|365:114|358:160,1,92.8200005665283,2|8,1:2|0:2,0:2:0:0:
454,355,59805,1,2,1:2:0:0:
215,232,59967,1,10,0:2:0:0:
451,122,60129,1,2,1:2:0:0:
277,357,60291,6,0,P|232:347|187:337,1,92.8200005665283,12|0,0:2|0:2,0:2:0:0:
300,80,60615,1,10,0:2:0:0:
422,342,60778,2,0,P|467:332|512:322,1,92.8200005665283,2|8,1:2|0:2,0:2:0:0:
415,81,61102,1,2,1:2:0:0:
293,341,61264,1,10,0:2:0:0:
512,194,61426,1,2,1:2:0:0:
309,93,61588,5,14,0:2:0:0:
422,342,61751,1,0,1:2:0:0:
404,26,61913,5,10,1:2:0:0:
277,315,62076,1,2,1:2:0:0:
226,0,62237,5,8,1:2:0:0:
360,271,62400,1,2,1:2:0:0:
479,12,62561,5,8,1:2:0:0:
194,140,62724,1,2,1:2:0:0:
194,140,62805,1,2,1:2:0:0:
194,140,62886,6,0,P|239:150|284:160,1,92.8200005665283,14|2,0:2|0:2,0:2:0:0:
475,273,63210,2,0,P|430:283|385:293,1,92.8200005665283,10|0,0:2|1:2,0:2:0:0:
233,384,63534,2,0,P|240:338|247:292,1,92.8200005665283,8|0,0:2|1:2,0:2:0:0:
361,103,63859,1,10,0:2:0:0:
135,209,64021,1,2,1:2:0:0:
359,335,64183,2,0,P|352:289|345:243,1,92.8200005665283,10|0,0:2|0:2,0:2:0:0:
469,49,64507,1,10,0:2:0:0:
249,198,64670,2,0,P|204:188|159:178,1,92.8200005665283,2|8,1:2|0:2,0:2:0:0:
364,30,64994,1,2,1:2:0:0:
238,307,65156,1,8,0:2:0:0:
94,47,65318,5,2,1:2:0:0:
94,47,65399,1,2,1:2:0:0:
94,47,65480,2,0,P|139:37|184:27,1,92.8200005665283,14|0,0:2|0:0,0:2:0:0:
278,185,65805,2,0,P|233:175|188:165,1,92.8200005665283,10|0,0:2|1:2,0:0:0:0:
390,28,66129,2,0,P|397:74|404:120,1,92.8200005665283,8|0,0:2|1:2,0:2:0:0:
300,312,66453,1,10,0:2:0:0:
512,195,66615,1,2,1:2:0:0:
291,92,66778,2,0,P|284:138|277:184,1,92.8200005665283,10|0,0:2|0:2,0:2:0:0:
162,362,67102,1,10,0:2:0:0:
388,209,67264,2,0,P|433:219|478:229,1,92.8200005665283,2|8,1:2|0:2,0:2:0:0:
330,3,67588,1,0,1:2:0:0:
196,233,67751,2,0,P|151:243|106:253,1,92.8200005665283,10|0,0:2|1:0,0:0:0:0:
317,85,68075,6,0,P|303:173|285:282,1,185.640001133057,14|10,0:2|0:2,0:2:0:0:
444,116,68561,2,0,P|437:70|430:24,1,92.8200005665283,2|8,1:2|0:2,0:2:0:0:
223,151,68886,1,2,1:2:0:0:
477,256,69048,1,10,0:2:0:0:
315,74,69210,1,2,1:2:0:0:
315,74,69291,1,0,1:2:0:0:
315,74,69372,2,0,P|222:54|136:131,1,185.640001133057,10|8,0:2|0:2,0:2:0:0:
10,262,69859,1,0,1:2:0:0:
109,27,70021,1,8,0:2:0:0:
208,262,70183,1,2,1:2:0:0:
33,95,70345,1,10,0:2:0:0:
172,355,70507,5,2,1:2:0:0:
172,355,70588,1,0,1:2:0:0:
172,355,70670,2,0,P|217:345|262:335,1,92.8200005665283,10|0,0:2|0:0,0:2:0:0:
353,97,70994,1,10,0:2:0:0:
512,374,71156,2,0,P|467:364|422:354,1,92.8200005665283,2|8,1:2|0:2,0:2:0:0:
197,232,71480,2,0,P|242:222|287:212,1,92.8200005665283,2|8,1:2|0:2,0:0:0:0:
433,59,71805,1,2,1:2:0:0:
349,302,71967,1,10,0:2:0:0:
349,302,72291,5,10,0:2:0:0:
284,2,72453,1,8,0:2:0:0:
210,339,72615,1,10,0:2:0:0:
370,18,72778,1,8,0:2:0:0:
403,384,72940,1,10,0:2:0:0:
266,31,73102,1,8,3:2:0:0:
191,366,73913,5,8,0:2:0:0:
458,197,74075,1,8,0:2:0:0:
204,71,74237,1,8,0:2:0:0:
411,299,74399,6,0,P|420:213|431:105,1,167.439994379151,6|2,1:2|1:2,0:2:0:0:
271,198,74886,1,10,0:2:0:0:
512,298,75048,1,2,1:2:0:0:
358,80,75210,1,2,3:2:0:0:
314,345,75372,1,2,1:2:0:0:
512,170,75534,1,10,0:2:0:0:
246,285,75697,2,0,P|198:276|154:268,1,83.7199971895753,2|0,1:2|3:2,0:2:0:0:
311,59,76021,2,0,P|327:105|342:147,1,83.7199971895753,2|8,1:2|0:2,0:0:0:0:
101,120,76345,2,0,P|127:88|154:56,1,83.7199971895753,2|0,1:2|3:2,0:2:0:0:
223,163,76670,1,2,1:2:0:0:
63,31,76832,1,10,0:2:0:0:
223,163,76994,6,0,B|275:137|316:177|303:183|331:219|396:195,1,167.439994379151,2|2,1:2|1:2,0:2:0:0:
498,87,77480,1,10,0:2:0:0:
417,305,77643,1,2,1:2:0:0:
366,75,77805,1,2,3:2:0:0:
423,331,77967,1,2,1:2:0:0:
498,87,78129,1,10,0:2:0:0:
285,308,78291,2,0,P|195:293|99:277,1,167.439994379151,6|2,1:2|1:2,0:2:0:0:
232,112,78778,1,10,0:2:0:0:
367,257,78940,2,0,P|408:249|449:241,1,83.7199971895753,6|0,1:2|0:2,0:2:0:0:
351,13,79264,1,10,0:2:0:0:
271,283,79426,1,10,0:2:0:0:
512,118,79588,6,0,B|464:91|423:131|436:137|408:173|343:149,1,167.439994379151,6|2,1:2|1:2,0:2:0:0:
177,23,80075,1,10,0:2:0:0:
275,273,80237,1,2,1:2:0:0:
351,13,80399,1,2,3:2:0:0:
180,217,80561,1,2,1:2:0:0:
398,94,80724,1,10,0:2:0:0:
164,334,80886,2,0,P|110:313|89:198,1,167.439994379151,2|2,1:2|1:2,0:2:0:0:
217,46,81372,1,8,0:2:0:0:
339,246,81534,2,0,B|282:228|233:212|233:212|203:237|170:268,1,167.439994379151,2|2,1:2|1:2,0:3:0:0:
332,54,82021,1,10,0:2:0:0:
440,323,82183,6,0,P|424:239|406:138,1,167.439994379151,6|2,1:2|1:2,0:2:0:0:
267,320,82670,5,10,0:2:0:0:
399,38,82832,1,2,1:2:0:0:
426,360,82994,5,10,0:2:0:0:
294,78,83156,1,2,1:2:0:0:
190,384,83318,5,10,0:2:0:0:
409,158,83480,1,6,1:2:0:0:
426,163,83805,5,2,1:2:0:0:
104,343,83968,1,10,0:2:0:0:
220,33,84130,1,6,1:2:0:0:
322,384,84292,1,0,0:0:0:0:
209,0,84454,1,2,1:2:0:0:
413,258,84616,1,10,0:2:0:0:
103,158,84778,5,6,1:3:0:0:
464,42,85102,5,6,1:3:0:0:
190,384,85426,5,6,1:3:0:0:
190,384,85751,5,10,1:2:0:0:
304,53,85913,1,10,0:2:0:0:
439,370,86075,6,0,P|470:327|431:228,1,152.880001866211,6|0,1:2|0:2,0:2:0:0:
318,184,86399,6,0,P|301:245|340:197,1,166.529993139176,6|0,1:2|0:2,0:2:0:0:
455,102,86724,6,0,B|356:60|257:138|331:180|229:271|117:220,1,393.12,6|2,1:2|0:2,0:2:0:0:
