osu file format v14

[General]
AudioFilename: audio.mp3
AudioLeadIn: 0
PreviewTime: 50805
Countdown: 0
SampleSet: Soft
StackLeniency: 0.7
Mode: 0
LetterboxInBreaks: 0
WidescreenStoryboard: 1

[Editor]
DistanceSpacing: 1
BeatDivisor: 4
GridSize: 32
TimelineZoom: 2.2

[Metadata]
Title:Over The Testament (TV Size)
TitleUnicode:Over The Testament (TV Size)
Artist:Metamorphose feat. Yoko Ishida
ArtistUnicode:Metamorphose feat. Yoko Ishida
Creator:My Angel Ram
Version:Reform's Expert
Source:新妹魔王の契約者 BURST
Tags:Japanese JPop J Pop J-Pop of Sister New Devil BURST Shinmai Maou no 石田燿子 Sotarks Reform Kujinn PikAqours Chiga Basensorex
BeatmapID:3078656
BeatmapSetID:1502678

[Difficulty]
HPDrainRate:5.2
CircleSize:4
OverallDifficulty:8.5
ApproachRate:9
SliderMultiplier:1.77
SliderTickRate:1

[Events]
//Background and Video events
0,0,"i guess gmt doesnt like boobas.jpg",0,0
//Break Periods
//Storyboard Layer 0 (Background)
//Storyboard Layer 1 (Fail)
//Storyboard Layer 2 (Pass)
//Storyboard Layer 3 (Foreground)
//Storyboard Layer 4 (Overlay)
//Storyboard Sound Samples

[TimingPoints]
616,324.324324324324,4,2,22,42,1,0
616,-175.438596491228,4,2,22,42,0,0
5805,-149.253731343284,4,2,22,42,0,0
8399,-103.092783505155,4,2,22,72,0,0
10994,-93.4579439252339,4,2,22,82,0,0
21372,-129.87012987013,4,2,22,52,0,0
30453,-103.092783505155,4,2,22,72,0,0
31751,-114.942528735632,4,2,22,62,0,0
39534,-103.092783505155,4,2,22,72,0,0
52507,-93.4579439252339,4,2,22,82,0,0
74399,-103.092783505155,4,2,22,72,0,0
86075,-85.4700854700857,4,2,22,72,0,0
86318,-85.4700854700857,4,2,22,5,0,0
86399,-85.4700854700857,4,2,22,72,0,0
86643,-85.4700854700857,4,2,22,5,0,0
86724,-370.37037037037,4,2,22,72,0,0
88913,-370.37037037037,4,2,22,5,0,0

[Colours]
Combo1 : 69,176,241
Combo2 : 121,222,255
Combo3 : 253,193,179

[HitObjects]
125,70,616,6,0,P|91:64|53:58,1,50.4449993842163,6|0,1:2|0:0,0:2:0:0:
174,148,940,2,0,P|198:143|223:139,1,50.4449993842163,2|2,3:2|0:2,0:0:0:0:
96,219,1264,1,0,0:0:0:0:
96,219,1426,2,0,L|85:147,1,50.4449993842163,2|0,0:2|3:2,0:0:0:0:
180,263,1751,2,0,L|161:382,1,100.889998768433,2|2,0:2|0:2,0:2:0:0:
164,362,2237,1,0,3:2:0:0:
265,297,2399,2,0,P|306:297|355:350,1,100.889998768433,2|2,0:2|0:2,0:2:0:0:
422,287,2886,2,0,L|416:228,1,50.4449993842163,0|2,3:2|1:2,0:0:0:0:
362,133,3210,6,0,L|420:143,1,50.4449993842163,6|0,1:2|0:0,0:2:0:0:
270,202,3534,2,0,L|212:212,1,50.4449993842163,2|2,3:2|0:2,0:0:0:0:
270,116,3859,1,0,0:0:0:0:
270,116,4021,2,0,L|279:53,1,50.4449993842163,2|0,0:2|3:2,0:0:0:0:
346,199,4345,2,0,L|364:317,1,100.889998768433,2|2,0:2|0:2,0:2:0:0:
283,360,4832,1,0,3:2:0:0:
283,360,4994,2,0,L|213:343,1,50.4449993842163,2|0,0:2|0:2,0:2:0:0:
165,264,5318,2,0,L|49:286,1,100.889998768433,2|0,0:2|1:2,0:0:0:0:
9,196,5805,6,0,P|45:170|79:169,1,59.2949971952135,6|2,1:2|0:2,0:2:0:0:
78,90,6129,2,0,P|106:98|127:118,1,59.2949971952135,2|2,1:2|0:2,0:2:0:0:
211,87,6453,2,0,P|218:115|211:143,1,59.2949971952135,0|2,1:2|0:2,0:2:0:0:
286,197,6778,2,0,P|265:217|237:225,1,59.2949971952135,0|2,1:2|0:2,0:2:0:0:
169,270,7102,6,0,P|205:296|239:297,1,59.2949971952135,0|2,1:2|0:2,0:2:0:0:
238,376,7426,2,0,P|266:368|287:348,1,59.2949971952135,0|2,1:2|0:2,0:2:0:0:
371,379,7750,2,0,P|378:350|371:322,1,59.2949971952135,0|2,1:2|0:2,0:2:0:0:
446,269,8075,2,0,P|425:248|397:240,1,59.2949971952135,2|2,1:2|0:2,0:2:0:0:
307,164,8399,6,0,L|292:260,1,85.8450020303307,14|2,0:2|1:2,0:0:0:0:
208,149,8724,1,2,1:2:0:0:
381,67,8886,2,0,L|396:163,1,85.8450020303307,14|0,0:2|1:2,0:0:0:0:
257,40,9210,1,2,1:2:0:0:
336,220,9372,6,0,P|386:243|435:231,1,85.8450020303307,8|6,0:2|1:2,0:0:0:0:
292,114,9697,1,0,1:2:0:0:
213,294,9859,2,0,P|163:317|114:305,1,85.8450020303307,10|0,0:2|1:2,0:0:0:0:
203,178,10183,1,0,1:2:0:0:
329,358,10345,5,10,0:2:0:0:
437,91,10507,1,14,0:2:0:0:
437,91,10994,6,0,P|447:143|458:201,1,94.694997110138,6|0,1:2|0:2,0:2:0:0:
275,317,11318,2,0,P|283:270|292:223,1,94.694997110138,8|0,0:2|1:2,0:0:0:0:
218,118,11643,1,10,0:2:0:0:
386,232,11805,1,0,1:2:0:0:
200,366,11967,2,0,P|184:311|209:259,1,94.694997110138,8|0,0:2|1:2,0:0:0:0:
346,136,12291,6,0,L|250:149,1,94.694997110138,10|0,0:2|0:2,0:2:0:0:
90,14,12615,2,0,P|137:16|180:42,1,94.694997110138,8|0,0:2|1:2,0:0:0:0:
244,237,12940,1,10,0:2:0:0:
86,145,13102,1,0,1:2:0:0:
262,72,13264,1,8,0:2:0:0:
163,248,13426,5,0,1:2:0:0:
163,248,13507,1,0,1:2:0:0:
163,248,13588,2,0,P|157:178|152:112,1,94.694997110138,10|0,0:2|0:0,0:2:0:0:
361,308,13913,2,0,P|367:238|372:172,1,94.694997110138,8|0,0:2|1:2,0:0:0:0:
135,344,14237,2,0,P|129:274|124:208,1,94.694997110138,8|0,0:2|1:2,0:2:0:0:
298,109,14561,1,10,0:2:0:0:
236,268,14724,1,0,1:2:0:0:
66,112,14886,6,0,P|115:88|170:103,1,94.694997110138,10|0,0:2|1:2,0:2:0:0:
128,258,15210,1,10,0:2:0:0:
303,152,15372,2,0,B|330:183|352:207|352:207|300:327,1,189.389994220276,6|2,1:2|1:2,0:2:0:0:
179,204,15859,1,8,0:2:0:0:
440,32,16021,6,0,B|346:8|374:115|242:65,1,189.389994220276,6|0,1:2|1:2,0:2:0:0:
65,179,16507,1,8,0:2:0:0:
182,0,16670,1,0,1:2:0:0:
231,228,16832,1,8,0:2:0:0:
49,78,16994,1,0,1:2:0:0:
278,79,17156,1,8,0:2:0:0:
143,281,17318,6,0,L|118:78,1,189.389994220276,6|0,1:2|1:2,0:2:0:0:
63,274,17805,1,8,0:2:0:0:
220,98,17967,1,0,1:2:0:0:
270,308,18129,1,8,0:2:0:0:
142,158,18291,1,0,1:2:0:0:
85,349,18453,1,8,0:2:0:0:
274,206,18615,6,0,B|346:218|346:218|369:266|369:266|452:283,1,189.389994220276,6|0,1:2|1:2,0:2:0:0:
370,102,19102,1,8,0:2:0:0:
285,301,19264,1,0,1:2:0:0:
187,83,19426,1,8,0:2:0:0:
367,187,19588,1,0,1:2:0:0:
168,274,19751,1,8,0:2:0:0:
355,67,19913,6,0,P|421:67|474:189,1,189.389994220276,6|2,1:2|1:2,0:2:0:0:
210,193,20399,1,14,0:2:0:0:
281,36,20561,1,2,0:2:0:0:
376,180,20724,2,0,L|358:288,1,94.694997110138,10|2,0:2|1:2,0:0:0:0:
127,197,21048,2,0,P|137:140|187:112,1,94.694997110138,10|6,0:3|0:3,0:0:0:0:
236,355,21372,5,6,1:2:0:0:
236,355,21697,2,0,P|187:343|143:333,1,68.1449986482468,10|0,0:2|0:2,0:2:0:0:
37,261,22021,2,0,P|86:249|130:239,1,68.1449986482468,2|0,3:2|1:2,0:2:0:0:
260,267,22345,1,10,0:2:0:0:
197,121,22507,6,0,P|145:149|150:245,1,136.289997296494,2|0,1:2|1:2,0:2:0:0:
300,158,22994,2,0,L|285:61,1,68.1449986482468,8|0,0:2|0:0,0:2:0:0:
389,227,23318,2,0,L|378:294,1,68.1449986482468,0|0,3:2|1:2,0:0:0:0:
491,147,23643,1,10,0:2:0:0:
491,147,23805,1,2,0:2:0:0:
304,254,23967,6,0,P|247:249|202:166,1,136.289997296494,2|10,1:2|0:2,0:2:0:0:
280,100,24453,2,0,L|287:179,1,68.1449986482468,2|0,0:2|3:2,0:2:0:0:
121,119,24778,2,0,L|128:52,1,68.1449986482468,2|8,1:2|0:2,0:0:0:0:
26,241,25102,6,0,B|101:223|77:286|159:267,1,136.289997296494,2|0,1:2|1:2,0:2:0:0:
253,366,25588,2,0,P|204:356|164:351,1,68.1449986482468,10|0,0:2|0:2,0:2:0:0:
259,185,25913,1,2,1:2:0:0:
329,313,26075,2,0,P|378:303|418:298,1,68.1449986482468,2|8,1:2|0:2,0:2:0:0:
319,123,26399,1,0,0:2:0:0:
240,273,26561,5,2,1:2:0:0:
240,273,26886,2,0,P|232:222|223:181,1,68.1449986482468,10|0,0:2|0:2,0:2:0:0:
354,110,27210,2,0,P|347:143|342:177,1,68.1449986482468,2|0,3:2|1:2,0:2:0:0:
232,88,27534,1,10,0:2:0:0:
324,264,27697,2,0,P|385:265|432:191,1,136.289997296494,2|0,1:2|1:2,0:2:0:0:
329,63,28183,1,10,0:2:0:0:
209,225,28345,6,0,P|166:211|126:198,1,68.1449986482468,2|0,0:2|3:2,0:2:0:0:
26,246,28670,1,2,1:2:0:0:
95,119,28832,1,10,0:2:0:0:
146,279,28994,2,0,P|200:268|284:254,1,136.289997296494,2|0,0:2|0:0,0:0:0:0:
370,154,29480,2,0,P|326:143|286:134,1,68.1449986482468,8|0,0:2|0:0,0:0:0:0:
204,58,29805,2,0,P|248:47|288:38,1,68.1449986482468,0|0,3:2|1:2,0:0:0:0:
185,179,30129,1,10,0:2:0:0:
112,80,30291,1,2,1:2:0:0:
36,199,30453,6,0,P|52:243|70:297,1,85.8450020303307,10|0,0:2|1:2,0:0:0:0:
69,310,30697,1,0,1:2:0:0:
69,310,30778,1,10,0:2:0:0:
196,191,30940,2,0,P|152:164|108:171,1,85.8450020303307,6|0,1:2|0:2,0:2:0:0:
160,345,31264,1,2,1:2:0:0:
299,264,31426,2,0,L|316:163,1,85.8450020303307,14|0,0:2|0:0,0:2:0:0:
441,55,31751,6,0,L|455:139,1,76.9950006461678,4|0,1:2|0:2,0:2:0:0:
240,125,32075,2,0,P|271:88|315:79,1,76.9950006461678,10|0,0:2|0:2,0:2:0:0:
257,239,32399,2,0,P|209:230|179:197,1,76.9950006461678,2|0,1:2|1:2,0:2:0:0:
352,173,32724,1,2,3:2:0:0:
210,364,32886,6,0,L|186:193,1,153.990001292336,10|0,0:2|1:2,0:2:0:0:
61,84,33372,2,0,L|47:180,1,76.9950006461678,8|0,0:2|0:2,0:2:0:0:
254,98,33697,2,0,L|242:21,1,76.9950006461678,0|0,1:2|1:2,0:0:0:0:
149,200,34021,1,10,0:2:0:0:
149,200,34183,1,2,0:2:0:0:
359,87,34345,6,0,P|383:134|345:240,1,153.990001292336,2|10,1:2|0:2,0:2:0:0:
178,268,34832,2,0,P|228:242|272:251,1,76.9950006461678,2|0,0:2|1:2,0:2:0:0:
395,354,35156,2,0,P|357:350|325:328,1,76.9950006461678,2|0,1:2|3:2,0:2:0:0:
462,212,35480,6,0,L|488:387,1,153.990001292336,10|0,0:2|1:2,0:2:0:0:
398,159,35967,2,0,P|441:130|477:132,1,76.9950006461678,10|0,0:2|0:2,0:2:0:0:
364,264,36291,2,0,P|317:241|301:209,1,76.9950006461678,2|0,1:2|1:2,0:2:0:0:
243,118,36615,1,10,0:2:0:0:
388,37,36778,5,2,1:2:0:0:
388,37,36859,1,0,1:2:0:0:
388,37,36940,2,0,B|409:64|420:90|420:90|370:201,2,153.990001292336,2|10|0,1:2|0:2|1:2,0:2:0:0:
258,130,37751,1,0,1:2:0:0:
361,250,37913,2,0,L|458:239,1,76.9950006461678,2|8,3:2|0:2,0:0:0:0:
292,61,38237,6,0,L|278:147,1,76.9950006461678,2|0,3:2|1:2,0:2:0:0:
147,241,38561,2,0,P|128:193|138:154,1,76.9950006461678,8|0,0:2|0:2,0:2:0:0:
296,308,38886,2,0,L|216:332,1,76.9950006461678,2|2,1:2|1:2,0:0:0:0:
281,163,39210,1,10,0:2:0:0:
379,283,39372,1,2,0:2:0:0:
424,86,39534,6,0,L|407:188,1,85.8450020303307,14|0,0:2|1:2,0:0:0:0:
459,337,39859,1,10,0:2:0:0:
251,147,40021,2,0,L|268:249,1,85.8450020303307,6|0,1:2|0:0,0:2:0:0:
209,384,40345,1,2,1:2:0:0:
368,274,40507,1,8,0:2:0:0:
179,202,40670,6,0,B|89:181|119:279|0:234,1,171.690004060661,6|0,1:2|1:2,0:2:0:0:
74,91,41156,1,8,0:2:0:0:
74,91,41237,1,8,0:2:0:0:
74,91,41318,2,0,L|82:158,1,42.9225010151654,8|8,0:3|0:3,0:2:0:0:
181,282,41480,1,8,0:3:0:0:
181,282,41561,1,8,0:3:0:0:
181,282,41642,2,0,L|189:215,1,42.9225010151654,8|8,0:3|0:3,0:2:0:0:
272,67,41805,1,14,0:2:0:0:
365,240,41967,1,10,0:2:0:0:
485,41,42129,6,0,P|438:15|388:27,1,85.8450020303307,6|0,1:2|1:2,0:2:0:0:
257,130,42453,1,10,0:2:0:0:
460,232,42615,2,0,L|471:140,1,85.8450020303307,2|0,1:2|0:2,0:2:0:0:
264,319,42940,2,0,P|308:353|360:349,1,85.8450020303307,2|8,1:2|0:2,0:2:0:0:
249,121,43264,6,0,B|195:109|195:109|151:139|151:139|81:121,1,171.690004060661,6|0,1:2|1:2,0:2:0:0:
191,366,43751,1,10,0:2:0:0:
283,195,43913,1,2,0:2:0:0:
123,258,44075,1,2,1:2:0:0:
292,347,44237,1,2,1:2:0:0:
120,174,44399,2,0,P|68:189|44:231,1,85.8450020303307,10|0,0:2|0:0,0:0:0:0:
298,344,44724,6,0,L|402:325,1,85.8450020303307,6|0,1:2|1:2,0:0:0:0:
291,107,45048,1,10,0:2:0:0:
195,290,45210,2,0,L|91:271,1,85.8450020303307,2|0,1:2|0:2,0:2:0:0:
224,39,45534,1,2,1:2:0:0:
299,243,45697,1,8,0:2:0:0:
91,56,45859,6,0,B|59:80|41:106|41:106|87:223,1,171.690004060661,6|0,1:2|1:2,0:2:0:0:
295,161,46345,2,0,L|309:70,1,85.8450020303307,10|2,0:2|1:2,0:2:0:0:
171,278,46670,1,10,0:2:0:0:
215,91,46832,1,2,1:2:0:0:
284,336,46994,1,10,0:3:0:0:
191,163,47156,1,6,0:3:0:0:
106,356,47318,6,0,P|98:290|88:248,1,85.8450020303307,6|0,1:2|1:2,0:2:0:0:
146,99,47643,1,2,1:2:0:0:
275,314,47805,2,0,P|283:248|293:206,1,85.8450020303307,10|0,0:2|1:2,0:2:0:0:
229,63,48130,1,2,1:2:0:0:
142,238,48291,2,0,P|89:221|40:212,1,85.8450020303307,14|0,0:2|1:2,0:2:0:0:
139,26,48615,1,2,1:2:0:0:
264,212,48778,2,0,P|317:195|366:186,1,85.8450020303307,10|0,0:2|1:2,0:2:0:0:
237,1,49102,1,2,1:2:0:0:
148,164,49264,2,0,P|167:227|179:286,1,85.8450020303307,14|0,0:2|1:2,0:2:0:0:
302,82,49588,1,10,0:2:0:0:
416,328,49751,6,0,P|356:379|252:344,1,171.690004060661,6|0,1:2|1:2,0:2:0:0:
132,162,50237,1,8,0:2:0:0:
322,237,50399,1,0,1:2:0:0:
157,76,50561,1,8,0:2:0:0:
236,309,50724,1,0,1:2:0:0:
295,82,50886,1,10,0:2:0:0:
128,249,51048,1,2,1:2:0:0:
442,171,51210,5,14,0:2:0:0:
442,171,52507,6,0,B|341:137|367:254|231:197,1,189.389994220276,14|10,0:2|0:2,0:2:0:0:
118,39,52994,1,0,1:2:0:0:
296,134,53156,1,8,0:2:0:0:
110,218,53318,1,0,1:2:0:0:
222,40,53480,1,10,0:2:0:0:
262,268,53643,1,2,1:2:0:0:
57,145,53805,6,0,P|106:127|171:148,1,94.694997110138,10|0,0:2|1:2,0:2:0:0:
358,256,54129,1,10,0:2:0:0:
236,82,54291,2,0,L|222:184,1,94.694997110138,2|8,1:2|0:2,0:2:0:0:
343,346,54615,2,0,L|330:252,1,94.694997110138,2|8,1:2|0:2,0:2:0:0:
143,296,54940,5,2,1:2:0:0:
143,296,55021,1,0,1:2:0:0:
143,296,55102,2,0,P|191:320|245:306,1,94.694997110138,14|2,0:2|0:0,0:2:0:0:
352,108,55426,1,10,0:2:0:0:
202,235,55588,1,0,1:2:0:0:
268,38,55751,1,8,0:2:0:0:
358,275,55913,1,0,1:2:0:0:
148,125,56075,1,10,0:2:0:0:
389,164,56237,1,2,1:2:0:0:
237,276,56399,6,0,L|252:157,1,94.694997110138,10|0,0:2|0:2,0:2:0:0:
172,41,56724,1,10,0:2:0:0:
87,236,56886,2,0,L|72:117,1,94.694997110138,2|8,1:2|0:2,0:2:0:0:
255,20,57210,1,2,1:2:0:0:
178,205,57372,1,8,0:2:0:0:
87,27,57534,1,2,1:2:0:0:
266,157,57697,6,0,P|317:181|373:167,1,94.694997110138,14|0,0:2|0:0,0:2:0:0:
512,40,58021,2,0,P|470:17|424:20,1,94.694997110138,8|0,0:2|1:2,0:0:0:0:
245,63,58345,1,10,0:2:0:0:
430,158,58507,1,0,1:2:0:0:
343,5,58670,2,0,L|326:125,1,94.694997110138,10|0,0:2|1:2,0:2:0:0:
174,231,58994,6,0,L|160:137,1,94.694997110138,10|0,0:2|0:2,0:2:0:0:
287,219,59318,1,10,0:2:0:0:
98,323,59480,2,0,P|73:283|77:236,1,94.694997110138,2|8,1:2|0:2,0:2:0:0:
268,127,59805,1,2,1:2:0:0:
194,318,59967,1,10,0:2:0:0:
97,145,60129,1,2,1:2:0:0:
288,331,60291,6,0,P|356:319|405:310,1,94.694997110138,12|0,0:2|0:2,0:2:0:0:
230,206,60615,1,10,0:2:0:0:
374,112,60778,2,0,P|362:178|353:244,1,94.694997110138,2|8,1:2|0:2,0:2:0:0:
278,74,61102,1,2,1:2:0:0:
459,181,61264,1,10,0:2:0:0:
270,257,61426,1,2,1:2:0:0:
415,37,61588,6,0,P|427:103|436:169,1,94.694997110138,14|0,0:2|1:2,0:2:0:0:
361,320,61913,1,10,1:2:0:0:
268,81,62075,2,0,P|256:147|247:213,1,94.694997110138,2|8,1:2|1:2,0:0:0:0:
402,332,62399,2,0,P|394:285|385:238,1,94.694997110138,2|8,1:2|1:2,0:0:0:0:
138,247,62724,5,2,1:2:0:0:
138,247,62805,1,2,1:2:0:0:
138,247,62886,2,0,B|238:220|216:316|331:286,1,189.389994220276,14|10,0:2|0:2,0:2:0:0:
446,156,63372,1,0,1:2:0:0:
372,351,63534,1,8,0:2:0:0:
289,130,63697,1,0,1:2:0:0:
455,292,63859,1,10,0:2:0:0:
370,65,64021,1,2,1:2:0:0:
282,297,64183,6,0,P|230:298|180:256,1,94.694997110138,10|0,0:2|0:2,0:2:0:0:
77,199,64507,1,10,0:2:0:0:
256,93,64670,2,0,L|269:205,1,94.694997110138,2|10,1:2|0:2,0:2:0:0:
88,329,64994,2,0,L|98:234,1,94.694997110138,2|8,1:2|0:2,0:2:0:0:
266,350,65318,5,2,1:2:0:0:
266,350,65399,1,2,1:2:0:0:
266,350,65480,2,0,P|323:358|369:331,1,94.694997110138,14|2,0:2|0:0,0:2:0:0:
461,148,65805,1,10,0:2:0:0:
264,224,65967,1,0,1:2:0:0:
460,305,66129,1,8,0:2:0:0:
304,120,66291,1,0,1:2:0:0:
355,343,66453,1,10,0:2:0:0:
461,148,66615,1,2,1:2:0:0:
251,307,66778,6,0,P|188:292|139:284,1,94.694997110138,10|0,0:2|0:2,0:2:0:0:
6,384,67102,1,10,0:2:0:0:
48,180,67264,2,0,L|67:280,1,94.694997110138,2|8,1:2|0:2,0:2:0:0:
165,100,67588,1,0,1:2:0:0:
230,361,67751,2,0,L|247:267,1,94.694997110138,10|0,0:2|1:2,0:0:0:0:
476,186,68075,6,0,P|443:240|325:236,1,189.389994220276,14|10,0:2|0:2,0:2:0:0:
372,69,68561,2,0,L|387:175,1,94.694997110138,2|8,1:2|0:2,0:2:0:0:
242,76,68886,1,2,1:2:0:0:
440,0,69048,1,10,0:2:0:0:
282,231,69210,5,2,1:2:0:0:
282,231,69291,1,0,1:2:0:0:
282,231,69372,2,0,L|295:137,1,94.694997110138,10|0,0:2|0:2,0:2:0:0:
117,16,69697,2,0,L|130:109,1,94.694997110138,8|0,0:2|1:2,0:2:0:0:
91,293,70021,1,8,0:2:0:0:
212,104,70183,1,2,1:2:0:0:
256,349,70345,1,10,0:2:0:0:
78,188,70507,1,2,1:2:0:0:
338,293,70670,6,0,P|404:278|459:267,1,94.694997110138,10|0,0:2|0:0,0:2:0:0:
289,66,70994,1,10,0:2:0:0:
201,247,71156,2,0,P|135:232|80:221,1,94.694997110138,2|8,1:2|0:2,0:2:0:0:
279,53,71480,2,0,P|345:38|400:27,1,94.694997110138,2|8,1:2|0:2,0:0:0:0:
273,268,71805,1,2,1:2:0:0:
104,98,71967,6,0,P|111:42|116:4,1,94.694997110138,10|0,0:2|0:2,0:2:0:0:
354,176,72291,1,10,0:2:0:0:
103,305,72453,1,8,0:2:0:0:
226,44,72615,1,10,0:2:0:0:
354,341,72778,1,8,0:2:0:0:
55,181,72940,1,10,0:2:0:0:
358,48,73102,1,8,3:2:0:0:
358,48,73913,5,8,0:2:0:0:
233,297,74075,1,8,0:2:0:0:
222,19,74237,1,8,0:2:0:0:
453,185,74399,6,0,B|364:161|392:259|283:219,1,171.690004060661,6|2,1:2|1:2,0:2:0:0:
121,107,74886,1,10,0:2:0:0:
230,301,75048,1,2,1:2:0:0:
288,96,75210,1,2,3:2:0:0:
126,262,75372,2,0,P|141:314|158:376,1,85.8450020303307,2|10,1:2|0:2,0:0:0:0:
358,265,75697,6,0,P|397:213|350:109,1,171.690004060661,2|2,1:2|1:2,0:2:0:0:
215,191,76183,1,10,0:2:0:0:
326,341,76345,2,0,P|378:351|438:360,1,85.8450020303307,2|0,1:2|3:2,0:0:0:0:
207,205,76670,2,0,P|155:215|95:224,1,85.8450020303307,2|10,1:2|0:2,0:0:0:0:
347,68,76994,6,0,B|397:124|397:124|348:225,1,171.690004060661,2|2,1:2|1:2,0:2:0:0:
125,53,77480,1,10,0:2:0:0:
231,238,77643,1,2,1:2:0:0:
284,28,77805,1,2,3:2:0:0:
101,190,77967,2,0,P|53:183|21:136,1,85.8450020303307,2|10,1:2|0:2,0:0:0:0:
343,128,78291,6,0,P|332:189|309:337,1,171.690004060661,6|2,1:2|1:2,0:2:0:0:
218,113,78778,1,10,0:2:0:0:
425,239,78940,1,6,1:2:0:0:
425,239,79264,1,10,0:2:0:0:
172,337,79426,1,10,0:2:0:0:
288,114,79588,6,0,B|347:101|347:101|388:125|388:125|465:106,1,171.690004060661,6|2,1:2|1:2,0:2:0:0:
289,251,80075,1,10,0:2:0:0:
180,49,80237,1,2,1:2:0:0:
344,144,80399,1,2,3:2:0:0:
146,244,80561,2,0,P|123:192|144:140,1,85.8450020303307,2|10,1:2|0:2,0:0:0:0:
361,33,80886,6,0,B|273:9|294:91|190:52,1,171.690004060661,2|2,1:2|1:2,0:2:0:0:
29,161,81372,1,10,0:2:0:0:
95,7,81534,2,0,P|106:67|118:125,1,85.8450020303307,2|0,1:2|3:2,0:0:0:0:
236,226,81859,2,0,P|243:183|251:141,1,85.8450020303307,2|10,1:2|0:2,0:0:0:0:
137,273,82183,6,0,P|186:328|307:293,1,171.690004060661,6|2,1:2|1:2,0:2:0:0:
491,112,82670,1,10,0:2:0:0:
370,330,82832,1,2,1:2:0:0:
381,57,82994,1,10,0:2:0:0:
340,335,83156,1,2,1:2:0:0:
262,79,83318,1,10,0:2:0:0:
97,353,83480,6,0,P|88:241|74:150,1,171.690004060661,6|2,1:2|1:2,0:2:0:0:
204,308,83967,1,10,0:2:0:0:
0,159,84129,2,0,P|59:97|142:123,1,171.690004060661,6|2,1:2|1:2,0:2:0:0:
332,273,84615,1,10,0:2:0:0:
284,34,84778,6,0,L|269:149,1,85.8450020303307,6|0,1:3|0:0,0:0:0:0:
127,278,85102,2,0,L|115:192,1,85.8450020303307,6|0,1:3|0:0,0:0:0:0:
267,15,85426,2,0,L|252:130,1,85.8450020303307,6|0,1:3|0:0,0:0:0:0:
304,294,85751,1,10,1:2:0:0:
121,88,85913,1,10,0:2:0:0:
421,171,86075,6,0,L|314:148,1,103.545000394993,6|0,1:2|0:0,0:2:0:0:
91,347,86399,2,0,L|202:321,1,103.545000394993,6|0,1:2|0:0,0:2:0:0:
130,152,86724,6,0,B|128:209|207:245|249:203|249:203|261:257|343:284|385:233,1,322.582507875549,6|0,1:2|0:0,0:2:0:0:
