osu file format v14

[General]
AudioFilename: audio.mp3
AudioLeadIn: 0
PreviewTime: 50805
Countdown: 0
SampleSet: Soft
StackLeniency: 0.7
Mode: 0
LetterboxInBreaks: 0
WidescreenStoryboard: 0

[Editor]
DistanceSpacing: 1
BeatDivisor: 4
GridSize: 8
TimelineZoom: 2.1

[Metadata]
Title:Over The Testament (TV Size)
TitleUnicode:Over The Testament (TV Size)
Artist:Metamorphose feat. Yoko Ishida
ArtistUnicode:Metamorphose feat. Yoko Ishida
Creator:My Angel Ram
Version:Extra
Source:新妹魔王の契約者 BURST
Tags:Japanese JPop J Pop J-Pop of Sister New Devil BURST Shinmai Maou no 石田燿子 Sotarks Reform Kujinn PikAqours Chiga Basensorex
BeatmapID:3078653
BeatmapSetID:1502678

[Difficulty]
HPDrainRate:5.8
CircleSize:4
OverallDifficulty:9
ApproachRate:9.2
SliderMultiplier:1.72
SliderTickRate:1

[Events]
//Background and Video events
0,0,"i guess gmt doesnt like boobas.jpg",0,0
//Break Periods
//Storyboard Layer 0 (Background)
//Storyboard Layer 1 (Fail)
//Storyboard Layer 2 (Pass)
//Storyboard Layer 3 (Foreground)
//Storyboard Layer 4 (Overlay)
//Storyboard Sound Samples

[TimingPoints]
616,324.324324324324,4,2,22,42,1,0
616,-192.307692307692,4,2,22,42,0,0
5805,-161.290322580645,4,2,22,42,0,0
8399,-108.695652173913,4,2,22,72,0,0
10994,-98.0392156862745,4,2,22,82,0,0
21372,-138.888888888889,4,2,22,52,0,0
30453,-138.888888888889,4,2,22,72,0,0
31670,-138.888888888889,4,2,22,5,0,0
31751,-121.951219512195,4,2,22,62,0,0
39534,-108.695652173913,4,2,22,72,0,0
52507,-98.0392156862745,4,2,22,82,0,0
74399,-108.695652173913,4,2,22,72,0,0
86075,-89.2857142857143,4,2,22,72,0,0
86318,-89.2857142857143,4,2,22,5,0,0
86399,-81.9672131147541,4,2,22,72,0,0
86643,-81.9672131147541,4,2,22,5,0,0
86724,-312.5,4,2,22,72,0,0
88913,-312.5,4,2,22,5,0,0

[Colours]
Combo1 : 69,176,241
Combo2 : 121,222,255
Combo3 : 253,193,179

[HitObjects]
77,56,616,5,6,1:2:0:0:
77,56,778,2,0,P|83:77|88:99,1,44.7199997270508,2|2,0:2|3:2,0:2:0:0:
165,214,1102,2,0,P|174:170|186:127,1,89.4399994541016,2|2,0:2|0:2,0:2:0:0:
250,37,1588,1,0,3:2:0:0:
250,37,1751,2,0,P|271:42|292:50,1,44.7199997270508,2|0,0:2|0:2,0:2:0:0:
293,172,2075,2,0,P|287:150|283:128,1,44.7199997270508,2|0,0:2|3:2,0:2:0:0:
389,74,2399,2,0,P|373:89|356:104,1,44.7199997270508,2|0,0:2|0:2,0:2:0:0:
245,23,2724,1,2,0:2:0:0:
140,338,3048,5,2,1:2:0:0:
82,196,3210,1,6,1:2:0:0:
82,196,3372,2,0,P|103:188|125:190,1,44.7199997270508,2|2,0:2|3:2,0:2:0:0:
210,138,3697,2,0,P|249:156|290:142,1,89.4399994541016,2|2,0:2|0:2,0:2:0:0:
370,199,4183,1,0,3:2:0:0:
370,199,4345,2,0,L|358:261,1,44.7199997270508,2|0,0:2|0:2,0:2:0:0:
443,317,4670,2,0,L|435:274,1,44.7199997270508,2|0,0:2|3:2,0:2:0:0:
358,173,4994,2,0,L|346:235,1,44.7199997270508,2|0,0:2|0:2,0:2:0:0:
261,333,5318,1,2,0:2:0:0:
222,68,5643,5,0,1:2:0:0:
195,200,5805,2,0,P|169:207|144:215,1,53.3199978846436,6|2,1:2|0:2,0:2:0:0:
26,118,6129,2,0,P|51:124|77:132,1,53.3199978846436,2|2,1:2|0:2,0:2:0:0:
61,298,6453,2,0,P|55:272|47:246,1,53.3199978846436,0|2,1:2|0:2,0:2:0:0:
157,163,6778,2,0,P|149:188|143:214,1,53.3199978846436,0|2,1:2|0:2,0:2:0:0:
176,329,7102,2,0,P|216:343|235:350,1,53.3199978846436,0|2,1:2|0:2,0:2:0:0:
346,237,7426,2,0,P|306:251|287:258,1,53.3199978846436,0|2,1:2|0:2,0:2:0:0:
417,363,7751,2,0,P|422:337|431:311,1,53.3199978846436,0|2,1:2|0:2,0:2:0:0:
332,185,8075,2,0,P|339:210|345:236,1,53.3199978846436,2|2,1:2|0:2,0:2:0:0:
243,347,8399,5,14,0:2:0:0:
504,273,8561,1,2,1:2:0:0:
227,363,8724,1,2,1:2:0:0:
437,104,8886,5,14,0:2:0:0:
384,365,9048,1,0,1:2:0:0:
257,137,9210,1,2,1:2:0:0:
476,272,9372,5,8,0:2:0:0:
350,26,9534,1,6,1:2:0:0:
209,275,9697,1,0,1:2:0:0:
481,127,9859,5,10,0:2:0:0:
219,30,10021,1,0,1:2:0:0:
339,297,10183,1,0,1:2:0:0:
478,18,10345,5,10,0:2:0:0:
157,132,10507,1,14,0:2:0:0:
41,279,10994,6,0,P|83:288|126:299,1,87.7200005354004,6|0,1:2|0:2,0:2:0:0:
346,175,11318,5,8,0:2:0:0:
266,371,11480,1,0,1:2:0:0:
265,89,11643,5,10,0:2:0:0:
409,278,11805,1,0,1:2:0:0:
432,15,11967,5,8,0:2:0:0:
294,248,12129,1,0,1:2:0:0:
148,12,12291,6,0,P|185:-8|228:-1,1,87.7200005354004,10|0,0:2|0:2,0:2:0:0:
450,250,12615,5,8,0:2:0:0:
354,27,12778,1,0,1:2:0:0:
297,323,12940,5,10,0:2:0:0:
416,107,13103,1,0,1:2:0:0:
477,353,13264,5,8,0:2:0:0:
239,127,13426,1,0,1:2:0:0:
239,127,13507,1,0,1:2:0:0:
239,127,13588,6,0,P|187:194|211:276,1,175.440001070801,10|8,0:2|0:2,0:2:0:0:
404,156,14075,1,0,1:2:0:0:
276,332,14237,2,0,P|234:317|192:307,1,87.7200005354004,8|0,0:2|1:2,0:2:0:0:
342,81,14561,2,0,P|352:123|361:166,1,87.7200005354004,10|0,0:2|1:2,0:2:0:0:
490,314,14886,2,0,P|499:271|509:228,1,87.7200005354004,10|0,0:2|1:2,0:2:0:0:
321,362,15210,1,10,0:2:0:0:
451,148,15372,2,0,P|461:190|470:233,1,87.7200005354004,6|0,1:2|0:2,0:2:0:0:
244,100,15697,1,2,1:2:0:0:
474,6,15859,1,8,0:2:0:0:
324,243,16021,6,0,B|288:209|231:234|256:259|199:281|163:255,1,175.440001070801,6|0,1:2|1:2,0:2:0:0:
0,127,16507,2,0,P|42:138|84:151,1,87.7200005354004,8|0,0:2|1:2,0:2:0:0:
303,46,16832,1,8,0:2:0:0:
137,268,16994,1,0,1:2:0:0:
87,8,17156,1,8,0:2:0:0:
305,230,17318,6,0,P|383:261|452:214,1,175.440001070801,6|0,1:2|1:2,0:2:0:0:
214,0,17805,2,0,P|203:42|193:85,1,87.7200005354004,8|0,0:2|1:2,0:2:0:0:
40,303,18129,1,8,0:2:0:0:
300,205,18291,1,0,1:2:0:0:
59,83,18453,1,8,0:2:0:0:
255,357,18615,6,0,P|273:271|290:185,1,175.440001070801,6|0,1:2|1:2,0:2:0:0:
10,311,19102,2,0,P|52:322|94:335,1,87.7200005354004,8|0,0:2|1:2,0:2:0:0:
308,165,19426,1,8,0:2:0:0:
170,384,19588,1,0,1:2:0:0:
106,140,19751,1,8,0:2:0:0:
380,268,19913,6,0,P|432:201|408:119,1,175.440001070801,6|2,1:2|1:2,0:2:0:0:
95,157,20399,2,0,P|137:168|179:181,1,87.7200005354004,14|2,0:2|0:2,0:2:0:0:
397,13,20724,1,10,0:2:0:0:
286,244,20886,1,2,1:2:0:0:
227,40,21048,1,10,0:3:0:0:
417,133,21210,1,6,0:3:0:0:
205,267,21372,6,0,L|187:193,1,61.9200015117188,6|0,1:2|0:2,0:2:0:0:
264,323,21697,2,0,L|208:375,1,61.9200015117188,10|0,0:2|0:2,0:2:0:0:
286,244,22021,2,0,L|359:265,1,61.9200015117188,2|0,3:2|1:2,0:2:0:0:
492,195,22345,1,10,0:2:0:0:
416,47,22507,6,0,B|399:73|382:87|382:87|407:153,1,123.840003023438,2|0,1:2|1:2,0:2:0:0:
486,294,22994,2,0,P|427:272|368:255,1,123.840003023438,8|0,0:2|3:2,0:2:0:0:
277,122,23480,1,0,1:2:0:0:
404,185,23643,1,10,0:2:0:0:
272,257,23805,1,2,0:2:0:0:
299,105,23967,6,0,L|316:182,1,61.9200015117188,2|0,1:2|0:2,0:2:0:0:
280,284,24291,1,10,0:2:0:0:
416,162,24453,2,0,L|399:239,1,61.9200015117188,2|0,0:2|3:2,0:2:0:0:
331,373,24778,1,2,1:2:0:0:
475,298,24940,1,8,0:2:0:0:
318,226,25102,6,0,B|278:221|254:197|254:197|221:203|202:231,1,123.840003023438,2|0,1:2|1:2,0:2:0:0:
300,380,25588,2,0,P|314:353|310:323,1,61.9200015117188,10|0,0:2|0:2,0:2:0:0:
183,207,25913,1,2,1:2:0:0:
215,347,26075,2,0,P|221:316|230:286,1,61.9200015117188,2|8,1:2|0:2,0:2:0:0:
265,171,26399,1,0,0:2:0:0:
107,334,26561,6,0,P|76:342|34:355,1,61.9200015117188,2|0,1:2|0:2,0:2:0:0:
148,183,26886,2,0,P|156:212|163:242,1,61.9200015117188,10|0,0:2|0:2,0:2:0:0:
258,353,27210,2,0,P|265:323|273:293,1,61.9200015117188,2|0,3:2|1:2,0:2:0:0:
142,340,27534,1,10,0:2:0:0:
245,205,27697,6,0,P|296:173|355:188,1,123.840003023438,2|0,1:2|1:2,0:2:0:0:
476,275,28183,1,10,0:2:0:0:
466,114,28345,2,0,P|457:143|450:173,1,61.9200015117188,2|0,0:2|3:2,0:2:0:0:
330,53,28670,1,2,1:2:0:0:
493,0,28832,1,10,0:2:0:0:
327,160,28994,5,2,0:2:0:0:
327,160,29156,2,0,P|268:140|208:124,2,123.840003023438,2|8|0,1:2|0:2|3:2,0:2:0:0:
222,271,29967,1,0,1:2:0:0:
259,117,30129,2,0,P|288:107|319:100,1,61.9200015117188,10|2,0:2|1:2,0:2:0:0:
496,237,30453,5,10,0:2:0:0:
325,184,30615,1,0,1:2:0:0:
325,184,30697,1,0,1:2:0:0:
325,184,30778,1,10,0:2:0:0:
464,61,30940,2,0,P|456:91|449:121,1,61.9200015117188,6|0,1:2|0:2,0:2:0:0:
468,302,31264,1,2,1:2:0:0:
291,190,31426,2,0,P|237:185|201:224,1,92.8800022675782,14|0,0:2|0:2,0:2:0:0:
146,293,31751,6,0,P|181:305|213:318,1,70.5200010760498,4|0,1:2|0:2,0:2:0:0:
309,127,32075,2,0,P|288:155|290:189,1,70.5200010760498,10|0,0:2|0:2,0:2:0:0:
368,361,32399,2,0,P|388:332|386:298,1,70.5200010760498,2|0,1:2|1:2,0:2:0:0:
266,182,32724,1,2,3:2:0:0:
141,363,32886,6,0,B|231:332|231:332|269:356,1,141.0400021521,10|0,0:2|1:2,0:2:0:0:
179,148,33372,2,0,L|162:231,1,70.5200010760498,8|0,0:2|0:2,0:2:0:0:
278,83,33697,1,0,1:2:0:0:
129,31,33859,1,0,1:2:0:0:
266,174,34021,2,0,P|298:160|332:151,1,70.5200010760498,10|2,0:2|0:2,0:2:0:0:
481,8,34345,6,0,P|414:21|393:85,1,141.0400021521,2|10,1:2|0:2,0:2:0:0:
466,247,34832,2,0,P|472:212|480:177,1,70.5200010760498,2|0,0:2|1:2,0:2:0:0:
308,65,35156,2,0,P|315:99|322:134,1,70.5200010760498,2|0,1:2|3:2,0:2:0:0:
147,278,35480,6,0,B|183:258|228:281|204:297|245:315|277:300,1,141.0400021521,10|0,0:2|1:2,0:2:0:0:
387,199,35967,2,0,P|352:206|318:214,1,70.5200010760498,10|0,0:2|0:2,0:2:0:0:
188,98,36291,2,0,P|222:105|256:113,1,70.5200010760498,2|0,1:2|1:2,0:2:0:0:
415,188,36615,1,10,0:2:0:0:
325,47,36778,1,2,1:2:0:0:
231,202,36940,6,0,P|196:260|222:323,1,141.0400021521,2|10,1:2|0:2,0:2:0:0:
351,258,37426,1,2,0:2:0:0:
237,353,37588,2,0,P|204:340|169:332,1,70.5200010760498,0|0,1:2|1:2,0:2:0:0:
79,192,37913,1,2,3:2:0:0:
216,257,38075,1,8,0:2:0:0:
85,356,38237,6,0,P|78:321|69:287,1,70.5200010760498,2|0,3:2|1:2,0:2:0:0:
207,177,38561,2,0,P|198:211|191:245,1,70.5200010760498,8|0,0:2|0:2,0:2:0:0:
95,84,38886,1,2,1:2:0:0:
239,50,39048,1,2,1:2:0:0:
97,181,39210,2,0,P|64:168|29:160,1,70.5200010760498,10|2,0:2|0:2,0:2:0:0:
261,24,39534,5,14,0:2:0:0:
208,236,39697,1,0,1:2:0:0:
109,39,39859,1,10,0:2:0:0:
331,202,40021,2,0,P|404:222|465:176,1,158.239994687988,6|2,1:2|1:2,0:2:0:0:
280,64,40507,1,8,0:2:0:0:
196,291,40670,6,0,P|181:213|161:136,1,158.239994687988,6|0,1:2|1:2,0:2:0:0:
401,28,41156,1,8,0:2:0:0:
401,28,41237,1,8,0:2:0:0:
401,27,41318,2,0,P|392:45|384:64,1,39.5599986719971,8|8,0:3|0:3,0:2:0:0:
271,159,41480,2,0,P|264:141|254:124,3,39.5599986719971,8|8|8|8,0:3|0:3|0:3|0:3,0:2:0:0:
422,274,41805,5,14,0:2:0:0:
282,39,41967,1,10,0:2:0:0:
282,39,42048,1,8,0:2:0:0:
282,39,42129,2,0,P|244:28|206:39,1,79.1199973439942,6|0,1:2|1:2,0:2:0:0:
44,146,42453,1,10,0:2:0:0:
234,232,42615,2,0,P|244:193|255:155,1,79.1199973439942,2|0,1:2|0:2,0:2:0:0:
23,29,42940,2,0,P|33:67|43:105,1,79.1199973439942,2|8,1:2|0:2,0:2:0:0:
145,247,43264,6,0,B|108:215|55:240|75:258|36:279|-1:256,1,158.239994687988,6|0,1:2|1:2,0:2:0:0:
280,372,43751,2,0,P|295:336|288:297,1,79.1199973439942,10|2,0:2|0:2,0:2:0:0:
170,140,44075,2,0,P|193:170|230:184,1,79.1199973439942,2|2,1:2|1:2,0:2:0:0:
442,157,44399,2,0,P|403:162|373:187,1,79.1199973439942,10|0,0:2|0:2,0:2:0:0:
250,381,44724,5,6,1:2:0:0:
415,279,44886,1,0,1:2:0:0:
258,179,45048,1,10,0:2:0:0:
382,360,45210,2,0,L|403:259,1,79.1199973439942,2|0,1:2|0:2,0:2:0:0:
178,103,45534,1,2,1:2:0:0:
272,288,45697,1,8,0:2:0:0:
411,120,45859,6,0,P|359:64|284:79,1,158.239994687988,6|0,1:2|1:2,0:2:0:0:
69,215,46345,2,0,P|108:224|146:236,1,79.1199973439942,10|2,0:2|1:2,0:2:0:0:
281,96,46670,1,10,0:2:0:0:
330,269,46832,1,2,1:2:0:0:
177,142,46994,1,10,0:3:0:0:
125,350,47156,1,6,0:3:0:0:
351,272,47318,6,0,P|360:233|369:194,1,79.1199973439942,6|0,1:2|1:2,0:2:0:0:
454,50,47643,1,2,1:2:0:0:
252,212,47805,2,0,P|244:173|235:134,1,79.1199973439942,10|0,0:2|1:2,0:2:0:0:
411,273,48129,1,2,1:2:0:0:
292,65,48291,6,0,P|283:103|275:142,1,79.1199973439942,14|0,0:2|1:2,0:2:0:0:
142,24,48615,1,2,1:2:0:0:
268,241,48778,2,0,P|310:227|357:216,1,79.1199973439942,10|0,0:2|1:2,0:2:0:0:
129,132,49102,1,2,1:2:0:0:
327,29,49264,2,0,P|318:67|310:106,1,79.1199973439942,14|2,0:2|1:2,0:2:0:0:
126,40,49588,1,10,0:2:0:0:
283,268,49751,2,0,P|360:276|413:221,1,158.239994687988,6|0,1:2|1:2,0:2:0:0:
207,139,50237,5,8,0:2:0:0:
103,375,50399,1,0,1:2:0:0:
113,81,50561,5,8,0:2:0:0:
225,333,50723,1,0,1:2:0:0:
292,59,50886,5,10,0:2:0:0:
19,240,51048,1,2,1:2:0:0:
381,384,51210,1,14,0:2:0:0:
21,25,52345,5,2,1:2:0:0:
21,25,52426,1,2,1:2:0:0:
21,25,52507,2,0,P|32:67|42:109,1,87.7200005354004,14|2,0:2|0:2,0:2:0:0:
228,254,52832,2,0,P|238:211|249:168,1,87.7200005354004,10|0,0:2|1:2,0:2:0:0:
0,330,53156,2,0,P|42:341|84:354,1,87.7200005354004,8|0,0:2|1:2,0:2:0:0:
333,153,53480,1,10,0:2:0:0:
103,232,53643,1,2,1:2:0:0:
300,384,53805,6,0,P|307:340|318:298,1,87.7200005354004,10|0,0:2|1:2,0:2:0:0:
430,84,54129,1,10,0:2:0:0:
206,243,54291,2,0,P|198:199|187:157,1,87.7200005354004,2|8,1:2|0:2,0:2:0:0:
424,12,54615,2,0,P|413:54|405:97,1,87.7200005354004,2|8,1:2|0:2,0:2:0:0:
218,254,54940,5,2,1:2:0:0:
218,254,55021,1,0,1:2:0:0:
218,254,55102,2,0,B|265:225|312:260|284:275|331:308|375:283,1,175.440001070801,14|10,0:2|0:2,0:2:0:0:
512,173,55588,1,0,1:2:0:0:
299,28,55751,2,0,P|310:70|319:113,1,87.7200005354004,8|0,0:2|1:2,0:2:0:0:
508,310,56075,1,10,0:2:0:0:
411,97,56237,1,2,1:2:0:0:
291,319,56399,6,0,P|247:327|204:336,1,87.7200005354004,10|0,0:2|0:2,0:2:0:0:
255,109,56724,1,10,0:2:0:0:
436,299,56886,2,0,P|425:341|416:384,1,87.7200005354004,2|8,1:2|0:2,0:2:0:0:
254,171,57210,2,0,P|245:128|233:85,1,87.7200005354004,2|8,1:2|0:2,0:2:0:0:
131,337,57534,5,2,1:2:0:0:
131,337,57615,1,0,1:2:0:0:
131,336,57697,2,0,P|46:342|-3:275,1,175.440001070801,14|8,0:2|0:2,0:2:0:0:
275,155,58183,1,0,1:2:0:0:
58,40,58345,2,0,P|69:82|78:125,1,87.7200005354004,10|0,0:2|1:2,0:2:0:0:
282,245,58670,2,0,P|290:202|302:159,1,87.7200005354004,10|0,0:2|1:2,0:2:0:0:
31,315,58994,6,0,P|73:323|116:332,1,87.7200005354004,10|0,0:2|0:2,0:2:0:0:
369,246,59318,1,10,0:2:0:0:
148,97,59480,2,0,P|159:139|168:182,1,87.7200005354004,2|8,1:2|0:2,0:2:0:0:
347,369,59805,1,2,1:2:0:0:
105,251,59967,1,10,0:2:0:0:
343,140,60129,1,2,1:2:0:0:
127,349,60291,6,0,P|84:340|42:332,1,87.7200005354004,12|0,0:2|0:2,0:2:0:0:
207,135,60615,1,10,0:2:0:0:
314,384,60778,2,0,P|323:341|336:299,1,87.7200005354004,2|8,1:2|0:2,0:2:0:0:
126,73,61102,1,2,1:2:0:0:
232,295,61264,1,10,0:2:0:0:
334,67,61426,1,2,1:2:0:0:
112,255,61588,6,0,P|71:269|29:259,1,87.7200005354004,14|0,0:2|1:2,0:2:0:0:
167,119,61913,5,10,1:2:0:0:
246,267,62075,1,2,1:2:0:0:
308,54,62237,1,8,1:2:0:0:
145,310,62399,1,2,1:2:0:0:
24,7,62561,1,8,1:2:0:0:
335,298,62724,5,2,1:2:0:0:
335,298,62805,1,2,1:2:0:0:
335,298,62886,2,0,P|389:309|436:319,1,87.7200005354004,14|2,0:2|0:2,0:2:0:0:
512,115,63210,2,0,P|458:126|411:136,1,87.7200005354004,10|0,0:2|1:2,0:2:0:0:
234,0,63534,2,0,P|245:42|255:84,1,87.7200005354004,8|0,0:2|1:2,0:2:0:0:
413,279,63859,1,10,0:2:0:0:
171,202,64021,1,2,1:2:0:0:
395,67,64183,6,0,P|383:109|373:151,1,87.7200005354004,10|0,0:2|0:2,0:2:0:0:
393,367,64507,1,10,0:2:0:0:
196,218,64670,2,0,P|142:229|95:239,1,87.7200005354004,2|8,1:2|0:2,0:2:0:0:
408,95,64994,2,0,P|462:106|509:116,1,87.7200005354004,2|8,1:2|0:2,0:2:0:0:
341,353,65318,5,2,1:2:0:0:
341,353,65399,1,2,1:2:0:0:
341,353,65480,2,0,B|235:318|235:318|166:360,1,175.440001070801,14|10,0:2|0:2,0:2:0:0:
452,211,65967,1,0,1:2:0:0:
218,116,66129,2,0,P|225:159|232:202,1,87.7200005354004,8|0,0:2|1:2,0:2:0:0:
404,70,66453,1,10,0:2:0:0:
169,0,66615,1,2,1:2:0:0:
370,201,66778,6,0,P|412:212|454:201,1,87.7200005354004,10|0,0:2|0:2,0:2:0:0:
297,1,67102,1,10,0:2:0:0:
178,203,67264,2,0,P|185:246|192:289,1,87.7200005354004,2|8,1:2|0:2,0:2:0:0:
400,104,67588,1,0,1:2:0:0:
400,104,67670,1,0,1:2:0:0:
400,104,67751,2,0,P|355:97|310:87,1,87.7200005354004,10|0,0:2|1:0,0:0:0:0:
368,292,68075,6,0,P|451:287|485:211,1,175.440001070801,14|10,0:2|0:2,0:2:0:0:
236,0,68561,2,0,P|229:43|222:86,1,87.7200005354004,2|8,1:2|0:2,0:2:0:0:
60,291,68886,1,2,1:2:0:0:
295,181,69048,1,10,0:2:0:0:
72,74,69210,5,2,1:2:0:0:
72,74,69291,1,0,1:2:0:0:
72,74,69372,2,0,P|79:117|86:160,1,87.7200005354004,10|0,0:2|0:2,0:2:0:0:
297,259,69697,2,0,P|304:216|311:173,1,87.7200005354004,8|0,0:2|1:2,0:2:0:0:
146,374,70021,1,8,0:2:0:0:
385,273,70183,1,2,1:2:0:0:
164,141,70345,1,10,0:2:0:0:
288,366,70507,5,2,1:2:0:0:
288,366,70588,1,0,1:2:0:0:
288,366,70670,2,0,B|327:396|375:358|364:348|411:316|448:349,1,175.440001070801,10|10,0:2|0:2,0:2:0:0:
308,123,71156,2,0,P|301:166|294:209,1,87.7200005354004,2|8,1:2|0:2,0:2:0:0:
133,73,71480,1,2,1:2:0:0:
364,16,71643,1,8,0:2:0:0:
166,176,71805,5,2,1:2:0:0:
166,176,71886,1,2,1:2:0:0:
166,176,71967,2,0,P|159:133|152:90,1,87.7200005354004,10|0,0:2|0:2,0:2:0:0:
388,176,72291,1,10,0:2:0:0:
174,304,72453,1,8,0:2:0:0:
306,110,72615,1,10,0:2:0:0:
344,361,72778,1,8,0:2:0:0:
227,49,72940,1,10,0:2:0:0:
72,384,73102,1,8,3:2:0:0:
115,249,73913,5,8,0:2:0:0:
348,357,74075,1,8,0:2:0:0:
236,120,74237,1,8,0:2:0:0:
72,340,74399,6,0,B|114:313|163:342|139:358|189:385|216:365,1,158.239994687988,6|2,1:2|1:2,0:2:0:0:
353,219,74886,2,0,P|314:226|275:235,1,79.1199973439942,10|2,0:2|1:2,0:2:0:0:
68,87,75210,1,2,3:2:0:0:
193,240,75372,1,2,1:2:0:0:
185,27,75534,1,10,0:2:0:0:
73,238,75697,6,0,P|32:172|50:97,1,158.239994687988,2|2,1:2|1:2,0:2:0:0:
294,177,76183,1,8,0:2:0:0:
148,0,76345,2,0,P|158:38|166:77,1,79.1199973439942,2|0,1:2|3:2,0:2:0:0:
111,251,76670,1,2,1:2:0:0:
254,103,76832,1,10,0:2:0:0:
280,311,76994,6,0,P|357:293|435:279,1,158.239994687988,2|2,1:2|1:2,0:2:0:0:
285,83,77480,2,0,P|275:121|267:160,1,79.1199973439942,10|2,0:2|1:2,0:2:0:0:
85,320,77805,1,2,3:2:0:0:
178,153,77967,1,2,1:2:0:0:
223,342,78129,1,10,0:2:0:0:
64,227,78291,6,0,P|55:188|46:149,1,79.1199973439942,6|0,1:2|0:2,0:2:0:0:
241,257,78615,1,2,1:2:0:0:
42,362,78778,1,10,0:2:0:0:
184,164,78940,2,0,P|219:147|256:155,1,79.1199973439942,6|0,1:2|0:2,0:2:0:0:
482,330,79264,1,10,0:2:0:0:
370,116,79426,1,10,0:2:0:0:
266,344,79588,6,0,B|182:312|182:312|115:343,1,158.239994687988,6|2,1:2|1:2,0:2:0:0:
217,122,80075,2,0,P|226:160|234:199,1,79.1199973439942,10|2,0:2|1:2,0:2:0:0:
386,90,80399,1,2,3:2:0:0:
219,26,80561,1,2,1:2:0:0:
328,208,80724,1,10,0:2:0:0:
442,13,80886,6,0,B|407:-12|358:17|382:30|332:60|297:38,1,158.239994687988,2|2,1:2|1:2,0:2:0:0:
104,0,81372,1,8,0:2:0:0:
234,199,81535,2,0,P|243:160|257:123,1,79.1199973439942,2|0,1:2|3:2,0:3:0:0:
128,330,81859,1,2,1:2:0:0:
339,237,82021,1,10,0:2:0:0:
150,115,82183,6,0,P|73:122|32:187,1,158.239994687988,6|2,1:2|1:2,0:2:0:0:
442,289,82670,5,10,0:2:0:0:
315,60,82832,1,2,1:2:0:0:
276,348,82994,5,10,0:2:0:0:
404,119,83156,1,2,1:2:0:0:
504,367,83318,5,10,0:2:0:0:
261,214,83480,2,0,B|213:214|178:178|178:178|139:192|133:221,1,158.239994687988,6|2,1:2|1:2,0:2:0:0:
458,146,83967,1,10,0:2:0:0:
271,0,84129,2,0,B|258:33|228:47|228:47|256:134,1,158.239994687988,6|2,1:2|1:2,0:2:0:0:
457,344,84615,1,10,0:2:0:0:
186,246,84778,5,6,1:3:0:0:
442,35,85102,5,6,1:3:0:0:
290,360,85426,5,6,1:3:0:0:
85,29,85751,5,10,1:2:0:0:
167,166,85913,1,10,0:2:0:0:
244,21,86075,2,0,B|325:60|325:60|345:43|378:34,1,144.480001763672,6|0,1:2|0:2,0:2:0:0:
443,0,86399,2,0,P|387:48|403:121,1,157.379993516144,6|0,1:2|0:2,0:2:0:0:
466,221,86724,6,0,B|371:181|276:256|347:296|249:383|141:334,1,371.52,6|2,1:2|0:2,0:2:0:0:
