osu file format v14

[General]
AudioFilename: audio.mp3
AudioLeadIn: 0
PreviewTime: 50805
Countdown: 0
SampleSet: Soft
StackLeniency: 0.7
Mode: 0
LetterboxInBreaks: 0
WidescreenStoryboard: 1

[Editor]
DistanceSpacing: 1
BeatDivisor: 4
GridSize: 32
TimelineZoom: 1

[Metadata]
Title:Over The Testament (TV Size)
TitleUnicode:Over The Testament (TV Size)
Artist:Metamorphose feat. Yoko Ishida
ArtistUnicode:Metamorphose feat. Yoko Ishida
Creator:My Angel Ram
Version:Chiga's Hard
Source:新妹魔王の契約者 BURST
Tags:Japanese JPop J Pop J-Pop of Sister New Devil BURST Shinmai Maou no 石田燿子 Sotarks Reform Kujinn PikAqours Chiga Basensorex
BeatmapID:3078652
BeatmapSetID:1502678

[Difficulty]
HPDrainRate:4
CircleSize:3.4
OverallDifficulty:6
ApproachRate:8
SliderMultiplier:1.87
SliderTickRate:1

[Events]
//Background and Video events
0,0,"i guess gmt doesnt like boobas.jpg",0,0
//Break Periods
//Storyboard Layer 0 (Background)
//Storyboard Layer 1 (Fail)
//Storyboard Layer 2 (Pass)
//Storyboard Layer 3 (Foreground)
//Storyboard Layer 4 (Overlay)
//Storyboard Sound Samples

[TimingPoints]
616,324.324324324324,4,2,22,42,1,0
616,-175.438596491228,4,2,22,42,0,0
5805,-149.253731343284,4,2,22,42,0,0
8399,-129.87012987013,4,2,22,72,0,0
10994,-129.87012987013,4,2,22,82,0,0
21372,-149.253731343284,4,2,22,52,0,0
30453,-149.253731343284,4,2,22,72,0,0
31670,-149.253731343284,4,2,22,5,0,0
31751,-149.253731343284,4,2,22,62,0,0
39453,-149.253731343284,4,2,22,5,0,0
39534,-149.253731343284,4,2,22,72,0,0
47318,-129.87012987013,4,2,22,72,0,0
52507,-129.87012987013,4,2,22,82,0,0
63129,-129.87012987013,4,2,22,82,0,0
63210,-129.87012987013,4,2,22,82,0,0
72210,-129.87012987013,4,2,22,5,0,0
72291,-129.87012987013,4,2,22,82,0,0
74399,-129.87012987013,4,2,22,72,0,0
86318,-129.87012987013,4,2,22,5,0,0
86399,-129.87012987013,4,2,22,72,0,0
86643,-129.87012987013,4,2,22,5,0,0
86724,-175.438596491228,4,2,22,72,0,0
88913,-175.438596491228,4,2,22,5,0,0

[Colours]
Combo1 : 69,176,241
Combo2 : 121,222,255
Combo3 : 253,193,179

[HitObjects]
64,148,616,6,0,L|79:211,1,53.2949993494263,6|2,1:2|0:2,0:2:0:0:
126,67,940,1,2,3:2:0:0:
126,67,1102,2,0,P|190:51|226:82,1,106.589998698853,2|2,0:2|0:2,0:2:0:0:
228,172,1588,1,0,3:2:0:0:
228,172,1751,6,0,P|246:190|285:194,1,53.2949993494263,2|0,0:2|0:2,0:2:0:0:
360,248,2075,2,0,P|416:234|479:224,2,106.589998698853,2|2|2,0:2|0:2|0:2,0:2:0:0:
307,322,2886,1,0,3:2:0:0:
307,322,3048,1,2,1:2:0:0:
224,241,3210,6,0,P|222:205|239:171,1,53.2949993494263,6|0,1:2|0:0,0:2:0:0:
152,311,3534,1,2,3:2:0:0:
152,311,3697,2,0,P|116:276|41:276,1,106.589998698853,2|2,0:2|0:2,0:2:0:0:
5,337,4183,1,0,3:2:0:0:
5,337,4345,6,0,P|32:353|71:351,1,53.2949993494263,2|0,0:2|0:2,0:2:0:0:
152,311,4670,2,0,P|188:276|263:276,1,106.589998698853,2|2,0:2|0:2,0:2:0:0:
294,353,5156,1,0,0:2:0:0:
294,353,5318,2,0,B|284:306|284:306|288:301|288:301|272:225,1,106.589998698853,2|0,0:2|1:2,0:0:0:0:
197,179,5805,6,0,L|209:117,1,62.6449970367509,6|2,1:2|0:2,0:2:0:0:
141,39,6129,1,2,1:2:0:0:
141,39,6291,2,0,P|115:19|60:23,1,62.6449970367509,2|0,0:2|1:2,0:0:0:0:
209,117,6615,2,0,L|294:102,1,62.6449970367509,2|0,0:2|1:2,0:0:0:0:
389,111,6940,6,0,B|407:83|407:83|399:47,1,62.6449970367509,2|0,0:2|1:2,0:0:0:0:
367,202,7264,2,0,B|397:211|397:211|430:195,1,62.6449970367509,2|0,0:2|1:2,0:0:0:0:
276,211,7588,2,0,B|273:243|273:243|298:270,1,62.6449970367509,2|0,0:2|1:2,0:0:0:0:
209,117,7913,1,2,0:2:0:0:
209,117,8075,2,0,L|147:127,1,62.6449970367509,2|2,1:2|0:2,0:2:0:0:
59,83,8399,5,14,0:2:0:0:
59,83,8561,1,2,1:2:0:0:
0,159,8724,1,2,1:2:0:0:
75,256,8886,2,0,L|51:339,1,71.9949985718766,14|0,0:2|1:2,0:0:0:0:
167,196,9210,2,0,L|147:126,1,71.9949985718766,2|8,1:2|0:2,0:0:0:0:
277,274,9534,6,0,B|317:271|339:306|339:306|356:334|398:340,1,143.989997143753,6|10,1:2|0:2,0:0:0:0:
475,244,10021,2,0,P|439:254|397:262,1,71.9949985718766,0|0,1:2|1:2,0:0:0:0:
329,159,10345,5,10,0:2:0:0:
277,274,10507,1,14,0:2:0:0:
277,274,10994,6,0,P|206:248|127:225,1,143.989997143753,6|8,1:2|0:2,0:2:0:0:
25,241,11480,1,0,1:2:0:0:
25,241,11643,2,0,P|6:274|15:322,1,71.9949985718766,10|0,0:2|1:2,0:0:0:0:
74,153,11967,2,0,L|55:62,1,71.9949985718766,8|0,0:2|1:2,0:0:0:0:
151,16,12291,6,0,B|216:32|216:32|221:39|221:39|295:57,1,143.989997143753,10|8,0:2|0:2,0:2:0:0:
381,21,12778,1,0,1:2:0:0:
381,21,12940,2,0,P|384:72|364:110,1,71.9949985718766,10|0,0:2|1:2,0:0:0:0:
286,160,13264,2,0,L|303:247,1,71.9949985718766,8|0,0:2|1:2,0:0:0:0:
312,245,13507,1,0,1:2:0:0:
324,259,13588,6,0,P|326:318|243:354,1,143.989997143753,10|8,0:2|0:2,0:2:0:0:
162,366,14075,1,0,1:2:0:0:
162,366,14237,2,0,P|125:346|90:344,1,71.9949985718766,8|0,0:2|1:2,0:2:0:0:
0,278,14561,2,0,P|35:273|66:255,1,71.9949985718766,10|0,0:2|1:2,0:2:0:0:
99,148,14886,6,0,B|73:55|73:55|72:86|51:106,1,143.989997143753,10|10,0:2|0:2,0:2:0:0:
184,193,15372,2,0,L|210:102,1,71.9949985718766,6|0,1:2|0:2,0:2:0:0:
108,238,15697,1,2,1:2:0:0:
150,322,15859,1,8,0:2:0:0:
49,354,16021,6,0,B|84:333|120:349|120:349|160:367|201:345,1,143.989997143753,6|0,1:2|1:2,0:2:0:0:
260,266,16507,2,0,P|311:262|350:292,1,71.9949985718766,8|0,0:2|1:2,0:2:0:0:
184,193,16832,1,8,0:2:0:0:
184,193,16994,2,0,P|133:189|94:219,1,71.9949985718766,0|8,1:2|0:2,0:0:0:0:
282,158,17318,6,0,P|309:95|269:20,1,143.989997143753,6|0,1:2|1:2,0:2:0:0:
186,3,17805,2,0,P|142:28|133:63,1,71.9949985718766,8|0,0:2|1:2,0:2:0:0:
64,110,18129,1,8,0:2:0:0:
64,110,18291,2,0,L|80:188,1,71.9949985718766,0|8,1:2|0:2,0:0:0:0:
184,193,18615,2,0,L|150:337,1,143.989997143753,6|0,1:2|1:2,0:2:0:0:
57,381,19102,6,0,P|17:364|2:329,1,71.9949985718766,8|0,0:2|1:2,0:2:0:0:
150,333,19426,2,0,L|228:351,1,71.9949985718766,8|0,0:2|1:2,0:0:0:0:
297,289,19751,1,8,0:2:0:0:
381,365,19913,6,0,B|418:322|418:322|376:223,1,143.989997143753,6|2,1:2|1:2,0:2:0:0:
418,140,20399,2,0,P|450:124|503:134,1,71.9949985718766,14|2,0:2|0:2,0:2:0:0:
311,170,20724,1,10,0:2:0:0:
311,170,20886,1,2,1:2:0:0:
311,170,21048,2,0,L|219:141,1,71.9949985718766,10|6,0:3|0:3,0:0:0:0:
151,178,21372,5,6,1:2:0:0:
75,59,21697,2,0,P|102:20|176:20,1,125.289994073502,10|2,0:2|3:2,0:2:0:0:
214,93,22183,2,0,P|237:115|267:121,1,62.6449970367509,0|10,1:2|0:2,0:0:0:0:
342,64,22507,6,0,B|379:108|379:108|339:183,1,125.289994073502,2|0,1:2|1:2,0:2:0:0:
272,217,22994,2,0,P|262:292|299:327,1,125.289994073502,8|0,0:2|3:2,0:2:0:0:
371,375,23480,1,0,1:2:0:0:
371,375,23643,2,0,P|405:366|454:357,1,62.6449970367509,10|2,0:2|0:2,0:0:0:0:
512,294,23967,6,0,P|450:280|390:264,1,125.289994073502,2|10,1:2|0:2,0:2:0:0:
335,193,24453,2,0,P|335:157|365:128,1,62.6449970367509,2|0,0:2|3:2,0:2:0:0:
286,272,24778,2,0,L|209:289,1,62.6449970367509,2|8,1:2|0:2,0:0:0:0:
131,220,25102,6,0,B|118:191|123:161|123:161|150:142|184:145,1,125.289994073502,2|0,1:2|1:2,0:2:0:0:
302,106,25588,2,0,P|256:90|222:75,1,62.6449970367509,10|0,0:2|0:2,0:2:0:0:
146,20,25913,1,2,1:2:0:0:
146,20,26075,2,0,P|78:30|61:92,1,125.289994073502,2|0,1:2|0:2,0:2:0:0:
103,154,26561,1,2,1:2:0:0:
17,238,26886,6,0,P|83:250|144:265,1,125.289994073502,10|2,0:2|3:2,0:2:0:0:
218,324,27372,2,0,P|224:362|215:388,1,62.6449970367509,0|10,1:2|0:2,0:0:0:0:
293,238,27697,2,0,P|339:202|407:223,1,125.289994073502,2|0,1:2|1:2,0:2:0:0:
432,303,28183,1,10,0:2:0:0:
432,303,28345,2,0,P|441:238|457:163,1,125.289994073502,2|2,0:2|1:2,0:2:0:0:
384,94,28832,1,10,0:2:0:0:
384,94,28994,6,0,B|349:89|324:108|324:108|299:129|256:122,1,125.289994073502,2|0,0:2|0:0,0:0:0:0:
165,77,29480,2,0,P|157:29|172:-4,1,62.6449970367509,8|0,0:2|0:0,0:0:0:0:
187,172,29805,2,0,L|167:250,1,62.6449970367509,0|0,3:2|1:2,0:0:0:0:
87,284,30129,1,10,0:2:0:0:
87,284,30291,1,2,1:2:0:0:
159,373,30453,6,0,P|193:366|248:357,1,62.6449970367509,10|0,0:2|1:2,0:0:0:0:
239,364,30697,1,0,1:2:0:0:
252,373,30778,1,10,0:2:0:0:
337,316,30940,2,0,P|343:281|330:244,1,62.6449970367509,6|0,1:2|0:2,0:2:0:0:
255,212,31264,1,2,1:2:0:0:
329,133,31426,2,0,L|309:34,1,93.9674955551264,14|0,0:2|0:2,0:2:0:0:
306,23,31751,5,4,1:2:0:0:
193,101,32075,2,0,L|71:74,1,125.289994073502,10|2,0:2|1:2,0:2:0:0:
7,178,32561,2,0,L|80:160,1,62.6449970367509,0|2,1:2|3:2,0:0:0:0:
166,213,32886,6,0,P|208:257|207:319,1,125.289994073502,10|0,0:2|1:2,0:2:0:0:
151,383,33372,2,0,P|193:339|254:338,1,125.289994073502,8|0,0:2|1:2,0:2:0:0:
337,379,33859,1,0,1:2:0:0:
337,379,34021,2,0,P|373:385|406:371,1,62.6449970367509,10|2,0:2|0:2,0:2:0:0:
466,292,34345,6,0,P|449:235|432:168,1,125.289994073502,2|10,1:2|0:2,0:2:0:0:
356,103,34832,2,0,P|350:126|333:187,1,62.6449970367509,2|0,0:2|1:2,0:2:0:0:
448,79,35156,2,0,P|499:69|525:83,1,62.6449970367509,2|0,1:2|3:2,0:2:0:0:
376,7,35480,6,0,P|309:-4|257:46,1,125.289994073502,10|0,0:2|1:2,0:2:0:0:
169,32,35967,2,0,P|173:72|188:92,1,62.6449970367509,10|0,0:2|0:2,0:2:0:0:
205,185,36291,2,0,P|239:174|278:166,1,62.6449970367509,2|0,1:2|1:2,0:2:0:0:
369,234,36615,1,10,0:2:0:0:
369,234,36778,6,0,B|358:294|358:294|362:298|362:298|345:380,1,125.289994073502,2|0,1:2|0:0,0:0:0:0:
261,373,37264,2,0,P|231:354|187:347,1,62.6449970367509,10|2,0:2|0:2,0:0:0:0:
91,308,37588,2,0,P|121:299|147:282,1,62.6449970367509,0|0,1:2|1:2,0:2:0:0:
70,184,37913,1,2,3:2:0:0:
70,184,38075,6,0,L|92:318,1,125.289994073502,8|0,0:2|1:2,0:0:0:0:
148,130,38561,2,0,P|174:121|233:140,1,62.6449970367509,8|0,0:2|0:2,0:2:0:0:
71,59,38886,2,0,P|46:46|-14:55,1,62.6449970367509,2|2,1:2|1:2,0:0:0:0:
162,0,39210,2,0,L|259:21,1,93.9674955551264,10|0,0:2|0:0,0:2:0:0:
266,42,39534,6,0,L|341:25,1,62.6449970367509,14|0,0:2|1:2,0:0:0:0:
214,118,39859,1,10,0:2:0:0:
296,164,40021,2,0,P|329:217|308:287,1,125.289994073502,6|2,1:2|1:2,0:2:0:0:
230,313,40507,1,8,0:2:0:0:
230,313,40670,6,0,L|89:285,1,125.289994073502,6|0,1:2|1:2,0:2:0:0:
19,228,41156,1,8,0:2:0:0:
19,228,41237,1,8,0:2:0:0:
19,228,41318,2,0,L|32:179,1,31.3224985183755,8|8,0:3|0:3,0:2:0:0:
59,165,41480,2,0,L|46:116,3,31.3224985183755,8|8|8|8,0:3|0:3|0:3|0:3,0:2:0:0:
11,101,41805,2,0,P|16:66|41:40,1,62.6449970367509,14|10,0:2|0:2,0:0:0:0:
177,5,42129,6,0,L|145:144,1,125.289994073502,6|10,1:2|0:2,0:2:0:0:
280,197,42615,2,0,L|251:74,1,125.289994073502,2|2,1:2|1:2,0:2:0:0:
358,16,43102,1,8,0:2:0:0:
358,16,43264,6,0,P|441:30|467:83,1,125.289994073502,6|0,1:2|1:2,0:2:0:0:
503,160,43751,2,0,P|471:153|431:147,1,62.6449970367509,10|2,0:2|0:2,0:2:0:0:
376,255,44075,2,0,P|407:248|448:242,1,62.6449970367509,2|2,1:2|1:2,0:2:0:0:
501,314,44399,1,10,0:2:0:0:
302,213,44724,6,0,P|293:275|329:325,1,125.289994073502,6|10,1:2|0:2,0:0:0:0:
413,336,45210,2,0,P|351:350|291:366,1,125.289994073502,2|2,1:2|1:2,0:2:0:0:
192,317,45697,1,8,0:2:0:0:
192,317,45859,6,0,P|151:273|63:282,1,125.289994073502,6|0,1:2|1:2,0:2:0:0:
14,323,46345,2,0,L|30:390,1,62.6449970367509,10|2,0:2|1:2,0:2:0:0:
88,268,46670,1,10,0:2:0:0:
38,186,46832,1,2,1:2:0:0:
106,116,46994,2,0,L|180:130,1,62.6449970367509,10|6,0:3|0:3,0:0:0:0:
260,71,47318,6,0,P|271:43|263:0,2,71.9949985718766,6|0|2,1:2|1:2|1:2,0:2:0:0:
268,173,47805,2,0,P|282:200|316:222,2,71.9949985718766,10|0|2,0:2|1:2|1:2,0:2:0:0:
167,127,48291,6,0,L|96:141,2,71.9949985718766,14|0|2,0:2|1:2|1:2,0:2:0:0:
73,241,48778,2,0,L|3:227,2,71.9949985718766,10|0|2,0:2|1:2|1:2,0:2:0:0:
156,306,49264,2,0,P|169:333|165:378,1,71.9949985718766,14|0,0:2|1:2,0:2:0:0:
226,224,49588,1,10,0:2:0:0:
225,224,49751,6,0,P|270:182|346:201,1,143.989997143753,6|0,1:2|1:2,0:2:0:0:
408,281,50237,2,0,L|391:358,1,71.9949985718766,8|0,0:2|1:2,0:0:0:0:
499,223,50561,2,0,L|481:152,1,71.9949985718766,8|0,0:2|1:2,0:0:0:0:
487,49,50886,5,10,0:2:0:0:
397,107,51048,1,2,1:2:0:0:
313,35,51210,1,14,0:2:0:0:
313,35,52507,6,0,P|246:31|203:90,1,143.989997143753,14|10,0:2|0:2,0:2:0:0:
228,182,52994,1,0,1:2:0:0:
139,237,53156,2,0,P|93:223|66:190,1,71.9949985718766,8|0,0:2|1:2,0:2:0:0:
213,325,53480,2,0,L|294:305,1,71.9949985718766,10|2,0:2|1:2,0:0:0:0:
351,210,53805,6,0,P|408:192|470:266,1,143.989997143753,10|10,0:2|0:2,0:2:0:0:
512,347,54291,2,0,P|469:346|436:320,1,71.9949985718766,2|8,1:2|0:2,0:2:0:0:
351,210,54615,2,0,P|371:247|365:289,1,71.9949985718766,2|8,1:2|0:2,0:2:0:0:
265,352,54940,1,2,1:2:0:0:
265,352,55021,1,0,1:2:0:0:
265,352,55102,6,0,B|234:329|194:343|194:343|155:356|105:321,1,143.989997143753,14|10,0:2|0:2,0:2:0:0:
94,243,55588,1,0,1:2:0:0:
170,182,55751,2,0,P|232:196|251:229,1,71.9949985718766,8|0,0:2|1:2,0:2:0:0:
77,128,56075,2,0,L|65:49,1,71.9949985718766,10|2,0:2|1:2,0:0:0:0:
195,40,56399,6,0,L|169:186,1,143.989997143753,10|10,0:2|0:2,0:2:0:0:
100,259,56886,2,0,P|69:241|16:241,1,71.9949985718766,2|8,1:2|0:2,0:2:0:0:
172,349,57210,2,0,P|207:345|238:327,1,71.9949985718766,2|8,1:2|0:2,0:2:0:0:
291,245,57534,1,2,1:2:0:0:
397,307,57697,6,0,B|386:243|386:243|390:239|390:239|378:156,1,143.989997143753,14|8,0:2|0:2,0:2:0:0:
431,81,58183,1,0,1:2:0:0:
350,16,58345,2,0,P|313:25|264:34,1,71.9949985718766,10|0,0:2|1:2,0:2:0:0:
183,115,58670,2,0,P|219:122|254:131,1,71.9949985718766,10|0,0:2|1:2,0:2:0:0:
344,225,58994,6,0,P|338:293|276:323,1,143.989997143753,10|10,0:2|0:2,0:2:0:0:
201,259,59480,2,0,P|153:236|108:246,1,71.9949985718766,2|8,1:2|0:2,0:2:0:0:
61,296,59805,1,2,1:2:0:0:
132,380,59967,6,0,P|170:372|207:368,1,71.9949985718766,10|2,0:2|1:2,0:0:0:0:
223,368,60210,1,0,1:2:0:0:
234,379,60291,2,0,B|271:354|308:365|308:365|346:376|383:354,1,143.989997143753,12|10,0:2|0:2,0:2:0:0:
451,301,60778,2,0,P|413:270|376:266,1,71.9949985718766,2|8,1:2|0:2,0:2:0:0:
294,283,61102,1,2,1:2:0:0:
250,195,61264,2,0,L|271:115,1,71.9949985718766,10|2,0:2|1:2,0:0:0:0:
205,21,61588,6,0,B|139:47|139:47|185:133,1,143.989997143753,14|10,0:2|1:2,0:2:0:0:
337,145,62075,2,0,L|256:121,1,71.9949985718766,2|8,1:2|1:2,0:0:0:0:
185,208,62399,1,2,1:2:0:0:
238,291,62561,1,8,1:2:0:0:
154,370,62724,1,2,1:2:0:0:
154,370,62805,1,2,1:2:0:0:
154,370,62886,6,0,P|87:351|70:306,1,107.992497857815,14|0,0:2|0:0,0:2:0:0:
55,311,63210,2,0,P|56:273|98:247,1,71.9949985718766,10|0,0:2|1:2,0:2:0:0:
188,181,63534,2,0,L|107:157,1,71.9949985718766,8|0,0:2|1:2,0:2:0:0:
61,83,63859,1,10,0:2:0:0:
145,22,64021,1,2,1:2:0:0:
226,107,64183,6,0,L|190:255,1,143.989997143753,10|10,0:2|0:2,0:2:0:0:
307,321,64670,2,0,L|285:236,1,71.9949985718766,2|10,1:2|0:2,0:2:0:0:
348,169,64994,2,0,P|380:155|415:162,1,71.9949985718766,2|8,1:2|0:2,0:2:0:0:
464,249,65318,1,2,1:2:0:0:
390,327,65480,6,0,B|323:309|323:309|318:313|318:313|249:292,1,143.989997143753,14|10,0:2|0:2,0:2:0:0:
173,240,65967,1,0,1:2:0:0:
92,305,66129,2,0,L|107:379,1,71.9949985718766,8|0,0:2|1:2,0:2:0:0:
0,247,66453,2,0,L|14:176,1,71.9949985718766,10|2,0:2|1:2,0:0:0:0:
147,156,66778,6,0,P|153:88|89:54,1,143.989997143753,10|10,0:2|0:2,0:2:0:0:
14,176,67264,2,0,P|45:206|82:210,1,71.9949985718766,2|8,1:2|0:2,0:2:0:0:
147,156,67588,1,0,1:2:0:0:
197,252,67751,2,0,L|179:327,1,71.9949985718766,10|0,0:2|1:2,0:0:0:0:
309,225,68075,6,0,L|274:81,1,143.989997143753,14|10,0:2|0:2,0:2:0:0:
356,16,68561,2,0,P|389:3|424:9,1,71.9949985718766,2|8,1:2|0:2,0:2:0:0:
274,85,68886,2,0,L|201:67,1,71.9949985718766,2|10,1:2|0:2,0:0:0:0:
102,13,69210,1,2,1:2:0:0:
102,13,69291,1,0,1:2:0:0:
102,13,69372,6,0,B|46:52|46:52|83:119,1,143.989997143753,10|8,0:2|0:2,0:2:0:0:
171,167,69859,1,0,1:2:0:0:
110,248,70021,2,0,P|72:240|18:231,1,71.9949985718766,8|2,0:2|1:2,0:0:0:0:
162,342,70345,2,0,P|197:335|232:328,1,71.9949985718766,10|2,0:2|1:2,0:0:0:0:
253,335,70588,1,0,1:2:0:0:
267,344,70670,6,0,P|315:315|298:220,1,143.989997143753,10|10,0:2|0:2,0:2:0:0:
203,158,71156,2,0,L|225:247,1,71.9949985718766,2|8,1:2|0:2,0:2:0:0:
328,78,71480,2,0,L|306:167,1,71.9949985718766,2|8,1:2|0:2,0:0:0:0:
245,14,71805,1,2,1:2:0:0:
144,97,71967,6,0,P|76:84|49:41,1,107.992497857815,10|0,0:2|0:0,0:2:0:0:
56,23,72291,2,0,P|87:61|93:91,1,71.9949985718766,10|8,0:2|0:2,0:0:0:0:
24,164,72615,1,10,0:2:0:0:
82,243,72778,1,8,0:2:0:0:
0,311,72940,1,10,0:2:0:0:
0,311,73102,1,8,3:2:0:0:
0,311,73913,6,0,P|35:322|88:335,1,71.9949985718766,8|8,0:2|0:2,0:0:0:0:
154,282,74237,1,8,0:2:0:0:
226,373,74399,6,0,B|273:333|273:333|233:240,1,143.989997143753,6|2,1:2|1:2,0:2:0:0:
343,170,74886,2,0,L|325:250,1,71.9949985718766,10|2,0:2|1:2,0:2:0:0:
271,88,75210,2,0,P|229:83|204:62,1,71.9949985718766,2|2,3:2|1:2,0:0:0:0:
371,31,75534,1,10,0:2:0:0:
371,31,75697,6,0,P|446:26|490:89,1,143.989997143753,2|2,1:2|1:2,0:2:0:0:
481,187,76183,1,10,0:2:0:0:
481,187,76345,2,0,B|447:164|412:175|412:175|368:190|323:157,1,143.989997143753,2|2,1:2|1:2,0:0:0:0:
283,93,76832,1,10,0:2:0:0:
202,176,76994,6,0,B|212:245|212:245|218:249|218:249|232:344,1,143.989997143753,2|2,1:2|1:2,0:2:0:0:
137,375,77480,2,0,P|101:371|73:349,1,71.9949985718766,10|2,0:2|1:2,0:2:0:0:
227,315,77805,2,0,L|303:331,1,71.9949985718766,2|2,3:2|1:2,0:0:0:0:
375,384,78129,1,10,0:2:0:0:
462,316,78291,6,0,P|484:254|424:195,1,143.989997143753,6|2,1:2|1:2,0:2:0:0:
365,126,78778,1,10,0:2:0:0:
365,126,78940,2,0,P|332:137|306:174,1,71.9949985718766,6|0,1:2|0:2,0:2:0:0:
354,254,79264,1,10,0:2:0:0:
354,254,79426,1,10,0:2:0:0:
273,323,79588,6,0,L|124:276,1,143.989997143753,6|2,1:2|1:2,0:2:0:0:
30,287,80075,2,0,P|-1:335|7:372,1,71.9949985718766,10|2,0:2|1:2,0:2:0:0:
78,195,80399,2,0,L|62:116,1,71.9949985718766,2|2,3:2|1:2,0:0:0:0:
100,41,80724,1,10,0:2:0:0:
181,120,80886,6,0,P|254:114|292:55,1,143.989997143753,2|2,1:2|1:2,0:2:0:0:
373,0,81372,1,10,0:2:0:0:
373,0,81534,2,0,L|398:146,1,143.989997143753,2|2,1:2|1:2,0:0:0:0:
336,215,82021,1,10,0:2:0:0:
418,294,82183,6,0,P|493:279|501:201,1,143.989997143753,6|2,1:2|1:2,0:2:0:0:
462,120,82670,2,0,P|422:124|384:160,1,71.9949985718766,10|2,0:2|1:2,0:0:0:0:
319,282,82994,2,0,P|336:245|326:194,1,71.9949985718766,10|2,0:2|1:2,0:0:0:0:
257,150,83318,1,10,0:2:0:0:
182,225,83480,6,0,B|194:296|194:296|199:299|199:299|214:379,1,143.989997143753,6|2,1:2|1:2,0:2:0:0:
290,302,83967,1,10,0:2:0:0:
368,378,84129,2,0,P|439:370|470:311,1,143.989997143753,6|2,1:2|1:2,0:2:0:0:
412,246,84615,1,10,0:2:0:0:
412,246,84778,5,6,1:3:0:0:
512,123,85102,1,6,1:3:0:0:
366,28,85426,2,0,B|323:20|297:42|297:42|270:67|230:58,1,143.989997143753,6|10,1:3|1:2,0:0:0:0:
141,4,85913,1,10,0:2:0:0:
47,92,86075,6,0,B|61:119|48:150|48:150|44:176|77:217,1,107.992497857815,6|0,1:2|0:2,0:2:0:0:
90,209,86399,2,0,B|76:236|89:267|89:267|93:293|60:334,1,107.992497857815,6|0,1:2|0:2,0:2:0:0:
44,351,86724,6,0,B|77:305|146:300|197:328|197:328|191:332|191:332|215:367|253:383|253:383|348:383|430:346|431:235|431:235|418:320|362:364|292:360,1,719.482491217255,6|0,1:2|0:0,0:2:0:0:
