osu file format v14

[General]
AudioFilename: audio.mp3
AudioLeadIn: 0
PreviewTime: 79588
Countdown: 0
SampleSet: Normal
StackLeniency: 0.2
Mode: 1
LetterboxInBreaks: 0
WidescreenStoryboard: 1

[Editor]
Bookmarks: 5545,29875,41842,66101,88831,100896,123588,135660,161247,173647,212798
DistanceSpacing: 0.9
BeatDivisor: 4
GridSize: 32
TimelineZoom: 3.099999

[Metadata]
Title:Whiplash
TitleUnicode:Whiplash
Artist:Metallica
ArtistUnicode:Metallica
Creator:Genjuro
Version:Muzukashii
Source:
Tags:thrash metal english kill 'em all metalica dave mustaine james hetfield
BeatmapID:2558489
BeatmapSetID:1230649

[Difficulty]
HPDrainRate:5
CircleSize:2
OverallDifficulty:4
ApproachRate:10
SliderMultiplier:1.4
SliderTickRate:1

[Events]
//Background and Video events
0,0,"bg.jpg",0,0
//Break Periods
//Storyboard Layer 0 (Background)
//Storyboard Layer 1 (Fail)
//Storyboard Layer 2 (Pass)
//Storyboard Layer 3 (Foreground)
//Storyboard Layer 4 (Overlay)
//Storyboard Sound Samples

[TimingPoints]
190,331.491712707182,4,1,0,75,1,0
190,-100.555569521607,4,1,0,75,0,0
521,324.324324324324,4,1,0,75,1,8
521,-102.777880555658,4,1,0,75,0,8
1493,344.827586206896,4,1,0,75,1,0
1493,-96.6669244451318,4,1,0,75,0,0
1837,338.983050847457,4,1,0,75,1,8
1837,-98.3342183412984,4,1,0,75,0,8
2853,345.821325648415,4,1,0,75,1,0
2853,-96.3889796551781,4,1,0,75,0,0
3198,329.67032967033,4,1,0,75,1,8
3198,-101.111212222323,4,1,0,75,0,8
4187,333.333333333334,4,1,0,75,1,0
4520,341.880341880342,4,1,0,75,1,8
4520,-97.5000024375001,4,1,0,75,0,8
5545,384.615384615385,4,1,0,75,1,0
5545,-96.8944099378881,4,1,0,75,0,0
5593,-96.8944099378881,4,1,0,35,0,0
8621,380.952380952381,4,1,0,35,1,0
8621,-97.8260869565217,4,1,0,35,0,0
10144,389.61038961039,4,1,0,35,1,0
10144,-95.6521739130434,4,1,0,35,0,0
11702,387.096774193549,4,1,0,35,1,0
11702,-96.2732919254657,4,1,0,35,0,0
13250,384.615384615385,4,1,0,35,1,0
13250,-96.8944099378881,4,1,0,35,0,0
14788,377.358490566038,4,1,0,35,1,0
14788,-98.7577639751552,4,1,0,35,0,0
16297,378.548895899054,4,1,0,35,1,0
16297,-98.447204968944,4,1,0,35,0,0
17764,-98.447204968944,4,1,0,75,0,0
17811,373.831775700935,4,1,0,75,1,0
17811,-99.6894409937887,4,1,0,75,0,0
17857,-99.6894409937887,4,1,0,35,0,0
19306,382.165605095541,4,1,0,35,1,0
19306,-97.5155279503106,4,1,0,35,0,0
20786,-97.5155279503106,4,1,0,75,0,0
20882,-97.5155279503106,4,1,0,35,0,0
22363,379.746835443038,4,1,0,35,1,0
22363,-98.1366459627329,4,1,0,35,0,0
23834,-98.1366459627329,4,1,0,75,0,0
23929,-98.1366459627329,4,1,0,35,0,0
26872,-98.1366459627329,4,1,0,75,0,0
26967,-98.1366459627329,4,1,0,35,0,0
28438,359.281437125748,4,1,0,35,1,0
28438,-103.726708074534,4,1,0,35,0,0
29156,370.37037037037,4,1,0,35,1,8
29156,-100.621118012422,4,1,0,35,0,8
29433,317.460317460317,4,1,0,35,1,8
29433,-117.391304347826,4,1,0,35,0,8
29671,408.163265306122,4,1,0,35,1,8
29671,-91.3043478260871,4,1,0,35,0,8
29824,-91.3043478260871,4,1,0,75,0,8
29875,365.853658536585,4,1,0,75,1,0
29875,-101.863354037267,4,1,0,75,0,0
29920,-101.863354037267,4,1,0,50,0,0
31338,375,4,1,0,50,1,0
31338,-99.3788819875776,4,1,0,50,0,0
32838,377.358490566038,4,1,0,50,1,0
32838,-98.7577639751552,4,1,0,50,0,0
34347,372.670807453416,4,1,0,50,1,0
34347,-100,4,1,0,50,0,0
37328,378.548895899054,4,1,0,50,1,0
37328,-98.447204968944,4,1,0,50,0,0
38795,-98.447204968944,4,1,0,60,0,0
38842,375,4,1,0,60,1,0
38842,-99.3788819875776,4,1,0,60,0,0
41045,-99.3788819875776,4,1,0,70,0,0
41842,389.61038961039,4,1,0,70,1,0
41842,-95.6521739130434,4,1,0,70,0,0
43400,377.358490566038,4,1,0,70,1,0
43400,-98.7577639751552,4,1,0,70,0,0
46418,344.827586206897,4,1,0,70,1,0
46418,-108.074534161491,4,1,0,70,0,0
46978,353.982300884956,4,1,0,70,1,8
46978,-105.27950310559,4,1,0,70,0,8
47154,355.029585798817,4,1,0,70,1,8
47154,-104.968944099379,4,1,0,70,0,8
47864,380.952380952381,4,1,0,70,1,0
47864,-97.8260869565217,4,1,0,70,0,0
52435,363.636363636364,4,1,0,70,1,0
52435,-102.484472049689,4,1,0,70,0,0
53162,375,4,1,0,70,1,8
53162,-99.3788819875776,4,1,0,70,0,8
53912,384.615384615385,4,1,0,70,1,0
53912,-96.8944099378881,4,1,0,70,0,0
55450,379.746835443038,4,1,0,70,1,0
55450,-98.1366459627329,4,1,0,70,0,0
56968,384.615384615385,4,1,0,70,1,0
56968,-96.8944099378881,4,1,0,70,0,0
58506,379.746835443038,4,1,0,70,1,0
58506,-98.1366459627329,4,1,0,70,0,0
60024,384.615384615385,4,1,0,70,1,0
60024,-96.8944099378881,4,1,0,70,0,0
61562,379.746835443038,4,1,0,70,1,0
61562,-98.1366459627329,4,1,0,70,0,0
63080,389.61038961039,4,1,0,70,1,0
63080,-95.6521739130434,4,1,0,70,0,0
64638,363.636363636364,4,1,0,70,1,0
64638,-102.484472049689,4,1,0,70,0,0
65365,368.098159509203,4,1,0,70,1,8
65365,-101.242236024845,4,1,0,70,0,8
66101,384.615384615385,4,1,0,70,1,0
66101,-96.8944099378881,4,1,0,70,0,0
67639,377.358490566038,4,1,0,70,1,0
67639,-98.7577639751552,4,1,0,70,0,0
69148,387.096774193549,4,1,0,70,1,0
69148,-96.2732919254657,4,1,0,70,0,0
70696,382.165605095542,4,1,0,70,1,0
70696,-97.5155279503104,4,1,0,70,0,0
72224,384.615384615385,4,1,0,70,1,0
72224,-96.8944099378881,4,1,0,70,0,0
73762,379.746835443038,4,1,0,70,1,0
73762,-98.1366459627329,4,1,0,70,0,0
76799,361.44578313253,4,1,0,70,1,0
76799,-103.105590062112,4,1,0,70,0,0
77521,389.610389610389,4,1,0,70,1,8
77521,-95.6521739130436,4,1,0,70,0,8
78300,368.098159509202,4,1,0,70,1,0
78300,-101.242236024845,4,1,0,70,0,0
79772,384.615384615384,4,1,0,70,1,0
79772,-96.8944099378884,4,1,0,70,0,0
81310,372.670807453416,4,1,0,70,1,0
81310,-100,4,1,0,70,0,0
82800,387.096774193548,4,1,0,70,1,0
82800,-96.2732919254659,4,1,0,70,0,0
84348,375,4,1,0,70,1,0
84348,-99.3788819875776,4,1,0,70,0,0
87348,357.142857142857,4,1,0,70,1,0
87348,-104.347826086957,4,1,0,70,0,0
88642,379.746835443038,4,1,0,70,1,8
88642,-98.1366459627329,4,1,0,70,0,8
88831,387.096774193548,4,1,0,70,1,0
88831,-96.2732919254659,4,1,0,70,0,0
90379,379.746835443038,4,1,0,70,1,0
90379,-98.1366459627329,4,1,0,70,0,0
91897,377.358490566038,4,1,0,70,1,0
91897,-98.7577639751552,4,1,0,70,0,0
93406,372.670807453416,4,1,0,70,1,0
93406,-100,4,1,0,70,0,0
94151,344.827586206896,4,1,0,70,1,8
94151,-108.074534161491,4,1,0,70,0,8
94840,382.165605095541,4,1,0,70,1,0
94840,-97.5155279503106,4,1,0,70,0,0
97897,379.746835443038,4,1,0,70,1,0
97897,-98.1366459627329,4,1,0,70,0,0
99415,365.853658536585,4,1,0,70,1,0
99415,-101.863354037267,4,1,0,70,0,0
100146,375,4,1,0,70,1,8
100146,-99.3788819875776,4,1,0,70,0,8
100896,382.165605095541,4,1,0,70,1,0
100896,-97.5155279503106,4,1,0,70,0,0
102424,379.746835443038,4,1,0,70,1,0
102424,-98.1366459627329,4,1,0,70,0,0
103942,384.615384615385,4,1,0,70,1,0
103942,-96.8944099378881,4,1,0,70,0,0
108557,377.358490566038,4,1,0,70,1,0
108557,-98.7577639751552,4,1,0,70,0,0
113085,375,4,1,0,70,1,0
113085,-99.3788819875776,4,1,0,70,0,0
114585,379.746835443038,4,1,0,70,1,0
114585,-98.1366459627329,4,1,0,70,0,0
116103,370.37037037037,4,1,0,70,1,0
116103,-100.621118012422,4,1,0,70,0,0
117584,379.746835443038,4,1,0,70,1,0
117584,-98.1366459627329,4,1,0,70,0,0
119102,375,4,1,0,70,1,0
119102,-99.3788819875776,4,1,0,70,0,0
120602,371.517027863777,4,1,0,70,1,0
120602,-100.310559006211,4,1,0,70,0,0
122088,370.37037037037,4,1,0,70,1,0
122088,-100.621118012422,4,1,0,70,0,0
123430,422.535211267606,4,1,0,70,1,8
123430,-88.1987577639751,4,1,0,70,0,8
123588,387.096774193548,4,1,0,70,1,0
123588,-96.2732919254659,4,1,0,70,0,0
125136,382.165605095541,4,1,0,70,1,0
125136,-97.5155279503106,4,1,0,70,0,0
126664,379.746835443038,4,1,0,70,1,0
126664,-98.1366459627329,4,1,0,70,0,0
128182,355.029585798816,4,1,0,70,1,0
128182,-104.968944099379,4,1,0,70,0,0
128758,352.941176470588,4,1,0,70,1,8
128758,-105.590062111801,4,1,0,70,0,8
128934,344.827586206896,4,1,0,70,1,8
128934,-108.074534161491,4,1,0,70,0,8
129623,377.358490566037,4,1,0,70,1,0
129623,-98.7577639751555,4,1,0,70,0,0
131132,384.615384615384,4,1,0,70,1,0
131132,-96.8944099378884,4,1,0,70,0,0
132670,377.358490566037,4,1,0,70,1,0
132670,-98.7577639751555,4,1,0,70,0,0
134179,368.098159509202,4,1,0,70,1,0
134179,-101.242236024845,4,1,0,70,0,0
134915,372.670807453415,4,1,0,70,1,8
134915,-100,4,1,0,70,0,8
135660,384.615384615383,4,1,0,70,1,0
135660,-96.8944099378886,4,1,0,70,0,0
137198,376.175548589342,4,1,0,70,1,0
137198,-99.0683229813664,4,1,0,70,0,0
138702,384.615384615384,4,1,0,70,1,0
138702,-96.8944099378884,4,1,0,70,0,0
140240,379.746835443037,4,1,0,70,1,0
140240,-98.1366459627332,4,1,0,70,0,0
141758,382.16560509554,4,1,0,70,1,0
141758,-97.5155279503109,4,1,0,70,0,0
143286,380.952380952381,4,1,0,70,1,0
143286,-97.8260869565217,4,1,0,70,0,0
144809,379.746835443038,4,1,0,70,1,0
144809,-98.1366459627329,4,1,0,70,0,0
146327,377.358490566038,4,1,0,70,1,0
146327,-98.7577639751552,4,1,0,70,0,0
150855,368.098159509203,4,1,0,70,1,0
150855,-101.242236024845,4,1,0,70,0,0
152327,375.000000000001,4,1,0,70,1,0
152327,-99.3788819875774,4,1,0,70,0,0
155327,371.517027863777,4,1,0,70,1,0
155327,-100.310559006211,4,1,0,70,0,0
156813,363.636363636364,4,1,0,70,1,0
156813,-102.484472049689,4,1,0,70,0,0
159449,410.95890410959,4,1,0,70,1,8
159449,-90.6832298136644,4,1,0,70,0,8
159757,372.670807453416,4,1,0,70,1,0
159757,-100,4,1,0,70,0,0
161247,390.879478827362,4,1,0,70,1,0
161247,-95.3416149068322,4,1,0,70,0,0
162810,389.61038961039,4,1,0,70,1,0
162810,-95.6521739130434,4,1,0,70,0,0
165926,392.156862745098,4,1,0,70,1,0
165926,-95.0310559006211,4,1,0,70,0,0
169063,379.746835443038,4,1,0,70,1,0
169063,-98.1366459627329,4,1,0,70,0,0
170581,384.615384615385,4,1,0,70,1,0
170581,-96.8944099378881,4,1,0,70,0,0
172119,382.165605095542,4,1,0,70,1,0
172119,-97.5155279503104,4,1,0,70,0,0
173647,-97.5155279503104,4,1,0,70,0,1
175176,384.615384615385,4,1,0,70,1,1
175176,-96.8944099378881,4,1,0,70,0,1
178252,379.746835443039,4,1,0,70,1,1
178252,-98.1366459627326,4,1,0,70,0,1
179770,384.615384615386,4,1,0,70,1,1
179770,-96.8944099378878,4,1,0,70,0,1
184385,382.165605095542,4,1,0,70,1,1
184385,-97.5155279503104,4,1,0,70,0,1
187442,377.358490566039,4,1,0,70,1,1
187442,-98.7577639751549,4,1,0,70,0,1
188951,379.746835443039,4,1,0,70,1,1
188951,-98.1366459627326,4,1,0,70,0,1
195026,375.000000000001,4,1,0,70,1,1
195026,-99.3788819875774,4,1,0,70,0,1
196526,382.165605095542,4,1,0,70,1,1
196526,-97.5155279503104,4,1,0,70,0,1
198054,375.000000000001,4,1,0,70,1,0
198054,-99.3788819875774,4,1,0,70,0,0
199554,329.67032967033,4,1,0,70,1,0
199554,-113.043478260869,4,1,0,70,0,0
200872,424.028268551237,4,1,0,70,1,1
200872,-87.8881987793266,4,1,0,70,0,1
201084,369.23076923077,4,1,0,70,1,9
201084,-100.931680153158,4,1,0,70,0,9
201268,369.571912534647,4,1,0,70,1,9
201268,-100.838512567403,4,1,0,70,0,9
202376,382.165605095541,4,1,0,70,1,1
202376,-97.5155279503106,4,1,0,70,0,1
203904,377.358490566037,4,1,0,70,1,1
203904,-98.7577639751555,4,1,0,70,0,1
205413,348.837209302325,4,1,0,70,1,1
205413,-106.832298136646,4,1,0,70,0,1
205979,357.142857142857,4,1,0,70,1,9
205979,-104.347826086957,4,1,0,70,0,9
206157,355.555555555556,4,1,0,70,1,9
206157,-104.813664604411,4,1,0,70,0,9
206868,379.746835443037,4,1,0,70,1,1
206868,-98.1366459696817,4,1,0,70,0,1
208386,371.517027863777,4,1,0,70,1,1
208386,-100.310559485957,4,1,0,70,0,1
209872,365.853658536585,4,1,0,70,1,1
209872,-101.863354771189,4,1,0,70,0,1
212798,377.358490566037,4,1,0,70,1,0
212798,-98.7577639751555,4,1,0,70,0,0
215816,384.615384615384,4,1,0,70,1,0
215816,-96.8944099378884,4,1,0,70,0,0
217354,372.670807453416,4,1,0,70,1,0
217354,-100,4,1,0,70,0,0
218844,379.746835443038,4,1,0,70,1,0
218844,-98.1366459627329,4,1,0,70,0,0
220362,375,4,1,0,70,1,0
220362,-99.3788819875776,4,1,0,70,0,0
221862,379.746835443038,4,1,0,70,1,0
221862,-98.1366459627329,4,1,0,70,0,0
224899,377.358490566038,4,1,0,70,1,0
224899,-98.7577639751552,4,1,0,70,0,0
227917,370.370370370371,4,1,0,70,1,0
227917,-100.621118012422,4,1,0,70,0,0
229398,378.548895899054,4,1,0,70,1,0
229398,-98.447204968944,4,1,0,70,0,0
230912,372.670807453416,4,1,0,70,1,0
230912,-100,4,1,0,70,0,0
232402,377.358490566038,4,1,0,70,1,0
232402,-98.7577639751552,4,1,0,70,0,0
233911,379.746835443038,4,1,0,70,1,0
233911,-98.1366459627329,4,1,0,70,0,0
235429,394.736842105263,4,1,0,70,1,0
235429,-94.4099378881988,4,1,0,70,0,0
236218,375,4,1,0,70,1,8
236218,-99.3788819875776,4,1,0,70,0,8
236968,405.405405405405,4,1,0,70,1,0
236968,-91.9254658385094,4,1,0,70,0,0
237778,400,4,1,0,70,1,8
237778,-93.167701863354,4,1,0,70,0,8
238578,400,4,1,0,70,1,0
238578,-93.167701863354,4,1,0,70,0,0
240178,384.615384615385,4,1,0,70,1,0
240178,-96.8944099378881,4,1,0,70,0,0
240947,472.440944881891,4,1,0,70,1,8
240947,-78.8819875776395,4,1,0,70,0,8
241183,500,4,1,0,70,1,8
241183,-74.5341614906832,4,1,0,70,0,8
241933,392.156862745098,4,1,0,70,1,0
241933,-95.0310559006211,4,1,0,70,0,0
245070,379.746835443038,4,1,0,70,1,0
245070,-98.1366459627329,4,1,0,70,0,0
245829,472.44094488189,4,1,0,70,1,8
245829,-78.8819875776397,4,1,0,70,0,0

[HitObjects]
256,192,190,5,8,0:0:0:0:
256,192,300,1,8,0:0:0:0:
256,192,410,1,8,0:0:0:0:
256,192,521,1,8,0:0:0:0:
256,192,1493,1,8,0:0:0:0:
256,192,1607,1,8,0:0:0:0:
256,192,1722,1,8,0:0:0:0:
256,192,1837,1,8,0:0:0:0:
256,192,2853,1,8,0:0:0:0:
256,192,2968,1,8,0:0:0:0:
256,192,3083,1,8,0:0:0:0:
256,192,3198,1,8,0:0:0:0:
256,192,4187,1,8,0:0:0:0:
256,192,4298,1,8,0:0:0:0:
256,192,4409,1,8,0:0:0:0:
256,192,4520,1,8,0:0:0:0:
256,192,5545,1,4,0:0:0:0:
256,192,6121,1,8,0:0:0:0:
256,192,6506,1,8,0:0:0:0:
256,192,6891,1,8,0:0:0:0:
256,192,7275,1,8,0:0:0:0:
256,192,7660,1,8,0:0:0:0:
256,192,8045,1,8,0:0:0:0:
256,192,8429,1,8,0:0:0:0:
256,192,8621,1,0,0:0:0:0:
256,192,9192,1,8,0:0:0:0:
256,192,9573,1,8,0:0:0:0:
256,192,9954,1,8,0:0:0:0:
256,192,10338,1,8,0:0:0:0:
256,192,10728,1,8,0:0:0:0:
256,192,11118,1,8,0:0:0:0:
256,192,11507,1,8,0:0:0:0:
256,192,11702,1,0,0:0:0:0:
256,192,12282,1,8,0:0:0:0:
256,192,12669,1,8,0:0:0:0:
256,192,13056,1,8,0:0:0:0:
256,192,13442,1,8,0:0:0:0:
256,192,13826,1,8,0:0:0:0:
256,192,14211,1,8,0:0:0:0:
256,192,14596,1,8,0:0:0:0:
256,192,14788,1,0,0:0:0:0:
256,192,15354,1,8,0:0:0:0:
256,192,15731,1,8,0:0:0:0:
256,192,16108,1,8,0:0:0:0:
256,192,16486,1,8,0:0:0:0:
256,192,16864,1,8,0:0:0:0:
256,192,17243,1,8,0:0:0:0:
256,192,17621,1,8,0:0:0:0:
256,192,17811,1,4,0:0:0:0:
256,192,18371,1,8,0:0:0:0:
256,192,18745,1,8,0:0:0:0:
256,192,19119,1,8,0:0:0:0:
256,192,19497,1,8,0:0:0:0:
256,192,19879,1,8,0:0:0:0:
256,192,20261,1,8,0:0:0:0:
256,192,20643,1,8,0:0:0:0:
256,192,20834,1,4,0:0:0:0:
256,192,21407,1,8,0:0:0:0:
256,192,21790,1,8,0:0:0:0:
256,192,22172,1,8,0:0:0:0:
256,192,22552,1,8,0:0:0:0:
256,192,22932,1,8,0:0:0:0:
256,192,23312,1,8,0:0:0:0:
256,192,23692,1,8,0:0:0:0:
256,192,23881,1,4,0:0:0:0:
256,192,24451,1,8,0:0:0:0:
256,192,24831,1,8,0:0:0:0:
256,192,25211,1,8,0:0:0:0:
256,192,25590,1,8,0:0:0:0:
256,192,25970,1,8,0:0:0:0:
256,192,26350,1,8,0:0:0:0:
256,192,26730,1,8,0:0:0:0:
256,192,26919,1,4,0:0:0:0:
256,192,27489,1,8,0:0:0:0:
256,192,27869,1,8,0:0:0:0:
256,192,28249,1,8,0:0:0:0:
256,192,28617,1,8,0:0:0:0:
256,192,28976,1,8,0:0:0:0:
256,192,29156,1,0,0:0:0:0:
256,192,29433,1,8,0:0:0:0:
256,192,29875,1,4,0:0:0:0:
256,192,30423,1,8,0:0:0:0:
256,192,30606,1,0,0:0:0:0:
256,192,30789,1,8,0:0:0:0:
256,192,30972,1,0,0:0:0:0:
256,192,31064,1,0,0:0:0:0:
256,192,31155,1,0,0:0:0:0:
256,192,31338,1,8,0:0:0:0:
256,192,31713,1,0,0:0:0:0:
256,192,31900,1,0,0:0:0:0:
256,192,32088,1,8,0:0:0:0:
256,192,32369,1,8,0:0:0:0:
256,192,32650,1,8,0:0:0:0:
256,192,32838,1,0,0:0:0:0:
256,192,33404,1,8,0:0:0:0:
256,192,33592,1,0,0:0:0:0:
256,192,33781,1,8,0:0:0:0:
256,192,33875,1,8,0:0:0:0:
256,192,33970,1,8,0:0:0:0:
256,192,34158,1,0,0:0:0:0:
256,192,34347,1,8,0:0:0:0:
256,192,34719,1,0,0:0:0:0:
256,192,34906,1,0,0:0:0:0:
256,192,35092,1,8,0:0:0:0:
256,192,35371,1,8,0:0:0:0:
256,192,35651,1,8,0:0:0:0:
256,192,35837,1,0,0:0:0:0:
256,192,36396,1,8,0:0:0:0:
256,192,36583,1,0,0:0:0:0:
256,192,36769,1,8,0:0:0:0:
256,192,36955,1,0,0:0:0:0:
256,192,37048,1,0,0:0:0:0:
256,192,37142,1,0,0:0:0:0:
256,192,37328,1,8,0:0:0:0:
256,192,37706,1,0,0:0:0:0:
256,192,37895,1,0,0:0:0:0:
256,192,38085,1,8,0:0:0:0:
256,192,38369,1,8,0:0:0:0:
256,192,38652,1,0,0:0:0:0:
256,192,38842,1,8,0:0:0:0:
256,192,38935,1,8,0:0:0:0:
256,192,39029,1,8,0:0:0:0:
256,192,39217,1,0,0:0:0:0:
256,192,39404,1,0,0:0:0:0:
256,192,39592,1,8,0:0:0:0:
256,192,39685,1,8,0:0:0:0:
256,192,39779,1,8,0:0:0:0:
256,192,39967,1,0,0:0:0:0:
256,192,40154,1,0,0:0:0:0:
256,192,40342,1,8,0:0:0:0:
256,192,40435,1,8,0:0:0:0:
256,192,40529,1,8,0:0:0:0:
256,192,40717,1,0,0:0:0:0:
256,192,40810,1,0,0:0:0:0:
256,192,40904,1,0,0:0:0:0:
256,192,41092,1,12,0:0:0:0:
256,192,41373,1,12,0:0:0:0:
256,192,41654,1,12,0:0:0:0:
256,192,41842,1,4,0:0:0:0:
256,192,42426,1,8,0:0:0:0:
256,192,42621,1,0,0:0:0:0:
256,192,42816,1,8,0:0:0:0:
256,192,43010,1,0,0:0:0:0:
256,192,43108,1,0,0:0:0:0:
256,192,43205,1,0,0:0:0:0:
256,192,43400,1,8,0:0:0:0:
256,192,43777,1,0,0:0:0:0:
256,192,43966,1,0,0:0:0:0:
256,192,44154,1,8,0:0:0:0:
256,192,44437,1,8,0:0:0:0:
256,192,44720,1,8,0:0:0:0:
256,192,44909,1,0,0:0:0:0:
256,192,45098,1,12,0:0:0:0:
256,192,45475,1,8,0:0:0:0:
256,192,45664,1,0,0:0:0:0:
256,192,45852,1,8,0:0:0:0:
256,192,45947,1,8,0:0:0:0:
256,192,46041,1,8,0:0:0:0:
256,192,46230,1,0,0:0:0:0:
256,192,46418,1,8,0:0:0:0:
256,192,46762,1,0,0:0:0:0:
256,192,47154,1,12,0:0:0:0:
256,192,47420,1,12,0:0:0:0:
256,192,47686,1,12,0:0:0:0:
256,192,47864,1,4,0:0:0:0:
256,192,48435,1,8,0:0:0:0:
256,192,48625,1,0,0:0:0:0:
256,192,48816,1,8,0:0:0:0:
256,192,49006,1,0,0:0:0:0:
256,192,49102,1,0,0:0:0:0:
256,192,49197,1,0,0:0:0:0:
256,192,49387,1,8,0:0:0:0:
256,192,49768,1,0,0:0:0:0:
256,192,49959,1,0,0:0:0:0:
256,192,50149,1,8,0:0:0:0:
256,192,50435,1,8,0:0:0:0:
256,192,50721,1,8,0:0:0:0:
256,192,50911,1,0,0:0:0:0:
256,192,51102,1,12,0:0:0:0:
256,192,51483,1,8,0:0:0:0:
256,192,51673,1,0,0:0:0:0:
256,192,51864,1,8,0:0:0:0:
256,192,51959,1,8,0:0:0:0:
256,192,52054,1,8,0:0:0:0:
256,192,52244,1,0,0:0:0:0:
256,192,52435,1,8,0:0:0:0:
256,192,52798,1,0,0:0:0:0:
256,192,53162,1,8,0:0:0:0:
256,192,53349,1,8,0:0:0:0:
256,192,53537,1,8,0:0:0:0:
256,192,53724,1,8,0:0:0:0:
256,192,53912,1,4,0:0:0:0:
256,192,54488,1,8,0:0:0:0:
256,192,54681,1,0,0:0:0:0:
256,192,54873,1,8,0:0:0:0:
256,192,54969,1,8,0:0:0:0:
256,192,55065,1,8,0:0:0:0:
256,192,55258,1,0,0:0:0:0:
256,192,55450,1,8,0:0:0:0:
256,192,55639,1,0,0:0:0:0:
256,192,55734,1,0,0:0:0:0:
256,192,55829,1,0,0:0:0:0:
256,192,56019,1,8,0:0:0:0:
256,192,56209,1,8,0:0:0:0:
256,192,56399,1,0,0:0:0:0:
256,192,56589,1,0,0:0:0:0:
256,192,56779,1,12,0:0:0:0:
256,192,56968,1,0,0:0:0:0:
256,192,57544,1,8,0:0:0:0:
256,192,57737,1,0,0:0:0:0:
256,192,57929,1,8,0:0:0:0:
256,192,58025,1,8,0:0:0:0:
256,192,58121,1,8,0:0:0:0:
256,192,58314,1,0,0:0:0:0:
256,192,58506,1,8,0:0:0:0:
256,192,58695,1,0,0:0:0:0:
256,192,58790,1,0,0:0:0:0:
256,192,58885,1,0,0:0:0:0:
256,192,59075,1,8,0:0:0:0:
256,192,59265,1,8,0:0:0:0:
256,192,59455,1,8,0:0:0:0:
256,192,59645,1,0,0:0:0:0:
256,192,59835,1,12,0:0:0:0:
256,192,60024,1,0,0:0:0:0:
256,192,60600,1,8,0:0:0:0:
256,192,60793,1,0,0:0:0:0:
256,192,60985,1,8,0:0:0:0:
256,192,61081,1,8,0:0:0:0:
256,192,61177,1,8,0:0:0:0:
256,192,61370,1,0,0:0:0:0:
256,192,61562,1,8,0:0:0:0:
256,192,61751,1,0,0:0:0:0:
256,192,61846,1,0,0:0:0:0:
256,192,61941,1,0,0:0:0:0:
256,192,62131,1,8,0:0:0:0:
256,192,62321,1,8,0:0:0:0:
256,192,62511,1,0,0:0:0:0:
256,192,62701,1,0,0:0:0:0:
256,192,62891,1,12,0:0:0:0:
256,192,63080,1,0,0:0:0:0:
256,192,63664,1,8,0:0:0:0:
256,192,63859,1,0,0:0:0:0:
256,192,64054,1,8,0:0:0:0:
256,192,64151,1,8,0:0:0:0:
256,192,64248,1,8,0:0:0:0:
256,192,64443,1,0,0:0:0:0:
256,192,64638,1,8,0:0:0:0:
256,192,64819,1,0,0:0:0:0:
256,192,64910,1,0,0:0:0:0:
256,192,65001,1,0,0:0:0:0:
256,192,65183,1,8,0:0:0:0:
256,192,65365,1,0,0:0:0:0:
256,192,65549,1,0,0:0:0:0:
256,192,65641,1,0,0:0:0:0:
256,192,65733,1,0,0:0:0:0:
256,192,65917,1,8,0:0:0:0:
256,192,66101,1,4,0:0:0:0:
256,192,66293,1,8,0:0:0:0:
256,192,66389,1,8,0:0:0:0:
256,192,66677,1,0,0:0:0:0:
256,192,66870,1,8,0:0:0:0:
256,192,67062,1,8,0:0:0:0:
256,192,67254,1,0,0:0:0:0:
256,192,67351,1,0,0:0:0:0:
256,192,67447,1,0,0:0:0:0:
256,192,67639,1,8,0:0:0:0:
256,192,67827,1,8,0:0:0:0:
256,192,67922,1,8,0:0:0:0:
256,192,68205,1,0,0:0:0:0:
256,192,68393,1,8,0:0:0:0:
256,192,68959,1,12,0:0:0:0:
256,192,69148,1,0,0:0:0:0:
256,192,69244,1,0,0:0:0:0:
256,192,69438,1,8,0:0:0:0:
256,192,69728,1,0,0:0:0:0:
256,192,69922,1,8,0:0:0:0:
256,192,70115,1,8,0:0:0:0:
256,192,70212,1,8,0:0:0:0:
256,192,70502,1,0,0:0:0:0:
256,192,70696,1,8,0:0:0:0:
256,192,70887,1,0,0:0:0:0:
256,192,71078,1,8,0:0:0:0:
256,192,71173,1,8,0:0:0:0:
256,192,71269,1,8,0:0:0:0:
256,192,71460,1,0,0:0:0:0:
256,192,72033,1,12,0:0:0:0:
256,192,72224,1,0,0:0:0:0:
256,192,72416,1,8,0:0:0:0:
256,192,72512,1,8,0:0:0:0:
256,192,72608,1,8,0:0:0:0:
256,192,72800,1,0,0:0:0:0:
256,192,72993,1,8,0:0:0:0:
256,192,73185,1,8,0:0:0:0:
256,192,73281,1,8,0:0:0:0:
256,192,73570,1,0,0:0:0:0:
256,192,73762,1,8,0:0:0:0:
256,192,73951,1,0,0:0:0:0:
256,192,74141,1,8,0:0:0:0:
256,192,74236,1,8,0:0:0:0:
256,192,74521,1,8,0:0:0:0:
256,192,75091,1,12,0:0:0:0:
256,192,75280,1,0,0:0:0:0:
256,192,75470,1,8,0:0:0:0:
256,192,75565,1,8,0:0:0:0:
256,192,75660,1,8,0:0:0:0:
256,192,75850,1,0,0:0:0:0:
256,192,76040,1,8,0:0:0:0:
256,192,76230,1,8,0:0:0:0:
256,192,76610,1,0,0:0:0:0:
256,192,76799,1,8,0:0:0:0:
256,192,76979,1,8,0:0:0:0:
256,192,77160,1,8,0:0:0:0:
256,192,77341,1,8,0:0:0:0:
256,192,77521,1,0,0:0:0:0:
256,192,77618,1,0,0:0:0:0:
256,192,77715,1,0,0:0:0:0:
256,192,77910,1,8,0:0:0:0:
256,192,78008,1,8,0:0:0:0:
256,192,78105,1,8,0:0:0:0:
256,192,78300,1,4,0:0:0:0:
256,192,79036,1,8,0:0:0:0:
256,192,79312,1,8,0:0:0:0:
256,192,79588,1,8,0:0:0:0:
256,192,79772,1,0,0:0:0:0:
256,192,80156,1,8,0:0:0:0:
256,192,80541,1,0,0:0:0:0:
256,192,80733,1,0,0:0:0:0:
256,192,80925,1,8,0:0:0:0:
256,192,81310,1,4,0:0:0:0:
256,192,82055,1,8,0:0:0:0:
256,192,82334,1,0,0:0:0:0:
256,192,82614,1,8,0:0:0:0:
256,192,82800,1,0,0:0:0:0:
256,192,83187,1,8,0:0:0:0:
256,192,83380,1,8,0:0:0:0:
256,192,83574,1,0,0:0:0:0:
256,192,83767,1,0,0:0:0:0:
256,192,83961,1,8,0:0:0:0:
256,192,84348,1,4,0:0:0:0:
256,192,85098,1,8,0:0:0:0:
256,192,85379,1,8,0:0:0:0:
256,192,85660,1,8,0:0:0:0:
256,192,85848,1,0,0:0:0:0:
256,192,86223,1,8,0:0:0:0:
256,192,86598,1,0,0:0:0:0:
256,192,86785,1,0,0:0:0:0:
256,192,86973,1,8,0:0:0:0:
256,192,87348,1,4,0:0:0:0:
256,192,87526,1,8,0:0:0:0:
256,192,87883,1,8,0:0:0:0:
256,192,88240,1,8,0:0:0:0:
256,192,88598,1,8,0:0:0:0:
256,192,88831,1,4,0:0:0:0:
256,192,89411,1,8,0:0:0:0:
256,192,89605,1,0,0:0:0:0:
256,192,89798,1,8,0:0:0:0:
256,192,89992,1,0,0:0:0:0:
256,192,90089,1,0,0:0:0:0:
256,192,90185,1,0,0:0:0:0:
256,192,90379,1,8,0:0:0:0:
256,192,90758,1,0,0:0:0:0:
256,192,90948,1,0,0:0:0:0:
256,192,91138,1,8,0:0:0:0:
256,192,91423,1,8,0:0:0:0:
256,192,91708,1,8,0:0:0:0:
256,192,91897,1,0,0:0:0:0:
256,192,92085,1,12,0:0:0:0:
256,192,92463,1,8,0:0:0:0:
256,192,92651,1,0,0:0:0:0:
256,192,92840,1,8,0:0:0:0:
256,192,92934,1,8,0:0:0:0:
256,192,93029,1,8,0:0:0:0:
256,192,93217,1,0,0:0:0:0:
256,192,93406,1,8,0:0:0:0:
256,192,93778,1,0,0:0:0:0:
256,192,94151,1,12,0:0:0:0:
256,192,94409,1,12,0:0:0:0:
256,192,94668,1,12,0:0:0:0:
256,192,94840,1,4,0:0:0:0:
256,192,95413,1,8,0:0:0:0:
256,192,95604,1,0,0:0:0:0:
256,192,95795,1,8,0:0:0:0:
256,192,95986,1,0,0:0:0:0:
256,192,96082,1,0,0:0:0:0:
256,192,96177,1,0,0:0:0:0:
256,192,96368,1,8,0:0:0:0:
256,192,96750,1,0,0:0:0:0:
256,192,96941,1,0,0:0:0:0:
256,192,97132,1,8,0:0:0:0:
256,192,97419,1,8,0:0:0:0:
256,192,97706,1,8,0:0:0:0:
256,192,97897,1,0,0:0:0:0:
256,192,98086,1,12,0:0:0:0:
256,192,98466,1,8,0:0:0:0:
256,192,98656,1,0,0:0:0:0:
256,192,98846,1,8,0:0:0:0:
256,192,98941,1,8,0:0:0:0:
256,192,99036,1,8,0:0:0:0:
256,192,99226,1,0,0:0:0:0:
256,192,99415,1,8,0:0:0:0:
256,192,99597,1,0,0:0:0:0:
256,192,100146,1,8,0:0:0:0:
256,192,100333,1,8,0:0:0:0:
256,192,100521,1,8,0:0:0:0:
256,192,100708,1,8,0:0:0:0:
256,192,100896,1,4,0:0:0:0:
256,192,101087,1,8,0:0:0:0:
256,192,101182,1,8,0:0:0:0:
256,192,101469,1,0,0:0:0:0:
256,192,101660,1,8,0:0:0:0:
256,192,101851,1,8,0:0:0:0:
256,192,101946,1,8,0:0:0:0:
256,192,102042,1,8,0:0:0:0:
256,192,102233,1,0,0:0:0:0:
256,192,102424,1,8,0:0:0:0:
256,192,102518,1,8,0:0:0:0:
256,192,102708,1,8,0:0:0:0:
256,192,102993,1,0,0:0:0:0:
256,192,103183,1,8,0:0:0:0:
256,192,103753,1,12,0:0:0:0:
256,192,103942,1,0,0:0:0:0:
256,192,104038,1,0,0:0:0:0:
256,192,104230,1,8,0:0:0:0:
256,192,104518,1,0,0:0:0:0:
256,192,104711,1,8,0:0:0:0:
256,192,104807,1,8,0:0:0:0:
256,192,104999,1,8,0:0:0:0:
256,192,105288,1,0,0:0:0:0:
256,192,105480,1,8,0:0:0:0:
256,192,105672,1,0,0:0:0:0:
256,192,105865,1,8,0:0:0:0:
256,192,105961,1,8,0:0:0:0:
256,192,106057,1,8,0:0:0:0:
256,192,106249,1,0,0:0:0:0:
256,192,106826,1,12,0:0:0:0:
256,192,107018,1,0,0:0:0:0:
256,192,107211,1,8,0:0:0:0:
256,192,107307,1,8,0:0:0:0:
256,192,107403,1,8,0:0:0:0:
256,192,107595,1,0,0:0:0:0:
256,192,107788,1,8,0:0:0:0:
256,192,107980,1,0,0:0:0:0:
256,192,108076,1,0,0:0:0:0:
256,192,108172,1,0,0:0:0:0:
256,192,108365,1,0,0:0:0:0:
256,192,108557,1,8,0:0:0:0:
256,192,108745,1,8,0:0:0:0:
256,192,108840,1,8,0:0:0:0:
256,192,109123,1,0,0:0:0:0:
256,192,109311,1,8,0:0:0:0:
256,192,109877,1,12,0:0:0:0:
256,192,110066,1,0,0:0:0:0:
256,192,110255,1,8,0:0:0:0:
256,192,110349,1,8,0:0:0:0:
256,192,110443,1,8,0:0:0:0:
256,192,110632,1,0,0:0:0:0:
256,192,110821,1,8,0:0:0:0:
256,192,111009,1,8,0:0:0:0:
256,192,111104,1,8,0:0:0:0:
256,192,111387,1,0,0:0:0:0:
256,192,111575,1,8,0:0:0:0:
256,192,111670,1,8,0:0:0:0:
256,192,111858,1,8,0:0:0:0:
256,192,112141,1,0,0:0:0:0:
256,192,112330,1,8,0:0:0:0:
256,192,112519,1,0,0:0:0:0:
256,192,112613,1,0,0:0:0:0:
256,192,112707,1,0,0:0:0:0:
256,192,112896,1,8,0:0:0:0:
256,192,113085,1,4,0:0:0:0:
256,192,113835,1,8,0:0:0:0:
256,192,114116,1,8,0:0:0:0:
256,192,114397,1,8,0:0:0:0:
256,192,114585,1,0,0:0:0:0:
256,192,114964,1,8,0:0:0:0:
256,192,115344,1,0,0:0:0:0:
256,192,115534,1,0,0:0:0:0:
256,192,115724,1,8,0:0:0:0:
256,192,116103,1,4,0:0:0:0:
256,192,116843,1,8,0:0:0:0:
256,192,117121,1,0,0:0:0:0:
256,192,117399,1,8,0:0:0:0:
256,192,117584,1,0,0:0:0:0:
256,192,117963,1,8,0:0:0:0:
256,192,118153,1,8,0:0:0:0:
256,192,118343,1,0,0:0:0:0:
256,192,118533,1,0,0:0:0:0:
256,192,118723,1,8,0:0:0:0:
256,192,119102,1,4,0:0:0:0:
256,192,119852,1,8,0:0:0:0:
256,192,120133,1,8,0:0:0:0:
256,192,120414,1,8,0:0:0:0:
256,192,120602,1,0,0:0:0:0:
256,192,120973,1,8,0:0:0:0:
256,192,121345,1,0,0:0:0:0:
256,192,121530,1,0,0:0:0:0:
256,192,121716,1,8,0:0:0:0:
256,192,122088,1,4,0:0:0:0:
256,192,122273,1,8,0:0:0:0:
256,192,122643,1,8,0:0:0:0:
256,192,123013,1,8,0:0:0:0:
256,192,123384,1,8,0:0:0:0:
256,192,123588,1,4,0:0:0:0:
256,192,124168,1,8,0:0:0:0:
256,192,124362,1,0,0:0:0:0:
256,192,124555,1,8,0:0:0:0:
256,192,124749,1,0,0:0:0:0:
256,192,124846,1,0,0:0:0:0:
256,192,124942,1,0,0:0:0:0:
256,192,125136,1,8,0:0:0:0:
256,192,125518,1,0,0:0:0:0:
256,192,125709,1,0,0:0:0:0:
256,192,125900,1,8,0:0:0:0:
256,192,126186,1,8,0:0:0:0:
256,192,126473,1,8,0:0:0:0:
256,192,126664,1,0,0:0:0:0:
256,192,126853,1,12,0:0:0:0:
256,192,127233,1,8,0:0:0:0:
256,192,127423,1,0,0:0:0:0:
256,192,127613,1,8,0:0:0:0:
256,192,127708,1,8,0:0:0:0:
256,192,127803,1,8,0:0:0:0:
256,192,127993,1,0,0:0:0:0:
256,192,128182,1,8,0:0:0:0:
256,192,128537,1,0,0:0:0:0:
256,192,128934,1,12,0:0:0:0:
256,192,129192,1,12,0:0:0:0:
256,192,129451,1,12,0:0:0:0:
256,192,129623,1,4,0:0:0:0:
256,192,130189,1,8,0:0:0:0:
256,192,130377,1,0,0:0:0:0:
256,192,130566,1,8,0:0:0:0:
256,192,130755,1,0,0:0:0:0:
256,192,130849,1,0,0:0:0:0:
256,192,130943,1,0,0:0:0:0:
256,192,131132,1,8,0:0:0:0:
256,192,131516,1,0,0:0:0:0:
256,192,131708,1,0,0:0:0:0:
256,192,131901,1,8,0:0:0:0:
256,192,132189,1,8,0:0:0:0:
256,192,132478,1,8,0:0:0:0:
256,192,132670,1,0,0:0:0:0:
256,192,132858,1,12,0:0:0:0:
256,192,133236,1,8,0:0:0:0:
256,192,133424,1,0,0:0:0:0:
256,192,133613,1,8,0:0:0:0:
256,192,133707,1,8,0:0:0:0:
256,192,133802,1,8,0:0:0:0:
256,192,133990,1,0,0:0:0:0:
256,192,134179,1,8,0:0:0:0:
256,192,134363,1,0,0:0:0:0:
256,192,134915,1,8,0:0:0:0:
256,192,135101,1,8,0:0:0:0:
256,192,135287,1,8,0:0:0:0:
256,192,135474,1,8,0:0:0:0:
256,192,135660,1,4,0:0:0:0:
256,192,135852,1,8,0:0:0:0:
256,192,135948,1,8,0:0:0:0:
256,192,136236,1,0,0:0:0:0:
256,192,136429,1,8,0:0:0:0:
256,192,136621,1,8,0:0:0:0:
256,192,136717,1,8,0:0:0:0:
256,192,136813,1,8,0:0:0:0:
256,192,137006,1,0,0:0:0:0:
256,192,137198,1,8,0:0:0:0:
256,192,137386,1,8,0:0:0:0:
256,192,137574,1,0,0:0:0:0:
256,192,137668,1,0,0:0:0:0:
256,192,137950,1,8,0:0:0:0:
256,192,138514,1,12,0:0:0:0:
256,192,138702,1,0,0:0:0:0:
256,192,138894,1,8,0:0:0:0:
256,192,138990,1,8,0:0:0:0:
256,192,139278,1,0,0:0:0:0:
256,192,139471,1,8,0:0:0:0:
256,192,139663,1,8,0:0:0:0:
256,192,139759,1,8,0:0:0:0:
256,192,140048,1,0,0:0:0:0:
256,192,140240,1,8,0:0:0:0:
256,192,140429,1,0,0:0:0:0:
256,192,140619,1,8,0:0:0:0:
256,192,140714,1,8,0:0:0:0:
256,192,140809,1,8,0:0:0:0:
256,192,140999,1,0,0:0:0:0:
256,192,141569,1,12,0:0:0:0:
256,192,141758,1,0,0:0:0:0:
256,192,141949,1,8,0:0:0:0:
256,192,142044,1,8,0:0:0:0:
256,192,142331,1,0,0:0:0:0:
256,192,142522,1,8,0:0:0:0:
256,192,142713,1,0,0:0:0:0:
256,192,142808,1,0,0:0:0:0:
256,192,143095,1,8,0:0:0:0:
256,192,143286,1,0,0:0:0:0:
256,192,143476,1,8,0:0:0:0:
256,192,143571,1,8,0:0:0:0:
256,192,143666,1,8,0:0:0:0:
256,192,143857,1,0,0:0:0:0:
256,192,144047,1,8,0:0:0:0:
256,192,144619,1,12,0:0:0:0:
256,192,144809,1,0,0:0:0:0:
256,192,144998,1,8,0:0:0:0:
256,192,145093,1,8,0:0:0:0:
256,192,145378,1,0,0:0:0:0:
256,192,145568,1,8,0:0:0:0:
256,192,145758,1,0,0:0:0:0:
256,192,145853,1,0,0:0:0:0:
256,192,146138,1,0,0:0:0:0:
256,192,146327,1,8,0:0:0:0:
256,192,146421,1,8,0:0:0:0:
256,192,146610,1,8,0:0:0:0:
256,192,146893,1,0,0:0:0:0:
256,192,147081,1,8,0:0:0:0:
256,192,147647,1,8,0:0:0:0:
256,192,147836,1,0,0:0:0:0:
256,192,148025,1,12,0:0:0:0:
256,192,148591,1,8,0:0:0:0:
256,192,148874,1,8,0:0:0:0:
256,192,149157,1,8,0:0:0:0:
256,192,149345,1,0,0:0:0:0:
256,192,149723,1,8,0:0:0:0:
256,192,150100,1,0,0:0:0:0:
256,192,150289,1,0,0:0:0:0:
256,192,150477,1,8,0:0:0:0:
256,192,150855,1,4,0:0:0:0:
256,192,151591,1,8,0:0:0:0:
256,192,151867,1,0,0:0:0:0:
256,192,152143,1,8,0:0:0:0:
256,192,152327,1,0,0:0:0:0:
256,192,152702,1,8,0:0:0:0:
256,192,152889,1,8,0:0:0:0:
256,192,153077,1,0,0:0:0:0:
256,192,153264,1,0,0:0:0:0:
256,192,153452,1,8,0:0:0:0:
256,192,153827,1,4,0:0:0:0:
256,192,154577,1,8,0:0:0:0:
256,192,154858,1,8,0:0:0:0:
256,192,155139,1,8,0:0:0:0:
256,192,155327,1,0,0:0:0:0:
256,192,155698,1,8,0:0:0:0:
256,192,156070,1,0,0:0:0:0:
256,192,156255,1,0,0:0:0:0:
256,192,156441,1,8,0:0:0:0:
256,192,156813,1,4,0:0:0:0:
256,192,156994,1,8,0:0:0:0:
256,192,157358,1,8,0:0:0:0:
256,192,157722,1,8,0:0:0:0:
256,192,158085,1,8,0:0:0:0:
256,192,158267,1,8,0:0:0:0:
256,192,158449,1,0,0:0:0:0:
256,192,158540,1,0,0:0:0:0:
256,192,158631,1,0,0:0:0:0:
256,192,158813,1,8,0:0:0:0:
256,192,158994,1,0,0:0:0:0:
256,192,159085,1,0,0:0:0:0:
256,192,159176,1,0,0:0:0:0:
256,192,159358,1,8,0:0:0:0:
256,192,159449,1,8,0:0:0:0:
256,192,159757,1,4,0:0:0:0:
256,192,160502,1,12,0:0:0:0:
256,192,161247,1,4,0:0:0:0:
256,192,161637,1,8,0:0:0:0:
256,192,161833,1,8,0:0:0:0:
256,192,162028,1,0,0:0:0:0:
256,192,162224,1,0,0:0:0:0:
256,192,162419,1,8,0:0:0:0:
256,192,162810,1,0,0:0:0:0:
256,192,163199,1,8,0:0:0:0:
256,192,163394,1,8,0:0:0:0:
256,192,163589,1,0,0:0:0:0:
256,192,164368,1,0,0:0:0:0:
256,192,164758,1,8,0:0:0:0:
256,192,164952,1,8,0:0:0:0:
256,192,165147,1,0,0:0:0:0:
256,192,165537,1,8,0:0:0:0:
256,192,165926,1,0,0:0:0:0:
256,192,166122,1,0,0:0:0:0:
256,192,166318,1,8,0:0:0:0:
256,192,166514,1,8,0:0:0:0:
256,192,166710,1,0,0:0:0:0:
256,192,167494,1,0,0:0:0:0:
256,192,167886,1,8,0:0:0:0:
256,192,168082,1,8,0:0:0:0:
256,192,168278,1,0,0:0:0:0:
256,192,168475,1,0,0:0:0:0:
256,192,168671,1,8,0:0:0:0:
256,192,169063,1,0,0:0:0:0:
256,192,169442,1,8,0:0:0:0:
256,192,169632,1,8,0:0:0:0:
256,192,169822,1,0,0:0:0:0:
256,192,170581,1,0,0:0:0:0:
256,192,170965,1,8,0:0:0:0:
256,192,171157,1,8,0:0:0:0:
256,192,171350,1,0,0:0:0:0:
256,192,171734,1,8,0:0:0:0:
256,192,172119,1,0,0:0:0:0:
256,192,172310,1,0,0:0:0:0:
256,192,172501,1,8,0:0:0:0:
256,192,172692,1,8,0:0:0:0:
256,192,172883,1,0,0:0:0:0:
256,192,173647,1,12,0:0:0:0:
256,192,173838,1,0,0:0:0:0:
256,192,174029,1,8,0:0:0:0:
256,192,174125,1,8,0:0:0:0:
256,192,174220,1,8,0:0:0:0:
256,192,174411,1,0,0:0:0:0:
256,192,174603,1,8,0:0:0:0:
256,192,174794,1,0,0:0:0:0:
256,192,174889,1,0,0:0:0:0:
256,192,174985,1,0,0:0:0:0:
256,192,175176,1,8,0:0:0:0:
256,192,175368,1,0,0:0:0:0:
256,192,175560,1,8,0:0:0:0:
256,192,175656,1,8,0:0:0:0:
256,192,175752,1,8,0:0:0:0:
256,192,175945,1,0,0:0:0:0:
256,192,176137,1,0,0:0:0:0:
256,192,176329,1,8,0:0:0:0:
256,192,176714,1,0,0:0:0:0:
256,192,176906,1,8,0:0:0:0:
256,192,177099,1,0,0:0:0:0:
256,192,177195,1,0,0:0:0:0:
256,192,177291,1,0,0:0:0:0:
256,192,177483,1,8,0:0:0:0:
256,192,177676,1,0,0:0:0:0:
256,192,177868,1,8,0:0:0:0:
256,192,177964,1,8,0:0:0:0:
256,192,178060,1,8,0:0:0:0:
256,192,178252,1,0,0:0:0:0:
256,192,178441,1,8,0:0:0:0:
256,192,178821,1,8,0:0:0:0:
256,192,179011,1,0,0:0:0:0:
256,192,179201,1,8,0:0:0:0:
256,192,179770,1,0,0:0:0:0:
256,192,179962,1,8,0:0:0:0:
256,192,180154,1,0,0:0:0:0:
256,192,180250,1,0,0:0:0:0:
256,192,180443,1,8,0:0:0:0:
256,192,180539,1,8,0:0:0:0:
256,192,180731,1,0,0:0:0:0:
256,192,180923,1,8,0:0:0:0:
256,192,181116,1,0,0:0:0:0:
256,192,181212,1,0,0:0:0:0:
256,192,181308,1,0,0:0:0:0:
256,192,181500,1,0,0:0:0:0:
256,192,181693,1,8,0:0:0:0:
256,192,181789,1,8,0:0:0:0:
256,192,181885,1,8,0:0:0:0:
256,192,182077,1,0,0:0:0:0:
256,192,182173,1,0,0:0:0:0:
256,192,182270,1,0,0:0:0:0:
256,192,182462,1,8,0:0:0:0:
256,192,182846,1,0,0:0:0:0:
256,192,183039,1,8,0:0:0:0:
256,192,183231,1,0,0:0:0:0:
256,192,183327,1,0,0:0:0:0:
256,192,183423,1,0,0:0:0:0:
256,192,183616,1,8,0:0:0:0:
256,192,183808,1,8,0:0:0:0:
256,192,183904,1,8,0:0:0:0:
256,192,184000,1,8,0:0:0:0:
256,192,184193,1,0,0:0:0:0:
256,192,184385,1,8,0:0:0:0:
256,192,184958,1,0,0:0:0:0:
256,192,185053,1,0,0:0:0:0:
256,192,185149,1,0,0:0:0:0:
256,192,185531,1,8,0:0:0:0:
256,192,185722,1,0,0:0:0:0:
256,192,185913,1,8,0:0:0:0:
256,192,186009,1,8,0:0:0:0:
256,192,186104,1,8,0:0:0:0:
256,192,186295,1,0,0:0:0:0:
256,192,186391,1,0,0:0:0:0:
256,192,186486,1,0,0:0:0:0:
256,192,186677,1,8,0:0:0:0:
256,192,186869,1,0,0:0:0:0:
256,192,187060,1,8,0:0:0:0:
256,192,187251,1,8,0:0:0:0:
256,192,187442,1,0,0:0:0:0:
256,192,187536,1,0,0:0:0:0:
256,192,187630,1,0,0:0:0:0:
256,192,187819,1,8,0:0:0:0:
256,192,187913,1,8,0:0:0:0:
256,192,188008,1,8,0:0:0:0:
256,192,188196,1,0,0:0:0:0:
256,192,188385,1,8,0:0:0:0:
256,192,188574,1,0,0:0:0:0:
256,192,188951,1,8,0:0:0:0:
256,192,189045,1,8,0:0:0:0:
256,192,189140,1,8,0:0:0:0:
256,192,189330,1,0,0:0:0:0:
256,192,189520,1,8,0:0:0:0:
256,192,189710,1,0,0:0:0:0:
256,192,189805,1,0,0:0:0:0:
256,192,189900,1,0,0:0:0:0:
256,192,190090,1,8,0:0:0:0:
256,192,190280,1,0,0:0:0:0:
256,192,190469,1,8,0:0:0:0:
256,192,190564,1,8,0:0:0:0:
256,192,190659,1,8,0:0:0:0:
256,192,190849,1,0,0:0:0:0:
256,192,191039,1,0,0:0:0:0:
256,192,191229,1,8,0:0:0:0:
256,192,191799,1,0,0:0:0:0:
256,192,191988,1,8,0:0:0:0:
256,192,192083,1,8,0:0:0:0:
256,192,192178,1,8,0:0:0:0:
256,192,192368,1,8,0:0:0:0:
256,192,192463,1,8,0:0:0:0:
256,192,192558,1,8,0:0:0:0:
256,192,192748,1,0,0:0:0:0:
256,192,192843,1,0,0:0:0:0:
256,192,192938,1,0,0:0:0:0:
256,192,193128,1,0,0:0:0:0:
256,192,193223,1,0,0:0:0:0:
256,192,193318,1,0,0:0:0:0:
256,192,193507,1,8,0:0:0:0:
256,192,193697,1,0,0:0:0:0:
256,192,193887,1,8,0:0:0:0:
256,192,193982,1,8,0:0:0:0:
256,192,194077,1,8,0:0:0:0:
256,192,194267,1,0,0:0:0:0:
256,192,194457,1,8,0:0:0:0:
256,192,194647,1,0,0:0:0:0:
256,192,194742,1,0,0:0:0:0:
256,192,194837,1,0,0:0:0:0:
256,192,195026,1,8,0:0:0:0:
256,192,195401,1,0,0:0:0:0:
256,192,195588,1,8,0:0:0:0:
256,192,195776,1,0,0:0:0:0:
256,192,195869,1,0,0:0:0:0:
256,192,195963,1,0,0:0:0:0:
256,192,196151,1,8,0:0:0:0:
256,192,196338,1,0,0:0:0:0:
256,192,196526,1,8,0:0:0:0:
256,192,196621,1,8,0:0:0:0:
256,192,196717,1,8,0:0:0:0:
256,192,196908,1,0,0:0:0:0:
256,192,197003,1,0,0:0:0:0:
256,192,197099,1,0,0:0:0:0:
256,192,197290,1,8,0:0:0:0:
256,192,197385,1,8,0:0:0:0:
256,192,197481,1,8,0:0:0:0:
256,192,197672,1,0,0:0:0:0:
256,192,197768,1,0,0:0:0:0:
256,192,197863,1,0,0:0:0:0:
256,192,198054,1,12,0:0:0:0:
256,192,198429,1,0,0:0:0:0:
256,192,198804,1,0,0:0:0:0:
256,192,199179,1,0,0:0:0:0:
256,192,199554,1,12,0:0:0:0:
256,192,200872,1,12,0:0:0:0:
256,192,201084,1,0,0:0:0:0:
256,192,201268,1,8,0:0:0:0:
256,192,201360,1,8,0:0:0:0:
256,192,201545,1,0,0:0:0:0:
256,192,201729,1,8,0:0:0:0:
256,192,201822,1,8,0:0:0:0:
256,192,202007,1,0,0:0:0:0:
256,192,202191,1,8,0:0:0:0:
256,192,202376,1,0,0:0:0:0:
256,192,202567,1,8,0:0:0:0:
256,192,202662,1,8,0:0:0:0:
256,192,202853,1,0,0:0:0:0:
256,192,202949,1,0,0:0:0:0:
256,192,203140,1,8,0:0:0:0:
256,192,203331,1,0,0:0:0:0:
256,192,203426,1,0,0:0:0:0:
256,192,203618,1,8,0:0:0:0:
256,192,203713,1,8,0:0:0:0:
256,192,203904,1,0,0:0:0:0:
256,192,204281,1,8,0:0:0:0:
256,192,204470,1,0,0:0:0:0:
256,192,204658,1,8,0:0:0:0:
256,192,204753,1,8,0:0:0:0:
256,192,204847,1,8,0:0:0:0:
256,192,205036,1,0,0:0:0:0:
256,192,205224,1,8,0:0:0:0:
256,192,205413,1,0,0:0:0:0:
256,192,205500,1,0,0:0:0:0:
256,192,205587,1,0,0:0:0:0:
256,192,205761,1,8,0:0:0:0:
256,192,206157,1,4,0:0:0:0:
256,192,206868,1,8,0:0:0:0:
256,192,206962,1,8,0:0:0:0:
256,192,207057,1,8,0:0:0:0:
256,192,207247,1,0,0:0:0:0:
256,192,207437,1,0,0:0:0:0:
256,192,207627,1,8,0:0:0:0:
256,192,207722,1,8,0:0:0:0:
256,192,207817,1,8,0:0:0:0:
256,192,208007,1,8,0:0:0:0:
256,192,208197,1,0,0:0:0:0:
256,192,208386,1,8,0:0:0:0:
256,192,208478,1,8,0:0:0:0:
256,192,208571,1,8,0:0:0:0:
256,192,208757,1,8,0:0:0:0:
256,192,208850,1,8,0:0:0:0:
256,192,208943,1,8,0:0:0:0:
256,192,209129,1,0,0:0:0:0:
256,192,209314,1,8,0:0:0:0:
256,192,209500,1,0,0:0:0:0:
256,192,209872,1,8,0:0:0:0:
256,192,210054,1,0,0:0:0:0:
256,192,210237,1,8,0:0:0:0:
256,192,210329,1,8,0:0:0:0:
256,192,210420,1,8,0:0:0:0:
256,192,210603,1,0,0:0:0:0:
256,192,210786,1,8,0:0:0:0:
256,192,210969,1,0,0:0:0:0:
256,192,211061,1,0,0:0:0:0:
256,192,211152,1,0,0:0:0:0:
256,192,211335,1,8,0:0:0:0:
256,192,211518,1,8,0:0:0:0:
256,192,211701,1,0,0:0:0:0:
256,192,211884,1,0,0:0:0:0:
256,192,212067,1,12,0:0:0:0:
256,192,212798,1,4,0:0:0:0:
256,192,212986,1,8,0:0:0:0:
256,192,213081,1,8,0:0:0:0:
256,192,213364,1,0,0:0:0:0:
256,192,213552,1,8,0:0:0:0:
256,192,213647,1,8,0:0:0:0:
256,192,213835,1,8,0:0:0:0:
256,192,214118,1,0,0:0:0:0:
256,192,214307,1,8,0:0:0:0:
256,192,214496,1,0,0:0:0:0:
256,192,214590,1,0,0:0:0:0:
256,192,214684,1,0,0:0:0:0:
256,192,214873,1,0,0:0:0:0:
256,192,215062,1,8,0:0:0:0:
256,192,215628,1,12,0:0:0:0:
256,192,215816,1,0,0:0:0:0:
256,192,215912,1,0,0:0:0:0:
256,192,216104,1,8,0:0:0:0:
256,192,216392,1,0,0:0:0:0:
256,192,216585,1,8,0:0:0:0:
256,192,216681,1,8,0:0:0:0:
256,192,216873,1,8,0:0:0:0:
256,192,217162,1,0,0:0:0:0:
256,192,217354,1,8,0:0:0:0:
256,192,217540,1,0,0:0:0:0:
256,192,217726,1,8,0:0:0:0:
256,192,217819,1,8,0:0:0:0:
256,192,217913,1,8,0:0:0:0:
256,192,218099,1,0,0:0:0:0:
256,192,218658,1,12,0:0:0:0:
256,192,218844,1,0,0:0:0:0:
256,192,219033,1,8,0:0:0:0:
256,192,219128,1,8,0:0:0:0:
256,192,219223,1,8,0:0:0:0:
256,192,219413,1,8,0:0:0:0:
256,192,219603,1,0,0:0:0:0:
256,192,219698,1,0,0:0:0:0:
256,192,219888,1,8,0:0:0:0:
256,192,220173,1,0,0:0:0:0:
256,192,220362,1,8,0:0:0:0:
256,192,220549,1,8,0:0:0:0:
256,192,220737,1,0,0:0:0:0:
256,192,220830,1,0,0:0:0:0:
256,192,221112,1,8,0:0:0:0:
256,192,221674,1,12,0:0:0:0:
256,192,221862,1,0,0:0:0:0:
256,192,222051,1,8,0:0:0:0:
256,192,222146,1,8,0:0:0:0:
256,192,222431,1,0,0:0:0:0:
256,192,222621,1,8,0:0:0:0:
256,192,222716,1,8,0:0:0:0:
256,192,222906,1,8,0:0:0:0:
256,192,223191,1,0,0:0:0:0:
256,192,223380,1,8,0:0:0:0:
256,192,223570,1,8,0:0:0:0:
256,192,223665,1,8,0:0:0:0:
256,192,223950,1,0,0:0:0:0:
256,192,224140,1,8,0:0:0:0:
256,192,224710,1,8,0:0:0:0:
256,192,224899,1,0,0:0:0:0:
256,192,225087,1,12,0:0:0:0:
256,192,225653,1,8,0:0:0:0:
256,192,225936,1,8,0:0:0:0:
256,192,226219,1,8,0:0:0:0:
256,192,226408,1,0,0:0:0:0:
256,192,226785,1,8,0:0:0:0:
256,192,227163,1,0,0:0:0:0:
256,192,227351,1,0,0:0:0:0:
256,192,227540,1,8,0:0:0:0:
256,192,227917,1,4,0:0:0:0:
256,192,228657,1,8,0:0:0:0:
256,192,228935,1,0,0:0:0:0:
256,192,229213,1,8,0:0:0:0:
256,192,229398,1,0,0:0:0:0:
256,192,229776,1,8,0:0:0:0:
256,192,229965,1,8,0:0:0:0:
256,192,230155,1,0,0:0:0:0:
256,192,230344,1,0,0:0:0:0:
256,192,230533,1,8,0:0:0:0:
256,192,230912,1,4,0:0:0:0:
256,192,231657,1,8,0:0:0:0:
256,192,231936,1,8,0:0:0:0:
256,192,232216,1,8,0:0:0:0:
256,192,232402,1,0,0:0:0:0:
256,192,232779,1,8,0:0:0:0:
256,192,233156,1,0,0:0:0:0:
256,192,233345,1,0,0:0:0:0:
256,192,233534,1,8,0:0:0:0:
256,192,233911,1,4,0:0:0:0:
256,192,234670,1,8,0:0:0:0:
256,192,234955,1,0,0:0:0:0:
256,192,235240,1,8,0:0:0:0:
256,192,235429,1,4,0:0:0:0:
256,192,235823,1,8,0:0:0:0:
256,192,236218,1,0,0:0:0:0:
256,192,236405,1,0,0:0:0:0:
256,192,236593,1,8,0:0:0:0:
256,192,236968,1,0,0:0:0:0:
256,192,237373,1,8,0:0:0:0:
256,192,237576,1,8,0:0:0:0:
256,192,237778,1,0,0:0:0:0:
256,192,237978,1,0,0:0:0:0:
256,192,238178,1,8,0:0:0:0:
256,192,238578,1,0,0:0:0:0:
256,192,238978,1,8,0:0:0:0:
256,192,239378,1,0,0:0:0:0:
256,192,239578,1,0,0:0:0:0:
256,192,239778,1,8,0:0:0:0:
256,192,240178,1,0,0:0:0:0:
256,192,240562,1,8,0:0:0:0:
256,192,240947,1,4,0:0:0:0:
256,192,241183,1,12,0:0:0:0:
256,192,245070,1,0,0:0:0:0:
256,192,245449,1,8,0:0:0:0:
256,192,245639,1,0,0:0:0:0:
256,192,245829,1,12,0:0:0:0:
256,192,246065,1,12,0:0:0:0:
