osu file format v14

[General]
AudioFilename: audio.mp3
AudioLeadIn: 0
PreviewTime: 79588
Countdown: 0
SampleSet: Normal
StackLeniency: 0.2
Mode: 1
LetterboxInBreaks: 0
WidescreenStoryboard: 1

[Editor]
Bookmarks: 5545,29875,41842,66101,88831,100896,123588,135660,161247,173647,212798
DistanceSpacing: 0.9
BeatDivisor: 2
GridSize: 32
TimelineZoom: 3.099999

[Metadata]
Title:Whiplash
TitleUnicode:Whiplash
Artist:Metallica
ArtistUnicode:Metallica
Creator:Genjuro
Version:Kantan
Source:
Tags:thrash metal english kill 'em all metalica dave mustaine james hetfield
BeatmapID:2558488
BeatmapSetID:1230649

[Difficulty]
HPDrainRate:7
CircleSize:2
OverallDifficulty:2
ApproachRate:10
SliderMultiplier:1.4
SliderTickRate:1

[Events]
//Background and Video events
0,0,"bg.jpg",0,0
//Break Periods
2,5745,17361
//Storyboard Layer 0 (Background)
//Storyboard Layer 1 (Fail)
//Storyboard Layer 2 (Pass)
//Storyboard Layer 3 (Foreground)
//Storyboard Layer 4 (Overlay)
//Storyboard Sound Samples

[TimingPoints]
190,331.491712707182,4,1,0,75,1,0
190,-100.555569521607,4,1,0,75,0,0
521,324.324324324324,4,1,0,75,1,8
521,-102.777880555658,4,1,0,75,0,8
1493,344.827586206896,4,1,0,75,1,0
1493,-96.6669244451318,4,1,0,75,0,0
1837,338.983050847457,4,1,0,75,1,8
1837,-98.3342183412984,4,1,0,75,0,8
2853,345.821325648415,4,1,0,75,1,0
2853,-96.3889796551781,4,1,0,75,0,0
3198,329.67032967033,4,1,0,75,1,8
3198,-101.111212222323,4,1,0,75,0,8
4187,333.333333333334,4,1,0,75,1,0
4520,341.880341880342,4,1,0,75,1,8
4520,-97.5000024375001,4,1,0,75,0,8
5545,384.615384615385,4,1,0,75,1,0
5545,-96.8944099378881,4,1,0,75,0,0
5593,-96.8944099378881,4,1,0,35,0,0
8621,380.952380952381,4,1,0,35,1,0
8621,-97.8260869565217,4,1,0,35,0,0
10144,389.61038961039,4,1,0,35,1,0
10144,-95.6521739130434,4,1,0,35,0,0
11702,387.096774193549,4,1,0,35,1,0
11702,-96.2732919254657,4,1,0,35,0,0
13250,384.615384615385,4,1,0,35,1,0
13250,-96.8944099378881,4,1,0,35,0,0
14788,377.358490566038,4,1,0,35,1,0
14788,-98.7577639751552,4,1,0,35,0,0
16297,378.548895899054,4,1,0,35,1,0
16297,-98.447204968944,4,1,0,35,0,0
17764,-98.447204968944,4,1,0,75,0,0
17811,373.831775700935,4,1,0,75,1,0
17811,-99.6894409937887,4,1,0,75,0,0
17857,-99.6894409937887,4,1,0,35,0,0
19306,382.165605095541,4,1,0,35,1,0
19306,-97.5155279503106,4,1,0,35,0,0
20786,-97.5155279503106,4,1,0,75,0,0
20882,-97.5155279503106,4,1,0,35,0,0
22363,379.746835443038,4,1,0,35,1,0
22363,-98.1366459627329,4,1,0,35,0,0
23834,-98.1366459627329,4,1,0,75,0,0
23929,-98.1366459627329,4,1,0,35,0,0
26872,-98.1366459627329,4,1,0,75,0,0
26967,-98.1366459627329,4,1,0,35,0,0
28438,359.281437125748,4,1,0,35,1,0
28438,-103.726708074534,4,1,0,35,0,0
29156,370.37037037037,4,1,0,35,1,8
29156,-100.621118012422,4,1,0,35,0,8
29433,317.460317460317,4,1,0,35,1,8
29433,-117.391304347826,4,1,0,35,0,8
29671,408.163265306122,4,1,0,35,1,8
29671,-91.3043478260871,4,1,0,35,0,8
29824,-91.3043478260871,4,1,0,75,0,8
29875,365.853658536585,4,1,0,75,1,0
29875,-101.863354037267,4,1,0,75,0,0
29920,-101.863354037267,4,1,0,50,0,0
31338,375,4,1,0,50,1,0
31338,-99.3788819875776,4,1,0,50,0,0
32838,377.358490566038,4,1,0,50,1,0
32838,-98.7577639751552,4,1,0,50,0,0
34347,372.670807453416,4,1,0,50,1,0
34347,-100,4,1,0,50,0,0
37328,378.548895899054,4,1,0,50,1,0
37328,-98.447204968944,4,1,0,50,0,0
38795,-98.447204968944,4,1,0,60,0,0
38842,375,4,1,0,60,1,0
38842,-99.3788819875776,4,1,0,60,0,0
41045,-99.3788819875776,4,1,0,70,0,0
41842,389.61038961039,4,1,0,70,1,0
41842,-95.6521739130434,4,1,0,70,0,0
43400,377.358490566038,4,1,0,70,1,0
43400,-98.7577639751552,4,1,0,70,0,0
46418,344.827586206897,4,1,0,70,1,0
46418,-108.074534161491,4,1,0,70,0,0
46978,353.982300884956,4,1,0,70,1,8
46978,-105.27950310559,4,1,0,70,0,8
47154,355.029585798817,4,1,0,70,1,8
47154,-104.968944099379,4,1,0,70,0,8
47864,380.952380952381,4,1,0,70,1,0
47864,-97.8260869565217,4,1,0,70,0,0
52435,363.636363636364,4,1,0,70,1,0
52435,-102.484472049689,4,1,0,70,0,0
53162,375,4,1,0,70,1,8
53162,-99.3788819875776,4,1,0,70,0,8
53912,384.615384615385,4,1,0,70,1,0
53912,-96.8944099378881,4,1,0,70,0,0
55450,379.746835443038,4,1,0,70,1,0
55450,-98.1366459627329,4,1,0,70,0,0
56968,384.615384615385,4,1,0,70,1,0
56968,-96.8944099378881,4,1,0,70,0,0
58506,379.746835443038,4,1,0,70,1,0
58506,-98.1366459627329,4,1,0,70,0,0
60024,384.615384615385,4,1,0,70,1,0
60024,-96.8944099378881,4,1,0,70,0,0
61562,379.746835443038,4,1,0,70,1,0
61562,-98.1366459627329,4,1,0,70,0,0
63080,389.61038961039,4,1,0,70,1,0
63080,-95.6521739130434,4,1,0,70,0,0
64638,363.636363636364,4,1,0,70,1,0
64638,-102.484472049689,4,1,0,70,0,0
65365,368.098159509203,4,1,0,70,1,8
65365,-101.242236024845,4,1,0,70,0,8
66101,384.615384615385,4,1,0,70,1,0
66101,-96.8944099378881,4,1,0,70,0,0
67639,377.358490566038,4,1,0,70,1,0
67639,-98.7577639751552,4,1,0,70,0,0
69148,387.096774193549,4,1,0,70,1,0
69148,-96.2732919254657,4,1,0,70,0,0
70696,382.165605095542,4,1,0,70,1,0
70696,-97.5155279503104,4,1,0,70,0,0
72224,384.615384615385,4,1,0,70,1,0
72224,-96.8944099378881,4,1,0,70,0,0
73762,379.746835443038,4,1,0,70,1,0
73762,-98.1366459627329,4,1,0,70,0,0
76799,361.44578313253,4,1,0,70,1,0
76799,-103.105590062112,4,1,0,70,0,0
77521,389.610389610389,4,1,0,70,1,8
77521,-95.6521739130436,4,1,0,70,0,8
78300,368.098159509202,4,1,0,70,1,0
78300,-101.242236024845,4,1,0,70,0,0
79772,384.615384615384,4,1,0,70,1,0
79772,-96.8944099378884,4,1,0,70,0,0
81310,372.670807453416,4,1,0,70,1,0
81310,-100,4,1,0,70,0,0
82800,387.096774193548,4,1,0,70,1,0
82800,-96.2732919254659,4,1,0,70,0,0
84348,375,4,1,0,70,1,0
84348,-99.3788819875776,4,1,0,70,0,0
87348,357.142857142857,4,1,0,70,1,0
87348,-104.347826086957,4,1,0,70,0,0
88642,379.746835443038,4,1,0,70,1,8
88642,-98.1366459627329,4,1,0,70,0,8
88831,387.096774193548,4,1,0,70,1,0
88831,-96.2732919254659,4,1,0,70,0,0
90379,379.746835443038,4,1,0,70,1,0
90379,-98.1366459627329,4,1,0,70,0,0
91897,377.358490566038,4,1,0,70,1,0
91897,-98.7577639751552,4,1,0,70,0,0
93406,372.670807453416,4,1,0,70,1,0
93406,-100,4,1,0,70,0,0
94151,344.827586206896,4,1,0,70,1,8
94151,-108.074534161491,4,1,0,70,0,8
94840,382.165605095541,4,1,0,70,1,0
94840,-97.5155279503106,4,1,0,70,0,0
97897,379.746835443038,4,1,0,70,1,0
97897,-98.1366459627329,4,1,0,70,0,0
99415,365.853658536585,4,1,0,70,1,0
99415,-101.863354037267,4,1,0,70,0,0
100146,375,4,1,0,70,1,8
100146,-99.3788819875776,4,1,0,70,0,8
100896,382.165605095541,4,1,0,70,1,0
100896,-97.5155279503106,4,1,0,70,0,0
102424,379.746835443038,4,1,0,70,1,0
102424,-98.1366459627329,4,1,0,70,0,0
103942,384.615384615385,4,1,0,70,1,0
103942,-96.8944099378881,4,1,0,70,0,0
108557,377.358490566038,4,1,0,70,1,0
108557,-98.7577639751552,4,1,0,70,0,0
113085,375,4,1,0,70,1,0
113085,-99.3788819875776,4,1,0,70,0,0
114585,379.746835443038,4,1,0,70,1,0
114585,-98.1366459627329,4,1,0,70,0,0
116103,370.37037037037,4,1,0,70,1,0
116103,-100.621118012422,4,1,0,70,0,0
117584,379.746835443038,4,1,0,70,1,0
117584,-98.1366459627329,4,1,0,70,0,0
119102,375,4,1,0,70,1,0
119102,-99.3788819875776,4,1,0,70,0,0
120602,371.517027863777,4,1,0,70,1,0
120602,-100.310559006211,4,1,0,70,0,0
122088,370.37037037037,4,1,0,70,1,0
122088,-100.621118012422,4,1,0,70,0,0
123430,422.535211267606,4,1,0,70,1,8
123430,-88.1987577639751,4,1,0,70,0,8
123588,387.096774193548,4,1,0,70,1,0
123588,-96.2732919254659,4,1,0,70,0,0
125136,382.165605095541,4,1,0,70,1,0
125136,-97.5155279503106,4,1,0,70,0,0
126664,379.746835443038,4,1,0,70,1,0
126664,-98.1366459627329,4,1,0,70,0,0
128182,355.029585798816,4,1,0,70,1,0
128182,-104.968944099379,4,1,0,70,0,0
128758,352.941176470588,4,1,0,70,1,8
128758,-105.590062111801,4,1,0,70,0,8
128934,344.827586206896,4,1,0,70,1,8
128934,-108.074534161491,4,1,0,70,0,8
129623,377.358490566037,4,1,0,70,1,0
129623,-98.7577639751555,4,1,0,70,0,0
131132,384.615384615384,4,1,0,70,1,0
131132,-96.8944099378884,4,1,0,70,0,0
132670,377.358490566037,4,1,0,70,1,0
132670,-98.7577639751555,4,1,0,70,0,0
134179,368.098159509202,4,1,0,70,1,0
134179,-101.242236024845,4,1,0,70,0,0
134915,372.670807453415,4,1,0,70,1,8
134915,-100,4,1,0,70,0,8
135660,384.615384615383,4,1,0,70,1,0
135660,-96.8944099378886,4,1,0,70,0,0
137198,376.175548589342,4,1,0,70,1,0
137198,-99.0683229813664,4,1,0,70,0,0
138702,384.615384615384,4,1,0,70,1,0
138702,-96.8944099378884,4,1,0,70,0,0
140240,379.746835443037,4,1,0,70,1,0
140240,-98.1366459627332,4,1,0,70,0,0
141758,382.16560509554,4,1,0,70,1,0
141758,-97.5155279503109,4,1,0,70,0,0
143286,380.952380952381,4,1,0,70,1,0
143286,-97.8260869565217,4,1,0,70,0,0
144809,379.746835443038,4,1,0,70,1,0
144809,-98.1366459627329,4,1,0,70,0,0
146327,377.358490566038,4,1,0,70,1,0
146327,-98.7577639751552,4,1,0,70,0,0
150855,368.098159509203,4,1,0,70,1,0
150855,-101.242236024845,4,1,0,70,0,0
152327,375.000000000001,4,1,0,70,1,0
152327,-99.3788819875774,4,1,0,70,0,0
155327,371.517027863777,4,1,0,70,1,0
155327,-100.310559006211,4,1,0,70,0,0
156813,363.636363636364,4,1,0,70,1,0
156813,-102.484472049689,4,1,0,70,0,0
159449,410.95890410959,4,1,0,70,1,8
159449,-90.6832298136644,4,1,0,70,0,8
159757,372.670807453416,4,1,0,70,1,0
159757,-100,4,1,0,70,0,0
161247,390.879478827362,4,1,0,70,1,0
161247,-95.3416149068322,4,1,0,70,0,0
162810,389.61038961039,4,1,0,70,1,0
162810,-95.6521739130434,4,1,0,70,0,0
165926,392.156862745098,4,1,0,70,1,0
165926,-95.0310559006211,4,1,0,70,0,0
169063,379.746835443038,4,1,0,70,1,0
169063,-98.1366459627329,4,1,0,70,0,0
170581,384.615384615385,4,1,0,70,1,0
170581,-96.8944099378881,4,1,0,70,0,0
172119,382.165605095542,4,1,0,70,1,0
172119,-97.5155279503104,4,1,0,70,0,0
173647,-97.5155279503104,4,1,0,70,0,1
175176,384.615384615385,4,1,0,70,1,1
175176,-96.8944099378881,4,1,0,70,0,1
178252,379.746835443039,4,1,0,70,1,1
178252,-98.1366459627326,4,1,0,70,0,1
179770,384.615384615386,4,1,0,70,1,1
179770,-96.8944099378878,4,1,0,70,0,1
184385,382.165605095542,4,1,0,70,1,1
184385,-97.5155279503104,4,1,0,70,0,1
187442,377.358490566039,4,1,0,70,1,1
187442,-98.7577639751549,4,1,0,70,0,1
188951,379.746835443039,4,1,0,70,1,1
188951,-98.1366459627326,4,1,0,70,0,1
195026,375.000000000001,4,1,0,70,1,1
195026,-99.3788819875774,4,1,0,70,0,1
196526,382.165605095542,4,1,0,70,1,1
196526,-97.5155279503104,4,1,0,70,0,1
198054,375.000000000001,4,1,0,70,1,0
198054,-99.3788819875774,4,1,0,70,0,0
199554,329.67032967033,4,1,0,70,1,0
199554,-113.043478260869,4,1,0,70,0,0
200872,424.028268551237,4,1,0,70,1,1
200872,-87.8881987793266,4,1,0,70,0,1
201084,369.23076923077,4,1,0,70,1,9
201084,-100.931680153158,4,1,0,70,0,9
201268,369.571912534647,4,1,0,70,1,9
201268,-100.838512567403,4,1,0,70,0,9
202376,382.165605095541,4,1,0,70,1,1
202376,-97.5155279503106,4,1,0,70,0,1
203904,377.358490566037,4,1,0,70,1,1
203904,-98.7577639751555,4,1,0,70,0,1
205413,348.837209302325,4,1,0,70,1,1
205413,-106.832298136646,4,1,0,70,0,1
205979,357.142857142857,4,1,0,70,1,9
205979,-104.347826086957,4,1,0,70,0,9
206157,355.555555555556,4,1,0,70,1,9
206157,-104.813664604411,4,1,0,70,0,9
206868,379.746835443037,4,1,0,70,1,1
206868,-98.1366459696817,4,1,0,70,0,1
208386,371.517027863777,4,1,0,70,1,1
208386,-100.310559485957,4,1,0,70,0,1
209872,365.853658536585,4,1,0,70,1,1
209872,-101.863354771189,4,1,0,70,0,1
212798,377.358490566037,4,1,0,70,1,0
212798,-98.7577639751555,4,1,0,70,0,0
215816,384.615384615384,4,1,0,70,1,0
215816,-96.8944099378884,4,1,0,70,0,0
217354,372.670807453416,4,1,0,70,1,0
217354,-100,4,1,0,70,0,0
218844,379.746835443038,4,1,0,70,1,0
218844,-98.1366459627329,4,1,0,70,0,0
220362,375,4,1,0,70,1,0
220362,-99.3788819875776,4,1,0,70,0,0
221862,379.746835443038,4,1,0,70,1,0
221862,-98.1366459627329,4,1,0,70,0,0
224899,377.358490566038,4,1,0,70,1,0
224899,-98.7577639751552,4,1,0,70,0,0
227917,370.370370370371,4,1,0,70,1,0
227917,-100.621118012422,4,1,0,70,0,0
229398,378.548895899054,4,1,0,70,1,0
229398,-98.447204968944,4,1,0,70,0,0
230912,372.670807453416,4,1,0,70,1,0
230912,-100,4,1,0,70,0,0
232402,377.358490566038,4,1,0,70,1,0
232402,-98.7577639751552,4,1,0,70,0,0
233911,379.746835443038,4,1,0,70,1,0
233911,-98.1366459627329,4,1,0,70,0,0
235429,394.736842105263,4,1,0,70,1,0
235429,-94.4099378881988,4,1,0,70,0,0
236218,375,4,1,0,70,1,8
236218,-99.3788819875776,4,1,0,70,0,8
236968,405.405405405405,4,1,0,70,1,0
236968,-91.9254658385094,4,1,0,70,0,0
237778,400,4,1,0,70,1,8
237778,-93.167701863354,4,1,0,70,0,8
238578,400,4,1,0,70,1,0
238578,-93.167701863354,4,1,0,70,0,0
240178,384.615384615385,4,1,0,70,1,0
240178,-96.8944099378881,4,1,0,70,0,0
240947,472.440944881891,4,1,0,70,1,8
240947,-78.8819875776395,4,1,0,70,0,8
241183,500,4,1,0,70,1,8
241183,-74.5341614906832,4,1,0,70,0,8
241933,392.156862745098,4,1,0,70,1,0
241933,-95.0310559006211,4,1,0,70,0,0
245070,379.746835443038,4,1,0,70,1,0
245070,-98.1366459627329,4,1,0,70,0,0
245829,472.44094488189,4,1,0,70,1,8
245829,-78.8819875776397,4,1,0,70,0,0

[HitObjects]
256,192,190,5,8,0:0:0:0:
256,192,521,1,8,0:0:0:0:
256,192,1493,1,8,0:0:0:0:
256,192,1837,1,8,0:0:0:0:
256,192,2853,1,8,0:0:0:0:
256,192,3198,1,8,0:0:0:0:
256,192,4187,1,8,0:0:0:0:
256,192,4520,1,8,0:0:0:0:
256,192,5545,1,4,0:0:0:0:
256,192,17811,5,4,0:0:0:0:
256,192,20834,1,4,0:0:0:0:
256,192,23881,1,4,0:0:0:0:
256,192,26919,1,4,0:0:0:0:
256,192,29875,1,4,0:0:0:0:
256,192,31338,1,0,0:0:0:0:
256,192,32088,1,8,0:0:0:0:
256,192,32463,1,8,0:0:0:0:
256,192,32838,1,8,0:0:0:0:
256,192,33592,1,0,0:0:0:0:
256,192,34347,1,0,0:0:0:0:
256,192,35092,1,8,0:0:0:0:
256,192,35465,1,8,0:0:0:0:
256,192,35837,1,8,0:0:0:0:
256,192,37328,1,0,0:0:0:0:
256,192,38085,1,8,0:0:0:0:
256,192,38463,1,8,0:0:0:0:
256,192,38842,1,0,0:0:0:0:
256,192,39592,1,0,0:0:0:0:
256,192,39967,1,0,0:0:0:0:
256,192,40342,1,0,0:0:0:0:
256,192,40717,1,0,0:0:0:0:
256,192,41092,1,8,0:0:0:0:
256,192,41842,1,4,0:0:0:0:
256,192,43400,1,0,0:0:0:0:
256,192,44154,1,8,0:0:0:0:
256,192,44532,1,8,0:0:0:0:
256,192,44909,1,0,0:0:0:0:
256,192,45286,1,0,0:0:0:0:
256,192,45664,1,8,0:0:0:0:
256,192,46418,1,0,0:0:0:0:
256,192,47154,1,8,0:0:0:0:
256,192,47864,1,0,0:0:0:0:
256,192,49387,1,0,0:0:0:0:
256,192,50149,1,8,0:0:0:0:
256,192,50530,1,8,0:0:0:0:
256,192,50911,1,0,0:0:0:0:
256,192,51292,1,8,0:0:0:0:
256,192,51673,1,8,0:0:0:0:
256,192,52435,1,0,0:0:0:0:
256,192,53162,1,8,0:0:0:0:
256,192,53537,1,8,0:0:0:0:
256,192,53912,1,4,0:0:0:0:
256,192,55450,1,8,0:0:0:0:
256,192,56209,1,0,0:0:0:0:
256,192,56589,1,8,0:0:0:0:
256,192,56968,1,0,0:0:0:0:
256,192,57737,1,8,0:0:0:0:
256,192,58506,1,0,0:0:0:0:
256,192,58885,1,0,0:0:0:0:
256,192,59265,1,0,0:0:0:0:
256,192,59645,1,8,0:0:0:0:
256,192,60024,1,0,0:0:0:0:
256,192,61562,1,8,0:0:0:0:
256,192,62321,1,0,0:0:0:0:
256,192,62701,1,8,0:0:0:0:
256,192,63080,1,0,0:0:0:0:
256,192,63859,1,8,0:0:0:0:
256,192,64638,1,0,0:0:0:0:
256,192,65001,1,0,0:0:0:0:
256,192,65365,1,8,0:0:0:0:
256,192,65733,1,8,0:0:0:0:
256,192,66101,1,4,0:0:0:0:
256,192,67639,1,8,0:0:0:0:
256,192,68016,1,0,0:0:0:0:
256,192,68393,1,8,0:0:0:0:
256,192,69148,1,0,0:0:0:0:
256,192,69535,1,8,0:0:0:0:
256,192,69922,1,0,0:0:0:0:
256,192,70309,1,8,0:0:0:0:
256,192,70696,1,0,0:0:0:0:
256,192,71078,1,0,0:0:0:0:
256,192,71460,1,8,0:0:0:0:
256,192,72224,1,0,0:0:0:0:
256,192,73762,1,8,0:0:0:0:
256,192,74141,1,0,0:0:0:0:
256,192,74521,1,8,0:0:0:0:
256,192,75280,1,0,0:0:0:0:
256,192,75660,1,0,0:0:0:0:
256,192,76040,1,8,0:0:0:0:
256,192,76799,1,0,0:0:0:0:
256,192,77160,1,0,0:0:0:0:
256,192,77521,1,8,0:0:0:0:
256,192,77910,1,8,0:0:0:0:
256,192,78300,1,4,0:0:0:0:
256,192,79772,1,8,0:0:0:0:
256,192,80156,1,0,0:0:0:0:
256,192,80541,1,8,0:0:0:0:
256,192,81310,1,0,0:0:0:0:
256,192,82800,1,8,0:0:0:0:
256,192,83187,1,8,0:0:0:0:
256,192,83574,1,8,0:0:0:0:
256,192,84348,1,0,0:0:0:0:
256,192,85848,1,8,0:0:0:0:
256,192,86223,1,0,0:0:0:0:
256,192,86598,1,8,0:0:0:0:
256,192,86973,1,8,0:0:0:0:
256,192,87348,1,0,0:0:0:0:
256,192,88831,1,4,0:0:0:0:
256,192,90379,1,0,0:0:0:0:
256,192,91138,1,8,0:0:0:0:
256,192,91518,1,8,0:0:0:0:
256,192,91897,1,0,0:0:0:0:
256,192,92274,1,0,0:0:0:0:
256,192,92651,1,8,0:0:0:0:
256,192,93406,1,0,0:0:0:0:
256,192,94151,1,8,0:0:0:0:
256,192,94840,1,0,0:0:0:0:
256,192,96368,1,0,0:0:0:0:
256,192,97132,1,8,0:0:0:0:
256,192,97515,1,8,0:0:0:0:
256,192,97897,1,0,0:0:0:0:
256,192,98276,1,8,0:0:0:0:
256,192,98656,1,8,0:0:0:0:
256,192,99415,1,0,0:0:0:0:
256,192,100146,1,8,0:0:0:0:
256,192,100521,1,8,0:0:0:0:
256,192,100896,1,4,0:0:0:0:
256,192,102424,1,8,0:0:0:0:
256,192,102803,1,0,0:0:0:0:
256,192,103183,1,8,0:0:0:0:
256,192,103942,1,0,0:0:0:0:
256,192,104326,1,8,0:0:0:0:
256,192,104711,1,0,0:0:0:0:
256,192,105095,1,8,0:0:0:0:
256,192,105480,1,0,0:0:0:0:
256,192,105865,1,0,0:0:0:0:
256,192,106249,1,8,0:0:0:0:
256,192,107018,1,0,0:0:0:0:
256,192,108557,1,8,0:0:0:0:
256,192,108934,1,0,0:0:0:0:
256,192,109311,1,8,0:0:0:0:
256,192,110066,1,0,0:0:0:0:
256,192,110443,1,8,0:0:0:0:
256,192,110821,1,8,0:0:0:0:
256,192,111198,1,0,0:0:0:0:
256,192,111575,1,8,0:0:0:0:
256,192,112330,1,0,0:0:0:0:
256,192,112707,1,8,0:0:0:0:
256,192,113085,1,4,0:0:0:0:
256,192,114585,1,8,0:0:0:0:
256,192,114964,1,0,0:0:0:0:
256,192,115344,1,8,0:0:0:0:
256,192,116103,1,0,0:0:0:0:
256,192,117584,1,8,0:0:0:0:
256,192,117963,1,8,0:0:0:0:
256,192,118343,1,8,0:0:0:0:
256,192,119102,1,0,0:0:0:0:
256,192,120602,1,8,0:0:0:0:
256,192,120973,1,0,0:0:0:0:
256,192,121345,1,8,0:0:0:0:
256,192,121716,1,8,0:0:0:0:
256,192,122088,1,0,0:0:0:0:
256,192,123588,1,4,0:0:0:0:
256,192,125136,1,0,0:0:0:0:
256,192,125900,1,8,0:0:0:0:
256,192,126282,1,8,0:0:0:0:
256,192,126664,1,0,0:0:0:0:
256,192,127043,1,0,0:0:0:0:
256,192,127423,1,8,0:0:0:0:
256,192,128182,1,0,0:0:0:0:
256,192,128934,1,8,0:0:0:0:
256,192,129623,1,0,0:0:0:0:
256,192,131132,1,0,0:0:0:0:
256,192,131901,1,8,0:0:0:0:
256,192,132285,1,8,0:0:0:0:
256,192,132670,1,0,0:0:0:0:
256,192,133047,1,8,0:0:0:0:
256,192,133424,1,8,0:0:0:0:
256,192,134179,1,0,0:0:0:0:
256,192,134915,1,8,0:0:0:0:
256,192,135287,1,8,0:0:0:0:
256,192,135660,1,4,0:0:0:0:
256,192,137198,1,8,0:0:0:0:
256,192,137574,1,0,0:0:0:0:
256,192,137950,1,8,0:0:0:0:
256,192,138702,1,0,0:0:0:0:
256,192,139086,1,8,0:0:0:0:
256,192,139471,1,0,0:0:0:0:
256,192,139855,1,8,0:0:0:0:
256,192,140240,1,0,0:0:0:0:
256,192,140619,1,0,0:0:0:0:
256,192,140999,1,8,0:0:0:0:
256,192,141758,1,0,0:0:0:0:
256,192,143286,1,8,0:0:0:0:
256,192,143666,1,0,0:0:0:0:
256,192,144047,1,8,0:0:0:0:
256,192,144809,1,0,0:0:0:0:
256,192,145188,1,0,0:0:0:0:
256,192,145568,1,8,0:0:0:0:
256,192,145948,1,8,0:0:0:0:
256,192,146327,1,0,0:0:0:0:
256,192,146704,1,8,0:0:0:0:
256,192,147081,1,0,0:0:0:0:
256,192,147836,1,4,0:0:0:0:
256,192,149345,1,8,0:0:0:0:
256,192,149723,1,0,0:0:0:0:
256,192,150100,1,8,0:0:0:0:
256,192,150855,1,0,0:0:0:0:
256,192,152327,1,8,0:0:0:0:
256,192,152702,1,8,0:0:0:0:
256,192,153077,1,8,0:0:0:0:
256,192,153827,1,0,0:0:0:0:
256,192,155327,1,8,0:0:0:0:
256,192,155698,1,0,0:0:0:0:
256,192,156070,1,8,0:0:0:0:
256,192,156441,1,8,0:0:0:0:
256,192,156813,1,0,0:0:0:0:
256,192,158267,1,8,0:0:0:0:
256,192,158813,1,8,0:0:0:0:
256,192,159358,1,8,0:0:0:0:
256,192,159757,1,4,0:0:0:0:
256,192,160502,1,12,0:0:0:0:
256,192,161247,1,4,0:0:0:0:
256,192,162810,1,0,0:0:0:0:
256,192,163199,1,8,0:0:0:0:
256,192,164368,1,0,0:0:0:0:
256,192,164758,1,8,0:0:0:0:
256,192,165147,1,0,0:0:0:0:
256,192,165926,1,0,0:0:0:0:
256,192,166318,1,8,0:0:0:0:
256,192,167494,1,0,0:0:0:0:
256,192,169063,1,0,0:0:0:0:
256,192,169442,1,8,0:0:0:0:
256,192,170581,1,0,0:0:0:0:
256,192,170965,1,8,0:0:0:0:
256,192,171350,1,0,0:0:0:0:
256,192,172119,1,0,0:0:0:0:
256,192,172501,1,8,0:0:0:0:
256,192,173647,1,4,0:0:0:0:
256,192,174411,1,8,0:0:0:0:
256,192,174794,1,8,0:0:0:0:
256,192,175176,1,0,0:0:0:0:
256,192,175560,1,0,0:0:0:0:
256,192,175945,1,8,0:0:0:0:
256,192,176714,1,0,0:0:0:0:
256,192,177099,1,8,0:0:0:0:
256,192,177483,1,0,0:0:0:0:
256,192,177868,1,0,0:0:0:0:
256,192,178252,1,8,0:0:0:0:
256,192,179770,1,0,0:0:0:0:
256,192,180154,1,0,0:0:0:0:
256,192,180539,1,8,0:0:0:0:
256,192,181308,1,8,0:0:0:0:
256,192,181693,1,0,0:0:0:0:
256,192,182077,1,8,0:0:0:0:
256,192,182462,1,8,0:0:0:0:
256,192,182846,1,0,0:0:0:0:
256,192,183616,1,8,0:0:0:0:
256,192,184000,1,0,0:0:0:0:
256,192,184385,1,8,0:0:0:0:
256,192,185913,1,0,0:0:0:0:
256,192,186295,1,0,0:0:0:0:
256,192,186677,1,8,0:0:0:0:
256,192,187060,1,8,0:0:0:0:
256,192,187442,1,0,0:0:0:0:
256,192,188196,1,8,0:0:0:0:
256,192,188951,1,0,0:0:0:0:
256,192,189330,1,8,0:0:0:0:
256,192,189710,1,8,0:0:0:0:
256,192,190090,1,8,0:0:0:0:
256,192,190469,1,0,0:0:0:0:
256,192,191988,1,8,0:0:0:0:
256,192,192368,1,0,0:0:0:0:
256,192,192748,1,8,0:0:0:0:
256,192,193507,1,0,0:0:0:0:
256,192,193887,1,8,0:0:0:0:
256,192,194267,1,0,0:0:0:0:
256,192,195026,1,8,0:0:0:0:
256,192,195401,1,0,0:0:0:0:
256,192,195776,1,8,0:0:0:0:
256,192,196151,1,8,0:0:0:0:
256,192,196526,1,0,0:0:0:0:
256,192,196908,1,8,0:0:0:0:
256,192,197290,1,0,0:0:0:0:
256,192,198054,1,12,0:0:0:0:
256,192,199554,1,4,0:0:0:0:
256,192,200872,1,12,0:0:0:0:
256,192,201637,1,0,0:0:0:0:
256,192,202007,1,0,0:0:0:0:
256,192,202376,1,8,0:0:0:0:
256,192,203140,1,0,0:0:0:0:
256,192,203904,1,8,0:0:0:0:
256,192,204281,1,8,0:0:0:0:
256,192,204658,1,0,0:0:0:0:
256,192,205036,1,0,0:0:0:0:
256,192,205413,1,8,0:0:0:0:
256,192,206868,1,0,0:0:0:0:
256,192,207247,1,8,0:0:0:0:
256,192,207627,1,0,0:0:0:0:
256,192,208007,1,0,0:0:0:0:
256,192,208386,1,8,0:0:0:0:
256,192,208757,1,0,0:0:0:0:
256,192,209129,1,8,0:0:0:0:
256,192,209500,1,8,0:0:0:0:
256,192,209872,1,0,0:0:0:0:
256,192,210603,1,8,0:0:0:0:
256,192,210969,1,8,0:0:0:0:
256,192,211335,1,0,0:0:0:0:
256,192,211701,1,0,0:0:0:0:
256,192,212067,1,8,0:0:0:0:
256,192,212798,1,4,0:0:0:0:
256,192,214307,1,8,0:0:0:0:
256,192,214684,1,0,0:0:0:0:
256,192,215062,1,8,0:0:0:0:
256,192,215816,1,0,0:0:0:0:
256,192,216200,1,8,0:0:0:0:
256,192,216585,1,0,0:0:0:0:
256,192,216969,1,8,0:0:0:0:
256,192,217354,1,0,0:0:0:0:
256,192,217726,1,0,0:0:0:0:
256,192,218099,1,8,0:0:0:0:
256,192,218844,1,0,0:0:0:0:
256,192,220362,1,8,0:0:0:0:
256,192,220737,1,0,0:0:0:0:
256,192,221112,1,8,0:0:0:0:
256,192,221862,1,0,0:0:0:0:
256,192,222241,1,8,0:0:0:0:
256,192,222621,1,0,0:0:0:0:
256,192,223001,1,8,0:0:0:0:
256,192,223380,1,0,0:0:0:0:
256,192,223760,1,8,0:0:0:0:
256,192,224140,1,8,0:0:0:0:
256,192,224899,1,4,0:0:0:0:
256,192,226408,1,8,0:0:0:0:
256,192,226785,1,0,0:0:0:0:
256,192,227163,1,8,0:0:0:0:
256,192,227917,1,0,0:0:0:0:
256,192,229398,1,8,0:0:0:0:
256,192,229776,1,8,0:0:0:0:
256,192,230155,1,8,0:0:0:0:
256,192,230912,1,0,0:0:0:0:
256,192,232402,1,8,0:0:0:0:
256,192,232779,1,0,0:0:0:0:
256,192,233156,1,8,0:0:0:0:
256,192,233534,1,8,0:0:0:0:
256,192,233911,1,0,0:0:0:0:
256,192,235429,1,0,0:0:0:0:
256,192,235823,1,8,0:0:0:0:
256,192,236218,1,0,0:0:0:0:
256,192,236968,1,8,0:0:0:0:
256,192,237778,1,0,0:0:0:0:
256,192,238578,1,8,0:0:0:0:
256,192,238978,1,0,0:0:0:0:
256,192,239378,1,8,0:0:0:0:
256,192,240178,1,0,0:0:0:0:
256,192,240947,1,12,0:0:0:0:
256,192,245070,1,0,0:0:0:0:
256,192,245449,1,8,0:0:0:0:
256,192,245829,1,12,0:0:0:0:
