osu file format v14

[General]
AudioFilename: Frantic.mp3
AudioLeadIn: 0
PreviewTime: 261583
Countdown: 1
SampleSet: Normal
StackLeniency: 0.7
Mode: 0
LetterboxInBreaks: 0
WidescreenStoryboard: 1

[Editor]
DistanceSpacing: 1.1
BeatDivisor: 4
GridSize: 4
TimelineZoom: 1.6

[Metadata]
Title:Frantic
TitleUnicode:Frantic
Artist:Metallica
ArtistUnicode:Metallica
Creator:Morbon
Version:Tick-tock
Source:
Tags:
BeatmapID:1676604
BeatmapSetID:700650

[Difficulty]
HPDrainRate:5
CircleSize:4
OverallDifficulty:8
ApproachRate:9
SliderMultiplier:2.2
SliderTickRate:1

[Events]
//Background and Video events
0,0,"metallica_st__anger_2003_wallpaper_by_aleksandrov-d5d3ec3.png",0,0
//Break Periods
2,5998,35433
//Storyboard Layer 0 (Background)
//Storyboard Layer 1 (Fail)
//Storyboard Layer 2 (Pass)
//Storyboard Layer 3 (Foreground)
//Storyboard Sound Samples

[TimingPoints]
420,370.970370370371,4,1,0,30,1,0
1161,-66.6666666666667,4,1,0,30,0,0
1347,-100,4,1,0,30,0,0
2645,-66.6666666666667,4,1,0,30,0,0
2831,-100,4,1,0,30,0,0
4129,-66.6666666666667,4,1,0,30,0,0
4315,-100,4,1,0,30,0,0
5613,-66.6666666666667,4,1,0,30,0,0
5799,-100,4,1,0,30,0,0
36033,-100,4,2,0,30,0,0
41968,-80,4,1,0,30,0,0

[Colours]
Combo1 : 233,136,39
Combo2 : 235,29,34

[HitObjects]
36,238,420,6,0,L|40:174,1,55
115,277,605,2,0,L|119:213,1,55
200,253,790,2,0,L|204:189,1,55
279,292,975,2,0,L|283:228,1,55
370,251,1161,6,0,L|386:50,1,165.000006294251
384,88,1903,5,0,0:0:0:0:
343,93,1995,1,0,0:0:0:0:
302,98,2088,1,0,0:0:0:0:
261,103,2181,1,0,0:0:0:0:
220,108,2273,1,0,0:0:0:0:
179,113,2366,1,0,0:0:0:0:
138,118,2459,1,0,0:0:0:0:
97,123,2552,1,0,0:0:0:0:
56,129,2645,6,0,B|45:177|45:177|60:197|60:197|45:232|44:293,1,165.000006294251
44,285,3387,6,0,L|20:341,1,55
132,300,3573,2,0,L|108:356,1,55
220,312,3758,2,0,L|241:261,1,55
308,327,3944,2,0,L|329:276,1,55
44,284,4129,6,0,L|40:108,1,165.000006294251
40,119,4871,5,0,0:0:0:0:
81,122,4963,1,0,0:0:0:0:
122,125,5056,1,0,0:0:0:0:
163,129,5149,1,0,0:0:0:0:
204,132,5241,1,0,0:0:0:0:
245,135,5334,1,0,0:0:0:0:
286,139,5427,1,0,0:0:0:0:
327,142,5520,1,0,0:0:0:0:
369,146,5613,6,0,B|392:180|408:220|408:220|388:252|380:304,1,165.000006294251
80,216,36033,6,0,L|88:96,1,110
208,156,36404,1,0,0:0:0:0:
80,216,36589,1,0,0:0:0:0:
80,216,36960,1,0,0:0:0:0:
80,216,37331,1,0,0:0:0:0:
208,156,37517,5,0,0:0:0:0:
272,288,37702,1,0,0:0:0:0:
208,156,37888,1,0,0:0:0:0:
144,360,38073,1,0,0:0:0:0:
144,360,38444,1,0,0:0:0:0:
144,360,38815,1,0,0:0:0:0:
260,232,39000,6,0,L|376:244,1,110
416,344,39371,1,0,0:0:0:0:
160,256,39557,1,0,0:0:0:0:
160,256,39928,1,0,0:0:0:0:
160,256,40299,1,0,0:0:0:0:
56,52,40484,6,0,L|48:164,1,110
56,52,40855,1,0,0:0:0:0:
176,32,41041,1,0,0:0:0:0:
320,192,41226,1,0,0:0:0:0:
200,212,41412,1,0,0:0:0:0:
344,48,41597,1,0,0:0:0:0:
464,28,41783,1,0,0:0:0:0:
200,212,41968,6,0,P|152:160|132:96,1,137.5
132,97,42246,1,0,0:0:0:0:
132,97,42339,1,0,0:0:0:0:
384,160,42525,1,0,0:0:0:0:
80,192,42710,2,0,B|68:340|68:336,1,137.5
68,329,42988,1,0,0:0:0:0:
68,329,43081,1,0,0:0:0:0:
320,288,43267,1,0,0:0:0:0:
80,192,43452,6,0,B|64:164|48:148|48:148|48:116|48:116|24:84|24:28,2,137.5
192,352,44009,1,0,0:0:0:0:
360,80,44194,2,0,L|208:60,1,137.5
223,62,44472,1,0,0:0:0:0:
223,62,44565,1,0,0:0:0:0:
56,292,44750,1,0,0:0:0:0:
256,192,44936,5,0,0:0:0:0:
343,377,45121,1,0,0:0:0:0:
352,384,45214,1,0,0:0:0:0:
352,384,45307,1,0,0:0:0:0:
455,147,45492,1,0,0:0:0:0:
256,192,45678,2,0,B|208:180|192:192|192:192|164:184|108:200,1,137.5
28,328,45956,1,0,0:0:0:0:
28,328,46049,2,0,B|76:316|92:328|92:328|120:320|176:336,1,137.5
408,348,46420,6,0,L|424:196,1,137.5
422,211,46698,1,0,0:0:0:0:
422,211,46791,1,0,0:0:0:0:
312,264,46976,1,0,0:0:0:0:
348,84,47162,1,0,0:0:0:0:
208,232,47347,1,0,0:0:0:0:
184,24,47533,1,0,0:0:0:0:
104,244,47718,1,0,0:0:0:0:
32,16,47904,6,0,P|4:76|-8:152,1,137.5
0,152,48182,1,0,0:0:0:0:
0,152,48275,1,0,0:0:0:0:
