osu file format v14

[General]
AudioFilename: audio.mp3
AudioLeadIn: 0
PreviewTime: 66180
Countdown: 1
SampleSet: Normal
StackLeniency: 0.7
Mode: 0
LetterboxInBreaks: 0
WidescreenStoryboard: 1

[Editor]
Bookmarks: 33403,66634
DistanceSpacing: 0.83
BeatDivisor: 2
GridSize: 4
TimelineZoom: 1.6

[Metadata]
Title:BUMBUM GRANADA
TitleUnicode:BUMBUM GRANADA
Artist:Metaleiro66
ArtistUnicode:Metaleiro66
Creator:Seto Kousuke
Version:Normal
Source:
Tags:
BeatmapID:992454
BeatmapSetID:463461

[Difficulty]
HPDrainRate:4
CircleSize:3.3
OverallDifficulty:4
ApproachRate:5
SliderMultiplier:1.2
SliderTickRate:1

[Events]
//Background and Video events
0,0,"c08b60628743b890c0ccb8967e8a7bfb.jpg",0,0
//Break Periods
2,2026,7759
2,14026,16528
//Storyboard Layer 0 (Background)
//Storyboard Layer 1 (Fail)
//Storyboard Layer 2 (Pass)
//Storyboard Layer 3 (Foreground)
//Storyboard Sound Samples

[TimingPoints]
190,461.538461538462,4,1,0,60,1,0
66651,-100,4,1,0,60,0,1
85113,-100,4,1,0,60,0,0

[HitObjects]
253,183,180,5,0,0:0:0:0:
131,148,8959,6,0,P|190:147|272:125,1,120
344,185,9882,2,0,L|387:274,1,60
232,61,12190,6,0,L|122:204,1,180
297,115,17728,6,0,L|374:99,1,60
408,120,18190,1,0,0:0:0:0:
404,224,18651,6,0,P|343:209|305:216,1,60
291,218,19113,2,0,P|254:232|222:263,1,60
142,293,19805,6,0,L|122:189,1,60
149,182,20266,1,0,0:0:0:0:
187,146,20497,2,0,P|214:126|250:118,1,60
294,120,20959,2,0,L|369:142,1,60
393,173,21420,2,0,P|438:168|484:183,2,60
425,271,22343,6,0,P|371:305|333:308,1,60
321,309,22805,2,0,P|286:305|252:290,1,60
162,255,23497,5,0,0:0:0:0:
116,230,23728,2,0,P|95:201|79:148,1,60
81,123,24190,2,0,P|97:82|131:44,1,60
154,41,24651,1,0,0:0:0:0:
205,33,24882,1,0,0:0:0:0:
256,44,25113,2,0,L|316:17,2,60
185,139,26036,6,0,P|201:205|252:251,1,120
343,266,26959,2,0,L|294:141,1,120
372,75,27882,2,0,L|431:218,1,120
398,293,28805,2,0,P|406:328|398:365,2,60
299,327,29728,6,0,P|265:328|210:318,1,60
185,310,30190,2,0,P|152:303|119:302,1,60
71,309,30651,2,0,P|46:286|16:251,1,60
15,212,31113,2,0,P|13:172|16:142,1,60
38,103,31574,6,0,L|92:47,1,60
131,39,32036,1,0,0:0:0:0:
182,39,32266,1,0,0:0:0:0:
257,112,32728,2,0,P|258:142|253:174,2,60
294,75,33420,6,0,P|365:76|431:102,1,120
456,128,34113,2,0,L|446:262,1,120
410,290,34805,1,0,0:0:0:0:
313,329,35266,1,0,0:0:0:0:
329,225,35728,1,0,0:0:0:0:
410,290,36190,1,0,0:0:0:0:
313,329,36651,2,0,L|232:333,1,60
202,310,37113,6,0,P|200:239|232:182,1,120
270,166,37805,2,0,L|237:35,1,120
188,30,38497,1,0,0:0:0:0:
112,101,38959,5,0,0:0:0:0:
72,198,39420,1,0,0:0:0:0:
176,182,39882,1,0,0:0:0:0:
112,101,40343,6,0,P|119:68|143:29,1,60
182,24,40805,2,0,L|314:40,1,120
353,62,41497,2,0,P|360:139|343:211,1,120
322,229,42190,1,0,0:0:0:0:
227,183,42651,5,0,0:0:0:0:
233,287,43113,1,0,0:0:0:0:
322,229,43574,1,0,0:0:0:0:
227,183,44036,2,0,L|133:116,1,60
123,139,44497,6,0,P|98:202|122:281,1,120
141,297,45190,2,0,L|272:330,1,120
312,310,45882,1,0,0:0:0:0:
342,209,46343,1,0,0:0:0:0:
305,111,46805,1,0,0:0:0:0:
239,196,47266,1,0,0:0:0:0:
342,209,47728,2,0,P|376:189|404:148,1,60
423,131,48190,6,0,L|425:295,1,120
439,306,48882,2,0,P|366:300|312:332,1,120
285,361,49574,1,0,0:0:0:0:
182,339,50036,6,0,P|126:315|90:251,1,120
82,210,50728,2,0,L|185:113,1,120
225,118,51420,1,0,0:0:0:0:
314,172,51882,6,0,P|324:258|290:331,1,120
290,340,52574,2,0,L|426:349,1,120
459,318,53266,1,0,0:0:0:0:
511,227,53728,6,0,P|501:163|445:115,2,120
407,216,55113,2,0,L|322:195,1,60
292,200,55574,5,0,0:0:0:0:
192,168,56036,1,0,0:0:0:0:
103,225,56497,1,0,0:0:0:0:
95,276,56728,1,0,0:0:0:0:
105,327,56959,2,0,L|197:361,1,60
211,327,57420,6,0,P|268:321|350:339,1,120
376,366,58113,2,0,P|370:296|407:222,1,120
426,211,58805,2,0,P|431:178|425:141,1,60
401,103,59266,5,0,0:0:0:0:
296,46,59728,1,0,0:0:0:0:
250,71,59959,2,0,P|175:81|98:57,1,120
79,93,60651,2,0,P|49:139|60:216,1,120
149,238,61574,1,0,0:0:0:0:
66,302,62036,1,0,0:0:0:0:
156,353,62497,2,0,L|259:336,1,60
265,321,62959,6,0,P|333:306|397:324,1,120
433,343,63651,2,0,L|433:208,1,120
412,168,64343,1,0,0:0:0:0:
318,120,64805,1,0,0:0:0:0:
286,219,65266,1,0,0:0:0:0:
205,151,65728,2,0,L|133:116,1,60
97,138,66190,1,0,0:0:0:0:
40,225,66651,6,0,L|126:329,1,120
169,340,67343,1,0,0:0:0:0:
221,346,67574,2,0,P|278:337|332:282,1,120
339,188,68497,6,0,L|280:101,1,60
263,102,68959,1,0,0:0:0:0:
214,83,69190,1,0,0:0:0:0:
161,77,69420,2,0,P|125:81|81:77,1,60
48,95,69882,2,0,P|26:133|19:175,1,60
25,203,70343,6,0,P|57:264|125:306,1,120
154,289,71036,2,0,P|225:291|283:323,1,120
323,298,71728,1,0,0:0:0:0:
428,265,72190,6,0,P|444:204|424:143,1,120
387,111,72882,1,0,0:0:0:0:
338,89,73113,2,0,P|299:79|256:79,1,60
225,89,73574,2,0,P|183:88|132:77,1,60
110,80,74036,6,0,P|133:156|105:248,1,120
108,249,74728,2,0,L|257:262,1,120
281,280,75420,1,0,0:0:0:0:
221,366,75882,6,0,P|156:355|72:360,1,120
47,376,76574,2,0,L|43:227,1,120
54,199,77266,1,0,0:0:0:0:
82,155,77497,1,0,0:0:0:0:
125,125,77728,6,0,P|182:112|272:118,1,120
299,131,78420,2,0,P|312:198|358:255,1,120
392,265,79113,1,0,0:0:0:0:
442,251,79343,1,0,0:0:0:0:
473,208,79574,5,0,0:0:0:0:
476,156,79805,1,0,0:0:0:0:
453,108,80036,1,0,0:0:0:0:
409,78,80266,1,0,0:0:0:0:
357,68,80497,1,0,0:0:0:0:
305,73,80728,1,0,0:0:0:0:
258,96,80959,6,0,P|245:167|151:248,1,180
111,252,81882,1,0,0:0:0:0:
58,243,82113,2,0,P|18:204|4:118,1,120
16,88,82805,1,0,0:0:0:0:
56,54,83036,1,0,0:0:0:0:
102,31,83266,5,0,0:0:0:0:
154,33,83497,1,0,0:0:0:0:
199,58,83728,1,0,0:0:0:0:
226,102,83959,1,0,0:0:0:0:
248,150,84190,2,0,P|250:197|236:246,1,60
249,265,84651,6,0,P|139:291|49:237,1,180
36,225,85574,1,0,0:0:0:0:
33,173,85805,2,0,P|48:116|114:69,1,120
150,68,86497,1,0,0:0:0:0:
198,87,86728,1,0,0:0:0:0:
235,122,86959,5,0,0:0:0:0:
254,169,87190,1,0,0:0:0:0:
253,221,87420,1,0,0:0:0:0:
226,266,87651,1,0,0:0:0:0:
184,297,87882,2,0,P|140:302|121:296,1,60
71,309,88343,6,0,L|102:109,1,180
140,89,89266,1,0,0:0:0:0:
192,80,89497,2,0,P|249:97|293:154,1,120
317,190,90190,1,0,0:0:0:0:
366,208,90420,1,0,0:0:0:0:
416,196,90651,5,0,0:0:0:0:
454,160,90882,1,0,0:0:0:0:
480,115,91113,1,0,0:0:0:0:
474,62,91343,1,0,0:0:0:0:
436,26,91574,2,0,P|398:19|352:17,1,60
324,36,92036,2,0,P|270:45|224:30,1,60
210,30,92497,6,0,L|189:167,1,120
162,198,93190,2,0,P|226:201|291:235,1,120
318,262,93882,1,0,0:0:0:0:
340,308,94113,1,0,0:0:0:0:
330,358,94343,2,0,P|297:377|257:379,1,60
220,375,94805,1,0,0:0:0:0:
175,347,95036,1,0,0:0:0:0:
114,261,95497,6,0,L|83:192,1,60
116,101,96190,1,0,0:0:0:0:
149,60,96420,1,0,0:0:0:0:
195,35,96651,2,0,L|301:29,1,60
350,79,97343,1,0,0:0:0:0:
386,117,97574,2,0,P|399:153|403:197,1,60
401,229,98036,5,0,0:0:0:0:
377,275,98266,1,0,0:0:0:0:
332,303,98497,1,0,0:0:0:0:
280,307,98728,1,0,0:0:0:0:
229,290,98959,2,0,P|200:267|184:233,2,60
283,200,99882,6,0,P|266:172|230:139,1,60
197,130,100343,2,0,P|174:113|145:72,1,60
103,66,100805,2,0,P|68:69|25:88,1,60
11,119,101266,2,0,P|8:157|13:203,1,60
27,230,101728,5,0,0:0:0:0:
59,271,101959,1,0,0:0:0:0:
105,294,102190,1,0,0:0:0:0:
157,296,102420,1,0,0:0:0:0:
231,223,102882,2,0,L|266:145,1,60
330,90,103574,5,0,0:0:0:0:
378,109,103805,1,0,0:0:0:0:
414,146,104036,1,0,0:0:0:0:
422,197,104266,1,0,0:0:0:0:
400,244,104497,1,0,0:0:0:0:
357,274,104728,1,0,0:0:0:0:
305,280,104959,1,0,0:0:0:0:
254,264,105190,1,0,0:0:0:0:
216,228,105420,6,0,P|194:197|184:162,1,60
180,119,105882,1,0,0:0:0:0:
197,69,106113,1,0,0:0:0:0:
291,25,106574,2,0,L|358:61,1,60
380,94,107036,1,0,0:0:0:0:
398,142,107266,1,0,0:0:0:0:
