osu file format v14

[General]
AudioFilename: audio.mp3
AudioLeadIn: 0
PreviewTime: 66180
Countdown: 1
SampleSet: Normal
StackLeniency: 0.7
Mode: 0
LetterboxInBreaks: 0
WidescreenStoryboard: 1

[Editor]
Bookmarks: 33403,66634
DistanceSpacing: 0.8
BeatDivisor: 4
GridSize: 4
TimelineZoom: 1.6

[Metadata]
Title:BUMBUM GRANADA
TitleUnicode:BUMBUM GRANADA
Artist:Metaleiro66
ArtistUnicode:Metaleiro66
Creator:Seto Kousuke
Version:Hard
Source:
Tags:
BeatmapID:992453
BeatmapSetID:463461

[Difficulty]
HPDrainRate:4
CircleSize:3.5
OverallDifficulty:7
ApproachRate:8
SliderMultiplier:1.7
SliderTickRate:1

[Events]
//Background and Video events
0,0,"c08b60628743b890c0ccb8967e8a7bfb.jpg",0,0
//Break Periods
2,2226,8199
2,9610,16968
//Storyboard Layer 0 (Background)
//Storyboard Layer 1 (Fail)
//Storyboard Layer 2 (Pass)
//Storyboard Layer 3 (Foreground)
//Storyboard Sound Samples

[TimingPoints]
180,461.538461538462,4,1,0,60,1,0
8941,-200,4,1,0,60,0,0
9864,-133.333333333333,4,1,0,60,0,0
12287,-200,4,1,0,60,0,0
17710,-100,4,1,0,60,0,0
21403,-133.333333333333,4,1,0,60,0,0
21864,-90.9090909090909,4,1,0,60,0,0
26018,-111.111111111111,4,1,0,60,0,0
33402,-133.333333333333,4,1,0,60,0,0
66172,-200,4,1,0,60,0,0
66641,-83.3333333333333,4,1,0,60,0,1
78402,-111.111111111111,4,1,0,60,0,1
85103,-111.111111111111,4,1,0,60,0,0
92479,-83.3333333333333,4,1,0,60,0,0

[HitObjects]
256,192,180,5,0,0:0:0:0:
256,192,410,12,0,2026,0:0:0:0:
116,56,8949,5,0,0:0:0:0:
284,164,9410,1,0,0:0:0:0:
133,204,17718,6,0,L|81:184,2,42.5
228,248,18180,2,0,P|232:176|188:120,1,127.5
160,116,18641,6,0,L|228:60,2,85,0|0|8,0:0|0:0|0:0,0:0:0:0:
108,216,19333,1,0,0:0:0:0:
136,320,19564,2,0,L|240:344,1,85
344,276,20026,1,8,0:0:0:0:
344,276,20256,1,0,0:0:0:0:
221,214,20487,5,0,0:0:0:0:
221,214,20718,1,0,0:0:0:0:
300,100,20949,2,0,L|368:170,1,85,8|0,0:0|0:0,0:0:0:0:
403,271,21410,5,0,0:0:0:0:
485,168,21641,1,0,0:0:0:0:
278,195,21872,1,8,0:0:0:0:
143,310,22333,6,0,P|189:292|240:291,2,93.5000028533936,0|0|8,0:0|0:0|0:0,0:0:0:0:
291,346,23026,2,0,P|260:293|228:195,1,140.25000428009
201,204,23487,2,0,L|294:137,1,93.5000028533936,0|8,0:0|0:0,0:0:0:0:
413,138,23949,1,0,0:0:0:0:
354,228,24180,5,0,0:0:0:0:
319,61,24410,1,0,0:0:0:0:
357,246,24641,1,8,0:0:0:0:
241,323,24872,1,0,0:0:0:0:
120,269,25103,2,8,P|123:209|139:159,2,93.5000028533936,8|0|8,0:0|0:0|0:0,0:0:0:0:
281,319,26026,5,8,0:0:0:0:
281,319,26256,1,0,0:0:0:0:
403,264,26487,5,8,0:0:0:0:
403,264,26717,1,0,0:0:0:0:
285,208,26949,5,8,0:0:0:0:
285,208,27179,1,0,0:0:0:0:
401,151,27410,5,8,0:0:0:0:
401,151,27640,1,0,0:0:0:0:
294,96,27872,5,8,0:0:0:0:
294,96,28102,1,0,0:0:0:0:
181,181,28333,6,0,L|205:282,1,76.4999976654053,8|0,0:0|0:0,0:0:0:0:
131,347,28795,2,0,L|175:390,2,38.2499988327027
23,308,29256,1,4,0:0:0:0:
206,128,29718,5,8,0:0:0:0:
206,128,29948,1,0,0:0:0:0:
84,183,30179,5,8,0:0:0:0:
84,183,30409,1,0,0:0:0:0:
202,239,30641,5,8,0:0:0:0:
202,239,30871,1,0,0:0:0:0:
86,296,31102,5,8,0:0:0:0:
86,296,31332,1,0,0:0:0:0:
193,351,31564,5,8,0:0:0:0:
193,351,31794,1,0,0:0:0:0:
312,275,32026,2,0,L|300:179,1,76.4999976654053,8|0,0:0|0:0,0:0:0:0:
156,81,32718,2,0,L|103:126,2,38.2499988327027
291,36,33180,1,8,0:0:0:0:
291,36,33410,6,0,P|336:73|356:127,1,95.6250036478044
359,144,33872,2,0,L|296:183,1,63.7500024318696,8|0,0:0|0:0,0:0:0:0:
206,339,34564,1,0,0:0:0:0:
206,339,34795,1,0,0:0:0:0:
80,205,35256,6,0,P|89:147|126:103,1,95.6250036478044
139,91,35718,2,0,L|204:126,1,63.7500024318696,8|0,0:0|0:0,0:0:0:0:
380,181,36410,1,0,0:0:0:0:
380,181,36641,6,4,L|408:305,1,127.500004863739
240,318,37449,1,0,0:0:0:0:
240,318,37564,2,0,L|171:268,1,63.7500024318696,8|0,0:0|0:0,0:0:0:0:
48,214,38026,2,0,L|75:291,1,63.7500024318696
155,158,38487,1,0,0:0:0:0:
352,131,38949,6,0,P|311:98|248:83,1,95.6250036478044
235,84,39410,2,0,L|290:33,1,63.7500024318696,8|0,0:0|0:0,0:0:0:0:
430,77,39872,2,0,P|445:117|441:161,1,63.7500024318696
433,269,40333,6,4,L|284:283,1,127.500004863739
143,336,41141,1,0,0:0:0:0:
143,336,41256,2,0,L|181:278,1,63.7500024318696,8|0,0:0|0:0,0:0:0:0:
132,151,41718,2,0,L|94:209,1,63.7500024318696
249,127,42180,6,0,L|192:71,1,63.7500024318696,8|0,0:0|0:0,0:0:0:0:
46,127,42641,2,0,L|102:70,1,63.7500024318696
251,167,43103,6,0,L|194:111,1,63.7500024318696,8|0,0:0|0:0,0:0:0:0:
48,167,43564,2,0,L|104:110,1,63.7500024318696
151,216,44026,6,4,L|150:354,1,127.500004863739
320,358,44833,1,0,0:0:0:0:
320,358,44949,2,0,L|356:296,1,63.7500024318696,8|0,0:0|0:0,0:0:0:0:
312,163,45410,2,0,L|276:225,1,63.7500024318696
416,148,45872,6,0,L|372:88,1,63.7500024318696,8|0,0:0|0:0,0:0:0:0:
248,100,46333,2,0,L|211:152,1,63.7500024318696
417,188,46795,6,0,L|373:128,1,63.7500024318696,8|0,0:0|0:0,0:0:0:0:
249,140,47256,2,0,L|211:191,1,63.7500024318696
106,275,47718,6,4,L|107:124,1,127.500004863739
234,40,48526,1,0,0:0:0:0:
234,40,48641,2,0,L|297:56,1,63.7500024318696,8|0,0:0|0:0,0:0:0:0:
381,160,49103,1,0,0:0:0:0:
375,27,49333,1,0,0:0:0:0:
244,119,49564,2,0,L|248:188,1,63.7500024318696,8|0,0:0|0:0,0:0:0:0:
306,301,50026,6,0,P|246:282|192:306,1,95.6250036478044
183,319,50487,2,0,L|158:243,1,63.7500024318696,8|0,0:0|0:0,0:0:0:0:
63,160,50949,1,0,0:0:0:0:
197,143,51180,1,0,0:0:0:0:
76,267,51410,6,4,L|79:114,1,127.500004863739
208,41,52218,1,0,0:0:0:0:
208,41,52333,2,0,L|280:74,1,63.7500024318696,8|0,0:0|0:0,0:0:0:0:
344,197,52795,2,0,L|268:185,1,63.7500024318696
389,99,53256,2,0,L|450:145,1,63.7500024318696,8|0,0:0|0:0,0:0:0:0:
438,303,53718,6,0,B|425:334|425:334|389:253,1,95.6250036478044
375,246,54180,2,0,P|337:249|294:266,1,63.7500024318696,8|0,0:0|0:0,0:0:0:0:
219,353,54641,2,0,L|157:307,1,63.7500024318696
46,255,55103,6,4,L|174:172,1,127.500004863739
322,200,55910,1,0,0:0:0:0:
322,200,56026,2,0,L|286:124,1,63.7500024318696,8|0,0:0|0:0,0:0:0:0:
161,78,56487,2,0,L|234:74,1,63.7500024318696
354,29,56949,1,8,0:0:0:0:
354,29,57410,6,0,P|380:68|388:127,1,95.6250036478044
372,151,57872,2,0,L|431:197,1,63.7500024318696,8|0,0:0|0:0,0:0:0:0:
346,334,58564,1,0,0:0:0:0:
285,249,58795,6,4,P|253:284|252:372,1,127.500004863739
95,307,59603,1,0,0:0:0:0:
95,307,59718,2,0,L|100:217,1,63.7500024318696,8|0,0:0|0:0,0:0:0:0:
207,71,60410,1,0,0:0:0:0:
207,71,60641,6,0,L|290:97,1,63.7500024318696,8|0,0:0|0:0,0:0:0:0:
339,214,61103,2,0,P|296:186|223:182,1,95.6250036478044
201,191,61564,2,0,L|178:267,1,63.7500024318696,8|0,0:0|0:0,0:0:0:0:
293,354,62026,2,0,L|316:278,1,63.7500024318696
413,253,62487,6,4,P|452:300|443:377,1,127.500004863739
312,347,63295,1,0,0:0:0:0:
312,347,63410,2,0,L|236:331,1,63.7500024318696,8|0,0:0|0:0,0:0:0:0:
117,229,64103,1,0,0:0:0:0:
117,229,64333,6,0,L|177:183,1,63.7500024318696,8|0,0:0|0:0,0:0:0:0:
336,217,64795,2,0,P|308:240|312:191,1,95.6250036478044
388,288,65256,2,0,L|338:366,1,63.7500024318696,8|0,0:0|0:0,0:0:0:0:
187,327,65718,2,0,L|220:273,1,63.7500024318696
272,120,66180,1,4,0:0:0:0:
272,120,66641,6,0,P|334:116|408:180,1,152.999995330811,4|0,0:0|0:0,0:0:0:0:
419,213,67103,2,0,L|331:290,1,101.999996887207,8|0,0:0|0:0,0:0:0:0:
179,298,67564,2,0,B|173:226|173:226|222:245,1,101.999996887207
102,344,68026,2,0,L|92:215,1,101.999996887207,8|0,0:0|0:0,0:0:0:0:
218,141,68487,6,0,P|273:172|285:272,1,152.999995330811
266,295,68949,2,0,L|371:257,1,101.999996887207,8|0,0:0|0:0,0:0:0:0:
467,178,69410,1,0,0:0:0:0:
342,147,69641,1,0,0:0:0:0:
446,305,69872,1,8,0:0:0:0:
467,178,70103,1,0,0:0:0:0:
386,59,70333,6,0,P|303:58|252:108,1,152.999995330811,4|0,0:0|0:0,0:0:0:0:
231,144,70795,2,0,P|179:148|126:124,2,101.999996887207,8|0|0,0:0|0:0|0:0,0:0:0:0:
197,44,71487,1,0,0:0:0:0:
68,69,71718,2,0,P|48:127|57:178,1,101.999996887207,8|0,0:0|0:0,0:0:0:0:
126,309,72180,6,0,P|201:320|274:292,1,152.999995330811
321,289,72641,2,0,L|274:186,1,101.999996887207,8|0,0:0|0:0,0:0:0:0:
343,69,73103,1,0,0:0:0:0:
385,198,73333,1,0,0:0:0:0:
210,97,73564,1,8,0:0:0:0:
343,69,73795,1,0,0:0:0:0:
479,158,74026,6,0,P|486:219|396:306,1,152.999995330811
