osu file format v14

[General]
AudioFilename: audio.mp3
AudioLeadIn: 0
PreviewTime: 66180
Countdown: 1
SampleSet: Normal
StackLeniency: 0.7
Mode: 0
LetterboxInBreaks: 0
WidescreenStoryboard: 1

[Editor]
Bookmarks: 33403,66634
DistanceSpacing: 0.9
BeatDivisor: 2
GridSize: 4
TimelineZoom: 1.6

[Metadata]
Title:BUMBUM GRANADA
TitleUnicode:BUMBUM GRANADA
Artist:Metaleiro66
ArtistUnicode:Metaleiro66
Creator:Seto Kousuke
Version:Easy
Source:
Tags:
BeatmapID:992452
BeatmapSetID:463461

[Difficulty]
HPDrainRate:2
CircleSize:2
OverallDifficulty:3
ApproachRate:2
SliderMultiplier:1.21
SliderTickRate:1

[Events]
//Background and Video events
0,0,"c08b60628743b890c0ccb8967e8a7bfb.jpg",0,0
//Break Periods
2,14026,16168
//Storyboard Layer 0 (Background)
//Storyboard Layer 1 (Fail)
//Storyboard Layer 2 (Pass)
//Storyboard Layer 3 (Foreground)
//Storyboard Sound Samples

[TimingPoints]
190,461.538461538462,4,1,0,60,1,0
66651,-100,4,1,0,60,0,1
85113,-100,4,1,0,60,0,0

[HitObjects]
128,101,8959,6,0,P|188:98|245:130,1,121
301,216,9882,2,0,L|311:318,1,90.7499999999999
124,55,12190,6,0,L|134:175,1,121
240,221,17728,6,0,L|320:196,2,60.4999999999999
241,329,18651,6,0,P|165:306|141:251,1,121
129,165,19574,1,0,0:0:0:0:
179,59,20036,2,0,P|238:46|318:67,1,121
380,126,20959,6,0,L|377:282,1,121
294,317,21882,1,0,0:0:0:0:
186,299,22343,6,0,P|140:262|124:193,1,121
176,108,23266,1,0,0:0:0:0:
227,203,23728,2,0,P|273:162|288:97,1,121
226,16,24651,1,0,0:0:0:0:
118,31,25113,2,0,P|72:51|50:71,2,60.4999999999999
141,137,26036,6,0,P|167:191|147:265,2,121
53,200,27420,1,0,0:0:0:0:
76,306,27882,6,0,P|119:346|178:353,1,121
267,289,28805,2,0,L|327:338,2,60.4999999999999
166,247,29728,6,0,P|216:190|278:184,2,121
77,310,31113,1,0,0:0:0:0:
41,207,31574,2,0,L|90:78,1,121
182,46,32497,1,0,0:0:0:0:
278,97,32959,1,0,0:0:0:0:
376,50,33420,6,0,L|385:194,1,121
314,255,34343,2,0,P|240:273|181:245,5,121
126,177,37113,5,0,0:0:0:0:
190,89,37574,2,0,P|251:75|325:95,1,121
389,157,38497,2,0,B|433:198|433:198|385:246,4,121
297,215,40805,5,0,0:0:0:0:
211,282,41266,2,0,L|129:167,1,121
177,80,42190,2,0,P|226:44|304:46,4,121
264,144,44497,5,0,0:0:0:0:
356,86,44959,2,0,P|372:142|352:218,1,121
303,295,45882,2,0,P|245:311|181:291,4,121
246,201,48190,5,0,0:0:0:0:
137,204,48651,2,0,P|93:247|86:315,2,121
193,297,50036,5,0,0:0:0:0:
301,289,50497,2,0,L|355:155,1,121
277,83,51420,1,0,0:0:0:0:
168,93,51882,6,0,P|199:160|261:191,1,121
346,176,52805,2,0,P|314:108|252:77,1,121
168,93,53728,5,0,0:0:0:0:
100,178,54190,2,0,L|165:322,1,121
246,337,55113,1,0,0:0:0:0:
344,290,55574,5,0,0:0:0:0:
370,184,56036,2,0,P|347:125|289:87,1,121
193,98,56959,1,0,0:0:0:0:
108,166,57420,6,0,P|155:201|229:201,2,121
91,58,58805,1,0,0:0:0:0:
192,18,59266,6,0,L|332:43,1,121
383,121,60190,1,0,0:0:0:0:
416,224,60651,2,0,P|403:291|353:341,4,121
307,235,62959,5,0,0:0:0:0:
313,126,63420,2,0,P|252:143|201:202,1,121
165,281,64343,2,0,P|118:317|51:324,4,121
211,182,66651,6,0,P|221:115|190:49,1,121
96,42,67574,1,0,0:0:0:0:
27,126,68036,1,0,0:0:0:0:
54,231,68497,6,0,L|205:299,1,121
273,274,69420,1,0,0:0:0:0:
353,200,69882,2,0,P|367:169|374:129,2,60.5
266,133,70805,6,0,P|292:76|353:42,1,121
448,46,71728,1,0,0:0:0:0:
507,137,72190,6,0,P|498:200|448:251,1,121
353,243,73113,1,0,0:0:0:0:
278,321,73574,1,0,0:0:0:0:
173,290,74036,6,0,P|140:247|141:168,1,121
184,84,74959,2,0,P|239:55|302:58,1,121
395,101,75882,5,0,0:0:0:0:
434,202,76343,1,0,0:0:0:0:
401,306,76805,2,0,P|344:331|274:322,1,121
203,255,77728,5,0,0:0:0:0:
127,333,78190,1,0,0:0:0:0:
95,228,78651,2,0,P|123:173|203:146,5,121
282,157,81420,5,0,0:0:0:0:
329,255,81882,1,0,0:0:0:0:
392,166,82343,2,0,P|375:103|314:53,5,121
227,55,85113,5,0,0:0:0:0:
57,191,86036,1,0,0:0:0:0:
230,322,86959,1,0,0:0:0:0:
404,191,87882,1,0,0:0:0:0:
227,55,88805,6,0,P|140:138|164:271,1,242
353,328,90651,2,0,L|406:83,1,242
187,73,92497,6,0,P|140:122|132:191,1,121
141,280,93420,2,0,P|179:336|234:361,1,121
334,352,94343,5,0,0:0:0:0:
404,268,94805,1,0,0:0:0:0:
392,159,95266,2,0,P|378:130|355:103,2,60.5
286,185,96190,6,0,L|127:182,1,121
66,228,97113,1,0,0:0:0:0:
249,344,98036,2,0,L|408:347,1,121
469,301,98959,2,0,P|483:270|485:234,2,60.5
378,240,99882,6,0,P|406:174|468:148,1,121
484,48,100805,2,0,L|348:40,1,121
261,80,101728,2,0,P|183:108|126:98,1,121
71,183,102651,2,0,P|50:216|39:258,2,60.5
154,252,103574,6,0,P|212:276|276:264,1,121
335,182,104497,2,0,L|367:53,1,121
257,42,105420,2,0,L|220:177,1,121
268,267,106343,2,0,L|316:320,2,60.5
159,265,107266,5,0,0:0:0:0:
