osu file format v14

[General]
AudioFilename: audio.mp3
AudioLeadIn: 0
PreviewTime: 27130
Countdown: 0
SampleSet: Normal
StackLeniency: 0.7
Mode: 0
LetterboxInBreaks: 0
WidescreenStoryboard: 0

[Editor]
DistanceSpacing: 0.9
BeatDivisor: 2
GridSize: 4
TimelineZoom: 2.3

[Metadata]
Title:Caramelo da desgraca
TitleUnicode:Caramelo da desgraça
Artist:Mestre3224
ArtistUnicode:Mestre3224
Creator:Tarrasky
Version:NORMAL
Source:
Tags:speedcore mlp my little pony ytpmv youtube poop mv caramelldansen weezer buddy holly NEDM
BeatmapID:1347672
BeatmapSetID:634870

[Difficulty]
HPDrainRate:3
CircleSize:3
OverallDifficulty:3
ApproachRate:6
SliderMultiplier:1
SliderTickRate:1

[Events]
//Background and Video events
0,0,"extratalinda.jpg",0,0
//Break Periods
//Storyboard Layer 0 (Background)
//Storyboard Layer 1 (Fail)
//Storyboard Layer 2 (Pass)
//Storyboard Layer 3 (Foreground)
//Storyboard Sound Samples

[TimingPoints]
10.2202805264478,240,4,1,0,20,1,0
490,-100,4,1,0,40,0,0
1930,-100,4,1,0,90,0,0
2170,-100,4,1,0,60,0,0
2650,240,4,1,0,70,1,0
3370,-100,4,2,0,70,0,0
3610,-100,4,1,0,70,0,0
11290,-100,4,2,0,60,0,0
25930,-100,4,2,0,40,0,0
27130,-100,4,1,0,60,0,0
27610,-100,4,1,0,60,0,1
30730,-100,4,2,0,30,0,0
30970,-100,4,1,0,60,0,0
31930,-100,4,1,0,60,0,1
33130,-100,4,1,0,60,0,0
35290,-100,4,1,0,60,0,1
36370,-100,4,2,0,40,0,1
36970,-100,4,1,0,60,0,0
39490,-100,4,2,0,50,0,0
40450,-100,4,3,0,70,0,0
41050,-100,4,2,0,40,0,0
42970,-100,4,1,0,60,0,1
43690,-100,4,2,0,60,0,0
43930,-100,4,1,0,60,0,1
44410,-100,4,1,0,40,0,0
44890,-100,4,1,0,60,0,1
46330,-100,4,2,0,40,0,0
46810,-100,4,2,0,70,0,0
47290,-100,4,1,0,60,0,1
48010,-100,4,2,0,60,0,0
48970,-100,4,2,0,30,0,0
49090,-100,4,2,0,40,0,0
49210,-100,4,2,0,50,0,0
49330,-100,4,2,0,60,0,0
49450,-100,4,1,0,60,0,1
49930,-100,4,2,0,60,0,0
53290,-100,4,1,0,70,0,0
53530,-100,4,1,0,70,0,1
60250,-100,4,3,0,60,0,0

[Colours]
Combo1 : 168,168,255
Combo2 : 0,0,255
Combo3 : 128,128,255
Combo4 : 0,0,128

[HitObjects]
61,110,10,6,0,P|108:94|157:101,1,100,2|2,0:0|0:0,0:0:0:0:
228,156,490,2,0,P|275:171|324:165,1,100,2|2,0:0|0:0,0:0:0:0:
408,124,970,2,0,L|411:223,1,100
372,304,1450,2,0,L|272:300,1,100,2|2,0:0|0:0,0:0:0:0:
184,292,1930,1,2,0:0:0:0:
100,256,2170,6,0,P|92:204|100:156,1,100,4|0,0:0|0:0,0:0:0:0:
140,76,2650,1,0,0:0:0:0:
224,40,2890,2,0,P|276:32|323:40,1,100,8|0,0:1|0:0,0:0:0:0:
404,80,3370,1,0,0:0:0:0:
452,156,3610,6,0,P|465:205|453:253,1,100,4|0,0:0|0:0,0:0:0:0:
396,324,4090,2,0,L|292:316,1,100,2|2,0:0|0:0,0:0:0:0:
208,300,4570,2,0,P|196:240|204:200,1,100,8|8,0:3|0:1,0:0:0:0:
228,116,5050,2,0,L|124:128,1,100,2|2,0:3|0:3,0:0:0:0:
64,192,5530,6,0,B|56:256|56:256|68:304,2,100
152,216,6250,1,0,0:0:0:0:
196,296,6490,6,0,L|320:300,1,100,4|0,0:0|0:0,0:0:0:0:
384,284,6970,2,0,P|396:220|384:176,1,100,2|2,0:0|0:0,0:0:0:0:
344,108,7450,1,4,0:0:0:0:
168,68,7930,6,0,L|164:188,1,100,2|2,0:0|0:0,0:0:0:0:
168,256,8410,2,0,P|210:282|259:289,1,100,4|0,0:3|0:0,0:0:0:0:
340,248,8890,2,0,L|336:98,1,150,8|8,0:0|0:0,0:0:0:0:
332,52,9370,2,0,P|392:28|484:60,1,150,4|4,0:3|0:3,0:0:0:0:
496,88,9850,1,8,0:1:0:0:
440,256,10330,6,0,L|335:247,1,100,4|8,0:3|0:1,0:0:0:0:
316,160,10810,2,0,L|216:163,1,100,0|2,0:0|0:0,0:0:0:0:
132,128,11290,2,0,B|112:68|112:68|124:-12,2,100,2|2|2,0:0|0:0|0:0,0:0:0:0:
301,63,12250,6,0,B|321:123|321:123|309:203,1,100,6|2,0:0|0:0,0:0:0:0:
292,244,12730,2,0,L|391:254,1,100,2|0,0:0|0:0,0:0:0:0:
420,340,13210,2,0,L|320:329,1,100,2|0,0:0|0:0,0:0:0:0:
232,320,13690,2,0,L|132:309,1,100,2|0,0:0|0:0,0:0:0:0:
72,244,14170,6,0,P|44:176|68:88,2,150,2|2|2,0:0|0:0|0:0,0:0:0:0:
156,212,15130,2,0,L|255:222,1,100,0|2,0:0|0:0,0:0:0:0:
304,144,15610,2,0,L|204:133,1,100,2|0,0:0|0:0,0:0:0:0:
260,60,16090,6,0,P|364:76|398:168,1,200,4|4,0:3|0:3,0:0:0:0:
280,288,17050,2,0,P|179:276|140:183,1,200,4|4,0:3|0:3,0:0:0:0:
140,104,17770,2,0,P|188:64|280:72,1,150,4|0,0:3|0:0,0:0:0:0:
356,100,18370,2,0,P|420:108|464:88,2,100,4|0|4,0:3|0:0|0:3,0:0:0:0:
284,156,19090,6,0,P|256:220|440:216,1,350,2|4,0:0|0:3,0:0:0:0:
440,144,20170,5,8,0:1:0:0:
412,60,20410,2,0,L|248:68,1,150,8|8,0:1|0:0,0:0:0:0:
148,136,21130,2,0,B|140:235|140:235|164:288,2,150,8|4|4,0:1|0:3|0:3,0:0:0:0:
236,132,22090,5,8,0:1:0:0:
304,188,22330,2,0,P|372:192|444:136,1,150,8|8,0:1|0:1,0:0:0:0:
340,68,23050,2,0,B|244:40|244:40|188:56,2,150,8|8|4,0:1|0:1|0:1,0:0:0:0:
348,156,24010,5,8,0:1:0:0:
397,231,24250,2,0,P|329:260|249:267,1,150,8|8,0:1|0:1,0:0:0:0:
120,284,24970,2,0,B|124:184|124:184|104:136,2,150,8|8|4,0:1|0:1|0:1,0:0:0:0:
200,324,25930,6,0,L|208:156,1,150,8|0,0:1|0:0,0:0:0:0:
220,84,26530,2,0,P|292:52|388:92,1,150
400,148,27130,2,0,L|393:247,1,100,2|2,0:0|0:0,0:0:0:0:
472,292,27610,6,0,L|484:84,1,200,6|2,0:0|0:0,0:0:0:0:
404,48,28330,1,10,0:0:0:0:
320,12,28570,2,0,L|188:32,1,100,2|8,0:0|0:0,0:0:0:0:
128,52,29050,2,0,P|115:101|121:150,1,100,2|10,0:0|0:0,0:0:0:0:
176,220,29530,6,0,L|76:223,1,100,0|10,0:0|0:0,0:0:0:0:
100,312,30010,2,0,L|199:308,1,100,2|10,0:0|0:0,0:0:0:0:
288,296,30490,1,2,0:0:0:0:
436,196,30970,6,0,P|443:103|356:67,1,200,2|2,0:0|0:0,0:0:0:0:
268,88,31690,1,8,0:0:0:0:
180,108,31930,6,0,L|52:104,1,100,2|10,0:0|0:0,0:0:0:0:
51,190,32410,2,0,L|150:193,1,100,2|2,0:0|0:0,0:0:0:0:
240,208,32890,2,0,P|255:256|250:305,1,100,2|8,0:0|0:0,0:0:0:0:
164,336,33370,6,0,L|24:332,2,100,0|0|4,0:0|0:0|0:0,0:0:0:0:
344,348,34330,2,0,P|378:282|371:208,1,150,2|0,0:0|0:0,0:0:0:0:
356,164,34810,2,0,P|346:115|357:67,1,100,2|0,0:0|0:0,0:0:0:0:
432,116,35290,6,0,L|212:140,1,200,6|10,0:0|0:0,0:0:0:0:
108,92,36130,2,0,P|100:141|132:240,1,150,2|0,0:0|0:0,0:0:0:0:
192,300,36730,1,2,0:0:0:0:
364,352,37210,6,0,L|356:148,1,200,6|0,0:0|0:0,0:0:0:0:
399,73,37930,1,2,0:2:0:0:
399,73,38170,6,0,P|323:69|272:191,1,200,4|0,0:0|0:0,0:0:0:0:
267,256,38890,1,2,0:0:0:0:
196,312,39130,2,0,P|148:316|92:296,1,100,2|0,0:0|0:0,0:0:0:0:
72,264,39490,2,0,P|92:220|137:181,1,100,4|0,0:3|0:0,0:0:0:0:
212,148,39970,2,2,B|206:91|206:91|220:20,2,100
376,300,41050,6,0,B|400:232|400:232|376:174|376:174|404:92,2,200,2|2|2,0:0|0:0|0:0,0:0:0:0:
292,336,42250,2,0,L|176:344,1,100,2|0,0:0|0:0,0:0:0:0:
116,300,42730,1,8,0:0:0:0:
60,228,42970,6,0,P|36:140|92:48,1,200,4|8,0:0|0:0,0:0:0:0:
268,48,43930,2,0,P|319:130|296:225,1,200,4|2,0:0|0:0,0:0:0:0:
144,324,44890,6,0,B|180:324|200:316|200:316|240:336|240:336|296:308|344:336,2,200,4|8|0,0:0|0:0|0:0,0:0:0:0:
76,156,46330,5,0,0:0:0:0:
164,128,46570,1,2,0:0:0:0:
164,128,46810,2,0,L|304:120,1,100,2|2,0:0|0:0,0:0:0:0:
352,96,47290,6,0,L|344:204,1,100,6|2,0:0|0:0,0:0:0:0:
432,172,47770,2,0,L|440:312,1,100
172,324,48730,6,0,P|92:292|212:272,1,300,4|4,0:0|0:3,0:0:0:0:
260,316,49690,2,0,P|308:328|357:320,1,100,0|2,0:0|0:0,0:0:0:0:
428,264,50170,2,0,L|420:140,2,100,2|0|8,0:0|0:0|0:0,0:0:0:0:
340,56,51370,6,0,P|267:39|195:57,1,150,4|0,0:0|0:0,0:0:0:0:
156,80,51850,2,0,L|164:184,1,100,8|0,0:0|0:0,0:0:0:0:
104,248,52330,2,0,P|160:268|248:216,1,150
276,208,52810,2,0,L|288:340,2,100,8|0|8,0:0|0:0|0:0,0:0:0:0:
308,124,53530,6,0,L|416:136,2,100,2|10|2,0:0|0:0|0:0,0:0:0:0:
232,72,54250,1,10,0:0:0:0:
156,24,54490,2,0,P|144:73|157:120,1,100,2|8,0:0|0:0,0:0:0:0:
212,192,54970,2,0,P|223:240|210:287,1,100,0|8,0:0|0:0,0:0:0:0:
140,344,55450,6,0,L|36:328,2,100,2|10|2,0:0|0:0|0:0,0:0:0:0:
228,368,56170,1,8,0:0:0:0:
312,340,56410,2,0,L|308:240,1,100,0|8,0:0|0:0,0:0:0:0:
396,264,56890,2,0,L|400:164,1,100,0|8,0:0|0:0,0:0:0:0:
384,76,57370,6,0,B|448:56|448:56|496:76,2,100,2|10|2,0:0|0:0|0:0,0:0:0:0:
296,104,58090,1,10,0:0:0:0:
232,168,58330,2,0,P|209:125|212:72,1,100,2|8,0:0|0:0,0:0:0:0:
140,20,58810,2,0,P|116:63|115:112,1,100,0|8,0:0|0:0,0:0:0:0:
128,204,59290,6,0,L|120:312,2,100,2|10|2,0:0|0:0|0:0,0:0:0:0:
212,172,60010,2,0,P|293:157|333:165,1,100,2|4,0:0|0:1,0:0:0:0:
388,204,60490,2,0,L|395:104,1,100,8|8,0:0|0:0,0:0:0:0:
476,144,60970,2,0,L|468:243,1,100,4|4,0:0|0:1,0:0:0:0:
