osu file format v14

[General]
AudioFilename: audio.mp3
AudioLeadIn: 0
PreviewTime: 27130
Countdown: 0
SampleSet: Normal
StackLeniency: 0.2
Mode: 0
LetterboxInBreaks: 0
WidescreenStoryboard: 0

[Editor]
DistanceSpacing: 1
BeatDivisor: 4
GridSize: 4
TimelineZoom: 4.099998

[Metadata]
Title:Caramelo da desgraca
TitleUnicode:Caramelo da desgraça
Artist:Mestre3224
ArtistUnicode:Mestre3224
Creator:Tarrasky
Version:IMPOSSIBLE
Source:
Tags:speedcore ytpmv youtube poop mv caramelldansen weezer buddy holly NEDM
BeatmapID:1346966
BeatmapSetID:634870

[Difficulty]
HPDrainRate:5
CircleSize:4
OverallDifficulty:8.5
ApproachRate:9.8
SliderMultiplier:2.8
SliderTickRate:1

[Events]
//Background and Video events
0,0,"extratalinda.jpg",0,0
//Break Periods
//Storyboard Layer 0 (Background)
//Storyboard Layer 1 (Fail)
//Storyboard Layer 2 (Pass)
//Storyboard Layer 3 (Foreground)
//Storyboard Sound Samples

[TimingPoints]
10.2202805264478,240,4,1,0,20,1,0
250,-133.333333333333,4,1,0,20,0,0
490,-100,4,1,0,40,0,0
1210,-133.333333333333,4,1,0,40,0,0
1450,-100,4,1,0,40,0,0
1690,-133.333333333333,4,1,0,40,0,0
1930,-500,4,1,0,90,0,0
2170,-66.6666666666667,4,1,0,60,0,0
2410,-100,4,1,0,60,0,0
2650,240,4,1,0,100,1,0
3370,-200,4,2,0,100,0,0
3610,-83.3333333333333,4,1,0,100,0,0
3850,-133.333333333333,4,1,0,100,0,0
4090,-100,4,1,0,100,0,0
5530,-133.333333333333,4,1,0,100,0,0
6490,-200,4,1,0,100,0,0
7210,-100,4,1,0,100,0,0
8050,-100,4,1,0,100,0,0
8410,-133.333333333333,4,1,0,100,0,0
11050,-200,4,1,0,100,0,0
11290,-200,4,2,0,60,0,0
16090,-200,4,2,0,60,0,0
18130,-133.333333333333,4,2,0,60,0,0
18610,-100,4,2,0,60,0,0
19930,-200,4,2,0,60,0,0
23770,-133.333333333333,4,2,0,60,0,0
25690,-100,4,2,0,60,0,0
25930,-100,4,2,0,40,0,0
26530,-1000,4,2,0,40,0,0
27130,-83.3333333333333,4,1,0,60,0,0
27610,-66.6666666666667,4,1,0,60,0,1
29530,-83.3333333333333,4,1,0,60,0,1
30730,-200,4,2,0,30,0,0
30970,-83.3333333333333,4,1,0,60,0,0
31450,-133.333333333333,4,1,0,60,0,0
31930,-66.6666666666667,4,1,0,60,0,1
32410,-200,4,1,0,60,0,1
33130,-133.333333333333,4,1,0,60,0,0
33370,-100,4,1,0,60,0,0
34810,-200,4,1,0,60,0,0
35290,-66.6666666666667,4,1,0,60,0,1
36370,-133.333333333333,4,2,0,40,0,1
36970,-100,4,1,0,60,0,0
37210,-66.6666666666667,4,1,0,60,0,0
38170,-500,4,1,0,60,0,0
38650,-100,4,1,0,60,0,0
39490,-200,4,2,0,50,0,0
39970,-133.333333333333,4,2,0,50,0,0
40450,-1000.33333333333,4,3,0,70,0,0
41050,-100,4,2,0,40,0,0
42970,-66.6666666666667,4,1,0,60,0,1
43690,-100,4,2,0,60,0,0
43930,-66.6666666666667,4,1,0,60,0,1
44410,-133.333333333333,4,2,0,40,0,0
44890,-66.6666666666667,4,1,0,60,0,1
46330,-133.333333333333,4,2,0,40,0,0
46810,-500,4,2,0,70,0,0
47290,-66.6666666666667,4,1,0,60,0,1
48010,-1000,4,2,0,60,0,0
48730,-133.333333333333,4,2,0,60,0,0
48970,-133.333333333333,4,2,0,30,0,0
49090,-133.333333333333,4,2,0,40,0,0
49210,-133.333333333333,4,2,0,50,0,0
49330,-133.333333333333,4,2,0,60,0,0
49450,-66.6666666666667,4,1,0,60,0,1
49930,-133.333333333333,4,2,0,60,0,0
51370,-200,4,2,0,50,0,0
53290,-66.6666666666667,4,1,0,70,0,0
53530,-66.6666666666667,4,1,0,70,0,1
60250,-100,4,3,0,60,0,0

[Colours]
Combo1 : 255,0,0
Combo2 : 0,0,255
Combo3 : 128,128,255
Combo4 : 0,0,128
Combo5 : 168,168,255

[HitObjects]
108,152,10,5,2,0:0:0:0:
136,244,130,1,0,0:0:0:0:
202,174,250,2,0,P|220:112|212:64,1,105.000004005432,2|0,0:0|0:0,0:0:0:0:
136,36,490,6,0,L|288:44,1,140,2|0,0:0|0:0,0:0:0:0:
472,112,730,2,0,L|332:119,1,140,2|0,0:0|0:0,0:0:0:0:
160,296,970,6,0,L|-28:308,1,140,2|0,0:0|0:0,0:0:0:0:
268,352,1210,2,0,P|304:300|272:184,1,157.500006008148,2|0,0:0|0:0,0:0:0:0:
272,180,1450,6,0,P|254:105|268:32,1,140,2|0,0:0|0:0,0:0:0:0:
152,119,1690,2,0,P|78:139|17:93,1,157.500006008148,2|0,0:0|0:0,0:0:0:0:
96,14,1930,6,0,L|92:56,1,42,2|0,0:0|0:0,0:1:0:0:
18,320,2170,6,0,P|188:253|395:275,1,315.000012016297,4|0,0:0|0:0,0:0:0:0:
464,320,2410,6,0,L|476:144,1,140,4|0,0:2|0:0,0:0:0:0:
236,116,2650,1,0,0:0:0:0:
236,116,2710,1,0,0:0:0:0:
236,116,2770,1,0,0:0:0:0:
444,64,2890,1,8,0:0:0:0:
208,32,3010,1,0,0:0:0:0:
419,150,3130,2,0,P|436:217|416:284,1,140
240,328,3370,38,0,B|200:320|200:320|172:324|172:324|128:316,1,105,2|0,0:0|0:0,0:0:0:0:
52,204,3610,6,0,B|104:204|136:224|136:224|175:213|200:200|200:200|252:200|252:228|296:232,1,251.999992309571,4|0,0:0|0:0,0:0:0:0:
416,283,3850,2,0,L|421:230,1,52.5000020027161,4|0,0:3|0:0,0:0:0:0:
360,164,3970,2,0,L|354:111,1,52.5000020027161,4|0,0:3|0:0,0:0:0:0:
432,48,4090,6,0,P|364:67|295:70,1,140,8|0,0:3|0:0,0:0:0:0:
32,124,4330,2,0,P|99:143|168:146,1,140,10|0,0:3|0:0,0:0:0:0:
368,240,4570,6,0,P|380:332|368:388,1,140,4|0,0:3|0:0,0:0:0:0:
143,240,4810,2,0,P|131:308|140:377,1,140,8|0,0:3|0:0,0:0:0:0:
384,208,5050,5,2,0:3:0:0:
128,208,5170,1,0,0:0:0:0:
400,180,5290,1,2,0:3:0:0:
112,180,5410,1,0,0:0:0:0:
232,152,5530,22,0,L|225:47,1,105.000004005432,8|0,0:0|0:0,0:0:0:0:
312,280,5770,2,0,L|305:384,1,105.000004005432,8|0,0:0|0:0,0:0:0:0:
232,152,6010,5,8,0:0:0:0:
312,280,6130,1,0,0:0:0:0:
368,68,6250,6,0,B|325:69|300:56|300:56|272:76|272:76|248:60|208:68,1,157.500006008148,8|0,0:3|0:0,0:0:0:0:
56,56,6490,6,0,B|52:92|52:92|60:132,1,70,8|0,0:3|0:0,0:0:0:0:
289,233,6730,2,0,B|296:200|296:200|292:164,1,70,8|0,0:3|0:0,0:0:0:0:
52,336,6970,1,2,0:0:0:0:
84,332,7030,1,0,0:0:0:0:
116,328,7090,1,2,0:0:0:0:
148,324,7150,1,0,0:0:0:0:
180,320,7210,2,0,B|192:248|192:248|168:172,1,140,2|8,0:0|0:0,0:0:0:0:
44,56,7450,22,0,P|110:75|179:66,1,140,0|8,0:0|0:0,0:0:0:0:
464,64,7690,2,0,P|397:44|328:53,1,140,0|8,0:0|0:0,0:0:0:0:
184,216,7930,5,8,0:0:0:0:
255,374,8050,1,8,0:3:0:0:
358,232,8170,1,4,0:3:0:0:
264,276,8290,1,2,0:3:0:0:
264,276,8410,6,0,L|160:288,1,105.000004005432,6|0,0:0|0:0,0:0:0:0:
124,272,8590,2,0,P|96:220|116:148,1,105.000004005432,6|0,0:0|0:0,0:0:0:0:
116,136,8770,1,10,0:0:0:0:
204,52,8890,5,8,0:0:0:0:
240,56,8950,1,0,0:0:0:0:
276,60,9010,1,0,0:0:0:0:
312,64,9070,1,0,0:0:0:0:
348,68,9130,2,0,L|416:76,2,52.5000020027161,2|8|2,0:0|0:0|0:0,0:0:0:0:
256,156,9370,22,0,P|244:216|264:268,1,105.000004005432,4|0,0:3|0:0,0:0:0:0:
288,292,9550,1,8,0:0:0:0:
324,288,9610,1,0,0:0:0:0:
360,284,9670,1,0,0:0:0:0:
396,280,9730,1,4,0:3:0:0:
468,204,9850,5,2,0:0:0:0:
452,100,9970,1,2,0:0:0:0:
370,166,10090,2,0,P|320:180|260:168,1,105.000004005432,8|2,0:3|0:0,0:0:0:0:
160,95,10330,1,4,0:3:0:0:
141,133,10390,1,2,0:0:0:0:
135,174,10450,1,0,0:0:0:0:
143,216,10510,1,0,0:0:0:0:
163,252,10570,5,8,0:0:0:0:
156,256,10630,1,0,0:0:0:0:
148,260,10690,1,0,0:0:0:0:
140,264,10750,2,0,L|260:272,1,105.000004005432
332,276,10930,5,8,0:0:0:0:
324,284,10990,1,0,0:0:0:0:
316,292,11050,2,0,L|350:290,1,35
431,299,11170,2,0,L|465:297,1,35
444,208,11290,21,0,0:0:0:0:
368,128,11410,1,2,0:0:0:0:
439,197,11530,5,0,0:0:0:0:
372,138,11650,1,2,0:0:0:0:
433,186,11770,6,0,L|445:102,3,70,2|0|0|0,0:0|0:0|0:0|0:0,0:0:0:0:
324,232,12250,5,6,0:0:0:0:
248,220,12370,1,0,0:0:0:0:
296,160,12490,1,2,0:0:0:0:
220,148,12610,1,0,0:0:0:0:
172,208,12730,21,0,0:0:0:0:
172,216,12850,1,0,0:0:0:0:
172,224,12970,1,0,0:0:0:0:
96,196,13090,5,2,0:0:0:0:
144,136,13210,1,0,0:0:0:0:
116,64,13330,1,2,0:0:0:0:
192,76,13450,1,0,0:0:0:0:
268,88,13570,5,0,0:0:0:0:
268,96,13690,1,0,0:0:0:0:
268,104,13810,1,0,0:0:0:0:
268,112,13930,1,0,0:0:0:0:
200,216,14050,1,0,0:0:0:0:
224,212,14110,1,0,0:0:0:0:
248,208,14170,5,2,0:0:0:0:
264,289,14290,1,0,0:0:0:0:
326,240,14410,1,2,0:0:0:0:
376,304,14530,21,2,0:0:0:0:
376,304,14650,1,2,0:0:0:0:
376,304,14770,1,2,0:0:0:0:
376,304,14890,5,0,0:0:0:0:
326,240,15010,1,2,0:0:0:0:
379,305,15130,5,0,0:0:0:0:
322,238,15250,1,2,0:0:0:0:
382,305,15370,5,2,0:0:0:0:
319,238,15490,1,2,0:0:0:0:
386,298,15610,21,2,0:0:0:0:
315,245,15730,1,0,0:0:0:0:
389,291,15850,5,0,0:0:0:0:
312,252,15970,1,0,0:0:0:0:
392,284,16090,6,0,L|394:214,1,70,4|0,0:3|0:0,0:0:0:0:
339,59,16330,2,0,L|341:128,1,70,4|0,0:3|0:0,0:0:0:0:
231,304,16570,2,0,L|233:234,1,70,4|0,0:3|0:0,0:0:0:0:
193,40,16810,2,0,L|195:109,1,70,4|0,0:3|0:0,0:0:0:0:
78,346,17050,6,0,L|78:276,1,70,4|0,0:3|0:0,0:0:0:0:
45,36,17290,2,0,L|45:106,1,70,4|0,0:3|0:0,0:0:0:0:
164,250,17530,1,4,0:3:0:0:
250,219,17650,1,4,0:3:0:0:
300,144,17770,2,0,L|303:74,2,70,4|4|0,0:3|0:3|0:0,0:0:0:0:
240,317,18130,38,0,L|344:311,1,105.000004005432,4|0,3:0|0:0,0:0:0:0:
164,250,18370,2,0,L|59:245,1,105.000004005432,4|0,3:0|0:0,0:0:0:0:
332,225,18610,6,0,L|472:219,1,140,4|0,3:0|0:0,0:0:0:0:
144,166,18850,2,0,L|5:160,1,140,4|0,3:0|0:0,0:0:0:0:
352,140,19090,5,4,0:3:0:0:
320,12,19210,1,0,0:0:0:0:
360,130,19330,21,4,0:3:0:0:
311,21,19450,1,0,0:0:0:0:
365,119,19570,5,4,0:3:0:0:
306,32,19690,1,0,0:0:0:0:
368,109,19810,1,4,0:3:0:0:
304,40,19930,6,0,L|208:44,1,70,4|0,0:0|0:0,0:0:0:0:
132,92,20170,1,8,0:1:0:0:
136,132,20230,1,0,0:0:0:0:
140,172,20290,1,0,0:0:0:0:
144,212,20350,1,0,0:0:0:0:
148,252,20410,6,0,B|180:272|180:272|240:280,2,70,2|4|4,0:0|0:3|0:3,0:0:0:0:
284,220,20770,1,8,0:1:0:0:
436,52,21130,21,8,0:1:0:0:
440,84,21190,1,0,0:0:0:0:
444,116,21250,1,0,0:0:0:0:
448,148,21310,1,0,0:0:0:0:
452,180,21370,5,2,0:0:0:0:
432,260,21490,1,4,0:3:0:0:
348,276,21610,1,4,0:3:0:0:
284,220,21730,1,8,0:1:0:0:
296,124,21850,6,0,L|204:128,1,70,4|4,0:3|0:3,0:0:0:0:
64,260,22090,1,8,0:1:0:0:
104,264,22150,1,0,0:0:0:0:
144,268,22210,1,0,0:0:0:0:
184,272,22270,1,0,0:0:0:0:
224,276,22330,6,0,P|232:328|220:360,2,70,2|4|4,0:0|0:3|0:3,0:0:0:0:
176,176,22690,1,8,0:0:0:0:
407,58,22930,21,0,0:1:0:0:
375,62,22990,1,0,0:0:0:0:
343,66,23050,1,8,0:0:0:0:
209,80,23170,2,0,L|212:45,1,35
176,176,23290,2,0,L|179:210,1,35
280,152,23410,5,8,0:1:0:0:
312,156,23470,1,0,0:0:0:0:
344,160,23530,1,0,0:0:0:0:
376,164,23590,1,0,0:0:0:0:
408,168,23650,1,8,0:1:0:0:
436,172,23710,1,0,0:0:0:0:
464,176,23770,6,0,P|472:248|448:304,1,105.000004005432,4|0,0:0|0:0,0:0:0:0:
220,303,24010,1,8,0:1:0:0:
249,277,24070,1,0,0:0:0:0:
285,262,24130,1,0,0:0:0:0:
324,260,24190,1,0,0:0:0:0:
362,270,24250,5,2,0:0:0:0:
148,368,24370,2,0,P|128:312|148:252,1,105.000004005432,4|4,0:3|0:3,0:0:0:0:
260,136,24610,2,0,P|221:181|159:194,1,105.000004005432,4|4,0:3|0:3,0:0:0:0:
172,96,24850,1,0,0:0:0:0:
340,48,24970,21,8,0:1:0:0:
338,87,25030,1,0,0:0:0:0:
336,126,25090,1,0,0:0:0:0:
334,165,25150,1,0,0:0:0:0:
332,205,25210,1,2,0:0:0:0:
384,304,25330,2,0,L|504:296,1,105.000004005432,4|4,0:3|0:3,0:0:0:0:
272,276,25570,5,8,0:1:0:0:
272,276,25690,2,0,L|128:268,1,140,4|4,0:3|0:3,0:0:0:0:
152,88,25930,5,8,0:1:0:0:
168,140,25990,1,0,0:0:0:0:
211,174,26050,1,0,0:0:0:0:
265,187,26110,1,0,0:0:0:0:
319,175,26170,1,2,0:0:0:0:
362,140,26230,1,0,0:0:0:0:
386,90,26290,6,0,L|380:-8,1,70,8|0,0:1|0:0,0:0:0:0:
452,236,26410,1,0,0:0:0:0:
452,236,26530,6,2,P|430:240|392:240,1,56,2|2,1:0|1:0,1:0:0:0:
212,96,27130,5,2,0:0:0:0:
219,83,27190,1,0,0:0:0:0:
224,72,27250,1,2,0:0:0:0:
67,76,27370,2,0,P|63:128|72:168,1,83.9999974365235,10|0,0:0|0:0,0:0:0:0:
197,287,27490,2,0,P|207:235|204:192,1,83.9999974365235,2|0,0:0|0:0,0:0:0:0:
108,328,27610,6,0,P|208:384|288:324,1,210.000008010865,6|0,0:0|0:0,0:0:0:0:
328,268,27790,1,2,0:0:0:0:
328,268,27850,2,0,L|324:52,1,210.000008010865,8|2,0:0|0:0,0:0:0:0:
460,144,28090,1,2,0:0:0:0:
464,156,28150,1,0,0:0:0:0:
468,168,28210,1,0,0:0:0:0:
324,58,28330,1,10,0:0:0:0:
328,46,28390,1,0,0:0:0:0:
332,34,28450,1,2,0:0:0:0:
328,268,28570,6,0,L|116:256,1,210.000008010865,2|2,0:0|0:0,0:0:0:0:
24,128,28750,1,0,0:0:0:0:
24,128,28810,2,0,L|233:116,1,210.000008010865,10|2,0:0|0:0,0:0:0:0:
436,32,29050,1,2,0:0:0:0:
432,44,29110,1,0,0:0:0:0:
428,56,29170,1,2,0:0:0:0:
320,152,29290,1,10,0:0:0:0:
324,164,29350,1,0,0:0:0:0:
328,176,29410,1,2,0:0:0:0:
396,320,29530,5,0,0:0:0:0:
496,220,29650,1,8,0:0:0:0:
308,304,29770,2,0,L|315:136,1,167.999994873047,2|8,0:0|0:0,0:0:0:0:
176,52,30010,2,0,L|168:219,1,167.999994873047,2|8,0:0|0:0,0:0:0:0:
20,276,30250,2,0,L|27:108,1,167.999994873047,2|8,0:0|0:0,0:0:0:0:
176,52,30490,22,0,P|272:32|420:96,1,251.999992309571,4|0,0:0|0:0,0:0:0:0:
444,160,30730,6,0,L|436:212,3,35,2|0|2|0,0:0|0:0|0:0|0:0,0:0:0:0:
332,220,30970,5,2,0:0:0:0:
336,260,31030,1,0,0:0:0:0:
340,300,31090,1,2,0:0:0:0:
168,332,31210,2,0,P|132:244|160:152,1,167.999994873047,0|2,0:0|0:0,0:0:0:0:
239,38,31450,6,0,L|343:41,1,105.000004005432,2|2,0:0|0:0,0:0:0:0:
111,96,31690,2,0,L|6:92,1,105.000004005432,8|2,0:0|0:0,0:0:0:0:
20,208,31930,54,0,P|98:276|198:303,1,210.000008010865,2|0,0:0|0:0,0:0:0:0:
313,303,32110,1,0,0:0:0:0:
313,303,32170,2,0,P|413:276|492:208,1,210.000008010865,10|0,0:0|0:0,0:0:0:0:
391,83,32410,22,0,P|339:83|292:62,1,105,2|0,0:0|0:0,0:0:0:0:
292,62,32650,2,0,P|239:62|192:83,1,105,2|0,0:0|0:0,0:0:0:0:
195,187,32890,2,0,L|192:83,1,105,2|0,0:0|0:0,0:0:0:0:
108,116,33130,6,0,L|104:204,1,52.5000020027161,8|0,0:0|0:0,0:0:0:0:
56,244,33250,1,0,0:0:0:0:
84,256,33310,1,0,0:0:0:0:
112,268,33370,6,0,L|260:260,1,140,0|8,0:0|0:0,0:0:0:0:
372,116,33610,5,2,0:0:0:0:
352,296,33730,1,2,0:0:0:0:
364,128,33850,6,0,P|364:44|420:144,1,280,4|0,0:0|0:0,0:0:0:0:
300,192,34210,1,0,0:0:0:0:
269,149,34270,1,0,0:0:0:0:
257,98,34330,1,0,0:0:0:0:
263,46,34390,1,0,0:0:0:0:
287,0,34450,22,0,P|184:44|120:36,1,140,2|0,0:0|0:0,0:0:0:0:
36,16,34690,1,0,0:0:0:0:
36,16,34810,6,2,B|28:65|28:65|48:92|48:92|40:160,1,140,2|10,0:0|0:0,0:0:0:0:
20,312,35170,1,0,0:0:0:0:
20,312,35290,6,0,P|152:264|256:268,1,210.000008010865,4|0,0:0|0:0,0:0:0:0:
460,336,35530,2,0,L|456:104,1,210.000008010865,8|0,0:0|0:0,0:0:0:0:
328,24,35770,2,0,P|231:65|127:73,1,210.000008010865,2|0,0:0|0:0,0:0:0:0:
36,56,35950,1,0,0:0:0:0:
36,56,36010,1,8,0:0:0:0:
28,288,36130,6,0,P|156:324|324:264,1,315.000012016297,2|0,0:0|0:0,0:0:0:0:
379,204,36370,22,0,P|392:181|396:155,1,52.5000020027161,2|0,0:0|0:0,0:0:0:0:
284,88,36490,2,0,P|288:113|300:136,1,52.5000020027161,10|0,0:1|0:0,0:0:0:0:
376,64,36610,6,0,P|371:38|359:15,1,52.5000020027161,2|0,0:0|0:0,0:0:0:0:
216,24,36730,2,0,P|192:80|200:128,1,105.000004005432,2|0,0:1|0:0,0:0:0:0:
464,200,36970,5,0,0:0:0:0:
424,208,37030,1,0,0:0:0:0:
384,216,37090,1,0,0:0:0:0:
344,224,37150,1,0,0:0:0:0:
304,232,37210,6,0,L|164:216,1,105.000004005432,4|0,0:0|0:0,0:0:0:0:
260,115,37330,2,0,L|156:104,1,105.000004005432,8|8,0:0|0:0,0:0:0:0:
216,24,37450,1,0,0:0:0:0:
95,208,37570,21,0,0:0:0:0:
147,213,37630,1,0,0:0:0:0:
199,219,37690,1,2,0:0:0:0:
251,225,37750,1,0,0:0:0:0:
303,231,37810,1,0,0:0:0:0:
464,200,37930,1,2,0:0:0:0:
40,360,38170,54,0,B|32:312|32:312|40:264,1,98,4|0,0:0|0:0,0:0:0:0:
92,152,38650,6,0,B|156:124|156:124|225:134,1,140,2|0,0:0|0:0,0:0:0:0:
376,336,38890,2,0,B|312:364|312:364|242:353,1,140,2|0,0:0|0:0,0:0:0:0:
156,344,39070,1,0,0:0:0:0:
156,344,39130,6,0,L|152:196,2,140,4|0|4,0:3|0:0|0:3,0:0:0:0:
356,40,39490,6,0,L|360:188,1,140,4|0,0:3|0:0,0:0:0:0:
384,280,39790,1,2,0:0:0:0:
400,276,39850,1,2,0:0:0:0:
416,272,39910,1,2,0:0:0:0:
432,268,39970,6,0,L|320:260,1,105.000004005432,2|0,0:0|0:0,0:0:0:0:
356,352,40210,2,0,L|251:359,1,105.000004005432,2|0,0:0|0:0,0:0:0:0:
172,307,40450,6,0,P|169:270|174:241,1,63,4|0,0:0|0:0,0:0:0:0:
206,165,41050,5,2,0:0:0:0:
206,165,41290,1,2,0:0:0:0:
206,165,41530,1,2,0:0:0:0:
206,165,41770,1,2,0:0:0:0:
206,165,42010,1,2,0:0:0:0:
206,165,42250,5,2,0:0:0:0:
260,84,42370,2,2,L|328:92,10,35
206,165,42730,6,0,P|194:229|214:317,1,140,4|8,0:3|0:1,0:0:0:0:
508,304,42970,6,0,P|409:269|305:279,1,210.000008010865,6|0,0:0|0:0,0:0:0:0:
84,340,43210,2,0,L|76:88,1,210.000008010865,8|0,0:0|0:0,0:0:0:0:
228,20,43450,2,0,L|234:229,1,210.000008010865,2|0,0:0|0:0,0:0:0:0:
416,180,43690,21,0,0:0:0:0:
431,148,43750,1,2,0:0:0:0:
441,115,43810,1,0,0:0:0:0:
445,80,43870,1,2,0:0:0:0:
442,45,43930,6,0,L|459:254,1,210.000008010865,6|0,0:0|0:0,0:0:0:0:
240,336,44170,2,0,L|257:126,1,210.000008010865,8|0,0:0|0:0,0:0:0:0:
60,32,44410,6,0,L|77:241,1,210.000008010865,2|2,0:1|0:1,0:0:0:0:
463,260,44890,6,0,P|380:332|264:295,1,210.000008010865,6|0,0:0|0:0,0:0:0:0:
204,60,45130,1,10,0:0:0:0:
172,280,45250,1,0,0:0:0:0:
344,24,45370,2,0,L|359:233,1,210.000008010865,2|0,0:0|0:0,0:0:0:0:
72,320,45610,1,10,0:0:0:0:
72,320,45730,22,0,L|87:110,1,210.000008010865,2|0,0:0|0:0,0:0:0:0:
344,24,45970,1,2,0:0:0:0:
144,48,46090,1,10,0:0:0:0:
432,104,46210,1,2,0:0:0:0:
232,79,46330,6,0,P|216:160|241:232,1,157.500006008148,2|0,0:1|0:0,0:0:0:0:
312,268,46570,2,0,L|136:284,1,157.500006008148,10|0,0:1|0:0,0:0:0:0:
72,320,46810,38,2,L|75:361,1,42,2|0,0:1|0:0,0:1:0:0:
104,148,47050,2,2,L|107:106,1,42,2|0,0:1|0:0,0:1:0:0:
239,229,47290,6,0,P|334:270|437:259,1,210.000008010865,6|0,0:0|0:0,0:0:0:0:
512,72,47530,2,0,P|408:61|313:102,1,210.000008010865,10|0,0:0|0:0,0:0:0:0:
156,336,47770,2,0,P|93:213|152:40,1,315.000012016297,2|0,0:0|0:0,0:0:0:0:
431,183,48010,54,0,P|438:221|436:260,1,77,6|0,1:0|0:0,0:0:0:0:
27,263,48730,6,0,P|79:321|155:335,1,157.500006008148,4|0,0:0|0:0,0:0:0:0:
232,312,48970,5,4,3:0:0:0:
228,292,49030,1,0,0:0:0:0:
232,260,49090,5,4,3:0:0:0:
228,240,49150,1,0,0:0:0:0:
236,208,49210,5,4,3:0:0:0:
232,188,49270,1,0,0:0:0:0:
240,156,49330,21,4,3:0:0:0:
140,52,49450,6,0,L|349:66,1,210.000008010865,4|0,0:3|0:0,0:0:0:0:
441,297,49690,2,0,L|231:311,1,210.000008010865,4|0,0:3|0:0,0:0:0:0:
88,224,49930,6,0,P|64:172|84:88,1,105.000004005432,2|0,0:0|0:0,0:0:0:0:
139,51,50170,2,0,L|244:60,1,105.000004005432,2|0,0:0|0:0,0:0:0:0:
192,151,50410,2,0,L|296:142,1,105.000004005432,2|0,0:0|0:0,0:0:0:0:
356,240,50650,5,8,0:0:0:0:
351,54,50770,1,8,0:0:0:0:
192,151,50890,1,8,0:0:0:0:
410,139,51010,2,0,P|448:72|448:24,1,105.000004005432,8|8,0:3|0:3,0:0:0:0:
296,142,51250,1,2,0:3:0:0:
356,240,51370,22,0,P|437:255|497:214,1,140,4|0,0:0|0:0,0:0:0:0:
410,139,51730,1,0,0:0:0:0:
274,228,51850,2,0,P|291:294|352:324,1,140,8|0,0:0|0:0,0:0:0:0:
325,90,52330,6,0,P|249:78|188:109,1,140
90,200,52690,1,0,0:0:0:0:
90,200,52810,2,0,L|93:269,1,70,8|8,0:0|0:0,0:0:0:0:
209,334,53050,2,0,L|212:264,1,70,8|8,0:0|0:0,0:0:0:0:
304,72,53290,5,2,0:0:0:0:
324,312,53410,1,2,0:0:0:0:
424,48,53530,6,0,L|414:257,1,210.000008010865,6|0,0:0|0:0,0:0:0:0:
112,24,53770,2,0,L|121:233,1,210.000008010865,10|0,0:0|0:0,0:0:0:0:
480,304,54010,21,2,0:0:0:0:
192,320,54130,1,2,0:0:0:0:
472,320,54250,21,10,0:0:0:0:
184,304,54370,1,2,0:0:0:0:
304,48,54490,1,0,0:0:0:0:
304,48,54610,6,0,P|199:45|95:63,1,210.000008010865,2|8,0:0|0:0,0:0:0:0:
240,224,54850,2,0,P|135:226|31:208,1,210.000008010865,2|0,0:0|0:0,0:0:0:0:
389,238,55090,1,2,0:0:0:0:
389,238,55210,2,0,P|374:134|395:32,1,210.000008010865,10|0,0:0|0:0,0:0:0:0:
456,344,55450,22,0,L|232:336,1,210.000008010865,2|0,0:0|0:0,0:0:0:0:
296,152,55690,2,0,L|72:160,1,210.000008010865,10|0,0:0|0:0,0:0:0:0:
48,312,55930,5,2,0:0:0:0:
60,52,56050,1,2,0:0:0:0:
64,316,56170,5,10,0:0:0:0:
52,56,56290,2,0,P|176:32|280:56,1,210.000008010865,2|0,0:0|0:0,0:0:0:0:
380,296,56530,1,2,0:0:0:0:
380,296,56650,6,0,L|372:86,1,210.000008010865,10|0,0:0|0:0,0:0:0:0:
156,136,56890,2,0,L|163:345,1,210.000008010865
472,344,57130,2,0,L|479:134,1,210.000008010865,8|0,0:0|0:0,0:0:0:0:
104,56,57370,22,0,P|204:37|324:36,1,210.000008010865,2|0,0:0|0:0,0:0:0:0:
40,208,57610,2,0,P|140:226|260:228,1,210.000008010865,10|0,0:0|0:0,0:0:0:0:
400,36,57850,5,2,0:0:0:0:
384,280,57970,1,2,0:0:0:0:
388,40,58090,5,10,0:0:0:0:
404,284,58210,1,2,0:0:0:0:
184,175,58330,1,0,0:0:0:0:
184,175,58450,6,0,L|168:384,1,210.000008010865,2|8,0:0|0:0,0:0:0:0:
20,124,58690,2,0,L|36:333,1,210.000008010865,2|0,0:0|0:0,0:0:0:0:
288,104,58930,1,2,0:0:0:0:
288,104,59050,2,0,L|272:313,1,210.000008010865,10|0,0:0|0:0,0:0:0:0:
20,124,59290,22,0,P|136:68|232:56,1,210.000008010865,2|0,0:0|0:0,0:0:0:0:
280,328,59530,2,0,P|177:308|84:260,1,210.000008010865,10|0,0:0|0:0,0:0:0:0:
360,36,59770,5,2,0:0:0:0:
396,288,59890,1,2,0:0:0:0:
380,48,60010,5,10,0:0:0:0:
376,300,60130,1,2,0:0:0:0:
20,124,60250,6,0,L|196:132,1,140,4|0,0:0|0:0,0:0:0:0:
417,214,60490,1,2,0:0:0:0:
159,298,60610,1,2,0:0:0:0:
319,78,60730,21,8,0:1:0:0:
319,350,60850,1,2,0:0:0:0:
159,130,60970,1,8,0:0:0:0:
417,214,61090,1,4,0:0:0:0:
159,298,61210,1,4,1:0:0:0:
