osu file format v14

[General]
AudioFilename: audio.mp3
AudioLeadIn: 0
PreviewTime: 27130
Countdown: 0
SampleSet: Normal
StackLeniency: 0.7
Mode: 0
LetterboxInBreaks: 0
WidescreenStoryboard: 0

[Editor]
DistanceSpacing: 1.2
BeatDivisor: 4
GridSize: 4
TimelineZoom: 4.099998

[Metadata]
Title:Caramelo da desgraca
TitleUnicode:Caramelo da desgraça
Artist:Mestre3224
ArtistUnicode:Mestre3224
Creator:Tarrasky
Version:HARD
Source:
Tags:speedcore mlp my little pony ytpmv youtube poop mv caramelldansen weezer buddy holly NEDM
BeatmapID:1347670
BeatmapSetID:634870

[Difficulty]
HPDrainRate:5
CircleSize:3.5
OverallDifficulty:5
ApproachRate:8
SliderMultiplier:1.3
SliderTickRate:1

[Events]
//Background and Video events
0,0,"extratalinda.jpg",0,0
//Break Periods
2,41249,41980
//Storyboard Layer 0 (Background)
//Storyboard Layer 1 (Fail)
//Storyboard Layer 2 (Pass)
//Storyboard Layer 3 (Foreground)
//Storyboard Sound Samples

[TimingPoints]
10.2202805264478,240,4,1,0,20,1,0
250,-100,4,1,0,20,0,0
490,-100,4,1,0,40,0,0
1930,-100,4,1,0,90,0,0
2170,-100,4,1,0,60,0,0
2650,240,4,1,0,70,1,0
3370,-100,4,2,0,70,0,0
3610,-100,4,1,0,70,0,0
11050,-100,4,1,0,100,0,0
11290,-100,4,2,0,60,0,0
25930,-100,4,2,0,40,0,0
27130,-100,4,1,0,60,0,0
27610,-100,4,1,0,60,0,1
30730,-100,4,2,0,30,0,0
30970,-100,4,1,0,60,0,0
31930,-100,4,1,0,60,0,1
33130,-100,4,1,0,60,0,0
35290,-100,4,1,0,60,0,1
36370,-100,4,2,0,40,0,1
36970,-100,4,1,0,60,0,0
39490,-100,4,2,0,50,0,0
40450,-100,4,3,0,70,0,0
41050,-100,4,2,0,40,0,0
42970,-100,4,1,0,60,0,1
43690,-100,4,2,0,60,0,0
43930,-100,4,1,0,60,0,1
44410,-100,4,2,0,40,0,0
44890,-100,4,1,0,60,0,1
46330,-100,4,2,0,40,0,0
46810,-100,4,2,0,70,0,0
47290,-100,4,1,0,60,0,1
48010,-100,4,2,0,60,0,0
48970,-100,4,2,0,30,0,0
49090,-100,4,2,0,40,0,0
49210,-100,4,2,0,50,0,0
49330,-100,4,2,0,60,0,0
49450,-100,4,1,0,60,0,1
49930,-100,4,2,0,60,0,0
53290,-100,4,1,0,70,0,0
53530,-100,4,1,0,70,0,1
60250,-100,4,3,0,60,0,0

[Colours]
Combo1 : 168,168,255
Combo2 : 0,0,255
Combo3 : 128,128,255
Combo4 : 0,0,128

[HitObjects]
64,103,10,6,0,P|126:87|188:103,1,130
292,184,490,2,0,L|288:332,1,130,2|0,0:0|0:0,0:0:0:0:
416,340,970,2,0,L|420:264,1,65,2|0,0:0|0:0,0:0:0:0:
424,196,1210,1,2,0:0:0:0:
352,108,1450,6,0,P|300:88|252:96,1,97.5
228,108,1690,2,0,L|232:184,1,65
235,250,1930,1,2,0:0:0:0:
96,316,2170,5,4,0:0:0:0:
60,164,2410,2,0,L|64:88,1,65
128,56,2650,2,0,P|184:48|212:56,1,65
260,84,2890,2,0,P|316:92|344:84,1,65,8|0,0:0|0:0,0:0:0:0:
400,68,3130,2,0,L|404:228,1,130,0|4,0:0|3:0,0:0:0:0:
320,328,3610,6,0,P|257:344|195:328,1,130,4|0,0:0|0:0,0:0:0:0:
128,288,3970,1,0,0:0:0:0:
128,288,4090,2,0,L|132:132,1,130,8|2,0:3|0:3,0:0:0:0:
256,63,4570,6,0,P|319:52|381:70,1,130,0|8,0:0|0:0,0:0:0:0:
436,124,4930,1,0,0:0:0:0:
436,124,5050,2,0,P|454:185|442:249,1,130,0|8,0:0|0:0,0:0:0:0:
392,312,5410,6,0,L|252:308,1,130
195,347,5770,2,0,P|184:317|186:285,1,65,4|0,0:3|0:0,0:0:0:0:
216,212,6010,2,0,P|227:181|225:149,1,65,4|0,0:3|0:0,0:0:0:0:
192,80,6250,1,2,0:0:0:0:
52,144,6490,6,0,L|44:288,1,130
188,336,6970,2,0,P|256:348|328:324,1,130,8|8,0:0|0:0,0:0:0:0:
408,208,7450,2,2,P|424:144|308:184,1,260
404,304,8170,1,2,0:0:0:0:
256,252,8410,6,0,L|152:248,2,97.5,2|2|2,0:0|0:0|0:0,0:0:0:0:
308,192,8890,2,0,P|324:144|320:104,1,65,8|0,0:0|0:0,0:0:0:0:
304,56,9130,1,2,0:0:0:0:
304,56,9250,2,0,L|228:60,2,65,8|4|0,0:0|0:3|0:0,0:0:0:0:
172,96,9610,6,0,L|96:92,1,65,8|4,0:0|0:3,0:0:0:0:
228,152,9850,2,0,P|235:183|235:216,1,65,2|2,0:0|0:0,0:0:0:0:
212,292,10090,2,0,P|212:324|219:356,1,65,10|0,0:0|0:0,0:0:0:0:
296,336,10330,6,0,B|360:336|360:336|396:360,2,97.5,2|2|2,0:0|0:0|0:0,0:0:0:0:
320,260,10810,2,0,L|408:260,2,65,0|2|0,0:0|0:0|0:0,0:0:0:0:
180,192,11290,6,0,P|179:159|183:127,1,65,2|0,0:0|0:0,0:0:0:0:
108,120,11530,2,0,P|118:89|133:60,1,65,2|0,0:0|0:0,0:0:0:0:
204,24,11770,1,2,0:0:0:0:
408,84,12250,6,0,P|387:109|362:129,1,65,6|0,0:0|0:0,0:0:0:0:
424,179,12490,2,0,P|396:195|365:206,1,65,2|0,0:0|0:0,0:0:0:0:
404,276,12730,2,0,P|372:282|339:281,1,65,2|0,0:0|0:0,0:0:0:0:
355,359,12970,2,0,P|322:354|292:342,1,65,2|0,0:0|0:0,0:0:0:0:
224,304,13210,6,0,L|228:236,1,65,2|0,0:0|0:0,0:0:0:0:
152,248,13450,2,0,L|155:183,1,65,2|0,0:0|0:0,0:0:0:0:
80,188,13690,2,0,L|84:120,1,65,2|0,0:0|0:0,0:0:0:0:
132,60,13930,2,0,P|188:48|248:64,1,97.5,2|0,0:0|0:0,0:0:0:0:
260,72,14170,6,0,P|290:81|322:77,2,65,2|0|2,0:0|0:0|0:0,0:0:0:0:
196,134,14530,2,0,P|173:156|160:185,2,65,2|0|2,0:0|0:0|0:0,0:0:0:0:
236,200,14890,6,0,L|299:214,1,65,2|0,0:0|0:0,0:0:0:0:
368,256,15130,2,0,L|432:247,1,65,2|0,0:0|0:0,0:0:0:0:
420,168,15370,2,0,L|477:138,1,65,2|0,0:0|0:0,0:0:0:0:
432,72,15610,2,0,L|475:24,1,65,2|0,0:0|0:0,0:0:0:0:
372,24,15850,2,0,L|328:71,1,65,2|0,0:0|0:0,0:0:0:0:
280,136,16090,6,0,L|277:200,1,65,4|0,0:3|0:3,0:0:0:0:
336,253,16330,2,0,L|292:301,1,65,4|0,0:3|0:3,0:0:0:0:
222,264,16570,2,0,L|157:272,1,65,4|0,0:3|0:3,0:0:0:0:
157,194,16810,2,0,L|102:159,1,65,4|0,0:3|0:3,0:0:0:0:
152,99,17050,2,0,L|176:38,1,65,4|0,0:3|0:3,0:0:0:0:
241,82,17290,2,0,L|304:95,1,65,4|0,0:3|0:3,0:0:0:0:
331,169,17530,2,0,L|327:233,1,65,4|0,0:3|0:0,0:0:0:0:
316,312,17770,6,0,P|259:340|180:344,1,130,4|0,0:3|0:0,0:0:0:0:
124,312,18130,2,0,L|130:229,3,65,4|0|4|0,0:3|0:0|0:3|0:0,0:0:0:0:
203,225,18610,2,0,L|197:142,3,65,4|0|4|0,0:3|0:0|0:3|0:0,0:0:0:0:
272,137,19090,2,0,L|325:171,1,65,4|0,0:3|0:0,0:0:0:0:
384,228,19330,2,0,L|381:292,1,65,4|0,0:3|0:0,0:0:0:0:
316,332,19570,2,0,P|244:352|176:316,1,130,4|0,0:3|0:0,0:0:0:0:
136,284,19930,6,0,L|140:196,1,65,4|4,0:3|0:3,0:0:0:0:
68,180,20170,2,0,L|64:32,1,130,8|8,0:1|0:1,0:0:0:0:
140,72,20530,2,0,P|192:88|228:88,1,65,4|4,0:3|0:3,0:0:0:0:
280,84,20770,1,8,0:1:0:0:
472,40,21130,6,0,L|468:188,1,130,8|8,0:1|0:1,0:0:0:0:
436,240,21490,2,0,P|484:248|508:236,2,65,4|4|8,0:3|0:3|0:1,0:0:0:0:
364,208,21850,6,0,P|332:200|302:210,1,65,4|4,0:3|0:3,0:0:0:0:
227,235,22090,2,0,P|212:173|221:109,1,130,8|8,0:1|0:1,0:0:0:0:
248,36,22450,2,0,L|168:40,1,65,4|4,0:3|0:3,0:0:0:0:
104,44,22690,1,8,0:1:0:0:
68,276,23050,6,0,P|128:296|191:281,1,130,8|8,0:1|0:1,0:0:0:0:
264,252,23410,2,0,P|326:237|387:257,1,130,8|8,0:1|0:1,0:0:0:0:
460,288,23770,6,0,L|464:204,1,65,4|4,0:3|0:3,0:0:0:0:
404,172,24010,2,0,L|400:32,1,130,8|8,0:1|0:1,0:0:0:0:
324,24,24370,2,0,P|284:40|260:64,1,65,4|4,0:3|0:3,0:0:0:0:
216,112,24610,1,8,0:1:0:0:
92,308,24970,6,0,L|88:178,1,130,8|8,0:1|0:1,0:0:0:0:
132,112,25330,2,0,L|136:44,2,65,4|4|8,0:3|0:3|0:1,0:0:0:0:
167,179,25690,6,0,P|196:194|229:194,1,65,4|4,0:3|0:3,0:0:0:0:
304,164,25930,2,0,L|307:293,1,130,8|0,0:1|0:0,0:0:0:0:
384,320,26290,2,0,L|388:224,1,65,8|0,0:1|0:0,0:0:0:0:
392,176,26530,1,8,0:0:0:0:
92,336,27130,6,0,L|88:256,1,65,2|0,0:0|0:0,0:0:0:0:
136,208,27370,2,0,L|139:143,1,65,10|0,0:0|0:0,0:0:0:0:
168,68,27610,6,0,P|240:52|308:68,1,130,6|10,0:0|0:0,0:0:0:0:
412,168,28090,2,0,P|418:199|418:232,1,65,2|2,0:0|0:0,0:0:0:0:
364,288,28330,2,0,P|333:278|305:261,1,65,10|2,0:0|0:0,0:0:0:0:
252,208,28570,6,0,L|108:216,1,130,2|10,0:0|0:0,0:0:0:0:
36,344,29050,2,0,L|100:347,1,65,2|2,0:0|0:0,0:0:0:0:
168,308,29290,2,0,L|232:304,1,65,10|2,0:0|0:0,0:0:0:0:
304,332,29530,5,0,0:0:0:0:
448,276,29770,1,10,0:0:0:0:
392,132,30010,1,2,0:0:0:0:
248,188,30250,1,10,0:0:0:0:
304,332,30490,6,0,B|236:344|236:344|172:324,1,130,6|0,0:0|0:0,0:0:0:0:
248,188,30970,2,0,L|404:180,1,130,2|0,0:0|0:0,0:0:0:0:
456,48,31450,6,0,L|391:44,1,65,2|2,0:0|0:0,0:0:0:0:
332,96,31690,2,0,L|267:99,1,65,8|2,0:0|0:0,0:0:0:0:
196,72,31930,6,0,L|48:64,1,130,2|10,0:0|0:0,0:0:0:0:
36,220,32410,2,0,L|165:212,2,130,2|10|2,0:0|0:0|0:0,0:0:0:0:
140,336,33130,1,2,0:0:0:0:
296,348,33370,6,0,L|299:283,1,65,2|2,0:0|0:0,0:0:0:0:
376,260,33610,2,0,L|379:324,1,65,0|2,0:0|0:0,0:0:0:0:
460,328,33850,2,0,L|464:172,1,130,4|0,0:0|0:0,0:0:0:0:
376,68,34330,1,0,0:0:0:0:
308,108,34450,6,0,P|256:120|184:88,1,130
132,36,34810,2,0,P|140:92|104:232,1,195,2|0,0:0|0:0,0:0:0:0:
56,284,35290,6,0,L|188:288,1,130,2|10,0:0|0:0,0:0:0:0:
264,288,35650,1,0,0:0:0:0:
264,288,35770,2,0,P|296:244|288:148,1,130,2|8,0:0|0:0,0:0:0:0:
256,104,36130,2,0,L|392:92,1,130
448,140,36490,2,0,P|460:170|465:202,1,65,2|0,0:0|0:0,0:0:0:0:
468,280,36730,2,0,P|462:312|450:342,1,65,2|0,0:0|0:0,0:0:0:0:
372,360,36970,1,2,0:0:0:0:
220,324,37210,6,0,L|224:184,1,130,2|8,0:0|0:1,0:0:0:0:
108,88,37690,2,2,B|75:83|75:83|32:92,2,65
76,240,38170,5,4,0:2:0:0:
372,335,38650,2,0,P|379:304|378:272,1,65,2|0,0:0|0:0,0:0:0:0:
356,196,38890,2,0,P|348:164|349:132,1,65,2|2,0:0|0:0,0:0:0:0:
380,60,39130,2,0,P|317:77|240:64,1,130
180,40,39490,1,0,0:0:0:0:
52,128,39730,6,0,L|48:204,1,65,2|0,0:0|0:0,0:0:0:0:
12,260,39970,2,0,L|16:348,2,65,2|0|2,0:0|0:0|0:0,0:0:0:0:
156,200,40450,2,0,P|240:196|140:280,1,325,4|0,0:0|0:0,0:0:0:0:
392,76,42730,6,0,L|396:144,1,65,8|2,0:0|0:0,0:0:0:0:
396,220,42970,2,0,P|340:244|276:220,1,130,2|8,0:0|0:0,0:0:0:0:
176,104,43450,2,0,L|180:8,1,65,2|0,0:0|0:0,0:0:0:0:
44,228,43930,5,2,0:0:0:0:
160,312,44170,1,8,0:0:0:0:
312,280,44410,2,0,L|308:136,1,130,2|2,0:0|0:0,0:0:0:0:
440,68,44890,6,0,L|436:197,1,130,2|10,0:0|0:0,0:0:0:0:
404,268,45250,1,0,0:0:0:0:
368,335,45370,2,0,P|308:357|252:328,1,130,2|8,0:0|0:0,0:0:0:0:
216,260,45730,6,0,P|156:238|100:267,1,130,2|0,0:0|0:0,0:0:0:0:
28,300,46090,2,0,L|24:212,1,65,10|0,0:0|0:0,0:0:0:0:
52,160,46330,6,0,L|56:24,1,130,2|2,0:0|0:0,0:0:0:0:
180,124,46810,1,2,0:0:0:0:
308,36,47050,1,2,0:0:0:0:
460,80,47290,6,0,P|472:136|456:224,1,130,2|10,0:0|0:0,0:0:0:0:
412,268,47650,1,0,0:0:0:0:
336,284,47770,2,0,L|240:280,1,65,2|0,0:0|0:0,0:0:0:0:
192,292,48010,6,0,P|124:316|188:156,1,390,4|4,0:3|0:1,0:0:0:0:
304,216,48970,6,0,L|368:222,1,65,4|0,0:3|0:0,0:0:0:0:
400,148,49210,2,0,L|335:141,1,65,4|0,0:3|0:0,0:0:0:0:
320,64,49450,2,0,L|180:72,1,130,4|0,0:3|0:0,0:0:0:0:
55,148,49930,6,0,P|48:179|48:211,1,65,2|0,0:0|0:0,0:0:0:0:
76,284,50170,2,0,P|140:316|216:308,1,130,2|2,0:0|0:0,0:0:0:0:
332,236,50650,1,8,0:0:0:0:
476,292,50890,2,0,L|472:368,2,65
384,164,51370,6,0,L|376:24,1,130,4|0,0:0|0:0,0:0:0:0:
232,96,51850,2,0,L|224:225,1,130,8|0,0:0|0:0,0:0:0:0:
127,348,52330,2,0,P|65:338|29:286,1,130
44,132,52810,2,0,P|83:82|146:77,1,130,8|8,0:0|0:0,0:0:0:0:
292,128,53290,2,0,P|323:133|355:127,1,65,8|0,0:0|0:0,0:0:0:0:
424,92,53530,6,0,L|432:240,1,130,2|10,0:0|0:0,0:0:0:0:
304,316,54010,2,0,L|239:322,1,65,2|2,0:0|0:0,0:0:0:0:
244,244,54250,2,0,L|179:237,1,65,10|2,0:0|0:0,0:0:0:0:
24,220,54610,5,2,0:0:0:0:
12,64,54850,1,2,0:0:0:0:
152,132,55090,1,2,0:0:0:0:
152,132,55210,2,0,P|183:137|216:135,1,65,2|0,0:0|0:0,0:0:0:0:
292,120,55450,6,0,L|284:260,1,130,2|10,0:0|0:0,0:0:0:0:
412,336,55930,2,0,P|444:335|476:331,1,65,2|2,0:0|0:0,0:0:0:0:
504,256,56170,1,2,0:0:0:0:
468,188,56290,6,0,P|456:136|472:56,1,130,2|2,0:0|0:0,0:0:0:0:
404,20,56650,2,0,P|364:56|287:82,1,130,10|2,0:0|0:0,0:0:0:0:
136,64,57130,1,8,0:0:0:0:
200,208,57370,6,0,L|196:348,1,130,2|10,0:0|0:0,0:0:0:0:
352,320,57850,2,0,L|348:255,1,65,2|2,0:0|0:0,0:0:0:0:
424,268,58090,2,0,L|427:203,1,65,10|2,0:0|0:0,0:0:0:0:
436,48,58450,5,2,0:0:0:0:
296,116,58690,1,2,0:0:0:0:
152,60,58930,1,2,0:0:0:0:
152,60,59050,2,0,L|156:136,1,65,2|0,0:0|0:0,0:0:0:0:
164,204,59290,6,0,P|116:228|36:208,1,130,2|10,0:0|0:0,0:0:0:0:
124,348,59770,2,0,L|192:344,1,65,2|2,0:0|0:0,0:0:0:0:
260,308,60010,1,10,0:0:0:0:
260,308,60130,2,0,L|328:312,1,65,2|4,0:0|0:3,0:0:0:0:
424,191,60490,6,0,P|437:162|439:130,1,65,8|8,0:0|0:0,0:0:0:0:
380,80,60730,2,0,P|347:83|318:97,1,65,8|4,0:0|0:0,0:0:0:0:
304,172,60970,2,0,P|322:198|349:216,1,65,2|2,0:0|0:0,0:0:0:0:
424,192,61210,5,4,0:1:0:0:
