osu file format v14

[General]
AudioFilename: audio.mp3
AudioLeadIn: 0
PreviewTime: 2650
Countdown: 0
SampleSet: None
StackLeniency: 0.7
Mode: 3
LetterboxInBreaks: 0
SpecialStyle: 0
WidescreenStoryboard: 1

[Editor]
DistanceSpacing: 1.2
BeatDivisor: 4
GridSize: 4
TimelineZoom: 2.899998

[Metadata]
Title:Caramelo da desgraca
TitleUnicode:Caramelo da desgraça
Artist:Mestre3224
ArtistUnicode:Mestre3224
Creator:Niko_Plays
Version:hexe's Hard
Source:
Tags:hexe vincus maxim-miau electronic swedish stole my samples mashcore hardcore breakcore buddy holly weezer caramelldansen nedm brasil brazil portuguese caramella girls
BeatmapID:4096310
BeatmapSetID:1926366

[Difficulty]
HPDrainRate:7
CircleSize:4
OverallDifficulty:7
ApproachRate:5
SliderMultiplier:1.4
SliderTickRate:1

[Events]
//Background and Video events
0,0,"o.jpg",0,0
//Break Periods
//Storyboard Layer 0 (Background)
//Storyboard Layer 1 (Fail)
//Storyboard Layer 2 (Pass)
//Storyboard Layer 3 (Foreground)
//Storyboard Layer 4 (Overlay)
//Storyboard Sound Samples

[TimingPoints]
10,240,4,1,1,100,1,0
2650,240,4,1,1,100,1,0
51370,240,4,1,1,100,1,0
53530,240,4,1,1,100,1,0

[HitObjects]
448,192,10,5,0,0:0:0:0:
320,192,10,1,0,0:0:0:0:
192,192,250,1,0,0:0:0:0:
448,192,490,1,0,0:0:0:0:
320,192,490,1,0,0:0:0:0:
192,192,730,1,0,0:0:0:0:
64,192,730,1,0,0:0:0:0:
448,192,970,5,0,0:0:0:0:
320,192,970,1,0,0:0:0:0:
64,192,1090,1,0,0:0:0:0:
448,192,1210,1,0,0:0:0:0:
64,192,1450,1,0,0:0:0:0:
192,192,1450,1,0,0:0:0:0:
64,192,1930,1,0,0:0:0:0:
448,192,2170,128,0,2410:0:0:0:0:
320,192,2170,128,0,2410:0:0:0:0:
64,192,2410,128,0,2650:0:0:0:0:
448,192,2650,1,0,0:0:0:0:
320,192,2710,1,0,0:0:0:0:
64,192,2770,1,0,0:0:0:0:
192,192,2890,1,0,0:0:0:0:
320,192,3010,1,0,0:0:0:0:
448,192,3130,1,0,0:0:0:0:
320,192,3250,1,0,0:0:0:0:
64,192,3370,128,0,3610:0:0:0:0:
320,192,3610,128,0,3850:0:0:0:0:
448,192,3610,128,0,3850:0:0:0:0:
64,192,3850,1,0,0:0:0:0:
192,192,3910,1,0,0:0:0:0:
448,192,3970,1,0,0:0:0:0:
320,192,4030,1,0,0:0:0:0:
64,192,4090,1,0,0:0:0:0:
192,192,4090,1,0,0:0:0:0:
448,192,4210,1,0,0:0:0:0:
320,192,4330,1,0,0:0:0:0:
192,192,4330,1,0,0:0:0:0:
64,192,4450,1,0,0:0:0:0:
320,192,4570,1,0,0:0:0:0:
448,192,4570,1,0,0:0:0:0:
64,192,4810,1,0,0:0:0:0:
448,192,4810,1,0,0:0:0:0:
320,192,4930,1,0,0:0:0:0:
64,192,5050,1,0,0:0:0:0:
192,192,5050,1,0,0:0:0:0:
448,192,5170,1,0,0:0:0:0:
192,192,5290,1,0,0:0:0:0:
64,192,5290,1,0,0:0:0:0:
320,192,5410,1,0,0:0:0:0:
64,192,5530,1,0,0:0:0:0:
192,192,5530,1,0,0:0:0:0:
320,192,5650,1,0,0:0:0:0:
64,192,5770,1,0,0:0:0:0:
448,192,5770,1,0,0:0:0:0:
192,192,5890,1,0,0:0:0:0:
320,192,6010,1,0,0:0:0:0:
448,192,6010,1,0,0:0:0:0:
64,192,6250,1,0,0:0:0:0:
448,192,6250,1,0,0:0:0:0:
64,192,6490,1,0,0:0:0:0:
192,192,6490,1,0,0:0:0:0:
448,192,6610,1,0,0:0:0:0:
192,192,6730,1,0,0:0:0:0:
64,192,6730,1,0,0:0:0:0:
320,192,6850,1,0,0:0:0:0:
192,192,6970,1,0,0:0:0:0:
64,192,6970,1,0,0:0:0:0:
448,192,7090,1,0,0:0:0:0:
64,192,7210,1,0,0:0:0:0:
192,192,7330,1,0,0:0:0:0:
64,192,7450,1,0,0:0:0:0:
448,192,7450,1,0,0:0:0:0:
192,192,7690,1,0,0:0:0:0:
320,192,7690,1,0,0:0:0:0:
64,192,7930,1,0,0:0:0:0:
448,192,8050,1,0,0:0:0:0:
192,192,8170,1,0,0:0:0:0:
320,192,8290,1,0,0:0:0:0:
448,192,8410,1,0,0:0:0:0:
448,192,8590,1,0,0:0:0:0:
448,192,8770,1,0,0:0:0:0:
192,192,9010,1,0,0:0:0:0:
320,192,9130,1,0,0:0:0:0:
448,192,9250,1,0,0:0:0:0:
192,192,9850,1,0,0:0:0:0:
64,192,9970,1,0,0:0:0:0:
192,192,10090,1,0,0:0:0:0:
320,192,10210,1,0,0:0:0:0:
448,192,10330,1,0,0:0:0:0:
448,192,10510,1,0,0:0:0:0:
448,192,10690,1,0,0:0:0:0:
64,192,10810,1,0,0:0:0:0:
320,192,11050,1,0,0:0:0:0:
320,192,11170,1,0,0:0:0:0:
64,192,11290,1,0,0:0:0:0:
448,192,11410,1,0,0:0:0:0:
64,192,11530,1,0,0:0:0:0:
448,192,11650,1,0,0:0:0:0:
64,192,11770,1,0,0:0:0:0:
320,192,11890,1,0,0:0:0:0:
192,192,12010,1,0,0:0:0:0:
320,192,12250,1,0,0:0:0:0:
448,192,12250,128,0,12370:0:0:0:0:
192,192,12490,1,0,0:0:0:0:
64,192,12610,1,0,0:0:0:0:
192,192,12730,1,0,0:0:0:0:
320,192,12850,1,0,0:0:0:0:
448,192,12970,1,0,0:0:0:0:
192,192,13090,1,0,0:0:0:0:
64,192,13210,1,0,0:0:0:0:
320,192,13330,1,0,0:0:0:0:
448,192,13450,1,0,0:0:0:0:
192,192,13570,1,0,0:0:0:0:
320,192,13690,1,0,0:0:0:0:
64,192,13810,1,0,0:0:0:0:
192,192,13930,1,0,0:0:0:0:
448,192,14050,1,0,0:0:0:0:
320,192,14110,1,0,0:0:0:0:
192,192,14170,1,0,0:0:0:0:
64,192,14290,1,0,0:0:0:0:
320,192,14410,1,0,0:0:0:0:
192,192,14530,1,0,0:0:0:0:
448,192,14650,1,0,0:0:0:0:
64,192,14770,1,0,0:0:0:0:
320,192,14890,1,0,0:0:0:0:
192,192,15010,1,0,0:0:0:0:
320,192,15130,1,0,0:0:0:0:
64,192,15250,1,0,0:0:0:0:
192,192,15370,1,0,0:0:0:0:
320,192,15490,1,0,0:0:0:0:
448,192,15610,1,0,0:0:0:0:
192,192,15730,1,0,0:0:0:0:
64,192,15850,1,0,0:0:0:0:
448,192,15970,1,0,0:0:0:0:
320,192,16090,1,0,0:0:0:0:
192,192,16090,1,0,0:0:0:0:
64,192,16210,1,0,0:0:0:0:
320,192,16330,1,0,0:0:0:0:
448,192,16450,1,0,0:0:0:0:
192,192,16570,1,0,0:0:0:0:
448,192,16690,1,0,0:0:0:0:
192,192,16810,1,0,0:0:0:0:
320,192,16930,1,0,0:0:0:0:
64,192,17050,1,0,0:0:0:0:
448,192,17170,1,0,0:0:0:0:
64,192,17290,1,0,0:0:0:0:
320,192,17410,1,0,0:0:0:0:
448,192,17530,1,0,0:0:0:0:
320,192,17650,1,0,0:0:0:0:
192,192,17770,1,0,0:0:0:0:
448,192,17890,1,0,0:0:0:0:
320,192,18010,1,0,0:0:0:0:
192,192,18130,1,0,0:0:0:0:
64,192,18130,1,0,0:0:0:0:
64,192,18370,1,0,0:0:0:0:
192,192,18610,1,0,0:0:0:0:
320,192,18850,1,0,0:0:0:0:
448,192,18850,1,0,0:0:0:0:
448,192,19090,1,0,0:0:0:0:
320,192,19330,1,0,0:0:0:0:
192,192,19450,1,0,0:0:0:0:
448,192,19570,1,0,0:0:0:0:
192,192,19690,1,0,0:0:0:0:
64,192,19810,1,0,0:0:0:0:
320,192,19930,1,0,0:0:0:0:
448,192,19930,1,0,0:0:0:0:
192,192,20050,1,0,0:0:0:0:
448,192,20170,1,0,0:0:0:0:
192,192,20290,1,0,0:0:0:0:
320,192,20410,1,0,0:0:0:0:
64,192,20530,1,0,0:0:0:0:
448,192,20650,1,0,0:0:0:0:
64,192,20770,128,0,21010:0:0:0:0:
448,192,21010,1,0,0:0:0:0:
192,192,21130,1,0,0:0:0:0:
320,192,21250,1,0,0:0:0:0:
448,192,21370,1,0,0:0:0:0:
320,192,21490,1,0,0:0:0:0:
192,192,21610,1,0,0:0:0:0:
320,192,21850,1,0,0:0:0:0:
320,192,22090,1,0,0:0:0:0:
192,192,22210,1,0,0:0:0:0:
448,192,22330,1,0,0:0:0:0:
320,192,22450,1,0,0:0:0:0:
192,192,22570,1,0,0:0:0:0:
64,192,22690,128,0,22930:0:0:0:0:
448,192,22930,1,0,0:0:0:0:
320,192,22990,1,0,0:0:0:0:
192,192,23050,1,0,0:0:0:0:
64,192,23170,1,0,0:0:0:0:
448,192,23290,1,0,0:0:0:0:
320,192,23410,1,0,0:0:0:0:
64,192,23530,1,0,0:0:0:0:
448,192,23650,1,0,0:0:0:0:
64,192,23770,1,0,0:0:0:0:
192,192,23770,1,0,0:0:0:0:
320,192,23890,1,0,0:0:0:0:
192,192,24010,1,0,0:0:0:0:
448,192,24130,1,0,0:0:0:0:
64,192,24250,1,0,0:0:0:0:
448,192,24370,1,0,0:0:0:0:
64,192,24490,1,0,0:0:0:0:
192,192,24610,1,0,0:0:0:0:
320,192,24730,1,0,0:0:0:0:
192,192,24850,1,0,0:0:0:0:
64,192,24970,1,0,0:0:0:0:
448,192,25090,1,0,0:0:0:0:
64,192,25210,1,0,0:0:0:0:
448,192,25330,1,0,0:0:0:0:
192,192,25450,1,0,0:0:0:0:
64,192,25570,1,0,0:0:0:0:
192,192,25690,1,0,0:0:0:0:
192,192,25930,1,0,0:0:0:0:
448,192,26050,1,0,0:0:0:0:
64,192,26170,1,0,0:0:0:0:
448,192,26290,1,0,0:0:0:0:
64,192,26410,1,0,0:0:0:0:
320,192,26530,1,0,0:0:0:0:
64,192,26650,128,0,27130:0:0:0:0:
192,192,26650,1,0,0:0:0:0:
448,192,27130,1,0,0:0:0:0:
320,192,27250,1,0,0:0:0:0:
64,192,27370,1,0,0:0:0:0:
448,192,27490,1,0,0:0:0:0:
192,192,27610,1,0,0:0:0:0:
64,192,27610,1,0,0:0:0:0:
320,192,27730,1,0,0:0:0:0:
448,192,27850,1,0,0:0:0:0:
64,192,27970,1,0,0:0:0:0:
448,192,28090,1,0,0:0:0:0:
320,192,28150,1,0,0:0:0:0:
64,192,28210,1,0,0:0:0:0:
192,192,28270,1,0,0:0:0:0:
448,192,28330,1,0,0:0:0:0:
320,192,28330,1,0,0:0:0:0:
192,192,28450,1,0,0:0:0:0:
64,192,28570,1,0,0:0:0:0:
448,192,28570,1,0,0:0:0:0:
320,192,28690,1,0,0:0:0:0:
192,192,28810,1,0,0:0:0:0:
64,192,28810,1,0,0:0:0:0:
320,192,28930,1,0,0:0:0:0:
64,192,29050,1,0,0:0:0:0:
192,192,29110,1,0,0:0:0:0:
448,192,29170,1,0,0:0:0:0:
320,192,29230,1,0,0:0:0:0:
192,192,29290,1,0,0:0:0:0:
64,192,29290,1,0,0:0:0:0:
448,192,29410,1,0,0:0:0:0:
192,192,29530,1,0,0:0:0:0:
320,192,29530,1,0,0:0:0:0:
64,192,29650,1,0,0:0:0:0:
192,192,29770,1,0,0:0:0:0:
320,192,29770,1,0,0:0:0:0:
448,192,29890,1,0,0:0:0:0:
192,192,30010,1,0,0:0:0:0:
320,192,30010,1,0,0:0:0:0:
64,192,30130,1,0,0:0:0:0:
448,192,30250,1,0,0:0:0:0:
320,192,30250,1,0,0:0:0:0:
192,192,30370,1,0,0:0:0:0:
64,192,30370,1,0,0:0:0:0:
320,192,30490,1,0,0:0:0:0:
448,192,30490,1,0,0:0:0:0:
192,192,30610,1,0,0:0:0:0:
320,192,30790,1,0,0:0:0:0:
64,192,30910,1,0,0:0:0:0:
192,192,30970,1,0,0:0:0:0:
448,192,31030,1,0,0:0:0:0:
64,192,31090,128,0,31330:0:0:0:0:
320,192,31090,1,0,0:0:0:0:
448,192,31330,128,0,31450:0:0:0:0:
320,192,31450,1,0,0:0:0:0:
192,192,31570,1,0,0:0:0:0:
448,192,31690,1,0,0:0:0:0:
64,192,31690,1,0,0:0:0:0:
320,192,31810,1,0,0:0:0:0:
64,192,31930,1,0,0:0:0:0:
192,192,31930,1,0,0:0:0:0:
320,192,32050,1,0,0:0:0:0:
448,192,32170,1,0,0:0:0:0:
64,192,32170,1,0,0:0:0:0:
192,192,32290,1,0,0:0:0:0:
448,192,32410,1,0,0:0:0:0:
320,192,32410,1,0,0:0:0:0:
448,192,32650,1,0,0:0:0:0:
192,192,32650,1,0,0:0:0:0:
448,192,32890,1,0,0:0:0:0:
64,192,32890,1,0,0:0:0:0:
192,192,33130,1,0,0:0:0:0:
448,192,33250,1,0,0:0:0:0:
64,192,33370,1,0,0:0:0:0:
448,192,33490,1,0,0:0:0:0:
64,192,33610,1,0,0:0:0:0:
320,192,33670,1,0,0:0:0:0:
192,192,33730,1,0,0:0:0:0:
448,192,33850,128,0,34450:0:0:0:0:
64,192,34450,1,0,0:0:0:0:
192,192,34570,1,0,0:0:0:0:
320,192,34690,1,0,0:0:0:0:
448,192,34810,128,0,35290:0:0:0:0:
64,192,35290,1,0,0:0:0:0:
64,192,35530,1,0,0:0:0:0:
448,192,35650,1,0,0:0:0:0:
64,192,35770,1,0,0:0:0:0:
448,192,36130,1,0,0:0:0:0:
64,192,36370,1,0,0:0:0:0:
448,192,36490,1,0,0:0:0:0:
64,192,36610,1,0,0:0:0:0:
448,192,36730,1,0,0:0:0:0:
64,192,36970,1,0,0:0:0:0:
192,192,37030,1,0,0:0:0:0:
448,192,37090,1,0,0:0:0:0:
320,192,37150,1,0,0:0:0:0:
192,192,37210,1,0,0:0:0:0:
64,192,37210,1,0,0:0:0:0:
320,192,37330,1,0,0:0:0:0:
448,192,37330,1,0,0:0:0:0:
192,192,37450,1,0,0:0:0:0:
64,192,37450,1,0,0:0:0:0:
448,192,37570,1,0,0:0:0:0:
64,192,37690,1,0,0:0:0:0:
320,192,37810,1,0,0:0:0:0:
64,192,37930,128,0,38170:0:0:0:0:
320,192,38170,1,0,0:0:0:0:
448,192,38170,128,0,38650:0:0:0:0:
64,192,38650,1,0,0:0:0:0:
192,192,38770,1,0,0:0:0:0:
320,192,38890,1,0,0:0:0:0:
448,192,39010,1,0,0:0:0:0:
64,192,39070,1,0,0:0:0:0:
192,192,39130,1,0,0:0:0:0:
320,192,39370,1,0,0:0:0:0:
448,192,39370,1,0,0:0:0:0:
64,192,39490,1,0,0:0:0:0:
320,192,39730,1,0,0:0:0:0:
192,192,39790,1,0,0:0:0:0:
64,192,39850,1,0,0:0:0:0:
448,192,39850,1,0,0:0:0:0:
320,192,39970,1,0,0:0:0:0:
64,192,40090,1,0,0:0:0:0:
192,192,40210,1,0,0:0:0:0:
448,192,40330,1,0,0:0:0:0:
192,192,40450,1,0,0:0:0:0:
64,192,40450,128,0,41050:0:0:0:0:
64,192,42730,1,0,0:0:0:0:
448,192,42730,1,0,0:0:0:0:
320,192,42850,1,0,0:0:0:0:
192,192,42970,1,0,0:0:0:0:
64,192,42970,1,0,0:0:0:0:
448,192,43090,1,0,0:0:0:0:
192,192,43210,1,0,0:0:0:0:
64,192,43210,1,0,0:0:0:0:
320,192,43330,1,0,0:0:0:0:
448,192,43450,1,0,0:0:0:0:
64,192,43450,1,0,0:0:0:0:
320,192,43570,1,0,0:0:0:0:
320,192,43930,1,0,0:0:0:0:
448,192,43930,1,0,0:0:0:0:
64,192,44050,1,0,0:0:0:0:
448,192,44170,1,0,0:0:0:0:
320,192,44170,1,0,0:0:0:0:
192,192,44290,1,0,0:0:0:0:
320,192,44410,1,0,0:0:0:0:
448,192,44410,1,0,0:0:0:0:
192,192,44530,1,0,0:0:0:0:
64,192,44650,1,0,0:0:0:0:
448,192,44650,1,0,0:0:0:0:
64,192,44890,1,0,0:0:0:0:
192,192,44890,1,0,0:0:0:0:
320,192,45010,1,0,0:0:0:0:
448,192,45130,1,0,0:0:0:0:
64,192,45130,1,0,0:0:0:0:
192,192,45250,1,0,0:0:0:0:
448,192,45370,1,0,0:0:0:0:
320,192,45370,1,0,0:0:0:0:
320,192,45610,1,0,0:0:0:0:
448,192,45610,1,0,0:0:0:0:
192,192,45730,1,0,0:0:0:0:
320,192,45850,1,0,0:0:0:0:
448,192,45850,1,0,0:0:0:0:
64,192,45970,1,0,0:0:0:0:
192,192,46090,1,0,0:0:0:0:
448,192,46210,1,0,0:0:0:0:
64,192,46330,1,0,0:0:0:0:
448,192,46570,1,0,0:0:0:0:
320,192,46690,1,0,0:0:0:0:
64,192,46810,1,0,0:0:0:0:
320,192,47290,1,0,0:0:0:0:
448,192,47290,1,0,0:0:0:0:
192,192,47530,1,0,0:0:0:0:
448,192,47770,128,0,48250:0:0:0:0:
64,192,48250,128,0,48730:0:0:0:0:
320,192,48730,1,0,0:0:0:0:
448,192,48730,1,0,0:0:0:0:
64,192,49210,1,0,0:0:0:0:
192,192,49270,1,0,0:0:0:0:
448,192,49330,1,0,0:0:0:0:
192,192,49450,1,0,0:0:0:0:
64,192,49450,1,0,0:0:0:0:
320,192,49570,1,0,0:0:0:0:
64,192,49690,1,0,0:0:0:0:
192,192,49690,1,0,0:0:0:0:
448,192,49930,1,0,0:0:0:0:
320,192,49930,1,0,0:0:0:0:
192,192,50050,1,0,0:0:0:0:
320,192,50170,1,0,0:0:0:0:
64,192,50290,5,0,0:0:0:0:
192,192,50410,1,0,0:0:0:0:
320,192,50530,1,0,0:0:0:0:
192,192,50650,5,0,0:0:0:0:
320,192,50770,1,0,0:0:0:0:
64,192,50890,1,0,0:0:0:0:
448,192,51010,1,0,0:0:0:0:
192,192,51130,1,0,0:0:0:0:
448,192,51250,1,0,0:0:0:0:
64,192,51370,5,0,0:0:0:0:
192,192,51370,1,0,0:0:0:0:
64,192,51730,1,0,0:0:0:0:
320,192,51850,1,0,0:0:0:0:
448,192,51850,1,0,0:0:0:0:
448,192,52090,1,0,0:0:0:0:
192,192,52330,1,0,0:0:0:0:
64,192,52330,1,0,0:0:0:0:
64,192,52690,1,0,0:0:0:0:
320,192,52810,1,0,0:0:0:0:
448,192,52810,1,0,0:0:0:0:
448,192,53050,1,0,0:0:0:0:
64,192,53290,1,0,0:0:0:0:
192,192,53410,1,0,0:0:0:0:
320,192,53530,1,0,0:0:0:0:
448,192,53530,1,0,0:0:0:0:
64,192,53770,1,0,0:0:0:0:
192,192,53770,1,0,0:0:0:0:
64,192,54010,1,0,0:0:0:0:
448,192,54130,1,0,0:0:0:0:
64,192,54250,1,0,0:0:0:0:
448,192,54370,1,0,0:0:0:0:
320,192,54610,1,0,0:0:0:0:
192,192,54850,1,0,0:0:0:0:
320,192,55090,1,0,0:0:0:0:
192,192,55210,1,0,0:0:0:0:
64,192,55450,1,0,0:0:0:0:
192,192,55450,1,0,0:0:0:0:
320,192,55690,1,0,0:0:0:0:
448,192,55690,1,0,0:0:0:0:
64,192,55930,1,0,0:0:0:0:
448,192,56050,1,0,0:0:0:0:
64,192,56170,1,0,0:0:0:0:
448,192,56290,5,0,0:0:0:0:
192,192,56530,1,0,0:0:0:0:
320,192,56650,1,0,0:0:0:0:
64,192,56890,1,0,0:0:0:0:
192,192,57130,1,0,0:0:0:0:
448,192,57370,5,0,0:0:0:0:
320,192,57370,1,0,0:0:0:0:
192,192,57610,1,0,0:0:0:0:
64,192,57610,1,0,0:0:0:0:
448,192,57850,1,0,0:0:0:0:
64,192,57970,1,0,0:0:0:0:
448,192,58090,1,0,0:0:0:0:
64,192,58210,1,0,0:0:0:0:
320,192,58450,1,0,0:0:0:0:
192,192,58690,1,0,0:0:0:0:
320,192,58930,1,0,0:0:0:0:
192,192,59050,1,0,0:0:0:0:
64,192,59290,1,0,0:0:0:0:
192,192,59290,1,0,0:0:0:0:
320,192,59530,1,0,0:0:0:0:
448,192,59530,1,0,0:0:0:0:
64,192,59770,1,0,0:0:0:0:
448,192,59890,1,0,0:0:0:0:
64,192,60010,1,0,0:0:0:0:
448,192,60130,1,0,0:0:0:0:
192,192,60370,1,0,0:0:0:0:
320,192,60490,1,0,0:0:0:0:
64,192,60610,1,0,0:0:0:0:
448,192,60730,1,0,0:0:0:0:
192,192,60850,1,0,0:0:0:0:
64,192,60970,1,0,0:0:0:0:
448,192,60970,1,0,0:0:0:0:
320,192,61090,1,0,0:0:0:0:
192,192,61210,1,0,0:0:0:0:
64,192,61210,1,0,0:0:0:0:
