osu file format v14

[General]
AudioFilename: audio.mp3
AudioLeadIn: 0
PreviewTime: 2650
Countdown: 0
SampleSet: Soft
StackLeniency: 0.4
Mode: 0
LetterboxInBreaks: 0
WidescreenStoryboard: 1

[Editor]
Bookmarks: 10580,12260,27620,35300,38180,40460,42980,61220,65300
DistanceSpacing: 1.2
BeatDivisor: 8
GridSize: 4
TimelineZoom: 2.140001

[Metadata]
Title:Caramelo da desgraca
TitleUnicode:Caramelo da desgraça
Artist:Mestre3224
ArtistUnicode:Mestre3224
Creator:Mismagius
Version:Ultra
Source:
Tags:stole my samples mashcore hardcore breakcore buddy holly weezer caramelldansen NEDM brasil brazil portuguese
BeatmapID:1696136
BeatmapSetID:754401

[Difficulty]
HPDrainRate:5.5
CircleSize:4
OverallDifficulty:9
ApproachRate:9.6
SliderMultiplier:1.8
SliderTickRate:1

[Events]
//Background and Video events
0,0,"wallhaven-92.jpg",0,0
//Break Periods
//Storyboard Layer 0 (Background)
//Storyboard Layer 1 (Fail)
//Storyboard Layer 2 (Pass)
//Storyboard Layer 3 (Foreground)
//Storyboard Sound Samples

[TimingPoints]
10,240,4,2,1,70,1,0
10,-200,4,2,1,70,0,0
250,-142.857142857143,4,2,1,70,0,0
490,-58.8235294117647,4,2,1,70,0,0
610,-58.8235294117647,4,2,1,20,0,0
730,-58.8235294117647,4,2,1,70,0,0
850,-58.8235294117647,4,2,1,20,0,0
970,-58.8235294117647,4,2,1,70,0,0
1690,-142.857142857143,4,2,1,20,0,0
1930,-76.9230769230769,4,2,1,70,0,0
2170,-58.8235294117647,4,2,1,70,0,0
2410,-71.4285714285714,4,2,1,70,0,0
2650,240,4,2,1,70,1,0
3130,-52.6315789473684,4,2,1,70,0,0
3370,-166.666666666667,4,2,1,70,0,0
3550,-166.666666666667,4,2,1,20,0,0
3610,-58.8235294117647,4,2,1,70,0,0
3850,-58.8235294117647,4,2,1,50,0,0
4090,-58.8235294117647,4,2,1,70,0,0
4570,-52.6315789473684,4,2,1,70,0,0
5050,-58.8235294117647,4,2,1,70,0,0
6250,-76.9230769230769,4,2,1,70,0,0
6490,-52.6315789473684,4,2,1,70,0,0
8290,-52.6315789473684,4,2,1,50,0,0
8410,-100,4,2,1,70,0,0
11890,-200,4,2,1,40,0,0
15490,-200,4,2,1,30,0,0
15730,-200,4,2,1,20,0,0
16090,-100,4,2,1,40,0,0
17770,-200,4,2,1,20,0,0
18010,-200,4,2,1,30,0,0
18610,-200,4,2,1,40,0,0
18730,-200,4,2,1,50,0,0
18850,-200,4,2,1,60,0,0
18970,-200,4,2,1,70,0,0
19930,-83.3333333333333,4,2,1,70,0,0
20770,-200,4,2,1,70,0,0
21130,-83.3333333333333,4,2,1,70,0,0
22690,-200,4,2,1,70,0,0
23170,-83.3333333333333,4,2,1,70,0,0
26530,-200,4,2,1,55,0,0
26560,-200,4,2,1,5,0,0
26830,-200,4,2,1,25,0,0
26890,-200,4,2,1,45,0,0
26950,-200,4,2,1,65,0,0
27610,-58.8235294117647,4,2,1,85,0,0
29050,-52.6315789473684,4,2,1,85,0,0
29530,-58.8235294117647,4,2,1,85,0,0
30730,-100,4,2,1,85,0,0
31330,-58.8235294117647,4,2,1,85,0,0
31570,-100,4,2,1,85,0,0
31930,-62.5,4,2,1,85,0,0
32410,-100,4,2,1,30,0,0
32530,-100,4,2,1,60,0,0
32650,-100,4,2,1,30,0,0
32770,-100,4,2,1,60,0,0
32890,-100,4,2,1,30,0,0
33010,-142.857142857143,4,2,1,60,0,0
33850,-52.6315789473684,4,2,1,85,0,0
35050,-100,4,2,1,85,0,0
35290,-58.8235294117647,4,2,1,85,0,0
36490,-52.6315789473684,4,2,1,85,0,0
37570,-66.6666666666667,4,2,1,85,0,0
38170,-52.6315789473684,4,2,1,85,0,0
38890,-58.8235294117647,4,2,1,85,0,0
39490,-100,4,2,1,65,0,0
40450,-58.8235294117647,4,2,1,65,0,0
42970,-58.8235294117647,4,2,1,85,0,0
44410,-100,4,2,1,65,0,0
44890,-58.8235294117647,4,2,1,85,0,0
46330,-100,4,2,1,65,0,0
46570,-142.857142857143,4,2,1,65,0,0
46810,-100,4,2,1,65,0,0
47290,-58.8235294117647,4,2,1,85,0,0
48010,-125,4,2,1,65,0,0
49210,-125,4,2,1,55,0,0
49450,-58.8235294117647,4,2,1,85,0,0
49930,-100,4,2,1,65,0,0
51370,240,4,2,1,70,1,0
51370,-142.857142857143,4,2,1,70,0,0
53530,240,4,2,1,90,1,0
53530,-58.8235294117647,4,2,1,90,0,0
60970,-100,4,2,1,70,0,0
61270,-100,4,2,1,5,0,0

[Colours]
Combo1 : 255,255,0
Combo2 : 128,255,0
Combo3 : 0,255,255
Combo4 : 128,0,255
Combo5 : 255,0,6

[HitObjects]
237,243,10,6,0,L|242:296,1,45,2|0,3:0|0:0,0:0:0:0:
389,327,250,2,0,L|396:250,1,62.9999980773926,2|0,3:0|0:0,0:0:0:0:
132,169,490,6,0,L|146:329,1,153.000002918243,2|0,0:0|0:0,0:0:0:0:
106,151,730,6,0,L|119:307,1,153.000002918243,2|0,0:0|0:0,0:0:0:0:
80,133,970,6,0,L|93:286,1,153.000002918243,2|0,0:0|0:0,0:0:0:0:
213,343,1150,1,0,0:0:0:0:
213,343,1210,6,0,B|271:352|271:352|291:329|291:329|353:338,1,153.000002918243,2|0,0:0|0:0,0:0:0:0:
427,383,1390,1,0,0:0:0:0:
427,383,1450,6,0,P|429:302|379:257,1,153.000002918243,2|0,0:0|0:0,0:0:0:0:
271,174,1690,6,0,P|255:130|254:107,1,62.9999980773926,0|0,3:0|0:0,0:0:0:0:
271,174,1930,6,0,P|192:198|115:144,1,175.499991966248,2|0,0:0|0:0,0:0:0:0:
46,12,2170,6,0,L|20:244,1,229.500004377365,4|0,1:1|0:0,0:0:0:0:
138,337,2410,6,0,B|200:356|200:356|268:325,1,125.999996154785,2|0,3:0|0:0,0:0:0:0:
470,216,2650,5,0,1:0:0:0:
470,216,2710,1,0,1:0:0:0:
470,216,2770,1,0,1:0:0:0:
388,378,2890,1,2,0:0:0:0:
359,198,3010,1,0,0:0:0:0:
488,326,3130,1,2,0:0:0:0:
308,298,3250,1,0,0:0:0:0:
470,216,3370,6,0,P|476:155|458:115,1,80.9999975280763,2|0,3:0|0:0,0:0:0:0:
370,38,3610,6,0,B|299:33|299:33|222:99|222:99|156:92,1,229.500004377365,4|0,1:2|0:0,0:0:0:0:
34,51,3850,5,0,1:0:0:0:
31,73,3910,1,0,1:0:0:0:
28,95,3970,1,0,1:0:0:0:
25,117,4030,1,0,1:0:0:0:
22,139,4090,5,8,1:1:0:0:
123,373,4210,1,0,0:0:0:0:
165,93,4330,5,14,3:3:0:0:
266,327,4450,1,0,0:0:0:0:
331,17,4570,6,0,L|400:182,1,170.999995433808,2|0,1:2|0:0,0:0:0:0:
491,384,4810,1,2,0:0:0:0:
266,327,4930,1,0,0:0:0:0:
474,151,5050,6,0,P|487:118|488:74,1,76.5000014591217,0|0,1:0|0:0,0:0:0:0:
397,174,5170,2,0,P|361:179|323:200,1,76.5000014591217,0|0,1:0|0:0,0:0:0:0:
455,229,5290,2,0,P|477:256|514:279,2,76.5000014591217,0|0|0,1:0|0:0|0:0,0:0:0:0:
272,58,5530,6,0,L|110:76,1,153.000002918243,2|0,1:2|0:0,0:0:0:0:
0,381,5770,1,2,1:2:0:0:
211,199,5890,1,8,0:0:0:0:
0,199,6010,1,8,0:0:0:0:
211,381,6130,1,8,0:0:0:0:
422,199,6250,6,0,B|448:113|381:112|418:29,1,175.499991966248,2|0,0:0|0:0,0:0:0:0:
487,79,6490,5,2,1:2:0:0:
211,199,6610,1,0,0:0:0:0:
512,327,6730,5,2,1:2:0:0:
236,207,6850,1,0,0:0:0:0:
418,29,6970,5,10,0:0:0:0:
418,29,7030,1,0,0:0:0:0:
418,29,7090,1,2,0:0:0:0:
364,314,7210,1,10,0:0:0:0:
284,65,7330,1,10,0:0:0:0:
230,350,7450,6,0,P|170:358|73:310,1,170.999995433807,0|8,1:2|1:0,0:0:0:0:
344,167,7690,2,0,P|404:159|501:207,1,170.999995433807,4|8,1:2|1:0,0:0:0:0:
230,350,7930,5,8,2:1:0:0:
152,140,8050,1,4,3:0:0:0:
362,62,8170,1,4,2:2:0:0:
440,272,8290,1,0,1:0:0:0:
152,140,8410,6,0,L|51:157,1,90,0|0,1:0|0:0,0:0:0:0:
198,221,8650,2,0,L|97:238,1,90,0|0,1:0|0:0,0:0:0:0:
286,116,8890,5,8,1:0:0:0:
286,116,9010,1,0,0:0:0:0:
289,102,9070,1,0,0:0:0:0:
291,88,9130,2,0,P|290:58|286:37,1,45,0|0,0:0|0:0,0:0:0:0:
367,0,9250,1,8,1:0:0:0:
449,207,9370,5,4,3:0:0:0:
276,142,9490,1,2,0:0:0:0:
262,143,9550,1,0,0:0:0:0:
248,144,9610,1,2,0:0:0:0:
234,145,9670,1,0,0:0:0:0:
220,147,9730,1,4,3:0:0:0:
110,221,9850,1,2,0:0:0:0:
96,222,9910,1,0,0:0:0:0:
82,224,9970,1,4,3:0:0:0:
16,357,10090,5,4,1:2:0:0:
101,101,10210,1,2,0:0:0:0:
281,303,10330,6,0,L|382:320,1,90,0|0,1:0|1:0,0:0:0:0:
480,180,10570,1,8,1:0:0:0:
480,180,10690,1,2,0:0:0:0:
483,166,10750,1,0,0:0:0:0:
485,152,10810,2,0,P|484:122|480:101,1,45,2|0,0:0|0:0,0:0:0:0:
355,37,10930,1,8,1:0:0:0:
281,184,11050,2,0,L|235:191,1,45,2|0,0:0|0:0,0:0:0:0:
269,208,11170,2,0,L|223:215,1,45,2|0,0:0|0:0,0:0:0:0:
257,232,11290,6,0,L|161:246,1,90,6|2,3:0|0:0,0:0:0:0:
0,350,11530,2,0,L|95:364,1,90,6|2,3:3|0:0,0:0:0:0:
257,232,11770,1,6,0:0:0:0:
32,178,11890,1,8,0:1:0:0:
32,178,11950,1,0,0:0:0:0:
32,178,12010,1,8,0:1:0:0:
32,178,12070,1,0,0:0:0:0:
32,178,12130,1,8,0:1:0:0:
32,178,12190,1,0,0:0:0:0:
32,178,12250,6,0,L|46:124,1,45,4|0,1:2|0:0,0:0:0:0:
178,191,12490,2,0,L|169:135,1,45,2|0,0:0|0:0,0:0:0:0:
317,145,12730,1,0,0:0:0:0:
317,145,12850,2,0,L|287:97,1,45,0|0,0:0|0:0,0:0:0:0:
426,48,13090,2,0,L|380:15,1,45,2|0,0:0|0:0,0:0:0:0:
450,241,13330,6,0,L|495:273,1,45,2|2,0:0|0:0,0:0:0:0:
263,206,13570,2,0,L|217:173,1,45
353,330,13810,1,0,0:0:0:0:
391,126,13930,1,2,0:0:0:0:
205,293,14050,1,0,0:0:0:0:
205,293,14110,1,0,0:0:0:0:
205,293,14170,6,0,P|177:295|153:291,1,45,2|0,0:0|0:0,0:0:0:0:
15,109,14410,2,0,P|43:107|67:111,1,45,2|0,0:0|0:0,0:0:0:0:
263,161,14650,1,0,0:0:0:0:
79,351,14770,2,0,P|77:323|81:299,1,45
263,161,15010,1,2,0:0:0:0:
263,161,15130,5,0,0:0:0:0:
388,188,15250,1,2,0:0:0:0:
361,313,15370,1,0,0:0:0:0:
236,286,15490,1,0,0:0:0:0:
270,173,15610,5,0,0:0:0:0:
375,195,15730,1,0,0:0:0:0:
353,300,15850,1,0,0:0:0:0:
248,278,15970,1,0,0:0:0:0:
387,69,16090,6,0,L|497:56,1,90,2|0,0:0|0:0,0:0:0:0:
173,167,16330,2,0,L|63:154,1,90,2|0,0:0|0:0,0:0:0:0:
353,300,16570,1,0,3:2:0:0:
379,296,16690,1,2,0:0:0:0:
405,293,16810,1,0,3:0:0:0:
431,290,16930,1,2,0:0:0:0:
494,103,17050,6,0,L|507:-7,1,90,0|2,3:0|0:0,0:0:0:0:
240,193,17290,2,0,L|253:303,1,90,0|2,3:0|0:0,0:0:0:0:
306,48,17530,1,0,3:0:0:0:
280,44,17650,1,2,0:0:0:0:
254,41,17770,1,2,0:0:0:0:
51,17,17890,1,0,0:0:0:0:
51,17,17950,1,0,0:0:0:0:
51,17,18010,6,0,P|46:64|47:76,1,45,2|0,0:0|3:0,0:0:0:0:
190,175,18250,1,0,0:0:0:0:
63,287,18370,2,0,P|58:240|59:228,1,45,2|2,0:0|3:2,0:0:0:0:
190,175,18610,2,0,P|195:128|194:116,1,45,2|2,0:0|3:2,0:0:0:0:
63,287,18850,1,2,0:0:0:0:
290,308,18970,5,0,0:0:0:0:
123,341,19090,1,2,3:2:0:0:
306,322,19210,1,0,0:0:0:0:
139,355,19330,1,2,0:0:0:0:
190,175,19450,5,0,0:0:0:0:
394,214,19570,1,2,0:0:0:0:
212,155,19690,1,0,0:0:0:0:
417,194,19810,1,2,0:0:0:0:
139,357,19930,6,0,P|116:302|117:246,1,107.999996704102,0|0,1:0|1:0,0:0:0:0:
212,12,20170,1,8,0:1:0:0:
287,222,20290,1,2,0:0:0:0:
287,222,20350,1,0,0:0:0:0:
287,222,20410,1,2,0:0:0:0:
73,124,20530,1,0,1:0:0:0:
73,124,20650,1,0,1:0:0:0:
303,49,20770,6,0,B|348:43|348:43|394:55,1,90,8|0,0:1|0:0,0:0:0:0:
481,162,21130,5,8,2:1:0:0:
475,177,21190,1,0,0:0:0:0:
478,192,21250,1,2,0:0:0:0:
472,207,21310,1,0,0:0:0:0:
475,222,21370,2,0,P|477:282|442:343,1,107.999996704102,2|0,0:0|1:0,0:0:0:0:
192,269,21610,2,0,P|190:209|225:148,1,107.999996704102,0|8,1:0|0:1,0:0:0:0:
437,83,21850,5,0,1:0:0:0:
361,244,21970,1,0,1:0:0:0:
285,5,22090,1,8,0:1:0:0:
209,166,22210,1,2,0:0:0:0:
209,166,22270,1,0,0:0:0:0:
209,166,22330,2,0,L|149:176,1,53.9999983520508,2|0,0:0|0:0,0:0:0:0:
54,190,22450,5,0,1:0:0:0:
54,190,22570,1,0,1:0:0:0:
193,278,22690,6,0,B|236:289|236:289|281:283,1,90,8|2,0:1|0:0,0:0:0:0:
304,280,22990,1,0,0:0:0:0:
304,280,23050,1,8,0:1:0:0:
407,200,23170,5,2,0:0:0:0:
410,184,23230,1,0,0:0:0:0:
409,167,23290,1,2,0:0:0:0:
403,151,23350,1,0,0:0:0:0:
394,137,23410,1,8,0:1:0:0:
286,71,23530,1,2,0:0:0:0:
277,57,23590,1,0,0:0:0:0:
271,41,23650,1,2,0:0:0:0:
270,24,23710,1,0,0:0:0:0:
273,8,23770,6,0,L|390:25,1,107.999996704102,2|0,1:2|0:0,0:0:0:0:
167,141,24010,2,0,L|284:158,1,107.999996704102,8|2,1:1|0:0,0:0:0:0:
437,367,24250,2,0,L|320:384,1,107.999996704102,2|0,0:0|1:0,0:0:0:0:
331,234,24490,2,0,L|214:251,1,107.999996704102,0|8,1:0|1:1,0:0:0:0:
469,217,24730,5,2,0:0:0:0:
443,23,24850,1,2,0:0:0:0:
250,47,24970,1,8,1:1:0:0:
275,242,25090,1,2,0:0:0:0:
469,217,25210,5,2,0:0:0:0:
342,1,25330,1,0,1:0:0:0:
275,242,25450,1,0,1:0:0:0:
148,26,25570,1,8,1:1:0:0:
148,26,25630,1,0,0:0:0:0:
148,26,25690,6,0,P|86:24|34:46,1,107.999996704102,2|0,1:2|1:0,0:0:0:0:
0,302,25930,2,0,P|62:304|114:282,1,107.999996704102,2|2,0:0|0:0,0:0:0:0:
148,26,26170,1,0,1:0:0:0:
20,205,26290,1,8,0:1:0:0:
199,333,26410,1,0,1:0:0:0:
327,154,26530,2,0,L|333:142,16,11.25,8|8|8|8|8|8|8|8|8|8|8|8|8|8|8|8|8,0:1|0:1|0:1|0:1|0:1|0:1|0:1|0:1|0:1|0:1|0:1|0:1|0:1|0:1|0:1|0:1|0:1,0:0:0:0:
287,219,27130,5,2,0:0:0:0:
287,219,27190,1,0,0:0:0:0:
287,219,27250,1,2,0:0:0:0:
441,308,27370,1,10,0:1:0:0:
198,367,27490,1,10,0:1:0:0:
470,295,27610,6,0,P|482:210|455:140,1,153.000002918243,2|0,1:2|0:0,0:0:0:0:
406,93,27790,1,0,0:0:0:0:
406,93,27850,2,0,L|238:77,1,153.000002918243,2|0,1:2|0:0,0:0:0:0:
20,66,28090,1,14,3:0:0:0:
25,88,28150,1,0,0:0:0:0:
30,110,28210,1,14,3:0:0:0:
35,132,28270,1,0,0:0:0:0:
40,154,28330,6,0,P|52:239|25:309,1,153.000002918243,14|2,1:3|0:0,0:0:0:0:
91,353,28510,1,0,0:0:0:0:
91,353,28570,2,0,L|259:337,1,153.000002918243,0|2,1:0|0:0,0:0:0:0:
313,297,28750,1,0,0:0:0:0:
313,297,28810,2,0,L|481:313,1,153.000002918243,2|0,1:2|0:0,0:0:0:0:
500,242,28990,1,0,0:0:0:0:
500,242,29050,6,0,P|496:193|474:153,1,85.4999977169037,0|0,1:0|0:0,0:0:0:0:
266,109,29170,2,0,P|270:158|292:198,1,85.4999977169037,0|0,1:0|0:0,0:0:0:0:
446,63,29290,2,0,P|397:67|357:89,1,85.4999977169037,8|0,1:0|0:0,0:0:0:0:
313,297,29410,2,0,P|362:293|402:271,1,85.4999977169037,2|0,0:0|0:0,0:0:0:0:
266,109,29530,6,0,L|98:93,1,153.000002918243,0|2,1:0|0:0,0:0:0:0:
0,286,29770,2,0,L|168:302,1,153.000002918243,8|2,1:0|0:0,0:0:0:0:
204,363,29950,1,0,0:0:0:0:
204,363,30010,2,0,L|372:379,1,153.000002918243,8|2,1:0|0:0,0:0:0:0:
427,345,30190,1,0,0:0:0:0:
427,345,30250,5,2,0:0:0:0:
492,127,30370,1,0,1:0:0:0:
270,179,30490,2,0,P|179:185|114:138,1,153.000002918243,8|0,1:0|0:0,0:0:0:0:
32,12,30730,6,0,L|20:73,1,45,8|0,0:0|0:0,0:0:0:0:
101,49,30850,2,0,L|89:110,1,45,8|0,0:0|0:0,0:0:0:0:
180,95,30970,1,2,0:0:0:0:
180,95,31030,1,0,0:0:0:0:
180,95,31090,2,0,L|215:101,6,22.5,2|2|2|2|2|2|2,0:0|0:0|0:0|0:0|0:0|0:0|0:0,0:0:0:0:
88,120,31330,5,4,0:0:0:0:
285,61,31450,1,8,0:0:0:0:
307,64,31510,1,0,0:0:0:0:
326,66,31570,2,0,L|380:57,1,45,8|0,0:0|0:0,0:0:0:0:
446,44,31690,5,4,0:0:0:0:
423,258,31810,1,8,1:1:0:0:
228,158,31930,6,0,P|150:149|75:190,1,144,0|2,1:0|0:0,0:0:0:0:
42,229,32110,1,0,0:0:0:0:
42,229,32170,2,0,L|54:307,1,72,14|0,3:0|0:0,0:0:0:0:
124,255,32290,2,0,L|136:333,1,72,14|0,3:0|0:0,0:0:0:0:
206,281,32410,6,0,P|241:296|206:297,1,90,0|0,1:0|0:0,0:0:0:0:
218,288,32650,6,0,P|253:303|218:304,1,90,0|0,1:0|0:0,0:0:0:0:
235,299,32890,6,0,B|301:278|302:330|367:302,1,135,0|0,1:0|0:0,0:0:0:0:
437,270,33130,1,0,0:0:0:0:
437,270,33190,1,0,0:0:0:0:
437,270,33250,1,0,1:0:0:0:
249,199,33370,2,0,P|235:157|238:121,1,62.9999980773926,2|8,0:0|1:0,0:0:0:0:
453,49,33610,1,14,3:3:0:0:
453,49,33670,1,14,0:3:0:0:
453,49,33730,1,14,0:3:0:0:
229,4,33850,6,0,L|38:39,1,170.999995433807,8|8,0:0|0:0,0:0:0:0:
0,166,34090,2,0,B|-5:210|-5:210|12:259,1,85.4999977169037,8|0,0:0|0:0,0:0:0:0:
37,325,34210,1,2,0:0:0:0:
37,325,34270,1,0,0:0:0:0:
37,325,34330,5,8,0:0:0:0:
212,369,34450,1,8,0:0:0:0:
162,198,34570,5,8,0:0:0:0:
118,373,34690,1,8,0:0:0:0:
357,298,34810,1,8,0:0:0:0:
365,273,34870,1,0,0:0:0:0:
370,247,34930,1,8,0:0:0:0:
369,221,34990,1,0,0:0:0:0:
364,195,35050,2,0,P|359:171|344:143,1,45,8|0,0:0|0:0,0:0:0:0:
313,68,35170,1,8,0:0:0:0:
226,238,35290,6,0,L|35:203,1,153.000002918243,4|0,1:2|0:0,0:0:0:0:
249,2,35530,2,0,L|440:37,1,153.000002918243,4|0,1:2|0:0,0:0:0:0:
212,252,35770,6,0,L|21:217,1,153.000002918243,4|0,1:2|0:0,0:0:0:0:
47,138,35950,1,0,0:0:0:0:
47,138,36010,2,0,L|238:173,1,153.000002918243,6|2,1:2|0:0,0:0:0:0:
438,213,36250,6,0,P|469:291|412:238,1,229.500004377365,14|0,0:3|0:0,0:0:0:0:
438,213,36490,6,0,P|477:298|412:238,1,256.499993150711,14|0,0:3|0:0,0:0:0:0:
371,168,36730,1,2,0:0:0:0:
505,119,36850,1,0,0:0:0:0:
321,46,36970,6,0,P|273:47|228:61,1,85.4999977169037,14|14,1:3|1:3,0:0:0:0:
218,289,37090,2,0,P|265:287|311:274,1,85.4999977169037,14|14,1:3|1:3,0:0:0:0:
321,46,37210,5,2,1:1:0:0:
142,12,37330,1,2,1:1:0:0:
262,167,37450,1,2,1:0:0:0:
83,133,37570,1,2,1:0:0:0:
69,147,37630,1,0,0:0:0:0:
57,163,37690,1,2,1:0:0:0:
48,181,37750,1,0,0:0:0:0:
43,200,37810,1,2,1:0:0:0:
142,376,38170,6,0,P|255:128|370:376,1,683.99998173523,4|0,2:0|0:0,0:0:0:0:
256,277,38770,1,2,0:0:0:0:
494,209,38890,1,2,0:0:0:0:
232,294,39010,1,2,0:0:0:0:
232,294,39070,1,0,0:0:0:0:
232,294,39130,6,0,L|70:266,2,153.000002918243,0|0|0,1:0|0:0|1:0,0:0:0:0:
494,209,39490,6,0,P|505:144|464:64,1,135,2|0,2:0|0:0,0:0:0:0:
470,72,39730,1,8,0:0:0:0:
458,65,39790,1,0,0:0:0:0:
445,60,39850,1,8,0:0:0:0:
431,57,39910,1,0,0:0:0:0:
417,56,39970,6,0,L|319:85,1,90,2|8,0:0|0:1,0:0:0:0:
364,188,40210,2,0,L|266:217,1,90,2|8,0:0|0:1,0:0:0:0:
223,352,40450,6,0,P|100:335|332:84,1,765.000014591217,6|0,1:0|3:0,0:0:0:0:
329,81,41290,5,0,3:0:0:0:
329,81,41530,1,0,3:0:0:0:
329,81,41770,1,0,3:0:0:0:
329,81,42010,1,0,3:0:0:0:
332,84,42250,1,0,3:0:0:0:
332,84,42430,6,0,L|372:106,8,38.2500007295609,0|0|2|2|2|2|2|2|2,0:0|0:0|0:0|0:0|0:0|0:0|0:0|0:0|0:0,0:0:0:0:
264,48,42730,2,0,P|199:43|131:95,1,153.000002918243,0|8,1:0|1:0,0:0:0:0:
43,301,42970,5,4,1:2:0:0:
296,208,43090,1,0,0:0:0:0:
296,208,43150,1,0,0:0:0:0:
296,208,43210,2,0,L|462:235,1,153.000002918243,4|0,1:2|0:0,0:0:0:0:
247,384,43450,2,0,L|81:357,1,153.000002918243,2|0,0:0|0:0,0:0:0:0:
15,192,43690,1,2,0:0:0:0:
10,172,43750,1,0,0:0:0:0:
9,152,43810,1,2,0:0:0:0:
11,132,43870,1,0,0:0:0:0:
17,114,43930,6,0,L|183:87,1,153.000002918243,4|0,1:2|0:0,0:0:0:0:
380,251,44170,2,0,L|214:278,1,153.000002918243,4|0,1:2|0:0,0:0:0:0:
17,114,44410,6,0,P|0:71|41:103,1,135,2|0,0:0|0:0,0:0:0:0:
41,102,44650,2,0,B|111:129|103:66|169:90,1,135,8|0,0:0|0:0,0:0:0:0:
236,144,44890,6,0,L|387:119,1,153.000002918243,6|0,1:2|0:0,0:0:0:0:
279,351,45130,2,0,L|127:326,1,153.000002918243,4|0,0:0|0:0,0:0:0:0:
252,128,45370,6,0,L|403:103,1,153.000002918243,6|0,1:2|0:0,0:0:0:0:
263,367,45610,2,0,L|111:342,1,153.000002918243,6|0,1:2|0:0,0:0:0:0:
17,173,45850,6,0,P|5:97|31:20,1,153.000002918243,6|0,1:2|0:0,0:0:0:0:
273,219,46090,2,0,P|285:295|259:372,1,153.000002918243,6|0,1:2|0:0,0:0:0:0:
225,151,46330,6,0,P|267:134|345:177,1,135,2|0,0:0|0:0,0:0:0:0:
352,197,46570,2,0,P|388:197|435:183,1,62.9999980773926,2|0,0:0|0:0,0:0:0:0:
271,40,46810,6,0,B|215:36|215:36|155:87|155:87|104:82,1,180,2|2,0:0|0:0,0:0:0:0:
110,82,47290,6,0,L|134:233,1,153.000002918243,6|0,1:2|0:0,0:0:0:0:
150,310,47470,1,0,0:0:0:0:
150,310,47530,2,0,P|106:324|72:322,1,76.5000014591217,6|0,1:2|0:0,0:0:0:0:
214,255,47650,2,0,P|258:241|292:243,1,76.5000014591217,4|0,0:0|0:0,0:0:0:0:
364,280,47770,1,6,1:2:0:0:
423,124,47890,1,2,0:0:0:0:
496,340,48010,6,0,B|476:388|476:388|456:352|456:352|436:388|436:388|416:352|416:352|400:388|400:388|384:352|384:352|368:384|368:384|300:384|300:384|260:360|272:304,1,432,2|14,0:0|1:0,0:0:0:0:
277,329,49210,1,0,1:0:0:0:
277,329,49270,1,0,1:0:0:0:
277,329,49330,1,0,1:0:0:0:
441,221,49450,6,0,P|461:137|441:67,1,153.000002918243,4|0,2:0|0:0,0:0:0:0:
126,12,49690,2,0,P|106:96|126:166,1,153.000002918243,4|0,2:0|0:0,0:0:0:0:
269,321,49930,5,2,0:0:0:0:
301,229,50050,1,0,0:0:0:0:
209,197,50170,1,2,0:0:0:0:
177,289,50290,1,0,0:0:0:0:
269,321,50410,2,0,P|307:335|356:332,1,90,2|0,0:0|0:0,0:0:0:0:
459,109,50650,5,8,0:1:0:0:
459,109,50770,1,8,0:1:0:0:
475,312,50890,1,8,0:2:0:0:
308,203,51010,5,8,0:1:0:0:
511,187,51130,1,0,1:0:0:0:
286,204,51250,1,14,0:3:0:0:
459,109,51370,6,0,P|468:52|426:-2,1,125.999996154785,4|0,0:0|0:0,0:0:0:0:
388,71,51730,1,0,0:0:0:0:
388,71,51850,2,0,L|311:63,1,62.9999980773926,8|0,0:0|0:0,0:0:0:0:
235,223,52090,2,0,L|312:215,1,62.9999980773926,2|0,0:0|0:0,0:0:0:0:
167,102,52330,6,0,B|104:83|103:131|43:104,1,125.999996154785,2|2,0:3|0:0,0:0:0:0:
77,38,52690,1,0,0:0:0:0:
146,230,52810,6,0,L|135:297,2,62.9999980773926,8|8|8,1:2|0:1|0:0,0:0:0:0:
366,230,53170,1,0,0:0:0:0:
130,211,53290,1,2,0:0:0:0:
382,211,53410,1,4,0:0:0:0:
59,168,53530,6,0,P|39:84|59:14,1,153.000002918243,6|0,1:2|0:0,0:0:0:0:
281,232,53770,2,0,P|301:316|281:386,1,153.000002918243,6|0,1:2|0:0,0:0:0:0:
211,60,54010,1,4,0:0:0:0:
211,60,54130,6,0,P|295:40|365:60,1,153.000002918243,0|2,0:2|1:2,0:0:0:0:
146,325,54370,2,0,P|62:345|-8:325,1,153.000002918243,0|2,0:2|1:2,0:0:0:0:
74,153,54610,1,2,0:0:0:0:
281,232,54730,1,0,1:2:0:0:
205,23,54850,1,2,0:0:0:0:
296,217,54970,5,0,1:2:0:0:
220,38,55090,1,2,1:2:0:0:
141,245,55210,1,2,0:0:0:0:
65,66,55330,1,2,0:0:0:0:
302,105,55450,6,0,L|453:129,1,153.000002918243,0|2,1:0|0:0,0:0:0:0:
193,331,55690,2,0,L|42:307,1,153.000002918243,0|2,1:0|0:0,0:0:0:0:
317,90,55930,1,0,1:0:0:0:
317,90,56050,6,0,L|468:114,1,153.000002918243,2|0,0:0|1:2,0:0:0:0:
178,346,56290,2,0,L|27:322,1,153.000002918243,2|0,0:0|1:2,0:0:0:0:
364,221,56530,1,0,0:0:0:0:
364,221,56590,1,0,0:0:0:0:
364,221,56650,2,0,P|384:305|364:375,1,153.000002918243,0|2,1:0|0:0,0:0:0:0:
30,176,56890,6,0,P|10:92|30:22,1,153.000002918243,0|2,1:0|0:0,0:0:0:0:
105,34,57070,1,0,0:0:0:0:
105,34,57130,2,0,L|256:58,1,153.000002918243,0|2,1:0|0:0,0:0:0:0:
488,196,57370,6,0,P|508:280|488:350,1,153.000002918243,0|2,1:0|0:0,0:0:0:0:
108,180,57610,2,0,P|88:96|108:26,1,153.000002918243,0|2,1:0|0:0,0:0:0:0:
503,181,57850,1,0,0:0:0:0:
503,181,57970,6,0,P|523:265|503:335,1,153.000002918243,0|2,1:0|0:2,0:0:0:0:
93,195,58210,2,0,P|73:111|93:41,1,153.000002918243,2|0,0:2|1:2,0:0:0:0:
331,271,58450,1,0,1:0:0:0:
72,301,58570,1,2,0:0:0:0:
262,384,58690,1,2,0:0:0:0:
217,140,58810,5,0,1:0:0:0:
262,384,58930,1,2,0:0:0:0:
320,69,59050,1,2,1:2:0:0:
107,186,59170,1,0,0:0:0:0:
331,271,59290,6,0,L|482:247,1,153.000002918243,0|2,1:0|0:0,0:0:0:0:
184,38,59530,2,0,L|33:62,1,153.000002918243,0|2,1:0|0:0,0:0:0:0:
346,286,59770,1,0,0:0:0:0:
346,286,59890,6,0,L|497:262,1,153.000002918243,2|0,0:0|1:0,0:0:0:0:
169,23,60130,2,0,L|18:47,1,153.000002918243,0|2,1:0|0:0,0:0:0:0:
0,211,60370,1,8,1:0:0:0:
184,137,60490,5,0,0:0:0:0:
117,305,60610,1,0,0:0:0:0:
30,91,60730,1,8,0:1:0:0:
184,137,60850,5,0,0:0:0:0:
0,211,60970,1,0,0:0:0:0:
78,18,61090,1,12,0:0:0:0:
117,305,61210,5,14,0:3:0:0:
256,192,61270,12,0,65290,0:0:0:0:
