osu file format v14

[General]
AudioFilename: audio.mp3
AudioLeadIn: 0
PreviewTime: 2650
Countdown: 0
SampleSet: Soft
StackLeniency: 0.2
Mode: 0
LetterboxInBreaks: 0
WidescreenStoryboard: 0

[Editor]
Bookmarks: 10580,12260,27620,35300,38180,40460,42980,61220,65300
DistanceSpacing: 1.2
BeatDivisor: 4
GridSize: 4
TimelineZoom: 2.140001

[Metadata]
Title:Caramelo da desgraca
TitleUnicode:Caramelo da desgraça
Artist:Mestre3224
ArtistUnicode:Mestre3224
Creator:Mismagius
Version:O Maravilhoso Mundo do Caramelo
Source:
Tags:stole my samples mashcore hardcore breakcore buddy holly weezer caramelldansen NEDM brasil brazil portuguese
BeatmapID:1728493
BeatmapSetID:754401

[Difficulty]
HPDrainRate:6
CircleSize:4
OverallDifficulty:9.3
ApproachRate:10
SliderMultiplier:2
SliderTickRate:1

[Events]
//Background and Video events
0,0,"wallhaven-92.jpg",0,0
//Break Periods
//Storyboard Layer 0 (Background)
//Storyboard Layer 1 (Fail)
//Storyboard Layer 2 (Pass)
//Storyboard Layer 3 (Foreground)
//Storyboard Sound Samples

[TimingPoints]
10,240,4,2,1,70,1,0
10,-200,4,2,1,70,0,0
250,-142.857142857143,4,2,1,70,0,0
490,-58.8235294117647,4,2,1,70,0,0
610,-58.8235294117647,4,2,1,20,0,0
730,-58.8235294117647,4,2,1,70,0,0
850,-58.8235294117647,4,2,1,20,0,0
970,-58.8235294117647,4,2,1,70,0,0
1690,-142.857142857143,4,2,1,20,0,0
1930,-76.9230769230769,4,2,1,70,0,0
2170,-58.8235294117647,4,2,1,70,0,0
2410,-71.4285714285714,4,2,1,70,0,0
2650,240,4,2,1,70,1,0
3130,-52.6315789473684,4,2,1,70,0,0
3370,-166.666666666667,4,2,1,70,0,0
3550,-166.666666666667,4,2,1,20,0,0
3610,-58.8235294117647,4,2,1,70,0,0
3850,-58.8235294117647,4,2,1,50,0,0
4090,-58.8235294117647,4,2,1,70,0,0
4570,-52.6315789473684,4,2,1,70,0,0
5050,-58.8235294117647,4,2,1,70,0,0
6250,-76.9230769230769,4,2,1,70,0,0
6490,-52.6315789473684,4,2,1,70,0,0
8290,-52.6315789473684,4,2,1,50,0,0
8410,-100,4,2,1,70,0,0
11890,-200,4,2,1,40,0,0
15490,-200,4,2,1,30,0,0
15730,-200,4,2,1,20,0,0
16090,-100,4,2,1,40,0,0
17770,-200,4,2,1,20,0,0
18010,-200,4,2,1,30,0,0
18610,-200,4,2,1,40,0,0
18730,-200,4,2,1,50,0,0
18850,-200,4,2,1,60,0,0
18970,-200,4,2,1,70,0,0
19930,-83.3333333333333,4,2,1,70,0,0
20770,-200,4,2,1,70,0,0
21130,-83.3333333333333,4,2,1,70,0,0
22690,-200,4,2,1,70,0,0
23170,-83.3333333333333,4,2,1,70,0,0
26530,-200,4,2,1,55,0,0
26560,-200,4,2,1,5,0,0
26830,-200,4,2,1,25,0,0
26890,-200,4,2,1,45,0,0
26950,-200,4,2,1,65,0,0
27610,-58.8235294117647,4,2,1,85,0,0
29050,-52.6315789473684,4,2,1,85,0,0
29530,-58.8235294117647,4,2,1,85,0,0
30730,-100,4,2,1,85,0,0
31330,-58.8235294117647,4,2,1,85,0,0
31570,-100,4,2,1,85,0,0
31930,-62.5,4,2,1,85,0,0
32410,-142.857142857143,4,2,1,30,0,0
32530,-142.857142857143,4,2,1,60,0,0
32650,-142.857142857143,4,2,1,30,0,0
32770,-142.857142857143,4,2,1,60,0,0
32890,-142.857142857143,4,2,1,30,0,0
33010,-142.857142857143,4,2,1,60,0,0
33850,-52.6315789473684,4,2,1,85,0,0
35290,-58.8235294117647,4,2,1,85,0,0
36490,-52.6315789473684,4,2,1,85,0,0
37570,-66.6666666666667,4,2,1,85,0,0
38170,-52.6315789473684,4,2,1,85,0,0
38890,-58.8235294117647,4,2,1,85,0,0
39490,-100,4,2,1,65,0,0
40450,-58.8235294117647,4,2,1,65,0,0
42430,-100,4,2,1,65,0,0
42970,-58.8235294117647,4,2,1,85,0,0
44410,-142.857142857143,4,2,1,65,0,0
44890,-58.8235294117647,4,2,1,85,0,0
46330,-66.6666666666667,4,2,1,65,0,0
46570,-142.857142857143,4,2,1,65,0,0
46810,-200,4,2,1,65,0,0
47290,-58.8235294117647,4,2,1,85,0,0
48010,-125,4,2,1,65,0,0
49210,-125,4,2,1,55,0,0
49450,-58.8235294117647,4,2,1,85,0,0
49930,-100,4,2,1,65,0,0
51370,240,4,2,1,70,1,0
51370,-142.857142857143,4,2,1,70,0,0
53530,240,4,2,1,90,1,0
53530,-58.8235294117647,4,2,1,90,0,0
60970,-100,4,2,1,70,0,0
61270,-100,4,2,1,5,0,0

[Colours]
Combo1 : 255,255,0
Combo2 : 128,255,0
Combo3 : 0,255,255
Combo4 : 128,0,255
Combo5 : 255,0,6

[HitObjects]
40,272,10,6,0,L|46:323,1,50,2|0,3:0|0:0,0:0:0:0:
216,208,250,2,0,L|207:277,1,69.9999978637696,2|0,3:0|0:0,0:0:0:0:
0,76,490,6,0,L|21:249,1,170.000003242493,2|0,0:0|0:0,0:0:0:0:
8,64,730,6,0,L|29:237,1,170.000003242493,2|0,0:0|0:0,0:0:0:0:
20,52,970,6,0,L|41:225,1,170.000003242493,2|0,0:0|0:0,0:0:0:0:
196,344,1150,1,0,0:0:0:0:
208,336,1210,2,0,B|251:304|303:308|331:375|374:363|386:339|382:308|370:288|339:280|319:315,1,255.000004863739,2|0,0:0|0:0,0:0:0:0:
428,376,1450,6,0,P|436:280|304:232,1,255.000004863739,2|0,0:0|0:0,0:0:0:0:
280,248,1690,1,0,3:0:0:0:
360,56,1930,6,0,B|504:72|504:72|456:32,1,194.999991073609,2|0,0:0|0:0,0:0:0:0:
384,176,2170,6,0,B|352:232|368:312|404:348|372:380|372:380|348:320,1,255.000004863739,4|0,1:1|0:0,0:0:0:0:
196,252,2410,6,0,B|121:239|121:239|80:276|80:276|-2:264,1,209.999993591309,2|0,3:0|0:0,0:0:0:0:
24,144,2650,5,0,1:0:0:0:
32,164,2710,1,0,1:0:0:0:
40,184,2770,1,0,1:0:0:0:
208,8,2890,5,2,0:0:0:0:
300,304,3010,1,0,0:0:0:0:
512,108,3130,2,0,L|312:84,1,189.999994926453,2|0,0:0|0:0,0:0:0:0:
24,52,3370,6,0,P|16:88|48:72,1,89.9999972534181,2|0,3:0|0:0,0:0:0:0:
143,21,3610,6,0,B|170:69|152:136|108:162|108:162|86:203|86:203|147:180,1,255.000004863739,4|0,1:2|0:0,0:0:0:0:
280,120,3850,1,0,1:0:0:0:
272,172,3910,1,0,1:0:0:0:
264,224,3970,1,0,1:0:0:0:
256,276,4030,1,0,1:0:0:0:
248,328,4090,5,8,1:1:0:0:
12,208,4210,1,0,0:0:0:0:
360,264,4330,5,14,3:3:0:0:
124,384,4450,1,0,0:0:0:0:
341,75,4570,6,0,L|361:275,1,189.999994926453,2|0,1:2|0:0,0:0:0:0:
64,340,4810,1,2,0:0:0:0:
371,384,4930,1,0,0:0:0:0:
260,35,5050,6,0,B|236:7|204:11|204:11|220:39,1,85.0000016212464,0|0,1:0|0:0,0:0:0:0:
224,111,5170,2,0,B|211:145|231:171|231:171|247:143,1,85.0000016212464,0|0,1:0|0:0,0:0:0:0:
310,104,5290,2,0,B|346:97|358:67|358:67|326:67,1,85.0000016212464,0|0,1:0|0:0,0:0:0:0:
260,35,5410,1,0,0:0:0:0:
76,300,5530,5,2,1:2:0:0:
352,232,5650,1,0,0:0:0:0:
40,196,5770,5,2,1:2:0:0:
352,364,5890,2,0,L|256:384,1,85.0000016212464,8|0,0:0|0:0,0:0:0:0:
76,300,6010,2,0,L|172:280,1,85.0000016212464,8|0,0:0|0:0,0:0:0:0:
332,136,6130,2,0,L|236:156,1,85.0000016212464,8|0,0:0|0:0,0:0:0:0:
76,300,6250,6,0,B|36:320|40:376|40:376|64:376|64:344,1,129.999994049073,2|0,0:0|0:0,0:0:0:0:
124,16,6490,6,0,L|144:216,1,189.999994926453,2|0,1:2|0:0,0:0:0:0:
496,68,6730,2,0,L|476:268,1,189.999994926453,2|0,1:2|0:0,0:0:0:0:
63,349,6970,6,0,L|53:249,1,94.9999974632264,10|0,0:0|0:0,0:0:0:0:
36,108,7090,1,2,0:0:0:0:
376,252,7210,2,0,L|386:152,1,94.9999974632264,10|0,0:0|0:0,0:0:0:0:
403,11,7330,1,10,0:0:0:0:
36,108,7450,5,0,1:2:0:0:
376,252,7570,1,8,1:0:0:0:
128,4,7690,5,4,1:2:0:0:
284,356,7810,1,8,1:0:0:0:
403,11,7930,5,8,2:1:0:0:
488,64,8050,1,4,3:0:0:0:
435,149,8170,1,4,2:2:0:0:
350,96,8290,1,0,1:0:0:0:
284,356,8410,5,0,1:0:0:0:
428,316,8530,1,0,0:0:0:0:
284,356,8650,1,0,1:0:0:0:
428,316,8770,1,0,0:0:0:0:
266,151,8890,5,8,1:0:0:0:
218,276,9010,1,0,0:0:0:0:
213,290,9070,1,0,0:0:0:0:
209,304,9130,2,0,L|183:243,1,50
120,165,9250,2,0,L|94:226,1,50,8|0,1:0|0:0,0:0:0:0:
57,303,9370,1,4,3:0:0:0:
269,123,9490,5,2,0:0:0:0:
284,127,9550,1,0,0:0:0:0:
299,131,9610,1,2,0:0:0:0:
314,135,9670,1,0,0:0:0:0:
329,139,9730,2,0,L|387:115,1,50,4|0,3:0|0:0,0:0:0:0:
489,160,9850,2,0,L|431:184,1,50,2|0,0:0|0:0,0:0:0:0:
407,289,9970,1,4,3:0:0:0:
450,19,10090,1,4,1:2:0:0:
399,324,10210,1,2,0:0:0:0:
123,237,10330,5,0,1:0:0:0:
99,383,10450,1,0,1:0:0:0:
306,344,10570,5,8,1:0:0:0:
271,196,10690,1,2,0:0:0:0:
266,182,10750,1,0,0:0:0:0:
262,168,10810,2,0,L|236:229,1,50,2|0,0:0|0:0,0:0:0:0:
184,359,10930,1,8,1:0:0:0:
169,361,10990,1,0,0:0:0:0:
154,362,11050,1,2,0:0:0:0:
139,361,11110,1,0,0:0:0:0:
124,358,11170,1,2,0:0:0:0:
109,353,11230,1,0,0:0:0:0:
95,347,11290,5,6,3:0:0:0:
304,300,11410,1,2,0:0:0:0:
68,264,11530,5,6,3:3:0:0:
324,384,11650,1,2,0:0:0:0:
109,182,11770,1,6,0:0:0:0:
324,384,11890,6,0,L|356:373,1,25,8|0,0:1|0:0,0:0:0:0:
447,314,12010,2,0,L|415:325,1,25,8|0,0:1|0:0,0:0:0:0:
304,300,12130,2,0,L|336:289,1,25,8|0,0:1|0:0,0:0:0:0:
423,224,12250,5,4,1:2:0:0:
384,78,12370,1,0,0:0:0:0:
304,300,12490,1,2,0:0:0:0:
265,154,12610,1,0,0:0:0:0:
423,224,12730,1,0,0:0:0:0:
423,224,12850,1,0,0:0:0:0:
423,224,12970,1,0,0:0:0:0:
265,154,13090,5,2,0:0:0:0:
304,300,13210,1,0,0:0:0:0:
265,154,13330,1,2,0:0:0:0:
423,224,13450,1,0,0:0:0:0:
423,224,13570,1,0,0:0:0:0:
423,224,13690,1,0,0:0:0:0:
304,300,13810,1,0,0:0:0:0:
265,154,13930,1,2,0:0:0:0:
33,143,14050,5,0,0:0:0:0:
33,143,14110,1,0,0:0:0:0:
33,143,14170,1,2,0:0:0:0:
72,289,14290,1,0,0:0:0:0:
141,37,14410,1,2,0:0:0:0:
72,289,14530,1,0,0:0:0:0:
72,289,14650,1,0,0:0:0:0:
72,289,14770,1,0,0:0:0:0:
72,289,14890,1,0,0:0:0:0:
141,37,15010,5,2,0:0:0:0:
33,143,15130,1,0,0:0:0:0:
141,37,15250,1,2,0:0:0:0:
141,37,15370,1,0,0:0:0:0:
180,183,15490,1,0,0:0:0:0:
33,143,15610,1,0,0:0:0:0:
33,143,15730,1,0,0:0:0:0:
72,289,15850,1,0,0:0:0:0:
72,289,15970,1,0,0:0:0:0:
384,78,16090,6,0,L|364:176,1,100,2|0,0:0|0:0,0:0:0:0:
66,135,16330,2,0,L|85:233,1,100,2|0,0:0|0:0,0:0:0:0:
332,343,16570,1,0,3:2:0:0:
332,343,16690,1,0,0:0:0:0:
332,343,16810,1,0,3:0:0:0:
102,372,16930,5,2,0:0:0:0:
332,343,17050,1,0,3:0:0:0:
102,372,17170,1,2,0:0:0:0:
332,343,17290,1,0,3:0:0:0:
332,343,17410,1,0,0:0:0:0:
332,343,17530,1,0,3:0:0:0:
332,343,17650,1,0,0:0:0:0:
182,357,17770,2,0,L|124:368,1,50,2|0,0:0|0:0,0:0:0:0:
124,368,17950,1,0,0:0:0:0:
115,369,18010,5,2,0:0:0:0:
133,274,18130,1,0,3:0:0:0:
87,374,18250,1,2,0:0:0:0:
109,260,18370,1,2,3:2:0:0:
59,379,18490,1,2,0:0:0:0:
85,246,18610,1,2,3:2:0:0:
31,384,18730,1,2,0:0:0:0:
61,232,18850,5,2,3:2:0:0:
289,334,18970,1,0,3:2:0:0:
309,114,19090,1,2,0:0:0:0:
85,246,19210,2,0,L|139:234,1,50,0|2,0:0|0:0,0:0:0:0:
346,197,19450,5,0,0:0:0:0:
98,142,19570,1,2,0:0:0:0:
235,342,19690,1,0,0:0:0:0:
481,281,19810,1,2,0:0:0:0:
279,66,19930,6,0,L|170:80,1,59.9999981689454,0|0,1:0|0:0,0:0:0:0:
261,147,20050,2,0,L|201:155,1,59.9999981689454,0|0,1:0|0:0,0:0:0:0:
243,228,20170,1,8,0:1:0:0:
10,142,20290,1,2,0:0:0:0:
14,130,20350,1,0,0:0:0:0:
18,119,20410,1,2,0:0:0:0:
22,108,20470,1,0,0:0:0:0:
27,97,20530,2,0,P|42:118|45:158,1,59.9999981689454,0|0,1:0|0:0,0:0:0:0:
72,313,20650,2,0,P|57:292|54:252,1,59.9999981689454,0|0,1:0|0:0,0:0:0:0:
139,189,20770,6,0,B|188:169|188:209|237:192,1,100,8|0,0:1|0:0,0:0:0:0:
403,88,21130,2,0,P|400:58|383:33,1,59.9999981689454,8|0,2:1|0:0,0:0:0:0:
345,237,21250,2,0,P|347:266|364:291,1,59.9999981689454,2|0,0:0|0:0,0:0:0:0:
390,308,21370,1,2,0:0:0:0:
478,137,21490,1,0,1:0:0:0:
236,192,21610,1,0,1:0:0:0:
510,257,21730,1,8,0:1:0:0:
384,34,21850,5,0,1:0:0:0:
322,353,21970,1,0,1:0:0:0:
7,264,22090,1,8,0:1:0:0:
236,192,22210,1,2,0:0:0:0:
233,203,22270,1,0,0:0:0:0:
230,214,22330,1,2,0:0:0:0:
61,158,22450,2,0,P|63:128|80:103,1,59.9999981689454,0|0,1:0|0:0,0:0:0:0:
82,264,22570,2,0,P|79:293|62:318,1,59.9999981689454,0|0,1:0|0:0,0:0:0:0:
154,191,22690,6,0,B|175:184|175:184|233:203|233:203|255:195,1,100,8|2,0:1|0:0,0:0:0:0:
258,194,22990,1,0,0:0:0:0:
267,190,23050,1,8,0:1:0:0:
228,352,23170,1,2,0:0:0:0:
216,349,23230,1,0,0:0:0:0:
204,346,23290,1,2,0:0:0:0:
192,343,23350,1,0,0:0:0:0:
180,340,23410,2,0,L|261:313,1,59.9999981689454,8|0,0:1|0:0,0:0:0:0:
414,269,23530,1,2,0:0:0:0:
411,280,23590,1,0,0:0:0:0:
408,291,23650,1,2,0:0:0:0:
406,302,23710,1,0,0:0:0:0:
404,313,23770,5,2,1:2:0:0:
342,139,23890,1,0,0:0:0:0:
295,375,24010,1,8,1:1:0:0:
342,139,24130,1,2,0:0:0:0:
295,375,24250,1,2,0:0:0:0:
342,139,24370,1,0,1:0:0:0:
112,212,24490,1,0,1:0:0:0:
404,313,24610,5,8,1:1:0:0:
172,384,24730,1,2,0:0:0:0:
404,313,24850,1,2,0:0:0:0:
204,100,24970,1,8,1:1:0:0:
282,382,25090,1,2,0:0:0:0:
204,100,25210,1,2,0:0:0:0:
282,382,25330,1,0,1:0:0:0:
204,100,25450,1,0,1:0:0:0:
504,216,25570,5,8,1:1:0:0:
504,216,25630,1,0,0:0:0:0:
504,216,25690,1,2,1:2:0:0:
165,321,25810,1,0,1:0:0:0:
377,36,25930,1,2,0:0:0:0:
372,384,26050,1,2,0:0:0:0:
377,36,26170,1,0,1:0:0:0:
372,384,26290,1,8,0:1:0:0:
171,99,26410,1,0,1:0:0:0:
504,216,26530,6,0,L|514:211,16,12.5,8|8|8|8|8|8|8|8|8|8|8|8|8|8|8|8|8,0:1|0:1|0:1|0:1|0:1|0:1|0:1|0:1|0:1|0:1|0:1|0:1|0:1|0:1|0:1|0:1|0:1,0:0:0:0:
438,243,27130,5,2,0:0:0:0:
438,243,27190,1,0,0:0:0:0:
438,243,27250,1,2,0:0:0:0:
168,316,27370,1,10,0:1:0:0:
382,16,27490,1,10,0:1:0:0:
372,384,27610,6,0,L|316:212,1,170.000003242493,2|0,1:2|0:0,0:0:0:0:
256,16,27790,1,0,0:0:0:0:
256,16,27850,2,0,L|200:188,1,170.000003242493,2|0,1:2|0:0,0:0:0:0:
140,384,28090,5,4,3:0:0:0:
109,343,28150,1,0,0:0:0:0:
89,295,28210,1,4,3:0:0:0:
92,244,28270,1,0,0:0:0:0:
118,200,28330,2,0,L|90:114,1,85.0000016212464,14|2,1:3|0:0,0:0:0:0:
97,303,28450,1,0,0:0:0:0:
97,303,28510,1,0,0:0:0:0:
97,303,28570,6,0,P|209:299|257:259,1,170.000003242493,0|2,1:0|0:0,0:0:0:0:
344,160,28750,1,0,0:0:0:0:
344,160,28810,1,2,1:2:0:0:
308,384,28930,1,0,0:0:0:0:
267,86,29050,5,0,0:0:0:0:
317,60,29110,1,0,0:0:0:0:
374,63,29170,1,0,0:0:0:0:
421,94,29230,1,0,0:0:0:0:
444,145,29290,1,8,1:1:0:0:
143,314,29410,1,2,0:0:0:0:
267,86,29530,5,0,1:0:0:0:
208,380,29650,1,2,0:0:0:0:
20,172,29770,6,0,L|117:189,1,85.0000016212464,4|0,3:0|0:0,0:0:0:0:
395,239,29890,1,2,0:0:0:0:
39,309,30010,6,0,L|128:267,1,85.0000016212464,8|0,3:2|0:0,0:0:0:0:
372,131,30130,1,2,0:0:0:0:
372,131,30190,1,0,0:0:0:0:
372,131,30250,2,0,P|380:80|368:32,1,85.0000016212464,2|0,0:0|0:0,0:0:0:0:
297,259,30370,2,0,P|289:310|301:358,1,85.0000016212464,0|0,1:0|0:0,0:0:0:0:
260,80,30490,6,0,B|226:68|226:68|132:99|132:99|97:86,1,170.000003242493,8|0,1:0|0:0,0:0:0:0:
23,41,30670,1,0,0:0:0:0:
23,41,30730,6,0,P|11:73|11:93,1,50,8|0,0:0|0:0,0:0:0:0:
60,172,30850,2,0,P|57:196|47:219,1,50,8|0,0:0|0:0,0:0:0:0:
0,328,30970,5,2,0:0:0:0:
0,328,31030,1,0,0:0:0:0:
0,328,31090,2,0,L|8:364,6,25,2|2|2|2|2|2|2,0:0|0:0|0:0|0:0|0:0|0:0|0:0,0:0:0:0:
112,292,31330,6,0,B|176:264|224:308|224:308|204:328|176:324,1,170.000003242493,4|8,0:0|0:0,0:0:0:0:
144,200,31510,1,0,0:0:0:0:
144,200,31570,2,0,P|140:176|144:144,1,50,8|0,0:0|0:0,0:0:0:0:
184,64,31690,1,4,0:0:0:0:
272,380,31810,1,8,1:1:0:0:
500,148,31930,6,0,P|388:152|340:192,1,160,0|2,1:0|0:0,0:0:0:0:
272,380,32110,1,0,0:0:0:0:
272,380,32170,2,0,L|168:360,1,80,14|0,3:0|0:0,0:0:0:0:
260,348,32290,2,0,L|156:328,1,80,14|0,3:0|0:0,0:0:0:0:
56,312,32410,6,0,B|36:276|36:276|64:288,1,69.9999978637696,0|2,1:0|0:0,0:0:0:0:
197,190,32650,2,0,B|217:226|217:226|189:214,1,69.9999978637696,0|2,1:0|0:0,0:0:0:0:
44,140,32890,2,0,P|32:104|36:68,1,69.9999978637696,0|2,1:0|0:0,0:0:0:0:
88,12,33070,5,0,0:0:0:0:
116,20,33130,1,0,0:0:0:0:
144,28,33190,2,0,L|204:20,1,34.9999989318848,0|0,0:0|1:0,0:0:0:0:
325,4,33370,1,2,0:0:0:0:
184,124,33490,1,8,1:0:0:0:
472,180,33610,5,14,3:3:0:0:
460,140,33670,1,14,0:3:0:0:
448,100,33730,1,14,0:3:0:0:
256,364,33850,6,0,L|352:348,1,94.9999974632264,8|0,0:0|0:0,0:0:0:0:
464,328,33970,1,8,0:0:0:0:
144,288,34090,1,8,0:0:0:0:
144,288,34150,1,0,0:0:0:0:
144,288,34210,2,0,P|120:232|120:188,1,94.9999974632264,8|0,0:0|0:0,0:0:0:0:
148,88,34330,1,8,0:0:0:0:
8,324,34450,5,8,0:0:0:0:
236,268,34570,1,8,0:0:0:0:
0,128,34690,1,8,0:0:0:0:
348,0,34810,5,8,0:0:0:0:
372,52,34870,1,0,0:0:0:0:
380,108,34930,1,8,0:0:0:0:
372,164,34990,1,0,0:0:0:0:
348,216,35050,2,0,B|332:260|332:260|344:316,1,94.9999974632264,8|0,0:0|0:0,0:0:0:0:
504,384,35170,2,0,B|520:340|520:340|508:284,1,94.9999974632264,8|0,0:0|0:0,0:0:0:0:
348,216,35290,6,0,L|176:240,1,170.000003242493,4|0,1:2|0:0,0:0:0:0:
0,0,35530,2,0,L|172:24,1,170.000003242493,4|0,1:2|0:0,0:0:0:0:
476,68,35770,6,0,P|484:144|452:240,1,170.000003242493,4|0,1:2|0:0,0:0:0:0:
352,316,35950,1,0,0:0:0:0:
352,316,36010,2,0,L|252:329,1,85.0000016212464,6|0,1:2|0:0,0:0:0:0:
180,232,36130,2,0,L|279:218,1,85.0000016212464,2|0,0:0|0:0,0:0:0:0:
336,152,36250,6,0,P|372:68|276:112,1,255.000004863739,14|0,0:3|0:0,0:0:0:0:
336,152,36490,6,0,P|377:58|276:112,1,284.999992389679,14|0,0:3|0:0,0:0:0:0:
264,188,36730,5,2,0:0:0:0:
496,100,36850,1,0,0:0:0:0:
192,24,36970,1,14,1:3:0:0:
164,28,37030,1,14,1:3:0:0:
136,32,37090,1,14,1:3:0:0:
108,36,37150,1,14,1:3:0:0:
80,40,37210,5,2,1:1:0:0:
144,328,37330,1,2,1:1:0:0:
432,96,37450,1,2,1:0:0:0:
432,96,37570,2,0,L|412:182,1,75.0000028610231,2|0,1:0|0:0,0:0:0:0:
256,280,37690,2,0,L|236:193,1,75.0000028610231,2|0,1:0|0:0,0:0:0:0:
472,300,37810,1,2,1:0:0:0:
472,300,38170,6,0,B|429:271|429:271|386:300|386:300|343:271|343:271|301:300|301:300|215:300|215:300|130:300|97:247|80:179|93:112|143:75|205:58|255:70|283:126|294:167|251:200|240:207|240:207,1,759.999979705811,4|0,2:0|0:0,0:0:0:0:
40,304,38770,1,2,0:0:0:0:
120,40,38890,6,0,P|165:22|201:18,1,85.0000016212464,2|0,0:0|0:0,0:0:0:0:
240,207,39010,2,0,P|195:225|158:228,1,85.0000016212464,2|0,0:0|0:0,0:0:0:0:
360,44,39130,6,0,B|398:158|398:158|384:216,1,170.000003242493,0|0,1:0|0:0,0:0:0:0:
348,384,39370,1,0,1:0:0:0:
184,140,39490,6,0,P|151:109|171:165,1,150,2|0,2:0|0:0,0:0:0:0:
200,156,39730,1,8,0:0:0:0:
200,156,39790,1,0,0:0:0:0:
200,156,39850,1,8,0:0:0:0:
200,156,39910,1,0,0:0:0:0:
200,156,39970,6,0,B|219:109|219:109|199:61,1,100,2|8,0:0|0:1,0:0:0:0:
18,0,40210,2,0,B|0:46|0:46|19:93,1,100,2|8,0:0|0:1,0:0:0:0:
204,160,40450,6,2,B|365:194|365:194|326:131|326:131|355:64|443:50|522:80|577:145|581:240|539:323|462:360|378:356|303:307|304:234,1,850.000016212464,6|0,1:0|3:0,1:0:0:0:
311,267,41290,1,0,3:0:0:0:
311,267,41530,1,0,3:0:0:0:
311,267,41770,1,0,3:0:0:0:
311,267,42010,1,0,3:0:0:0:
315,271,42250,1,0,3:0:0:0:
315,271,42430,2,0,L|309:300,8,25,2|2|2|2|2|2|2|2|2,0:0|0:0|0:0|0:0|0:0|0:0|0:0|0:0|0:0,0:0:0:0:
320,220,42730,5,0,1:0:0:0:
48,256,42850,1,8,1:0:0:0:
192,24,42970,6,2,L|364:48,1,170.000003242493,6|2,1:2|0:0,0:0:0:0:
512,292,43210,2,0,L|340:316,1,170.000003242493,4|0,1:2|0:0,0:0:0:0:
80,352,43450,1,2,0:0:0:0:
80,352,43510,1,0,0:0:0:0:
80,352,43570,1,0,0:0:0:0:
370,166,43690,1,2,0:0:0:0:
379,136,43750,1,0,0:0:0:0:
379,106,43810,1,2,0:0:0:0:
374,77,43870,1,0,0:0:0:0:
360,47,43930,6,0,L|192:24,1,170.000003242493,4|0,1:2|0:0,0:0:0:0:
343,315,44170,2,0,L|512:292,1,170.000003242493,4|0,1:2|0:0,0:0:0:0:
240,168,44410,6,0,P|190:164|136:202,1,104.999996795654,2|0,0:0|0:0,0:0:0:0:
96,260,44650,2,0,B|62:219|62:219|70:139,1,104.999996795654,8|0,0:0|0:0,0:0:0:0:
112,60,44890,6,0,L|280:83,1,170.000003242493,6|0,1:2|0:0,0:0:0:0:
343,315,45130,1,4,0:0:0:0:
416,0,45250,1,0,0:0:0:0:
484,352,45370,2,0,L|316:329,1,170.000003242493,6|0,1:2|0:0,0:0:0:0:
0,180,45610,1,4,1:2:0:0:
0,180,45730,2,0,L|168:203,1,170.000003242493,0|4,1:2|1:2,0:0:0:0:
358,78,45970,1,0,0:0:0:0:
86,41,46090,1,6,1:2:0:0:
358,78,46210,1,0,0:0:0:0:
92,272,46330,6,0,B|96:312|68:360|68:360|88:376|120:360|96:320,1,150,2|0,0:0|0:0,0:0:0:0:
107,342,46510,1,0,0:0:0:0:
107,342,46570,2,0,P|140:324|180:328,1,69.9999978637696,2|0,0:0|0:0,0:0:0:0:
376,364,46810,6,0,P|424:368|480:340,1,100,2|2,0:0|0:0,0:0:0:0:
320,24,47290,6,0,L|148:48,1,170.000003242493,6|0,1:2|0:0,0:0:0:0:
56,62,47470,1,0,0:0:0:0:
56,62,47530,2,0,P|52:118|68:158,1,85.0000016212464,6|0,1:2|0:0,0:0:0:0:
112,212,47650,1,4,0:0:0:0:
336,136,47770,6,0,L|435:149,1,85.0000016212464,6|0,1:2|0:0,0:0:0:0:
512,160,47890,1,2,0:0:0:0:
336,136,48010,6,0,B|284:136|256:168|256:168|368:208|368:208|280:240|280:240|348:268|348:268|312:288|312:288|336:300|336:300|336:340,1,480,2|14,0:0|1:0,0:0:0:0:
312,344,49210,1,0,1:0:0:0:
300,348,49270,1,0,1:0:0:0:
288,352,49330,1,0,1:0:0:0:
288,352,49450,6,0,L|264:180,1,170.000003242493,4|0,2:0|0:0,0:0:0:0:
24,8,49690,2,0,L|0:180,1,170.000003242493,4|0,2:0|0:0,0:0:0:0:
288,352,49930,5,2,0:0:0:0:
340,240,50050,1,0,0:0:0:0:
228,188,50170,1,2,0:0:0:0:
176,300,50290,1,0,0:0:0:0:
288,352,50410,2,0,L|400:332,1,100,2|0,0:0|0:0,0:0:0:0:
488,104,50650,5,8,0:1:0:0:
278,65,50770,1,8,0:1:0:0:
417,17,50890,1,8,0:2:0:0:
280,179,51010,5,8,0:1:0:0:
488,104,51130,1,0,1:0:0:0:
448,321,51250,1,14,0:3:0:0:
260,144,51370,6,0,P|200:140|128:188,1,139.999995727539,4|0,0:0|0:0,0:0:0:0:
84,268,51730,1,0,0:0:0:0:
84,268,51850,2,0,L|0:256,1,69.9999978637696,8|0,0:0|0:0,0:0:0:0:
148,344,52090,2,0,L|232:332,1,69.9999978637696,2|0,0:0|0:0,0:0:0:0:
133,180,52330,6,0,P|94:122|96:53,1,139.999995727539,2|2,0:3|0:0,0:0:0:0:
192,8,52690,1,0,0:0:0:0:
192,8,52810,5,8,1:2:0:0:
288,216,52930,1,8,0:1:0:0:
385,63,53050,1,8,0:1:0:0:
133,180,53170,5,0,0:0:0:0:
336,316,53290,1,2,0:0:0:0:
294,67,53410,1,4,0:0:0:0:
34,201,53530,6,0,L|58:375,1,170.000003242493,4|0,1:2|0:0,0:0:0:0:
414,211,53770,2,0,L|390:37,1,170.000003242493,4|0,1:2|0:0,0:0:0:0:
88,11,54010,5,0,1:0:0:0:
216,205,54130,1,2,0:0:0:0:
88,11,54250,1,0,1:0:0:0:
144,288,54370,1,2,0:0:0:0:
318,72,54490,5,0,1:0:0:0:
374,349,54610,2,0,P|280:365|200:344,1,170.000003242493,2|0,0:0|1:0,0:0:0:0:
0,99,54850,2,0,P|94:83|174:104,1,170.000003242493,2|0,0:0|1:0,0:0:0:0:
374,349,55090,1,0,0:0:0:0:
8,237,55210,1,2,1:2:0:0:
226,53,55330,1,0,0:0:0:0:
350,331,55450,6,0,L|374:157,1,170.000003242493,0|2,1:0|0:0,0:0:0:0:
26,2,55690,2,0,L|50:176,1,170.000003242493,0|2,1:0|0:0,0:0:0:0:
350,331,55930,1,0,1:0:0:0:
264,60,56050,1,2,0:0:0:0:
350,331,56170,1,0,1:0:0:0:
391,3,56290,1,2,0:0:0:0:
477,274,56410,5,0,1:0:0:0:
477,274,56470,1,0,0:0:0:0:
477,274,56530,1,0,0:0:0:0:
169,127,56650,2,0,L|-3:161,1,170.000003242493,0|0,1:0|0:0,0:0:0:0:
310,306,56890,2,0,L|482:272,1,170.000003242493,0|0,1:0|0:0,0:0:0:0:
169,127,57130,1,0,1:0:0:0:
8,283,57250,1,2,0:0:0:0:
382,372,57370,6,0,P|401:255|383:207,1,170.000003242493,0|2,1:0|0:0,0:0:0:0:
96,56,57610,2,0,P|77:173|95:221,1,170.000003242493,0|2,1:0|0:0,0:0:0:0:
382,372,57850,1,0,1:0:0:0:
431,75,57970,1,2,0:0:0:0:
382,372,58090,1,0,1:0:0:0:
306,29,58210,1,2,0:0:0:0:
93,218,58330,5,0,1:0:0:0:
343,352,58450,2,0,L|522:331,1,170.000003242493,2|0,2:0|1:2,0:0:0:0:
289,112,58690,2,0,L|110:133,1,170.000003242493,2|0,2:0|1:0,0:0:0:0:
0,2,58930,1,2,0:0:0:0:
329,182,59050,1,2,1:2:0:0:
46,287,59170,1,0,0:0:0:0:
305,28,59290,6,0,L|474:48,1,170.000003242493,0|2,1:0|0:0,0:0:0:0:
512,357,59530,2,0,L|343:337,1,170.000003242493,0|2,1:0|0:0,0:0:0:0:
22,308,59770,1,0,1:0:0:0:
365,215,59890,1,2,0:0:0:0:
22,308,60010,1,0,1:0:0:0:
356,76,60130,1,2,0:0:0:0:
208,380,60250,5,4,1:2:0:0:
127,58,60370,1,0,0:0:0:0:
512,0,60490,5,8,1:1:0:0:
431,322,60610,1,0,0:0:0:0:
356,76,60730,1,8,0:2:0:0:
506,242,60850,5,4,3:3:0:0:
506,242,60970,1,12,3:0:0:0:
176,160,61090,1,12,0:2:0:0:
512,0,61210,5,4,1:2:0:0:
256,192,61270,12,0,65290,0:0:0:0:
