osu file format v14

[General]
AudioFilename: audio.mp3
AudioLeadIn: 0
PreviewTime: 2650
Countdown: 0
SampleSet: Soft
StackLeniency: 0.7
Mode: 0
LetterboxInBreaks: 0
WidescreenStoryboard: 1

[Editor]
Bookmarks: 6500,10580,12260,27620,35300,38180,40460,42980,61220,65300
DistanceSpacing: 0.8
BeatDivisor: 8
GridSize: 4
TimelineZoom: 1.340001

[Metadata]
Title:Caramelo da desgraca
TitleUnicode:Caramelo da desgraça
Artist:Mestre3224
ArtistUnicode:Mestre3224
Creator:Mismagius
Version:Normal
Source:
Tags:stole my samples mashcore hardcore breakcore buddy holly weezer caramelldansen NEDM brasil brazil portuguese
BeatmapID:1696413
BeatmapSetID:754401

[Difficulty]
HPDrainRate:2
CircleSize:4
OverallDifficulty:5
ApproachRate:6
SliderMultiplier:1
SliderTickRate:1

[Events]
//Background and Video events
0,0,"wallhaven-92.jpg",0,0
//Break Periods
//Storyboard Layer 0 (Background)
//Storyboard Layer 1 (Fail)
//Storyboard Layer 2 (Pass)
//Storyboard Layer 3 (Foreground)
//Storyboard Sound Samples

[TimingPoints]
10,240,4,2,1,70,1,0
490,-100,4,2,1,70,0,0
2650,240,4,2,1,70,1,0
3550,-100,4,2,1,20,0,0
3610,-100,4,2,1,70,0,0
3850,-100,4,2,1,50,0,0
4090,-100,4,2,1,70,0,0
11890,-100,4,2,1,40,0,0
17770,-100,4,2,1,20,0,0
18010,-100,4,2,1,30,0,0
18730,-100,4,2,1,50,0,0
18970,-100,4,2,1,70,0,0
27610,-100,4,2,1,85,0,0
39490,-100,4,2,1,65,0,0
42970,-100,4,2,1,85,0,0
44410,-100,4,2,1,65,0,0
44890,-100,4,2,1,85,0,0
46330,-100,4,2,1,65,0,0
47290,-100,4,2,1,85,0,0
48010,-125,4,2,1,65,0,0
49210,-125,4,2,1,55,0,0
49450,-100,4,2,1,85,0,0
49930,-100,4,2,1,65,0,0
51370,240,4,2,1,70,1,0
51370,-142.857142857143,4,2,1,70,0,0
53530,240,4,2,1,90,1,0
60970,-100,4,2,1,70,0,0
61270,-100,4,2,1,5,0,0

[Colours]
Combo1 : 255,255,0
Combo2 : 128,255,0
Combo3 : 0,255,255
Combo4 : 128,0,255
Combo5 : 255,0,6

[HitObjects]
389,61,10,6,0,L|513:47,2,100,2|2|2,3:0|3:0|0:0,0:0:0:0:
309,71,730,1,2,0:0:0:0:
235,86,970,1,2,0:0:0:0:
235,86,1450,1,2,0:0:0:0:
235,86,1930,6,0,L|130:73,1,100,2|4,0:0|1:1,0:0:0:0:
56,62,2410,1,2,3:0:0:0:
82,137,2650,6,0,P|98:195|92:241,2,100,0|2|2,1:0|0:0|0:0,0:0:0:0:
56,62,3370,1,2,3:0:0:0:
123,19,3610,2,0,B|188:-3|188:-3|312:78,1,200,4|8,1:2|1:1,0:0:0:0:
359,119,4330,1,14,3:3:0:0:
420,169,4570,6,0,P|477:180|515:162,2,100,2|2|0,1:2|0:0|1:0,0:0:0:0:
359,119,5290,1,0,1:0:0:0:
296,169,5530,2,0,L|265:276,1,100,2|2,1:2|1:2,0:0:0:0:
200,222,6010,2,0,L|169:329,1,100,8|2,0:0|0:0,0:0:0:0:
115,375,6490,6,0,L|11:375,2,100,2|2|10,1:2|1:2|0:0,0:0:0:0:
172,318,7210,1,10,0:0:0:0:
249,337,7450,2,0,L|353:337,1,100,0|4,1:2|1:2,0:0:0:0:
425,360,7930,1,8,2:1:0:0:
425,360,8170,1,4,2:2:0:0:
477,299,8410,6,0,P|496:240|345:66,1,300,0|0,1:0|0:0,0:0:0:0:
299,23,9370,2,0,P|250:29|211:60,1,100,4|2,3:0|0:0,0:0:0:0:
165,123,9850,2,0,P|116:129|77:160,1,100,2|4,0:0|1:2,0:0:0:0:
87,239,10330,6,0,P|229:264|331:162,1,300,0|2,1:0|0:0,0:0:0:0:
352,85,11290,2,0,P|301:86|261:123,2,100,2|2|6,0:0|0:0|0:0,0:0:0:0:
512,136,12250,6,0,L|512:32,1,100,4|2,1:2|0:0,0:0:0:0:
436,8,12730,2,0,L|436:112,1,100,0|0,0:0|0:0,0:0:0:0:
361,136,13210,2,0,L|361:32,1,100,0|0,0:0|0:0,0:0:0:0:
285,8,13690,2,0,L|285:112,1,100,0|2,0:0|0:0,0:0:0:0:
209,135,14170,6,0,L|106:116,1,100,2|2,0:0|0:0,0:0:0:0:
68,185,14650,2,0,L|170:203,1,100,0|0,0:0|0:0,0:0:0:0:
179,281,15130,2,0,L|76:262,1,100,0|0,0:0|0:0,0:0:0:0:
38,331,15610,2,0,L|140:349,1,100,0|0,0:0|0:0,0:0:0:0:
214,365,16090,6,0,L|318:365,1,100,2|2,0:0|0:0,0:0:0:0:
279,293,16570,2,0,L|383:293,1,100,0|0,3:2|3:0,0:0:0:0:
344,221,17050,2,0,L|448:221,1,100,0|0,3:0|3:0,0:0:0:0:
409,149,17530,2,0,L|513:149,1,100,0|2,3:0|0:0,0:0:0:0:
473,77,18010,6,0,P|425:62|379:75,1,100,2|2,0:0|0:0,0:0:0:0:
317,127,18490,2,0,P|269:142|223:129,1,100,2|2,0:0|0:0,0:0:0:0:
161,77,18970,2,0,P|113:62|67:75,2,100,0|0|0,3:2|0:0|0:0,0:0:0:0:
222,128,19690,1,0,0:0:0:0:
175,193,19930,6,0,L|159:297,1,100,0|8,1:0|0:1,0:0:0:0:
141,369,20410,2,0,P|84:374|25:304,1,150,2|8,0:0|0:1,0:0:0:0:
25,309,21130,2,0,L|41:205,1,100,8|2,2:1|0:0,0:0:0:0:
54,131,21610,1,0,1:0:0:0:
128,102,21850,6,0,L|144:206,1,100,0|8,1:0|0:1,0:0:0:0:
162,278,22330,2,0,P|219:283|278:213,1,150,2|8,0:0|0:1,0:0:0:0:
277,218,23050,2,0,L|293:114,2,100,8|2|2,0:1|0:0|0:0,0:0:0:0:
337,269,23770,6,0,P|390:278|443:265,1,100,2|8,1:2|1:1,0:0:0:0:
493,213,24250,2,0,P|502:160|489:107,1,100,2|0,0:0|1:0,0:0:0:0:
437,57,24730,2,0,P|384:48|331:61,1,100,2|8,0:0|1:1,0:0:0:0:
281,113,25210,2,0,P|272:166|285:219,1,100,2|0,0:0|1:0,0:0:0:0:
337,269,25690,6,0,P|390:278|443:265,2,100,2|2|0,1:2|0:0|1:0,0:0:0:0:
281,210,26410,2,0,L|223:192,1,50,0|8,1:0|0:1,0:0:0:0:
39,144,27130,5,2,0:0:0:0:
18,66,27370,1,10,0:1:0:0:
80,15,27610,6,0,L|190:20,1,100,2|2,1:2|1:2,0:0:0:0:
259,24,28090,2,0,L|336:27,2,50,14|14|14,3:0|3:0|1:3,0:0:0:0:
217,92,28570,2,0,P|205:144|215:204,1,100,0|2,1:0|1:2,0:0:0:0:
247,260,29050,1,0,1:0:0:0:
316,300,29290,1,8,1:0:0:0:
396,300,29530,2,0,L|490:278,2,50,0|2|8,1:0|0:0|1:0,0:0:0:0:
316,300,30010,1,8,1:0:0:0:
247,260,30250,1,2,0:0:0:0:
210,189,30490,6,0,P|210:78|279:4,2,200,8|2|8,1:0|0:0|0:0,0:0:0:0:
247,260,31690,1,4,0:0:0:0:
324,280,31930,2,0,L|425:260,1,100,0|14,1:0|3:0,0:0:0:0:
386,188,32410,6,0,L|487:168,2,100,0|0|0,1:0|1:0|1:0,0:0:0:0:
327,133,33130,1,0,0:0:0:0:
269,77,33370,2,0,L|168:97,1,100,2|14,0:0|3:3,0:0:0:0:
92,112,33850,1,8,0:0:0:0:
108,190,34090,1,8,0:0:0:0:
186,174,34330,1,8,0:0:0:0:
202,252,34570,1,8,0:0:0:0:
124,268,34810,2,0,L|144:369,1,100,8|8,0:0|0:0,0:0:0:0:
215,330,35290,6,0,P|261:321|321:346,1,100,4|4,1:2|1:2,0:0:0:0:
383,370,35770,2,0,P|431:378|478:362,1,100,4|6,1:2|1:2,0:0:0:0:
511,289,36250,1,14,0:3:0:0:
482,214,36490,1,14,0:3:0:0:
408,183,36730,1,2,0:0:0:0:
408,183,37210,6,0,L|300:166,1,100,2|2,1:1|1:0,0:0:0:0:
229,155,37690,2,0,L|175:146,2,50,2|2|0,1:0|1:0|0:0,0:0:0:0:
255,230,38170,1,4,2:0:0:0:
167,364,38650,2,0,P|114:370|63:346,1,100,0|2,0:0|0:0,0:0:0:0:
22,289,39130,6,0,P|16:236|40:185,1,100,0|0,1:0|1:0,0:0:0:0:
71,179,39490,2,0,P|108:129|83:-3,2,200,2|2|6,2:0|0:0|1:0,0:0:0:0:
71,179,42730,5,0,1:0:0:0:
136,224,42970,6,0,L|247:206,1,100,4|4,1:2|1:2,0:0:0:0:
217,286,43450,2,0,L|328:268,1,100,2|2,0:0|0:0,0:0:0:0:
298,348,43930,2,0,L|409:330,2,100,4|4|2,1:2|1:2|0:0,0:0:0:0:
218,361,44650,1,8,0:0:0:0:
138,373,44890,6,0,P|109:322|114:271,1,100,6|4,1:2|0:0,0:0:0:0:
153,214,45370,2,0,P|152:164|125:123,1,100,6|6,1:2|1:2,0:0:0:0:
46,112,45850,2,0,P|17:61|22:10,1,100,6|6,1:2|1:2,0:0:0:0:
101,44,46330,6,0,L|222:26,1,100,2|2,0:0|0:0,0:0:0:0:
279,19,46810,1,2,0:0:0:0:
279,19,47290,6,0,P|304:71|296:135,1,100,6|6,1:2|1:2,0:0:0:0:
250,172,47770,1,6,1:2:0:0:
250,172,48010,2,0,P|355:155|458:235,1,240,2|14,0:0|1:0,0:0:0:0:
393,343,49210,5,0,1:0:0:0:
329,294,49450,2,0,L|223:306,1,100,4|4,2:0|2:0,0:0:0:0:
177,366,49930,2,0,L|71:378,2,100,2|2|2,0:0|0:0|0:0,0:0:0:0:
229,305,50650,1,8,0:1:0:0:
257,230,50890,2,0,P|261:164|242:109,1,100,8|0,0:2|1:0,0:0:0:0:
199,75,51370,6,0,L|416:58,1,209.999993591309,4|2,0:0|0:0,0:0:0:0:
454,133,52330,2,0,L|237:150,1,209.999993591309,2|8,0:3|0:1,0:0:0:0:
167,153,53290,1,2,0:0:0:0:
87,158,53530,6,0,P|62:207|65:261,1,100,6|6,1:2|1:2,0:0:0:0:
86,327,54010,2,0,P|135:352|189:349,1,100,4|4,1:2|1:2,0:0:0:0:
255,328,54490,2,0,P|280:279|277:225,1,100,0|0,1:0|1:0,0:0:0:0:
256,159,54970,2,0,P|207:134|153:137,1,100,0|2,1:0|1:2,0:0:0:0:
87,158,55450,6,0,L|59:255,1,100,0|0,1:0|1:0,0:0:0:0:
34,330,55930,2,0,L|131:358,1,100,0|0,1:0|1:0,0:0:0:0:
206,383,56410,2,0,L|234:286,1,100,0|0,1:0|1:0,0:0:0:0:
259,211,56890,2,0,L|162:183,1,100,0|0,1:0|1:0,0:0:0:0:
87,158,57370,6,0,P|88:108|111:64,2,100,0|0|0,1:0|1:0|1:0,0:0:0:0:
107,235,58090,1,0,1:0:0:0:
173,278,58330,2,0,L|270:250,1,100,0|0,1:0|1:0,0:0:0:0:
332,298,58810,2,0,L|429:270,1,100,0|2,1:0|1:2,0:0:0:0:
503,243,59290,6,0,P|501:193|478:149,2,100,0|0|0,1:0|1:0|1:0,0:0:0:0:
487,321,60010,1,0,1:0:0:0:
429,270,60250,2,0,L|332:298,1,100,4|8,1:2|1:0,0:0:0:0:
268,249,60730,2,0,L|171:277,1,100,8|4,0:1|0:0,0:0:0:0:
95,302,61210,5,14,0:3:0:0:
256,192,61330,12,0,65290,0:0:0:0:
