osu file format v14

[General]
AudioFilename: audio.mp3
AudioLeadIn: 0
PreviewTime: 2650
Countdown: 0
SampleSet: Soft
StackLeniency: 0.3
Mode: 0
LetterboxInBreaks: 0
WidescreenStoryboard: 1

[Editor]
Bookmarks: 6500,10580,12260,27620,35300,38180,40460,42980,61220,65300
DistanceSpacing: 1.2
BeatDivisor: 4
GridSize: 4
TimelineZoom: 1.240001

[Metadata]
Title:Caramelo da desgraca
TitleUnicode:Caramelo da desgraça
Artist:Mestre3224
ArtistUnicode:Mestre3224
Creator:Mismagius
Version:Insane
Source:
Tags:stole my samples mashcore hardcore breakcore buddy holly weezer caramelldansen NEDM brasil brazil portuguese
BeatmapID:1696314
BeatmapSetID:754401

[Difficulty]
HPDrainRate:4.5
CircleSize:4
OverallDifficulty:8
ApproachRate:9
SliderMultiplier:1.4
SliderTickRate:1

[Events]
//Background and Video events
0,0,"wallhaven-92.jpg",0,0
//Break Periods
//Storyboard Layer 0 (Background)
//Storyboard Layer 1 (Fail)
//Storyboard Layer 2 (Pass)
//Storyboard Layer 3 (Foreground)
//Storyboard Sound Samples

[TimingPoints]
10,240,4,2,1,70,1,0
10,-133.333333333333,4,2,1,70,0,0
250,-88.8888888888889,4,2,1,70,0,0
490,-66.6666666666667,4,2,1,70,0,0
610,-66.6666666666667,4,2,1,20,0,0
730,-66.6666666666667,4,2,1,70,0,0
850,-66.6666666666667,4,2,1,20,0,0
970,-66.6666666666667,4,2,1,70,0,0
1690,-133.333333333333,4,2,1,20,0,0
1930,-66.6666666666667,4,2,1,70,0,0
2650,240,4,2,1,70,1,0
3370,-100,4,2,1,70,0,0
3550,-133.333333333333,4,2,1,20,0,0
3610,-66.6666666666667,4,2,1,70,0,0
3850,-66.6666666666667,4,2,1,50,0,0
4090,-66.6666666666667,4,2,1,70,0,0
8290,-66.6666666666667,4,2,1,50,0,0
8410,-100,4,2,1,70,0,0
11890,-100,4,2,1,40,0,0
17770,-100,4,2,1,20,0,0
18010,-100,4,2,1,30,0,0
18610,-100,4,2,1,40,0,0
18730,-100,4,2,1,50,0,0
18850,-100,4,2,1,60,0,0
18970,-100,4,2,1,70,0,0
19930,-83.3333333333333,4,2,1,70,0,0
27610,-66.6666666666667,4,2,1,85,0,0
37570,-66.6666666666667,4,2,1,85,0,0
39490,-100,4,2,1,65,0,0
40450,-66.6666666666667,4,2,1,65,0,0
42430,-100,4,2,1,65,0,0
42970,-66.6666666666667,4,2,1,85,0,0
44410,-100,4,2,1,65,0,0
44890,-66.6666666666667,4,2,1,85,0,0
46330,-100,4,2,1,65,0,0
46570,-142.857142857143,4,2,1,65,0,0
46810,-100,4,2,1,65,0,0
47290,-66.6666666666667,4,2,1,85,0,0
48010,-125,4,2,1,65,0,0
49210,-125,4,2,1,55,0,0
49450,-66.6666666666667,4,2,1,85,0,0
49930,-100,4,2,1,65,0,0
51370,240,4,2,1,70,1,0
51370,-142.857142857143,4,2,1,70,0,0
53530,240,4,2,1,90,1,0
53530,-66.6666666666667,4,2,1,90,0,0
60970,-66.6666666666667,4,2,1,70,0,0
61270,-100,4,2,1,5,0,0

[Colours]
Combo1 : 255,255,0
Combo2 : 128,255,0
Combo3 : 0,255,255
Combo4 : 128,0,255
Combo5 : 255,0,6

[HitObjects]
72,120,10,6,0,L|79:174,1,52.5000020027161,2|0,3:0|0:0,0:0:0:0:
158,135,250,2,0,L|169:221,1,78.7500030040742,2|0,3:0|0:0,0:0:0:0:
244,150,490,6,0,L|258:260,1,105.000004005432,2|0,0:0|0:0,0:0:0:0:
330,165,730,6,0,L|344:275,1,105.000004005432,2|0,0:0|0:0,0:0:0:0:
416,180,970,6,0,L|430:290,2,105.000004005432,2|0|2,0:0|0:0|0:0,0:0:0:0:
416,180,1450,6,0,L|395:19,1,157.500006008148,2|0,0:0|0:0,0:0:0:0:
376,0,1690,1,0,3:0:0:0:
220,111,1930,6,0,L|105:103,1,105.000004005432,2|0,0:0|0:0,0:0:0:0:
40,219,2170,2,0,L|155:227,1,105.000004005432,4|0,1:1|0:0,0:0:0:0:
281,238,2410,6,0,P|296:295|284:343,1,105.000004005432,2|0,3:0|0:0,0:0:0:0:
189,384,2650,1,0,1:0:0:0:
189,384,2710,1,0,1:0:0:0:
189,384,2770,1,0,1:0:0:0:
103,322,2890,6,0,L|96:227,2,70,2|0|2,0:0|0:0|0:0,0:0:0:0:
103,322,3370,1,2,3:0:0:0:
281,238,3610,6,0,B|288:194|288:194|271:140|271:140|286:84,1,157.500006008148,4|0,1:2|0:0,0:0:0:0:
349,39,3850,2,0,L|404:46,2,52.5000020027161,0|0|0,1:0|1:0|1:0,0:0:0:0:
197,82,4090,2,0,L|89:68,1,105.000004005432,8|0,1:1|0:0,0:0:0:0:
20,184,4330,2,0,L|127:197,1,105.000004005432,14|0,3:3|0:0,0:0:0:0:
195,313,4570,5,2,1:2:0:0:
195,313,4810,2,0,P|263:306|312:335,1,105.000004005432,2|0,0:0|0:0,0:0:0:0:
419,376,5050,1,0,1:0:0:0:
393,296,5170,1,0,1:0:0:0:
368,215,5290,1,0,1:0:0:0:
343,134,5410,1,0,0:0:0:0:
283,193,5530,6,0,P|215:200|166:171,1,105.000004005432,2|0,1:2|0:0,0:0:0:0:
134,36,5770,1,2,1:2:0:0:
134,36,5890,2,0,P|202:29|251:58,2,105.000004005432,8|8|8,0:0|0:0|0:0,0:0:0:0:
31,155,6250,2,0,L|11:266,1,105.000004005432,2|0,0:0|0:0,0:0:0:0:
128,366,6490,6,0,L|148:255,1,105.000004005432,2|0,1:2|0:0,0:0:0:0:
300,221,6730,1,0,0:0:0:0:
300,221,6850,1,0,0:0:0:0:
393,358,6970,1,10,0:0:0:0:
393,358,7030,1,0,0:0:0:0:
393,358,7090,1,2,0:0:0:0:
509,251,7210,2,0,P|514:184|490:123,1,105.000004005432,10|10,0:0|0:0,0:0:0:0:
371,41,7450,6,0,L|260:61,1,105.000004005432,0|8,1:2|1:0,0:0:0:0:
332,156,7690,2,0,L|221:176,1,105.000004005432,4|8,1:2|1:0,0:0:0:0:
71,199,7930,1,8,2:1:0:0:
127,50,8050,1,4,3:0:0:0:
228,174,8170,1,4,2:2:0:0:
228,174,8290,1,0,1:0:0:0:
71,199,8410,6,0,P|69:233|79:269,1,70,0|0,1:0|0:0,0:0:0:0:
141,351,8650,2,0,P|168:371|203:384,1,70,0|0,1:0|0:0,0:0:0:0:
293,330,8890,1,8,1:0:0:0:
391,367,9010,1,0,0:0:0:0:
391,367,9070,1,0,0:0:0:0:
391,367,9130,2,0,L|437:356,2,35,0|0|8,0:0|0:0|1:0,0:0:0:0:
293,330,9370,1,4,3:0:0:0:
293,330,9490,2,0,L|247:319,2,35,2|0|2,0:0|0:0|0:0,0:0:0:0:
374,263,9730,1,4,3:0:0:0:
374,263,9850,6,0,P|377:219|367:189,1,70,2|4,0:0|3:0,0:0:0:0:
295,120,10090,2,0,P|292:76|302:46,1,70,4|2,1:2|0:0,0:0:0:0:
394,4,10330,2,0,L|474:18,2,70,0|0|8,1:0|1:0|1:0,0:0:0:0:
300,52,10690,1,2,0:0:0:0:
300,52,10750,1,0,0:0:0:0:
300,52,10810,2,0,L|254:41,2,35,2|0|8,0:0|0:0|1:0,0:0:0:0:
396,96,11050,1,2,0:0:0:0:
306,150,11170,1,2,0:0:0:0:
399,196,11290,6,0,P|411:226|416:283,1,70,6|2,3:0|0:0,0:0:0:0:
311,255,11530,2,0,P|310:287|292:341,1,70,6|2,3:3|0:0,0:0:0:0:
206,278,11770,1,6,0:0:0:0:
206,278,12250,6,0,L|132:289,1,70,4|0,1:2|0:0,0:0:0:0:
163,204,12490,2,0,L|89:215,1,70,2|0,0:0|0:0,0:0:0:0:
116,132,12730,2,0,L|186:122,1,70,0|0,0:0|0:0,0:0:0:0:
73,58,12970,1,0,0:0:0:0:
73,58,13090,2,0,L|143:48,1,70,0|2,0:0|0:0,0:0:0:0:
227,35,13330,1,0,0:0:0:0:
310,25,13450,2,0,L|380:15,2,70,0|0|2,0:0|0:0|0:0,0:0:0:0:
227,35,13810,1,0,0:0:0:0:
142,48,13930,1,2,0:0:0:0:
195,113,14050,5,0,0:0:0:0:
195,113,14110,1,0,0:0:0:0:
195,113,14170,2,0,P|204:164|201:189,1,70,2|0,0:0|0:0,0:0:0:0:
283,169,14410,2,0,P|272:219|260:241,1,70,2|0,0:0|0:0,0:0:0:0:
300,305,14650,1,0,0:0:0:0:
300,305,14770,2,0,P|325:281|343:251,1,70,0|0,0:0|0:0,0:0:0:0:
310,384,15010,2,0,P|342:371|370:350,1,70,2|0,0:0|0:0,0:0:0:0:
428,210,15250,2,0,P|432:175|427:140,1,70,2|0,0:0|0:0,0:0:0:0:
420,289,15490,1,0,0:0:0:0:
370,349,15610,2,0,P|342:371|310:384,1,70,0|0,0:0|0:0,0:0:0:0:
244,331,15850,2,0,P|211:344|184:365,1,70
105,335,16090,6,0,L|86:243,1,70,2|0,0:0|0:0,0:0:0:0:
175,270,16330,2,0,L|156:178,1,70,2|0,0:0|0:0,0:0:0:0:
230,136,16570,1,0,0:0:0:0:
230,136,16690,2,0,L|245:205,1,70,2|0,3:2|0:0,0:0:0:0:
300,71,16930,2,0,L|315:140,1,70,2|0,0:0|0:0,0:0:0:0:
234,140,17170,2,0,L|249:209,1,70,2|0,3:2|0:0,0:0:0:0:
304,75,17410,2,0,L|319:144,2,70,2|0|0,0:0|0:0|0:0,0:0:0:0:
221,58,17770,1,2,0:0:0:0:
262,222,17890,1,0,0:0:0:0:
262,222,17950,1,0,0:0:0:0:
262,222,18010,6,0,P|219:224|188:211,1,70,2|0,0:0|3:0,0:0:0:0:
118,177,18250,2,0,P|75:175|44:188,2,70,2|2|2,0:0|3:2|0:0,0:0:0:0:
182,121,18610,1,2,3:2:0:0:
182,121,18730,1,2,0:0:0:0:
182,121,18850,2,0,P|225:123|256:110,1,70,2|0,3:2|3:2,0:0:0:0:
324,76,19090,2,0,P|367:74|398:87,2,70,2|0|2,0:0|0:0|0:0,0:0:0:0:
350,155,19450,2,0,L|368:231,1,70,0|2,0:0|0:0,0:0:0:0:
437,179,19690,2,0,L|455:255,1,70,0|2,0:0|0:0,0:0:0:0:
470,346,19930,5,0,1:0:0:0:
370,333,20050,1,0,1:0:0:0:
270,319,20170,1,8,0:1:0:0:
170,305,20290,1,2,0:0:0:0:
170,305,20350,1,0,0:0:0:0:
170,305,20410,2,0,L|80:320,2,83.9999974365235,2|0|0,0:0|1:0|1:0,0:0:0:0:
237,228,20770,1,8,0:1:0:0:
237,228,21010,5,0,0:0:0:0:
170,151,21130,1,8,2:1:0:0:
170,151,21190,1,0,0:0:0:0:
170,151,21250,1,2,0:0:0:0:
227,67,21370,2,0,L|317:52,2,83.9999974365235,2|0|0,0:0|1:0|1:0,0:0:0:0:
126,63,21730,1,8,0:1:0:0:
47,1,21850,5,0,1:0:0:0:
34,101,21970,1,0,1:0:0:0:
20,201,22090,1,8,0:1:0:0:
6,301,22210,1,2,0:0:0:0:
6,301,22270,1,0,0:0:0:0:
6,301,22330,2,0,L|21:391,2,83.9999974365235,2|0|0,0:0|1:0|1:0,0:0:0:0:
20,201,22690,1,8,0:1:0:0:
20,201,22930,5,2,0:0:0:0:
20,201,22990,1,0,0:0:0:0:
20,201,23050,2,0,P|63:191|115:199,1,83.9999974365235,8|2,0:1|0:0,0:0:0:0:
149,283,23290,2,0,P|192:293|244:285,1,83.9999974365235,2|8,0:0|0:1,0:0:0:0:
292,208,23530,1,2,0:0:0:0:
292,208,23590,1,0,0:0:0:0:
292,208,23650,1,2,0:0:0:0:
370,270,23770,6,0,L|388:360,1,83.9999974365235,2|0,1:2|0:0,0:0:0:0:
448,190,24010,2,0,L|466:280,1,83.9999974365235,8|2,1:1|0:0,0:0:0:0:
353,187,24250,1,0,0:0:0:0:
353,187,24370,2,0,L|371:277,1,83.9999974365235,2|0,0:0|1:0,0:0:0:0:
431,107,24610,2,0,L|449:197,1,83.9999974365235,8|0,1:1|1:1,0:0:0:0:
336,104,24850,6,0,L|318:14,1,83.9999974365235,2|2,0:0|0:0,0:0:0:0:
250,76,25090,1,2,0:0:0:0:
182,135,25210,2,0,L|200:225,2,83.9999974365235,2|0|0,0:0|1:0|1:0,0:0:0:0:
92,88,25570,1,8,1:1:0:0:
92,88,25630,1,0,0:0:0:0:
92,88,25690,2,0,P|41:84|8:97,1,83.9999974365235,2|0,1:2|1:0,0:0:0:0:
19,195,25930,2,0,P|70:199|103:186,1,83.9999974365235,2|2,0:0|0:0,0:0:0:0:
182,135,26170,2,0,P|223:129|263:142,2,83.9999974365235,0|8|0,1:0|0:1|1:0,0:0:0:0:
100,187,26530,5,8,0:1:0:0:
100,187,27130,1,2,0:0:0:0:
100,187,27190,1,0,0:0:0:0:
100,187,27250,1,2,0:0:0:0:
53,276,27370,2,0,P|49:327|62:360,1,83.9999974365235,10|10,0:1|0:1,0:0:0:0:
184,382,27610,6,0,L|295:362,1,105.000004005432,2|0,1:2|0:0,0:0:0:0:
313,360,27790,1,0,0:0:0:0:
339,356,27850,2,0,L|450:336,1,105.000004005432,2|0,1:2|0:0,0:0:0:0:
486,218,28090,1,14,3:0:0:0:
486,218,28150,1,0,0:0:0:0:
486,218,28210,2,0,L|495:163,2,52.5000020027161,14|0|14,3:0|0:0|1:3,0:0:0:0:
361,242,28450,1,2,0:0:0:0:
361,242,28510,1,0,0:0:0:0:
361,242,28570,6,0,L|250:262,1,105.000004005432,0|2,1:0|0:0,0:0:0:0:
182,158,28810,2,0,L|293:138,1,105.000004005432,2|0,1:2|0:0,0:0:0:0:
392,124,29050,1,0,1:0:0:0:
392,124,29110,1,0,0:0:0:0:
392,124,29170,2,0,L|406:67,1,52.5000020027161
362,50,29290,2,0,L|376:-7,2,52.5000020027161,8|0|2,1:1|0:0|0:0,0:0:0:0:
214,66,29530,6,0,L|103:46,1,105.000004005432,0|2,1:0|0:0,0:0:0:0:
47,131,29770,2,0,L|158:151,1,105.000004005432,8|2,1:0|0:0,0:0:0:0:
164,172,29950,1,0,0:0:0:0:
179,193,30010,2,0,L|290:213,1,105.000004005432,8|2,1:0|0:0,0:0:0:0:
296,234,30190,1,0,0:0:0:0:
310,255,30250,2,0,L|421:275,2,105.000004005432,2|0|8,0:0|1:0|1:0,0:0:0:0:
310,255,30970,5,2,0:0:0:0:
310,255,31030,1,0,0:0:0:0:
310,255,31090,1,2,0:0:0:0:
226,318,31210,2,0,L|115:298,1,105.000004005432,2|4,0:0|0:0,0:0:0:0:
55,218,31450,6,0,L|0:208,2,52.5000020027161,8|0|8,0:0|0:0|0:0,0:0:0:0:
112,128,31690,1,4,0:0:0:0:
190,197,31810,1,8,1:1:0:0:
282,146,31930,6,0,P|327:122|393:126,1,105.000004005432,0|2,1:0|0:0,0:0:0:0:
405,130,32110,1,0,0:0:0:0:
429,139,32170,2,0,P|472:165|501:225,1,105.000004005432,14|14,3:0|3:0,0:0:0:0:
465,301,32410,1,0,1:0:0:0:
465,301,32650,1,0,1:0:0:0:
465,301,32890,6,0,L|355:318,1,105.000004005432,0|2,1:0|0:0,0:0:0:0:
267,331,33130,1,0,0:0:0:0:
267,331,33190,1,0,0:0:0:0:
267,331,33250,1,0,1:0:0:0:
303,243,33370,2,0,P|309:180|296:135,1,105.000004005432,2|8,0:0|1:0,0:0:0:0:
131,117,33610,2,0,P|125:180|138:225,1,105.000004005432,14|14,3:3|0:3,0:0:0:0:
303,243,33850,6,0,L|358:233,2,52.5000020027161,8|0|8,0:0|0:0|0:0,0:0:0:0:
216,304,34090,1,8,0:0:0:0:
112,319,34210,2,0,L|56:329,2,52.5000020027161,8|0|8,0:0|0:0|0:0,0:0:0:0:
135,219,34450,1,8,0:0:0:0:
109,117,34570,1,8,0:0:0:0:
7,143,34690,1,8,0:0:0:0:
33,245,34810,1,8,0:0:0:0:
33,245,34870,1,0,0:0:0:0:
33,245,34930,1,8,0:0:0:0:
135,219,35050,2,0,L|239:189,1,105.000004005432,8|8,0:0|0:0,0:0:0:0:
282,94,35290,6,0,P|338:86|393:114,1,105.000004005432,4|0,1:2|0:0,0:0:0:0:
420,237,35530,2,0,P|364:245|309:217,1,105.000004005432,4|0,1:2|0:0,0:0:0:0:
191,173,35770,6,0,P|135:165|80:193,1,105.000004005432,4|0,1:2|0:0,0:0:0:0:
53,316,36010,2,0,P|109:324|164:296,1,105.000004005432,6|2,1:2|0:0,0:0:0:0:
279,357,36250,1,14,0:3:0:0:
279,357,36490,1,14,0:3:0:0:
279,357,36730,2,0,L|392:341,1,105.000004005432,2|0,0:0|0:0,0:0:0:0:
488,254,36970,1,14,1:3:0:0:
488,254,37030,1,14,1:3:0:0:
488,254,37090,1,14,1:3:0:0:
370,184,37210,6,0,P|350:131|357:76,2,105.000004005432,2|2|2,1:1|1:1|1:0,0:0:0:0:
488,254,37570,2,0,P|498:280|494:308,4,52.5000020027161,2|0|2|0|2,1:0|1:0|1:0|0:0|0:0,0:0:0:0:
370,184,38170,5,4,2:0:0:0:
370,184,38650,2,0,L|266:177,1,105.000004005432,0|2,0:0|0:0,0:0:0:0:
167,272,38890,2,0,L|63:265,1,105.000004005432,2|2,0:0|0:0,0:0:0:0:
5,140,39130,2,0,P|3:73|21:28,2,105.000004005432,0|0|0,1:0|0:0|1:0,0:0:0:0:
61,266,39490,5,2,2:0:0:0:
61,266,39730,2,0,L|16:272,2,35,8|8|0,0:0|0:0|0:0,0:0:0:0:
167,272,39970,2,0,L|241:262,2,70,2|8|2,0:0|0:1|0:0,0:0:0:0:
121,177,40330,1,8,0:1:0:0:
157,84,40450,5,6,1:0:0:0:
256,192,40570,12,2,42430,0:0:0:0:
68,69,42730,5,0,1:0:0:0:
68,69,42850,1,8,1:0:0:0:
196,23,42970,6,0,L|322:30,1,105.000004005432,4|0,1:2|0:0,0:0:0:0:
374,143,43210,2,0,L|248:150,1,105.000004005432,4|0,1:2|0:0,0:0:0:0:
163,234,43450,2,0,P|149:298|165:346,1,105.000004005432,2|0,0:0|0:0,0:0:0:0:
175,355,43630,1,0,0:0:0:0:
199,363,43690,2,0,L|274:358,2,52.5000020027161,2|0|2,0:0|0:0|0:0,0:0:0:0:
52,317,43930,6,0,L|45:191,1,105.000004005432,4|0,1:2|0:0,0:0:0:0:
159,120,44170,2,0,L|152:-6,1,105.000004005432,4|0,1:2|0:0,0:0:0:0:
306,15,44410,6,0,P|354:16|306:49,1,140,2|8,0:0|0:0,0:0:0:0:
310,53,44890,6,0,B|292:102|292:102|310:169,1,105.000004005432,6|0,1:2|0:0,0:0:0:0:
421,226,45130,2,0,B|439:177|439:177|421:110,1,105.000004005432,4|0,0:0|0:0,0:0:0:0:
305,153,45370,6,0,B|286:201|286:201|304:268,1,105.000004005432,6|0,1:2|0:0,0:0:0:0:
417,325,45610,2,0,B|435:276|435:276|417:209,1,105.000004005432,6|0,1:2|0:0,0:0:0:0:
283,344,45850,6,0,L|170:329,1,105.000004005432,6|0,1:2|0:0,0:0:0:0:
105,213,46090,2,0,L|-8:228,1,105.000004005432,6|0,1:2|0:0,0:0:0:0:
83,62,46330,6,0,P|118:62|83:86,1,105,2|0,0:0|0:0,0:0:0:0:
54,75,46570,1,2,0:0:0:0:
225,15,46810,5,2,0:0:0:0:
225,15,47050,1,2,0:0:0:0:
297,199,47290,1,6,1:2:0:0:
297,199,47350,1,0,0:0:0:0:
297,199,47410,1,0,0:0:0:0:
357,112,47530,2,0,L|469:123,1,105.000004005432,6|4,1:2|0:0,0:0:0:0:
503,26,47770,1,6,1:2:0:0:
503,26,48010,6,0,B|243:0|243:0|292:66,1,336,2|14,0:0|1:0,0:0:0:0:
420,234,49210,5,0,1:0:0:0:
420,234,49270,1,0,1:0:0:0:
420,234,49330,1,0,1:0:0:0:
341,163,49450,2,0,L|229:174,1,105.000004005432,4|0,2:0|0:0,0:0:0:0:
285,267,49690,2,0,L|173:278,1,105.000004005432,4|0,2:0|0:0,0:0:0:0:
22,293,49930,5,2,0:0:0:0:
12,208,50050,1,0,0:0:0:0:
96,199,50170,1,2,0:0:0:0:
106,283,50290,1,0,0:0:0:0:
22,293,50410,1,2,0:0:0:0:
12,208,50530,1,0,0:0:0:0:
96,199,50650,6,0,P|112:159|109:127,1,70,8|8,0:1|0:1,0:0:0:0:
14,35,50890,2,0,P|-2:75|1:107,1,70,8|8,0:2|0:1,0:0:0:0:
155,42,51130,2,0,L|235:46,1,70,0|14,1:0|0:3,0:0:0:0:
318,142,51370,6,0,P|374:149|410:128,1,97.9999970092774,4|0,0:0|0:0,0:0:0:0:
446,58,51730,1,0,0:0:0:0:
446,58,51850,2,0,L|499:62,1,48.9999985046387,8|0,0:0|0:0,0:0:0:0:
357,12,52090,2,0,L|304:16,1,48.9999985046387,2|0,0:0|0:0,0:0:0:0:
318,142,52330,6,0,P|328:208|311:252,1,97.9999970092774,2|2,0:3|0:0,0:0:0:0:
268,297,52690,1,0,0:0:0:0:
268,297,52810,2,0,L|215:293,1,48.9999985046387,8|8,1:2|0:1,0:0:0:0:
343,344,53050,2,0,L|396:340,1,48.9999985046387,8|0,0:1|0:0,0:0:0:0:
457,297,53290,1,2,0:0:0:0:
476,220,53410,1,4,0:0:0:0:
418,149,53530,6,0,L|403:36,1,105.000004005432,6|0,1:2|0:0,0:0:0:0:
284,164,53770,2,0,L|299:277,1,105.000004005432,6|0,1:2|0:0,0:0:0:0:
338,106,54010,6,0,L|323:-7,1,105.000004005432,4|0,1:2|0:0,0:0:0:0:
204,121,54250,2,0,L|219:234,1,105.000004005432,4|0,1:2|0:0,0:0:0:0:
194,39,54490,5,0,1:0:0:0:
194,39,54610,1,2,0:0:0:0:
71,8,54730,5,0,1:0:0:0:
71,8,54850,1,2,0:0:0:0:
40,131,54970,5,0,1:0:0:0:
40,131,55090,1,2,0:0:0:0:
163,162,55210,6,0,L|274:141,1,105.000004005432,2|2,1:2|0:0,0:0:0:0:
466,218,55450,6,0,P|480:277|466:329,1,105.000004005432,0|2,1:0|0:0,0:0:0:0:
270,243,55690,2,0,P|256:184|270:132,1,105.000004005432,0|2,1:0|0:0,0:0:0:0:
366,283,55930,6,0,P|380:342|366:394,1,105.000004005432,0|2,1:0|0:0,0:0:0:0:
170,308,56170,2,0,P|156:249|170:197,1,105.000004005432,0|2,1:0|0:0,0:0:0:0:
276,144,56410,6,0,L|387:165,1,105.000004005432,0|2,1:0|0:0,0:0:0:0:
459,65,56650,2,0,L|348:44,1,105.000004005432,0|2,1:0|0:0,0:0:0:0:
151,119,56890,6,0,L|48:100,1,105.000004005432,0|2,1:0|0:0,0:0:0:0:
127,1,57130,2,0,L|231:21,1,105.000004005432,0|2,1:0|0:0,0:0:0:0:
251,197,57370,6,0,P|261:252|246:312,1,105.000004005432,0|2,1:0|0:0,0:0:0:0:
134,347,57610,2,0,P|124:292|139:232,1,105.000004005432,0|2,1:0|0:0,0:0:0:0:
368,149,57850,6,0,P|378:98|368:47,1,105.000004005432,0|2,1:0|0:0,0:0:0:0:
250,94,58090,2,0,P|240:145|251:197,1,105.000004005432,0|2,1:0|0:0,0:0:0:0:
337,273,58330,5,0,1:0:0:0:
337,273,58450,1,2,0:0:0:0:
395,384,58570,5,0,1:0:0:0:
395,384,58690,1,2,0:0:0:0:
506,326,58810,5,0,1:0:0:0:
506,326,58930,1,2,0:0:0:0:
448,215,59050,6,0,P|428:138|437:96,1,105.000004005432,2|0,1:2|0:0,0:0:0:0:
326,16,59290,6,0,L|216:34,1,105.000004005432,0|2,1:0|0:0,0:0:0:0:
298,134,59530,2,0,L|188:152,1,105.000004005432,0|2,1:0|0:0,0:0:0:0:
95,230,59770,6,0,L|205:248,1,105.000004005432,0|2,1:0|0:0,0:0:0:0:
123,348,60010,2,0,L|233:366,1,105.000004005432,0|2,1:0|0:0,0:0:0:0:
328,288,60250,6,0,P|391:275|443:300,1,105.000004005432,4|0,1:2|0:0,0:0:0:0:
377,139,60490,1,8,1:0:0:0:
229,195,60610,2,0,P|166:208|114:183,1,105.000004005432,0|8,0:0|0:1,0:0:0:0:
183,46,60850,1,0,0:0:0:0:
229,195,60970,6,0,L|203:308,1,105.000004005432,0|8,0:0|0:1,0:0:0:0:
50,325,61210,5,14,0:3:0:0:
256,192,61270,12,0,65290,0:0:0:0:
