osu file format v14

[General]
AudioFilename: audio.mp3
AudioLeadIn: 0
PreviewTime: 2650
Countdown: 0
SampleSet: Soft
StackLeniency: 0.4
Mode: 0
LetterboxInBreaks: 0
WidescreenStoryboard: 1

[Editor]
Bookmarks: 6500,10580,12260,27620,35300,38180,40460,42980,61220,65300
DistanceSpacing: 1.2
BeatDivisor: 8
GridSize: 4
TimelineZoom: 2.84

[Metadata]
Title:Caramelo da desgraca
TitleUnicode:Caramelo da desgraça
Artist:Mestre3224
ArtistUnicode:Mestre3224
Creator:Mismagius
Version:Extra
Source:
Tags:stole my samples mashcore hardcore breakcore buddy holly weezer caramelldansen NEDM brasil brazil portuguese
BeatmapID:1696207
BeatmapSetID:754401

[Difficulty]
HPDrainRate:5.5
CircleSize:4
OverallDifficulty:8.7
ApproachRate:9.3
SliderMultiplier:1.6
SliderTickRate:1

[Events]
//Background and Video events
0,0,"wallhaven-92.jpg",0,0
//Break Periods
//Storyboard Layer 0 (Background)
//Storyboard Layer 1 (Fail)
//Storyboard Layer 2 (Pass)
//Storyboard Layer 3 (Foreground)
//Storyboard Sound Samples

[TimingPoints]
10,240,4,2,1,70,1,0
10,-200,4,2,1,70,0,0
250,-142.857142857143,4,2,1,70,0,0
490,-58.8235294117647,4,2,1,70,0,0
610,-58.8235294117647,4,2,1,20,0,0
730,-58.8235294117647,4,2,1,70,0,0
850,-58.8235294117647,4,2,1,20,0,0
970,-58.8235294117647,4,2,1,70,0,0
1690,-142.857142857143,4,2,1,20,0,0
1930,-76.9230769230769,4,2,1,70,0,0
2170,-58.8235294117647,4,2,1,70,0,0
2410,-71.4285714285714,4,2,1,70,0,0
2650,240,4,2,1,70,1,0
3370,-100,4,2,1,70,0,0
3550,-166.666666666667,4,2,1,20,0,0
3610,-58.8235294117647,4,2,1,70,0,0
3850,-58.8235294117647,4,2,1,50,0,0
4090,-58.8235294117647,4,2,1,70,0,0
4570,-52.6315789473684,4,2,1,70,0,0
5050,-58.8235294117647,4,2,1,70,0,0
6490,-52.6315789473684,4,2,1,70,0,0
8290,-52.6315789473684,4,2,1,50,0,0
8410,-100,4,2,1,70,0,0
11890,-100,4,2,1,40,0,0
15490,-200,4,2,1,30,0,0
15730,-200,4,2,1,20,0,0
16090,-100,4,2,1,40,0,0
17770,-200,4,2,1,20,0,0
18010,-200,4,2,1,30,0,0
18250,-142.857142857143,4,2,1,30,0,0
18490,-111.111111111111,4,2,1,30,0,0
18610,-90.9090909090909,4,2,1,50,0,0
18850,-200,4,2,1,60,0,0
18970,-200,4,2,1,70,0,0
19450,-111.111111111111,4,2,1,70,0,0
19930,-83.3333333333333,4,2,1,70,0,0
20770,-125,4,2,1,70,0,0
21130,-83.3333333333333,4,2,1,70,0,0
22690,-125,4,2,1,70,0,0
23170,-83.3333333333333,4,2,1,70,0,0
26530,-200,4,2,1,55,0,0
26560,-200,4,2,1,5,0,0
26830,-200,4,2,1,25,0,0
26890,-200,4,2,1,45,0,0
26950,-100,4,2,1,65,0,0
27610,-58.8235294117647,4,2,1,85,0,0
29050,-52.6315789473684,4,2,1,85,0,0
29530,-58.8235294117647,4,2,1,85,0,0
30730,-100,4,2,1,85,0,0
31330,-58.8235294117647,4,2,1,85,0,0
31570,-100,4,2,1,85,0,0
31930,-62.5,4,2,1,85,0,0
32410,-142.857142857143,4,2,1,30,0,0
32530,-142.857142857143,4,2,1,60,0,0
32650,-142.857142857143,4,2,1,30,0,0
32770,-142.857142857143,4,2,1,60,0,0
32890,-142.857142857143,4,2,1,30,0,0
33010,-142.857142857143,4,2,1,60,0,0
33850,-58.8235294117647,4,2,1,85,0,0
36490,-52.6315789473684,4,2,1,85,0,0
37570,-66.6666666666667,4,2,1,85,0,0
38890,-58.8235294117647,4,2,1,85,0,0
39490,-100,4,2,1,65,0,0
40450,-66.6666666666667,4,2,1,65,0,0
42730,-100,4,2,1,65,0,0
42970,-58.8235294117647,4,2,1,85,0,0
44410,-100,4,2,1,65,0,0
44890,-58.8235294117647,4,2,1,85,0,0
46330,-100,4,2,1,65,0,0
46570,-142.857142857143,4,2,1,65,0,0
46810,-100,4,2,1,65,0,0
47290,-58.8235294117647,4,2,1,85,0,0
48010,-125,4,2,1,65,0,0
49210,-125,4,2,1,55,0,0
49450,-58.8235294117647,4,2,1,85,0,0
49930,-100,4,2,1,65,0,0
51370,240,4,2,1,70,1,0
51370,-142.857142857143,4,2,1,70,0,0
53530,240,4,2,1,90,1,0
53530,-58.8235294117647,4,2,1,90,0,0
60970,-100,4,2,1,70,0,0
61270,-100,4,2,1,5,0,0

[Colours]
Combo1 : 255,255,0
Combo2 : 128,255,0
Combo3 : 0,255,255
Combo4 : 128,0,255
Combo5 : 255,0,6

[HitObjects]
31,160,10,6,0,L|87:167,1,40,2|0,3:0|0:0,0:0:0:0:
142,301,250,2,0,L|198:294,1,55.9999982910157,2|0,3:0|0:0,0:0:0:0:
279,122,490,6,0,L|415:139,1,136.000002593994,2|0,0:0|0:0,0:0:0:0:
471,337,730,6,0,L|334:319,1,136.000002593994,2|0,0:0|0:0,0:0:0:0:
260,100,970,6,0,L|396:117,2,136.000002593994,2|0|2,0:0|0:0|0:0,0:0:0:0:
260,100,1450,6,0,P|208:140|139:131,1,136.000002593994,2|0,0:0|0:0,0:0:0:0:
73,88,1690,5,0,3:0:0:0:
122,322,1930,6,0,B|172:340|172:340|237:328,1,103.999995239258,2|0,0:0|0:0,0:0:0:0:
381,293,2170,6,0,B|426:195|335:195|381:97,1,204.000003890991,4|0,1:1|0:0,0:0:0:0:
435,40,2410,2,0,P|463:93|449:141,1,111.999996582031,2|0,3:0|0:0,0:0:0:0:
233,46,2650,5,0,1:0:0:0:
233,46,2710,1,0,1:0:0:0:
233,46,2770,1,0,1:0:0:0:
106,155,2890,2,0,L|11:142,1,80,2|0,0:0|0:0,0:0:0:0:
85,322,3130,2,0,L|180:309,1,80,2|0,0:0|0:0,0:0:0:0:
315,221,3370,6,0,P|380:213|433:253,1,120,2|0,3:0|0:0,0:0:0:0:
473,329,3610,6,0,B|375:374|375:283|277:329,1,204.000003890991,4|0,1:2|0:0,0:0:0:0:
196,362,3850,1,0,1:0:0:0:
196,362,3910,1,0,1:0:0:0:
196,362,3970,1,0,1:0:0:0:
67,287,4090,6,0,P|46:228|63:151,1,136.000002593994,8|0,1:1|0:0,0:0:0:0:
291,86,4330,2,0,P|312:145|295:222,1,136.000002593994,14|0,3:3|0:0,0:0:0:0:
95,27,4570,1,2,1:2:0:0:
95,27,4810,6,0,L|258:-2,1,151.999995941162,2|0,0:0|0:0,0:0:0:0:
466,53,5050,1,0,1:0:0:0:
310,123,5170,1,0,1:0:0:0:
511,183,5290,2,0,P|525:252|496:322,1,136.000002593994,0|0,1:0|0:0,0:0:0:0:
310,123,5530,6,0,L|147:152,1,136.000002593994,2|0,1:2|0:0,0:0:0:0:
42,358,5770,1,2,1:2:0:0:
191,384,5890,1,8,0:0:0:0:
58,207,6010,2,0,P|44:138|73:68,1,136.000002593994,8|8,0:0|0:0,0:0:0:0:
310,123,6250,2,0,P|324:192|295:262,1,136.000002593994,2|0,0:0|0:0,0:0:0:0:
227,3,6490,6,0,L|390:32,1,151.999995941162,2|0,1:2|0:0,0:0:0:0:
512,273,6730,2,0,L|349:302,1,151.999995941162,2|0,1:2|0:0,0:0:0:0:
165,331,6970,1,10,0:0:0:0:
165,331,7030,1,0,0:0:0:0:
165,331,7090,1,2,0:0:0:0:
247,178,7210,1,10,0:0:0:0:
154,357,7330,1,10,0:0:0:0:
21,206,7450,6,0,L|-1:43,1,151.999995941162,0|8,1:2|1:0,0:0:0:0:
227,27,7690,2,0,L|249:190,1,151.999995941162,4|8,1:2|1:0,0:0:0:0:
268,382,7930,1,8,2:1:0:0:
472,361,8050,1,4,3:0:0:0:
451,157,8170,1,4,2:2:0:0:
247,177,8290,1,0,1:0:0:0:
268,382,8410,6,0,L|158:370,1,80,0|0,1:0|0:0,0:0:0:0:
107,278,8650,2,0,L|-2:266,1,80,0|0,1:0|0:0,0:0:0:0:
116,163,8890,1,8,1:0:0:0:
204,56,9010,1,0,0:0:0:0:
204,56,9070,1,0,0:0:0:0:
204,56,9130,2,0,L|265:62,1,40
314,115,9250,2,0,L|375:108,1,40,8|0,1:0|0:0,0:0:0:0:
428,59,9370,5,4,3:0:0:0:
479,210,9490,1,2,0:0:0:0:
479,210,9550,1,0,0:0:0:0:
479,210,9610,2,0,L|487:254,1,40,2|0,0:0|0:0,0:0:0:0:
499,329,9730,1,4,3:0:0:0:
378,350,9850,1,2,0:0:0:0:
378,350,9910,1,0,0:0:0:0:
378,350,9970,1,4,3:0:0:0:
257,371,10090,2,0,L|172:358,1,80,4|2,1:2|0:0,0:0:0:0:
55,341,10330,6,0,P|45:286|51:252,1,80,0|0,1:0|1:0,0:0:0:0:
130,171,10570,1,8,1:0:0:0:
52,80,10690,1,2,0:0:0:0:
52,80,10750,1,0,0:0:0:0:
52,80,10810,2,0,L|45:33,2,40,2|0|8,0:0|0:0|1:0,0:0:0:0:
130,171,11050,2,0,L|186:166,1,40,2|0,0:0|0:0,0:0:0:0:
226,104,11170,2,0,L|282:109,1,40,2|0,0:0|0:0,0:0:0:0:
327,170,11290,6,0,L|410:162,1,80,6|2,3:0|0:0,0:0:0:0:
465,325,11530,2,0,L|381:332,1,80,6|2,3:3|0:0,0:0:0:0:
327,170,11770,1,6,0:0:0:0:
260,343,11890,6,0,L|250:382,1,40,8|0,0:1|0:0,0:0:0:0:
181,330,12010,2,0,L|171:372,1,40,8|0,0:1|0:0,0:0:0:0:
102,317,12130,2,0,L|92:360,1,40,8|0,0:1|0:0,0:0:0:0:
41,248,12250,6,0,P|32:212|39:163,1,80,4|0,1:2|0:0,0:0:0:0:
165,105,12490,2,0,P|174:141|167:190,1,80,2|0,0:0|0:0,0:0:0:0:
41,248,12730,1,0,0:0:0:0:
41,248,12850,2,0,P|32:212|39:163,1,80
165,105,13090,6,0,P|174:141|167:190,1,80,2|0,0:0|0:0,0:0:0:0:
134,319,13330,1,0,0:0:0:0:
134,319,13450,1,0,0:0:0:0:
134,319,13570,1,0,0:0:0:0:
134,319,13690,1,0,0:0:0:0:
123,209,13810,1,0,0:0:0:0:
206,273,13930,1,2,0:0:0:0:
207,171,14050,1,0,0:0:0:0:
207,171,14110,1,0,0:0:0:0:
207,171,14170,6,0,L|305:175,1,80,2|0,0:0|0:0,0:0:0:0:
378,80,14410,2,0,L|280:84,1,80,2|0,0:0|0:0,0:0:0:0:
210,174,14650,1,0,0:0:0:0:
210,174,14770,2,0,L|308:178,1,80
381,83,15010,6,0,L|283:87,1,80,2|0,0:0|0:0,0:0:0:0:
213,177,15250,2,0,L|311:181,1,80,2|0,0:0|0:0,0:0:0:0:
107,165,15490,1,0,0:0:0:0:
95,271,15610,1,0,0:0:0:0:
201,283,15730,1,0,0:0:0:0:
95,271,15850,6,0,L|48:265,1,40
60,168,16090,6,0,P|48:129|56:70,1,80,2|0,0:0|0:0,0:0:0:0:
183,23,16330,2,0,P|195:62|187:121,1,80,2|0,0:0|0:0,0:0:0:0:
60,168,16570,1,0,3:2:0:0:
60,168,16690,2,0,P|48:129|56:70,1,80
159,195,16930,6,0,L|259:182,1,80,2|0,0:0|0:0,0:0:0:0:
296,316,17170,2,0,L|196:303,1,80,2|0,0:0|0:0,0:0:0:0:
159,195,17410,1,0,3:0:0:0:
159,195,17530,1,0,0:0:0:0:
159,195,17650,1,0,0:0:0:0:
216,305,17770,1,2,0:0:0:0:
351,239,17890,1,0,0:0:0:0:
351,239,17950,1,0,0:0:0:0:
351,239,18010,6,0,P|382:241|394:248,1,40,2|0,0:0|3:0,0:0:0:0:
499,135,18250,2,0,P|459:136|444:144,1,55.9999982910157,2|2,0:0|3:2,0:0:0:0:
358,312,18490,5,0,0:0:0:0:
201,252,18610,2,0,P|141:253|118:267,2,88.000002685547,0|0|2,0:0|3:2|0:0,0:0:0:0:
107,373,18970,5,0,3:2:0:0:
1,361,19090,1,2,0:0:0:0:
13,255,19210,1,0,0:0:0:0:
119,267,19330,1,2,0:0:0:0:
280,365,19450,6,0,P|330:361|349:350,1,71.9999978027344,0|2,0:0|0:0,0:0:0:0:
415,155,19690,2,0,P|363:156|344:167,1,71.9999978027344,0|2,0:0|0:0,0:0:0:0:
234,279,19930,5,0,1:0:0:0:
180,166,20050,1,0,1:0:0:0:
243,58,20170,1,8,0:1:0:0:
171,182,20290,1,2,0:0:0:0:
171,182,20350,1,0,0:0:0:0:
171,182,20410,2,0,L|73:191,2,95.9999970703126,2|0|0,0:0|1:0|1:0,0:0:0:0:
329,162,20770,6,0,B|390:133|390:190|451:162,1,128,8|0,0:1|0:0,0:0:0:0:
500,45,21130,1,8,2:1:0:0:
500,45,21190,1,0,0:0:0:0:
500,45,21250,1,2,0:0:0:0:
500,45,21310,1,0,0:0:0:0:
500,45,21370,2,0,L|395:29,1,95.9999970703126,2|0,0:0|1:0,0:0:0:0:
293,88,21610,2,0,L|188:72,1,95.9999970703126,0|8,1:0|0:1,0:0:0:0:
73,56,21850,5,0,1:0:0:0:
33,174,21970,1,0,1:0:0:0:
86,286,22090,1,8,0:1:0:0:
203,328,22210,1,2,0:0:0:0:
203,328,22270,1,0,0:0:0:0:
203,328,22330,2,0,L|301:319,2,95.9999970703126,2|0|0,0:0|1:0|1:0,0:0:0:0:
184,201,22690,6,0,B|155:139|212:139|184:78,1,128,8|2,0:1|0:0,0:0:0:0:
156,46,22990,1,0,0:0:0:0:
156,46,23050,2,0,L|91:35,1,64,8|2,0:1|0:0,0:0:0:0:
11,155,23290,1,2,0:0:0:0:
11,155,23350,1,0,0:0:0:0:
11,155,23410,1,8,0:1:0:0:
100,288,23530,1,2,0:0:0:0:
100,288,23590,1,0,0:0:0:0:
100,288,23650,1,2,0:0:0:0:
100,288,23710,1,0,0:0:0:0:
100,288,23770,6,0,P|145:293|211:275,1,95.9999970703126,2|0,1:2|0:0,0:0:0:0:
303,153,24010,2,0,P|348:148|414:166,1,95.9999970703126,8|2,1:1|0:0,0:0:0:0:
483,363,24250,1,2,0:0:0:0:
483,363,24370,2,0,P|438:368|372:350,1,95.9999970703126,0|0,1:0|1:0,0:0:0:0:
303,153,24610,6,0,P|348:148|414:166,1,95.9999970703126,8|0,1:1|0:0,0:0:0:0:
310,283,24850,1,0,1:1:0:0:
310,283,24970,1,2,0:0:0:0:
310,283,25090,2,0,P|263:293|215:288,1,95.9999970703126,2|0,0:0|1:0,0:0:0:0:
107,246,25330,1,0,1:0:0:0:
39,152,25450,1,8,1:0:0:0:
71,41,25570,1,0,1:1:0:0:
71,41,25630,1,0,0:0:0:0:
71,41,25690,6,0,L|178:21,1,95.9999970703126,2|0,1:2|1:0,0:0:0:0:
276,227,25930,2,0,L|169:207,1,95.9999970703126,2|2,0:2|0:0,0:0:0:0:
38,178,26170,1,0,1:0:0:0:
6,322,26290,1,8,0:1:0:0:
150,354,26410,1,0,1:0:0:0:
182,210,26530,2,0,L|185:197,16,10,8|8|8|8|8|8|8|8|8|8|8|8|8|8|0|0|0,0:1|0:1|0:1|0:1|0:1|0:1|0:1|0:1|0:1|0:1|0:1|0:1|0:1|0:1|0:0|0:0|0:0,0:0:0:0:
279,323,27130,5,2,0:0:0:0:
279,323,27190,1,0,0:0:0:0:
279,323,27250,1,2,0:0:0:0:
414,258,27370,2,0,P|421:224|412:179,1,80,10|10,0:1|0:1,0:0:0:0:
297,45,27610,6,0,L|153:59,1,136.000002593994,2|0,1:2|0:0,0:0:0:0:
86,67,27790,1,0,0:0:0:0:
86,67,27850,2,0,P|70:142|87:202,1,136.000002593994,2|0,1:2|0:0,0:0:0:0:
156,329,28090,1,14,3:0:0:0:
156,329,28150,1,0,0:0:0:0:
156,329,28210,1,14,3:0:0:0:
156,329,28270,1,0,0:0:0:0:
156,329,28330,2,0,L|300:343,1,136.000002593994,14|2,1:3|0:0,0:0:0:0:
342,285,28510,1,0,0:0:0:0:
342,285,28570,6,0,L|486:299,1,136.000002593994,0|2,1:0|0:0,0:0:0:0:
503,226,28750,1,0,0:0:0:0:
503,226,28810,2,0,P|511:139|491:91,1,136.000002593994,2|0,1:2|0:0,0:0:0:0:
344,20,29050,6,0,L|258:34,1,75.9999979705811,0|0,1:0|0:0,0:0:0:0:
309,105,29170,2,0,L|223:119,1,75.9999979705811,0|0,1:0|0:0,0:0:0:0:
274,190,29290,2,0,L|188:204,2,75.9999979705811,8|0|2,1:0|0:0|0:0,0:0:0:0:
421,167,29530,5,0,1:0:0:0:
444,314,29650,1,2,0:0:0:0:
297,337,29770,1,8,1:0:0:0:
274,190,29890,1,2,0:0:0:0:
274,190,29950,1,0,0:0:0:0:
274,190,30010,2,0,L|257:86,1,68.0000012969971,8|0,1:0|0:0,0:0:0:0:
172,168,30130,1,2,0:0:0:0:
172,168,30190,1,0,0:0:0:0:
172,168,30250,2,0,L|148:26,1,136.000002593994,2|0,0:0|1:0,0:0:0:0:
22,128,30490,5,8,1:0:0:0:
22,128,30970,1,2,0:0:0:0:
22,128,31030,1,0,0:0:0:0:
22,128,31090,2,0,L|12:160,4,20,2|2|2|2|2,0:0|0:0|0:0|0:0|0:0,0:0:0:0:
69,41,31330,1,4,0:0:0:0:
152,91,31450,1,8,0:0:0:0:
152,91,31510,1,0,0:0:0:0:
152,91,31570,1,8,0:0:0:0:
208,18,31690,1,4,0:0:0:0:
291,68,31810,1,8,1:1:0:0:
374,118,31930,6,0,P|389:173|370:246,1,128,0|2,1:0|0:0,0:0:0:0:
326,302,32110,1,0,0:0:0:0:
326,302,32170,2,0,L|256:295,2,64,14|0|14,3:0|0:0|3:0,0:0:0:0:
447,371,32410,6,0,L|518:364,1,55.9999982910157,0|2,1:0|0:0,0:0:0:0:
451,285,32650,2,0,L|522:278,1,55.9999982910157,0|2,1:0|0:0,0:0:0:0:
455,199,32890,2,0,L|526:192,1,55.9999982910157,0|2,1:0|0:0,0:0:0:0:
459,113,33130,5,0,0:0:0:0:
459,113,33190,1,0,0:0:0:0:
459,113,33250,1,0,1:0:0:0:
374,146,33370,2,0,L|302:139,1,55.9999982910157,2|8,0:0|1:0,0:0:0:0:
235,131,33610,1,14,3:3:0:0:
235,131,33670,1,14,0:3:0:0:
235,131,33730,1,14,0:3:0:0:
281,230,33850,6,0,P|292:308|260:378,1,136.000002593994,8|8,0:0|0:0,0:0:0:0:
43,359,34090,1,8,0:0:0:0:
40,336,34150,1,0,0:0:0:0:
37,313,34210,1,8,0:0:0:0:
33,290,34270,1,0,0:0:0:0:
30,267,34330,6,0,L|61:113,1,136.000002593994,8|8,0:0|0:0,0:0:0:0:
242,40,34570,2,0,L|211:194,1,136.000002593994,8|8,0:0|0:0,0:0:0:0:
342,332,34810,1,8,0:0:0:0:
342,332,34870,1,0,0:0:0:0:
342,332,34930,1,8,0:0:0:0:
501,258,35050,2,0,P|512:180|480:110,1,136.000002593994,8|8,0:0|0:0,0:0:0:0:
242,40,35290,6,0,L|95:59,1,136.000002593994,4|0,1:2|0:0,0:0:0:0:
281,238,35530,2,0,L|428:219,1,136.000002593994,4|0,1:2|0:0,0:0:0:0:
183,137,35770,2,0,L|36:156,1,136.000002593994,4|0,1:2|0:0,0:0:0:0:
13,222,35950,1,0,0:0:0:0:
13,222,36010,2,0,P|6:297|45:364,1,136.000002593994,6|2,1:2|0:0,0:0:0:0:
251,319,36250,6,0,L|398:300,1,136.000002593994,14|0,0:3|0:0,0:0:0:0:
444,74,36490,2,0,L|287:94,1,151.999995941162,14|0,0:3|0:0,0:0:0:0:
75,115,36730,1,2,0:0:0:0:
199,2,36850,1,0,0:0:0:0:
232,180,36970,1,14,1:3:0:0:
232,180,37030,1,14,1:3:0:0:
232,180,37090,1,14,1:3:0:0:
232,180,37150,1,14,1:3:0:0:
232,180,37210,6,0,L|209:339,2,151.999995941162,2|2|2,1:1|1:1|1:0,0:0:0:0:
334,26,37570,1,2,1:0:0:0:
362,18,37630,1,0,0:0:0:0:
391,16,37690,1,2,1:0:0:0:
419,25,37750,1,0,0:0:0:0:
444,41,37810,1,2,1:0:0:0:
444,41,38170,6,0,B|505:105|505:105|364:152|364:152|419:217|419:217|373:286|418:371,1,480.000018310548,4|0,2:0|0:0,0:0:0:0:
314,278,38770,1,2,0:0:0:0:
171,261,38890,1,2,0:0:0:0:
32,300,39010,1,2,0:0:0:0:
32,300,39070,1,0,0:0:0:0:
32,300,39130,6,0,L|20:159,1,136.000002593994,0|0,1:0|0:0,0:0:0:0:
8,16,39370,1,0,1:0:0:0:
144,101,39490,6,0,P|223:100|300:52,1,160,2|8,2:0|0:0,0:0:0:0:
312,40,39790,1,0,0:0:0:0:
312,40,39850,1,8,0:0:0:0:
312,40,39910,1,0,0:0:0:0:
312,40,39970,6,0,L|345:123,1,80,2|8,0:0|0:1,0:0:0:0:
461,171,40210,2,0,L|494:88,1,80,2|8,0:0|0:1,0:0:0:0:
449,316,40450,6,0,B|427:365|384:377|384:377|340:338|374:280|336:235|336:235|289:246|271:290|271:290|192:258|192:258|93:311|93:311|26:281,1,600.000022888184,6|0,1:0|3:0,0:0:0:0:
33,284,41290,1,0,3:0:0:0:
33,284,41530,1,0,3:0:0:0:
33,284,41770,1,0,3:0:0:0:
33,284,42010,1,0,3:0:0:0:
36,287,42250,1,0,3:0:0:0:
36,287,42430,2,0,L|46:255,8,30.0000011444092,0|0|2|2|2|2|2|2|2,0:0|0:0|0:0|0:0|0:0|0:0|0:0|0:0|0:0,0:0:0:0:
65,362,42730,6,0,L|154:349,1,80,0|8,1:0|1:0,0:0:0:0:
221,184,42970,5,4,1:2:0:0:
308,362,43090,1,0,0:0:0:0:
308,362,43150,1,0,0:0:0:0:
308,362,43210,2,0,P|384:367|460:331,1,136.000002593994,4|0,1:2|0:0,0:0:0:0:
479,160,43450,1,2,0:0:0:0:
479,160,43510,1,0,0:0:0:0:
479,160,43570,1,0,0:0:0:0:
363,235,43690,1,2,0:0:0:0:
329,233,43750,1,0,0:0:0:0:
295,231,43810,1,2,0:0:0:0:
261,229,43870,1,0,0:0:0:0:
227,227,43930,6,0,L|85:216,1,136.000002593994,4|0,1:2|0:0,0:0:0:0:
41,61,44170,2,0,L|182:71,1,136.000002593994,4|0,1:2|0:0,0:0:0:0:
227,227,44410,6,0,P|234:286|221:325,1,80,2|0,0:0|0:0,0:0:0:0:
27,371,44650,2,0,P|20:312|33:273,1,80,8|0,0:0|0:0,0:0:0:0:
162,169,44890,6,0,P|179:106|158:20,1,136.000002593994,6|0,1:2|0:0,0:0:0:0:
354,244,45130,2,0,P|337:307|358:393,1,136.000002593994,4|0,0:0|0:0,0:0:0:0:
458,146,45370,6,0,L|317:136,1,136.000002593994,6|0,1:2|0:0,0:0:0:0:
114,282,45610,2,0,L|255:292,1,136.000002593994,6|0,1:2|0:0,0:0:0:0:
474,130,45850,6,0,L|333:120,1,136.000002593994,6|0,1:2|0:0,0:0:0:0:
99,297,46090,2,0,L|240:307,1,136.000002593994,6|0,1:2|0:0,0:0:0:0:
474,130,46330,6,0,P|485:74|455:9,1,120,2|0,0:0|0:0,0:0:0:0:
432,5,46570,2,0,L|368:17,1,55.9999982910157,2|0,0:0|0:0,0:0:0:0:
146,50,46810,5,2,0:0:0:0:
146,50,47050,1,2,0:0:0:0:
254,330,47290,5,6,1:2:0:0:
327,224,47410,1,0,0:0:0:0:
327,224,47470,1,0,0:0:0:0:
327,224,47530,2,0,P|336:189|332:153,2,68.0000012969971,6|0|4,1:2|0:0|0:0,0:0:0:0:
254,330,47770,2,0,L|109:312,1,136.000002593994,6|2,1:2|0:0,0:0:0:0:
24,214,48010,6,0,B|23:174|0:144|0:144|48:168|48:168|24:93|24:93|45:116|80:128|119:118|154:71|129:20,1,384,2|14,0:0|1:0,0:0:0:0:
24,214,49210,5,0,1:0:0:0:
24,214,49270,1,0,1:0:0:0:
24,214,49330,1,0,1:0:0:0:
85,105,49450,6,0,L|226:95,1,136.000002593994,4|0,2:0|0:0,0:0:0:0:
351,313,49690,2,0,L|210:323,1,136.000002593994,4|0,2:0|0:0,0:0:0:0:
85,105,49930,5,2,0:0:0:0:
69,20,50050,1,0,0:0:0:0:
154,4,50170,1,2,0:0:0:0:
170,89,50290,1,0,0:0:0:0:
85,105,50410,2,0,L|5:94,1,80,2|0,0:0|0:0,0:0:0:0:
145,213,50650,5,8,0:1:0:0:
145,213,50770,1,8,0:1:0:0:
312,135,50890,2,0,P|359:130|402:142,1,80,8|8,0:2|0:1,0:0:0:0:
451,342,51130,2,0,P|404:347|361:335,1,80,0|14,1:0|0:3,0:0:0:0:
145,213,51370,6,0,P|106:207|35:246,1,111.999996582031,4|0,0:0|0:0,0:0:0:0:
14,315,51730,1,0,0:0:0:0:
14,315,51850,2,0,L|29:376,1,55.9999982910157,8|0,0:0|0:0,0:0:0:0:
145,213,52090,2,0,L|130:152,1,55.9999982910157,2|0,0:0|0:0,0:0:0:0:
247,31,52330,6,0,P|286:25|357:64,1,111.999996582031,2|2,0:3|0:0,0:0:0:0:
390,130,52690,1,0,0:0:0:0:
285,221,52810,5,8,1:0:0:0:
285,221,52930,1,8,1:0:0:0:
485,345,53050,2,0,L|497:287,1,55.9999982910157,8|0,0:1|0:0,0:0:0:0:
285,221,53290,5,2,0:0:0:0:
321,364,53410,1,4,0:0:0:0:
455,196,53530,6,0,L|445:55,1,136.000002593994,6|0,1:2|0:0,0:0:0:0:
160,11,53770,2,0,L|150:152,1,136.000002593994,6|0,1:2|0:0,0:0:0:0:
312,384,54010,6,0,L|302:243,1,136.000002593994,4|0,1:2|0:0,0:0:0:0:
17,199,54250,2,0,L|7:340,1,136.000002593994,4|0,1:2|0:0,0:0:0:0:
191,288,54490,5,0,1:0:0:0:
191,288,54610,1,2,0:0:0:0:
68,85,54730,5,0,1:0:0:0:
68,85,54850,1,2,0:0:0:0:
82,327,54970,5,0,1:0:0:0:
82,327,55090,1,2,0:0:0:0:
252,173,55210,6,0,P|321:171|394:204,1,136.000002593994,2|2,1:2|0:0,0:0:0:0:
82,327,55450,6,0,L|72:186,1,136.000002593994,0|2,1:0|0:0,0:0:0:0:
261,37,55690,2,0,L|251:178,1,136.000002593994,0|2,1:0|0:0,0:0:0:0:
200,374,55930,6,0,L|190:233,1,136.000002593994,0|2,1:0|0:0,0:0:0:0:
379,84,56170,2,0,L|369:225,1,136.000002593994,0|2,1:0|0:0,0:0:0:0:
200,374,56410,6,0,P|106:376|69:347,1,136.000002593994,0|2,1:0|0:0,0:0:0:0:
35,289,56590,1,0,0:0:0:0:
35,289,56650,2,0,L|45:148,1,136.000002593994,0|2,1:0|0:0,0:0:0:0:
197,36,56890,6,0,P|291:34|328:63,1,136.000002593994,0|2,1:0|0:0,0:0:0:0:
362,121,57070,1,0,0:0:0:0:
362,121,57130,2,0,L|352:262,1,136.000002593994,0|2,1:0|0:0,0:0:0:0:
113,165,57370,6,0,L|123:24,1,136.000002593994,0|2,1:0|0:0,0:0:0:0:
362,121,57610,2,0,L|372:262,1,136.000002593994,0|2,1:0|0:0,0:0:0:0:
2,283,57850,6,0,L|12:142,1,136.000002593994,0|2,1:0|0:0,0:0:0:0:
251,239,58090,2,0,L|261:380,1,136.000002593994,0|2,1:0|0:0,0:0:0:0:
108,326,58330,5,0,1:0:0:0:
108,326,58450,1,2,0:0:0:0:
371,256,58570,5,0,1:0:0:0:
371,256,58690,1,2,0:0:0:0:
97,171,58810,5,0,1:0:0:0:
97,171,58930,1,2,0:0:0:0:
360,101,59050,6,0,P|425:91|500:126,1,136.000002593994,2|0,1:2|0:0,0:0:0:0:
297,361,59290,6,0,L|287:220,1,136.000002593994,0|2,1:0|0:0,0:0:0:0:
106,35,59530,2,0,L|96:176,1,136.000002593994,0|2,1:0|0:0,0:0:0:0:
410,360,59770,6,0,L|400:219,1,136.000002593994,0|2,1:0|0:0,0:0:0:0:
219,34,60010,2,0,L|209:175,1,136.000002593994,0|2,1:0|0:0,0:0:0:0:
77,330,60250,5,4,1:2:0:0:
0,185,60370,1,0,0:0:0:0:
145,108,60490,5,8,1:0:0:0:
222,253,60610,1,0,0:0:0:0:
0,185,60730,1,8,0:1:0:0:
145,108,60850,5,0,0:0:0:0:
145,108,60970,1,4,0:0:0:0:
77,330,61090,1,8,0:0:0:0:
0,185,61210,5,14,0:3:0:0:
256,192,61330,12,0,65290,0:0:0:0:
