osu file format v14

[General]
AudioFilename: audio.mp3
AudioLeadIn: 0
PreviewTime: 218423
Countdown: 0
SampleSet: Drum
StackLeniency: 0.7
Mode: 0
LetterboxInBreaks: 0
WidescreenStoryboard: 0

[Editor]
Bookmarks: 17032,51467,83814,101553,118249,134945,151640,168336,201727,218423,251814,285206,318597,353032,386423,405205,421901,438336
DistanceSpacing: 1.6
BeatDivisor: 8
GridSize: 4
TimelineZoom: 1.7

[Metadata]
Title:Bleed
TitleUnicode:Bleed
Artist:Meshuggah
ArtistUnicode:Meshuggah
Creator:TheKingHenry
Version:Aneurysm
Source:
Tags:progressive technical groove djent math metal english obzen
BeatmapID:2815425
BeatmapSetID:1360563

[Difficulty]
HPDrainRate:6
CircleSize:6
OverallDifficulty:9.5
ApproachRate:9.3
SliderMultiplier:1.4
SliderTickRate:1

[Events]
//Background and Video events
0,0,"bleed.jpg",0,0
//Break Periods
2,251884,284606
//Storyboard Layer 0 (Background)
//Storyboard Layer 1 (Fail)
//Storyboard Layer 2 (Pass)
//Storyboard Layer 3 (Foreground)
//Storyboard Layer 4 (Overlay)
//Storyboard Sound Samples

[TimingPoints]
337,521.739130434783,4,1,3,90,1,0
17032,-100,4,1,2,90,0,0
33597,-100,4,1,3,90,0,0
50032,-25,4,1,2,90,0,0
51467,521.739130434783,4,1,2,90,1,0
68162,-100,4,1,3,90,0,0
83814,-100,4,1,3,100,0,1
101553,-25,4,1,3,90,0,0
104032,-25,4,1,1,90,0,0
104162,-25,4,1,3,90,0,0
117336,-25,4,1,3,60,0,0
117532,-25,4,1,3,90,0,0
150727,-25,4,1,3,50,0,0
150988,-25,4,1,3,90,0,0
151640,-100,4,1,2,90,0,0
168336,-100,4,1,1,90,0,0
201727,-200,4,1,3,100,0,1
218423,-333.333333333333,4,1,3,90,0,0
250510,-100,4,1,1,60,0,0
250640,-100,4,1,1,100,0,0
251684,-100,4,1,1,100,0,0
285206,-100,4,3,10,90,0,1
289380,-66.6666666666667,4,3,10,90,0,1
290423,-100,4,3,10,90,0,1
293553,-66.6666666666667,4,3,10,90,0,1
294206,-50,4,3,10,90,0,1
294467,-100,4,3,10,90,0,1
297206,-66.6666666666667,4,3,10,90,0,1
298771,-100,4,3,10,90,0,1
300336,-66.6666666666667,4,3,10,90,0,1
301119,-50,4,3,10,90,0,1
305553,-66.6666666666667,4,3,10,90,0,1
306075,-50,4,3,10,90,0,1
306727,-66.6666666666667,4,3,10,90,0,1
307640,-50,4,3,10,90,0,1
310249,-40,4,3,10,90,0,1
310771,-50,4,3,10,90,0,1
313901,-45.4545454545455,4,3,10,90,0,1
314423,-66.6666666666667,4,3,10,90,0,1
316119,-100,4,3,10,90,0,1
316640,-66.6666666666667,4,3,10,90,0,1
318597,-50,4,3,10,90,0,1
319640,-66.6666666666667,4,3,10,90,0,1
320162,-100,4,3,10,90,0,1
321206,-50,4,3,10,90,0,1
322380,-40,4,3,10,90,0,1
322771,-66.6666666666667,4,3,10,90,0,1
323814,-50,4,3,10,90,0,1
324727,-40,4,3,10,90,0,1
325119,-50,4,3,10,90,0,1
325510,-66.6666666666667,4,3,10,90,0,1
326293,-100,4,3,10,90,0,1
326684,-66.6666666666667,4,3,10,90,0,1
327988,-50,4,3,10,90,0,1
329032,-40,4,3,10,90,0,1
330075,-33.3333333333333,4,3,10,90,0,1
331640,-28.5714285714286,4,3,10,90,0,1
332423,-50,4,3,10,90,0,1
333380,-40,4,3,10,90,0,1
335814,-33.3333333333333,4,3,10,90,0,1
336206,-25,4,3,10,90,0,1
336423,-33.3333333333333,4,3,10,90,0,1
337553,-66.6666666666667,4,3,10,90,0,1
339988,-33.3333333333333,4,3,10,90,0,1
340510,-25,4,3,10,90,0,1
341553,-33.3333333333333,4,3,10,90,0,1
342597,-50,4,3,10,90,0,1
343119,-66.6666666666667,4,3,10,90,0,1
343640,-100,4,3,10,90,0,1
345553,-33.3333333333333,4,3,10,90,0,1
345988,-66.6666666666667,4,3,10,90,0,1
346336,-33.3333333333333,4,3,10,90,0,1
346640,-66.6666666666667,4,3,10,90,0,1
347032,-40,4,3,10,90,0,1
347423,-66.6666666666667,4,3,10,90,0,1
347814,-50,4,3,10,90,0,1
348597,-66.6666666666667,4,3,10,90,0,1
348988,-100,4,3,10,90,0,1
349380,-66.6666666666667,4,3,10,90,0,1
350162,-100,4,3,10,90,0,1
350553,-40,4,3,10,90,0,1
350945,-100,4,1,1,100,0,1
351010,-100,4,1,1,60,0,1
351075,-100,4,1,1,100,0,1
351858,-100,4,1,1,100,0,0
353032,521.739130434783,4,1,3,100,1,1
353032,-100,4,1,3,100,0,1
353097,-100,4,1,3,90,0,0
385901,-100,4,1,2,90,0,0
386162,-100,4,1,1,90,0,0
386423,-100,4,1,2,90,0,0
405205,-100,4,1,3,100,0,1
438336,-25,4,1,3,100,0,1
438532,-25,4,1,3,100,0,0

[Colours]
Combo1 : 133,133,133
Combo2 : 255,0,0
Combo3 : 255,128,128
Combo4 : 206,206,206

[HitObjects]
159,204,337,5,4,0:0:0:0:
159,204,402,1,0,0:0:0:0:
159,204,467,1,0,0:0:0:0:
212,272,597,1,0,0:0:0:0:
251,138,728,1,0,0:0:0:0:
251,138,793,1,0,0:0:0:0:
251,138,858,1,2,0:0:0:0:
149,111,989,1,0,0:0:0:0:
247,28,1119,1,0,0:0:0:0:
247,28,1184,1,0,0:0:0:0:
247,28,1250,1,0,0:0:0:0:
387,139,1380,1,10,0:0:0:0:
329,71,1510,1,0,0:0:0:0:
329,71,1576,1,0,0:0:0:0:
329,71,1641,1,0,0:0:0:0:
311,192,1771,1,0,0:0:0:0:
421,241,1902,1,2,0:0:0:0:
421,241,1967,1,0,0:0:0:0:
421,241,2032,1,0,0:0:0:0:
484,160,2163,1,0,0:0:0:0:
510,302,2293,1,0,0:0:0:0:
510,302,2358,1,0,0:0:0:0:
510,302,2423,1,2,0:0:0:0:
420,353,2554,1,0,0:0:0:0:
300,269,2684,5,0,0:0:0:0:
308,268,2750,1,0,0:0:0:0:
316,269,2815,1,0,0:0:0:0:
347,357,2945,1,2,0:0:0:0:
219,371,3076,1,0,0:0:0:0:
230,373,3141,1,0,0:0:0:0:
242,371,3206,1,0,0:0:0:0:
236,280,3337,1,0,0:0:0:0:
85,247,3467,1,10,0:0:0:0:
101,242,3532,1,0,0:0:0:0:
118,243,3597,1,0,0:0:0:0:
141,381,3728,1,0,0:0:0:0:
2,368,3858,1,0,0:0:0:0:
23,374,3923,1,0,0:0:0:0:
45,371,3989,1,2,0:0:0:0:
11,218,4119,1,0,0:0:0:0:
161,308,4250,1,0,0:0:0:0:
144,313,4315,1,0,0:0:0:0:
126,313,4380,1,0,0:0:0:0:
164,189,4510,1,2,0:0:0:0:
255,290,4641,37,0,0:0:0:0:
255,290,4706,1,0,0:0:0:0:
255,290,4771,1,0,0:0:0:0:
279,199,4902,1,0,0:0:0:0:
354,277,5032,1,2,0:0:0:0:
354,277,5097,1,0,0:0:0:0:
354,277,5163,1,0,0:0:0:0:
374,366,5293,1,0,0:0:0:0:
456,284,5423,1,0,0:0:0:0:
456,284,5489,1,0,0:0:0:0:
456,284,5554,1,10,0:0:0:0:
407,184,5684,1,0,0:0:0:0:
509,109,5815,1,0,0:0:0:0:
509,109,5880,1,0,0:0:0:0:
509,109,5945,1,0,0:0:0:0:
487,207,6076,1,2,0:0:0:0:
408,90,6206,1,0,0:0:0:0:
408,90,6271,1,0,0:0:0:0:
408,90,6337,1,0,0:0:0:0:
326,153,6467,1,0,0:0:0:0:
229,45,6597,1,2,0:0:0:0:
229,45,6663,1,0,0:0:0:0:
229,45,6728,1,0,0:0:0:0:
320,68,6858,1,0,0:0:0:0:
206,162,6989,5,0,0:0:0:0:
214,162,7054,1,0,0:0:0:0:
222,160,7119,1,2,0:0:0:0:
118,84,7250,1,0,0:0:0:0:
124,228,7380,1,0,0:0:0:0:
136,230,7445,1,0,0:0:0:0:
148,229,7510,1,0,0:0:0:0:
38,142,7641,1,10,0:0:0:0:
48,290,7771,1,0,0:0:0:0:
31,296,7837,1,0,0:0:0:0:
13,297,7902,1,0,0:0:0:0:
139,160,8032,1,0,0:0:0:0:
171,331,8163,1,2,0:0:0:0:
149,338,8228,1,0,0:0:0:0:
126,336,8293,1,0,0:0:0:0:
239,221,8423,1,0,0:0:0:0:
261,364,8554,1,0,0:0:0:0:
278,367,8619,1,0,0:0:0:0:
295,363,8684,1,2,0:0:0:0:
355,256,8815,1,0,0:0:0:0:
434,375,8945,37,0,0:0:0:0:
434,375,9010,1,0,0:0:0:0:
434,375,9076,1,0,0:0:0:0:
351,326,9206,1,2,0:0:0:0:
450,225,9337,1,0,0:0:0:0:
450,225,9402,1,0,0:0:0:0:
450,225,9467,1,0,0:0:0:0:
430,305,9597,1,0,0:0:0:0:
330,147,9728,1,10,0:0:0:0:
330,147,9793,1,0,0:0:0:0:
330,147,9858,1,0,0:0:0:0:
355,256,9989,1,0,0:0:0:0:
248,284,10119,1,0,0:0:0:0:
248,284,10184,1,0,0:0:0:0:
248,284,10250,1,2,0:0:0:0:
256,175,10380,1,0,0:0:0:0:
153,182,10510,1,0,0:0:0:0:
153,182,10576,1,0,0:0:0:0:
153,182,10641,1,0,0:0:0:0:
91,276,10771,1,2,0:0:0:0:
75,137,10902,5,0,0:0:0:0:
66,138,10967,1,0,0:0:0:0:
58,141,11032,1,0,0:0:0:0:
74,29,11163,1,0,0:0:0:0:
190,40,11293,1,2,0:0:0:0:
178,43,11358,1,0,0:0:0:0:
165,42,11423,1,0,0:0:0:0:
203,151,11554,1,0,0:0:0:0:
313,132,11684,1,0,0:0:0:0:
295,127,11750,1,0,0:0:0:0:
277,129,11815,1,10,0:0:0:0:
303,3,11945,1,0,0:0:0:0:
457,35,12076,1,0,0:0:0:0:
435,42,12141,1,0,0:0:0:0:
412,40,12206,1,0,0:0:0:0:
445,168,12337,1,2,0:0:0:0:
319,68,12467,1,0,0:0:0:0:
336,66,12532,1,0,0:0:0:0:
353,69,12597,1,0,0:0:0:0:
336,191,12728,1,0,0:0:0:0:
229,93,12858,37,2,0:0:0:0:
229,93,12923,1,0,0:0:0:0:
229,93,12989,1,0,0:0:0:0:
132,105,13119,1,0,0:0:0:0:
88,198,13250,1,0,0:0:0:0:
88,198,13315,1,0,0:0:0:0:
88,198,13380,1,2,0:0:0:0:
193,204,13510,1,0,0:0:0:0:
247,298,13641,1,0,0:0:0:0:
247,298,13706,1,0,0:0:0:0:
247,298,13771,1,0,0:0:0:0:
67,338,13902,1,10,0:0:0:0:
137,258,14032,1,0,0:0:0:0:
137,258,14097,1,0,0:0:0:0:
137,258,14163,1,0,0:0:0:0:
167,357,14293,1,0,0:0:0:0:
275,368,14423,1,2,0:0:0:0:
275,368,14489,1,0,0:0:0:0:
275,368,14554,1,0,0:0:0:0:
306,254,14684,1,0,0:0:0:0:
447,250,14815,1,0,0:0:0:0:
447,250,14880,1,0,0:0:0:0:
447,250,14945,1,2,0:0:0:0:
403,339,15076,1,0,0:0:0:0:
362,202,15206,5,0,0:0:0:0:
365,193,15271,1,0,0:0:0:0:
365,184,15337,1,0,0:0:0:0:
238,235,15467,1,2,0:0:0:0:
318,121,15597,1,0,0:0:0:0:
320,108,15663,1,0,0:0:0:0:
318,95,15728,1,0,0:0:0:0:
182,159,15858,1,0,0:0:0:0:
216,9,15989,1,10,0:0:0:0:
223,24,16054,1,0,0:0:0:0:
227,40,16119,1,0,0:0:0:0:
100,9,16250,1,0,0:0:0:0:
250,105,16380,1,10,0:0:0:0:
252,127,16445,1,0,0:0:0:0:
247,149,16510,1,0,0:0:0:0:
127,102,16641,1,0,0:0:0:0:
158,268,16771,1,10,0:0:0:0:
175,266,16837,1,0,0:0:0:0:
191,259,16902,1,0,0:0:0:0:
38,169,17032,37,4,0:0:0:0:
63,272,17163,1,0,0:0:0:0:
63,272,17228,1,0,0:0:0:0:
63,272,17293,1,0,0:0:0:0:
130,192,17423,1,0,0:0:0:0:
68,99,17554,1,2,0:0:0:0:
68,99,17619,1,0,0:0:0:0:
68,99,17684,1,0,0:0:0:0:
163,27,17815,1,0,0:0:0:0:
193,137,17945,1,0,0:0:0:0:
193,137,18010,1,0,0:0:0:0:
193,137,18076,1,10,0:0:0:0:
296,160,18206,1,0,0:0:0:0:
315,51,18337,1,0,0:0:0:0:
315,51,18402,1,0,0:0:0:0:
315,51,18467,1,0,0:0:0:0:
403,109,18597,1,2,0:0:0:0:
423,203,18728,1,0,0:0:0:0:
423,203,18793,1,0,0:0:0:0:
423,203,18858,1,0,0:0:0:0:
309,244,18989,1,0,0:0:0:0:
405,295,19119,1,2,0:0:0:0:
405,295,19184,1,0,0:0:0:0:
405,295,19250,1,0,0:0:0:0:
319,365,19380,1,0,0:0:0:0:
236,286,19510,1,0,0:0:0:0:
236,286,19576,1,0,0:0:0:0:
236,286,19641,1,2,0:0:0:0:
123,320,19771,1,0,0:0:0:0:
211,378,19902,1,0,0:0:0:0:
211,378,19967,1,0,0:0:0:0:
211,378,20032,1,0,0:0:0:0:
163,187,20163,1,10,0:0:0:0:
79,263,20293,1,0,0:0:0:0:
79,263,20358,1,0,0:0:0:0:
79,263,20423,1,0,0:0:0:0:
56,146,20554,1,0,0:0:0:0:
118,56,20684,1,2,0:0:0:0:
118,56,20750,1,0,0:0:0:0:
118,56,20815,1,0,0:0:0:0:
210,118,20945,1,0,0:0:0:0:
232,13,21076,1,0,0:0:0:0:
232,13,21141,1,0,0:0:0:0:
232,13,21206,1,2,0:0:0:0:
316,69,21337,1,0,0:0:0:0:
326,162,21467,1,0,0:0:0:0:
326,162,21532,1,0,0:0:0:0:
326,162,21597,1,0,0:0:0:0:
222,194,21728,1,2,0:0:0:0:
202,292,21858,1,0,0:0:0:0:
202,292,21923,1,0,0:0:0:0:
202,292,21989,1,0,0:0:0:0:
298,262,22119,1,0,0:0:0:0:
396,382,22250,1,10,0:0:0:0:
396,382,22315,1,0,0:0:0:0:
396,382,22380,1,0,0:0:0:0:
474,313,22510,1,0,0:0:0:0:
376,285,22641,1,0,0:0:0:0:
376,285,22706,1,0,0:0:0:0:
376,285,22771,1,2,0:0:0:0:
399,192,22902,1,0,0:0:0:0:
509,168,23032,1,0,0:0:0:0:
509,168,23097,1,0,0:0:0:0:
509,168,23163,1,0,0:0:0:0:
446,82,23293,1,2,0:0:0:0:
332,106,23423,1,0,0:0:0:0:
332,106,23489,1,0,0:0:0:0:
332,106,23554,1,0,0:0:0:0:
360,4,23684,1,0,0:0:0:0:
234,4,23815,5,2,0:0:0:0:
241,8,23880,1,0,0:0:0:0:
249,10,23945,1,0,0:0:0:0:
252,116,24076,1,0,0:0:0:0:
135,100,24206,1,0,0:0:0:0:
146,96,24271,1,0,0:0:0:0:
158,95,24337,1,10,0:0:0:0:
111,0,24467,1,0,0:0:0:0:
55,138,24597,1,0,0:0:0:0:
41,125,24663,1,0,0:0:0:0:
34,108,24728,1,0,0:0:0:0:
161,159,24858,1,2,0:0:0:0:
134,279,24989,1,0,0:0:0:0:
156,275,25054,1,0,0:0:0:0:
176,264,25119,1,0,0:0:0:0:
31,238,25250,1,0,0:0:0:0:
64,365,25380,37,2,0:0:0:0:
64,365,25445,1,0,0:0:0:0:
64,365,25510,1,0,0:0:0:0:
155,342,25641,1,0,0:0:0:0:
247,383,25771,1,0,0:0:0:0:
247,383,25837,1,0,0:0:0:0:
247,383,25902,1,2,0:0:0:0:
266,287,26032,1,0,0:0:0:0:
357,349,26163,1,0,0:0:0:0:
357,349,26228,1,0,0:0:0:0:
357,349,26293,1,0,0:0:0:0:
328,179,26423,1,10,0:0:0:0:
217,152,26554,1,0,0:0:0:0:
217,152,26619,1,0,0:0:0:0:
217,152,26684,1,0,0:0:0:0:
220,243,26815,1,0,0:0:0:0:
124,192,26945,1,2,0:0:0:0:
124,192,27010,1,0,0:0:0:0:
124,192,27076,1,0,0:0:0:0:
139,92,27206,1,0,0:0:0:0:
227,26,27337,1,0,0:0:0:0:
227,26,27402,1,0,0:0:0:0:
227,26,27467,1,2,0:0:0:0:
265,108,27597,1,0,0:0:0:0:
331,24,27728,1,0,0:0:0:0:
331,24,27793,1,0,0:0:0:0:
331,24,27858,1,0,0:0:0:0:
344,118,27989,1,2,0:0:0:0:
425,162,28119,1,0,0:0:0:0:
425,162,28184,1,0,0:0:0:0:
425,162,28250,1,0,0:0:0:0:
475,73,28380,1,0,0:0:0:0:
512,246,28510,1,10,0:0:0:0:
512,246,28576,1,0,0:0:0:0:
512,246,28641,1,0,0:0:0:0:
426,293,28771,1,0,0:0:0:0:
355,213,28902,1,0,0:0:0:0:
355,213,28967,1,0,0:0:0:0:
355,213,29032,1,2,0:0:0:0:
325,310,29163,1,0,0:0:0:0:
225,347,29293,1,0,0:0:0:0:
225,347,29358,1,0,0:0:0:0:
225,347,29423,1,0,0:0:0:0:
216,241,29554,1,2,0:0:0:0:
120,278,29684,1,0,0:0:0:0:
120,278,29750,1,0,0:0:0:0:
120,278,29815,1,0,0:0:0:0:
99,383,29945,1,0,0:0:0:0:
4,321,30076,1,2,0:0:0:0:
4,321,30141,1,0,0:0:0:0:
4,321,30206,1,0,0:0:0:0:
49,218,30337,1,0,0:0:0:0:
168,203,30467,1,0,0:0:0:0:
168,203,30532,1,0,0:0:0:0:
168,203,30598,1,10,0:0:0:0:
118,112,30728,1,0,0:0:0:0:
1,65,30858,1,0,0:0:0:0:
1,65,30924,1,0,0:0:0:0:
1,65,30989,1,0,0:0:0:0:
30,154,31119,1,2,0:0:0:0:
84,48,31250,1,0,0:0:0:0:
84,48,31315,1,0,0:0:0:0:
84,48,31380,1,0,0:0:0:0:
178,30,31510,1,0,0:0:0:0:
195,122,31641,1,2,0:0:0:0:
195,122,31706,1,0,0:0:0:0:
195,122,31771,1,0,0:0:0:0:
271,59,31902,1,0,0:0:0:0:
339,150,32032,5,0,0:0:0:0:
330,146,32097,1,0,0:0:0:0:
323,140,32163,1,2,0:0:0:0:
440,116,32293,1,0,0:0:0:0:
442,227,32423,1,0,0:0:0:0:
453,222,32489,1,0,0:0:0:0:
462,214,32554,1,0,0:0:0:0:
283,213,32684,1,10,0:0:0:0:
316,326,32815,1,0,0:0:0:0:
299,330,32880,1,0,0:0:0:0:
281,329,32945,1,0,0:0:0:0:
380,227,33076,1,0,0:0:0:0:
431,366,33206,1,2,0:0:0:0:
452,358,33271,1,0,0:0:0:0:
468,342,33337,1,0,0:0:0:0:
368,285,33467,1,0,0:0:0:0:
231,381,33597,37,2,0:0:0:0:
221,366,33663,1,0,0:0:0:0:
215,349,33728,1,2,0:0:0:0:
102,372,33858,1,0,0:0:0:0:
191,283,33989,1,0,0:0:0:0:
193,265,34054,1,0,0:0:0:0:
189,247,34119,1,0,0:0:0:0:
297,247,34250,1,2,0:0:0:0:
160,185,34380,1,0,0:0:0:0:
159,167,34445,1,0,0:0:0:0:
163,150,34510,1,0,0:0:0:0:
59,137,34641,1,0,0:0:0:0:
258,128,34771,1,10,0:0:0:0:
271,116,34837,1,0,0:0:0:0:
279,100,34902,1,0,0:0:0:0:
377,136,35032,1,0,0:0:0:0:
310,39,35163,1,0,0:0:0:0:
325,32,35228,1,0,0:0:0:0:
342,31,35293,1,2,0:0:0:0:
237,0,35423,1,0,0:0:0:0:
200,87,35554,1,0,0:0:0:0:
183,91,35619,1,0,0:0:0:0:
165,90,35684,1,0,0:0:0:0:
101,181,35815,1,2,0:0:0:0:
101,47,35945,5,0,0:0:0:0:
78,43,36010,1,0,0:0:0:0:
55,48,36076,1,0,0:0:0:0:
0,159,36206,1,0,0:0:0:0:
144,167,36337,1,2,0:0:0:0:
123,176,36402,1,0,0:0:0:0:
101,181,36467,1,0,0:0:0:0:
179,32,36597,1,0,0:0:0:0:
298,143,36728,1,0,0:0:0:0:
294,108,36793,1,0,0:0:0:0:
274,79,36858,1,10,0:0:0:0:
198,221,36989,1,0,0:0:0:0:
324,214,37119,1,0,0:0:0:0:
331,240,37184,1,0,0:0:0:0:
329,268,37250,1,0,0:0:0:0:
396,151,37380,1,2,0:0:0:0:
451,235,37510,1,0,0:0:0:0:
448,252,37576,1,0,0:0:0:0:
449,269,37641,1,0,0:0:0:0:
510,177,37771,1,0,0:0:0:0:
436,58,37902,37,4,0:0:0:0:
436,58,37967,1,0,0:0:0:0:
436,58,38032,1,0,0:0:0:0:
338,108,38163,1,0,0:0:0:0:
315,19,38293,1,0,0:0:0:0:
315,19,38358,1,0,0:0:0:0:
315,19,38423,1,2,0:0:0:0:
206,0,38554,1,0,0:0:0:0:
224,93,38684,1,0,0:0:0:0:
224,93,38750,1,0,0:0:0:0:
224,93,38815,1,0,0:0:0:0:
46,131,38945,1,10,0:0:0:0:
91,37,39076,1,0,0:0:0:0:
91,37,39141,1,0,0:0:0:0:
91,37,39206,1,0,0:0:0:0:
150,105,39337,1,0,0:0:0:0:
90,193,39467,1,2,0:0:0:0:
90,193,39532,1,0,0:0:0:0:
90,193,39597,1,0,0:0:0:0:
194,189,39728,1,0,0:0:0:0:
252,268,39858,1,0,0:0:0:0:
252,268,39923,1,0,0:0:0:0:
252,268,39989,1,2,0:0:0:0:
139,309,40119,1,0,0:0:0:0:
225,383,40250,1,0,0:0:0:0:
225,383,40315,1,0,0:0:0:0:
225,383,40380,1,0,0:0:0:0:
313,315,40510,1,2,0:0:0:0:
306,212,40641,1,0,0:0:0:0:
306,212,40706,1,0,0:0:0:0:
306,212,40771,1,0,0:0:0:0:
392,247,40902,1,0,0:0:0:0:
486,113,41032,1,10,0:0:0:0:
486,113,41097,1,0,0:0:0:0:
486,113,41163,1,0,0:0:0:0:
364,147,41293,1,0,0:0:0:0:
462,189,41423,1,0,0:0:0:0:
462,189,41489,1,0,0:0:0:0:
462,189,41554,1,2,0:0:0:0:
421,79,41684,1,0,0:0:0:0:
329,23,41815,1,0,0:0:0:0:
329,23,41880,1,0,0:0:0:0:
329,23,41945,1,0,0:0:0:0:
291,152,42076,5,4,0:0:0:0:
200,123,42206,1,0,0:0:0:0:
187,135,42271,1,0,0:0:0:0:
179,151,42337,1,0,0:0:0:0:
61,173,42467,1,0,0:0:0:0:
170,214,42597,1,2,0:0:0:0:
173,231,42663,1,0,0:0:0:0:
172,248,42728,1,0,0:0:0:0:
275,240,42858,1,0,0:0:0:0:
188,313,42989,1,0,0:0:0:0:
197,327,43054,1,0,0:0:0:0:
210,337,43119,1,10,0:0:0:0:
128,384,43250,1,0,0:0:0:0:
118,296,43380,1,0,0:0:0:0:
111,279,43445,1,0,0:0:0:0:
98,266,43510,1,0,0:0:0:0:
170,214,43641,1,2,0:0:0:0:
61,209,43771,1,0,0:0:0:0:
58,191,43837,1,0,0:0:0:0:
61,173,43902,1,0,0:0:0:0:
0,103,44032,1,0,0:0:0:0:
108,121,44163,1,2,0:0:0:0:
122,110,44228,1,0,0:0:0:0:
132,96,44293,1,0,0:0:0:0:
220,132,44423,1,0,0:0:0:0:
229,25,44554,37,0,0:0:0:0:
207,19,44619,1,0,0:0:0:0:
184,20,44684,1,2,0:0:0:0:
313,0,44815,1,0,0:0:0:0:
349,114,44945,1,0,0:0:0:0:
326,119,45010,1,0,0:0:0:0:
303,116,45076,1,0,0:0:0:0:
454,12,45206,1,10,0:0:0:0:
458,133,45337,1,0,0:0:0:0:
470,165,45402,1,0,0:0:0:0:
496,187,45467,1,0,0:0:0:0:
372,183,45597,1,0,0:0:0:0:
436,260,45728,1,2,0:0:0:0:
408,266,45793,1,0,0:0:0:0:
386,283,45858,1,0,0:0:0:0:
369,383,45989,1,0,0:0:0:0:
260,302,46119,1,4,0:0:0:0:
268,286,46184,1,0,0:0:0:0:
270,268,46250,1,0,0:0:0:0:
174,264,46380,1,0,0:0:0:0:
223,175,46510,5,0,0:0:0:0:
223,175,46576,1,0,0:0:0:0:
223,175,46641,1,0,0:0:0:0:
313,148,46771,1,2,0:0:0:0:
258,61,46902,1,0,0:0:0:0:
258,61,46967,1,0,0:0:0:0:
258,61,47032,1,0,0:0:0:0:
156,113,47163,1,0,0:0:0:0:
40,0,47293,1,10,0:0:0:0:
40,0,47358,1,0,0:0:0:0:
40,0,47423,1,0,0:0:0:0:
146,25,47554,1,0,0:0:0:0:
59,79,47684,1,0,0:0:0:0:
59,79,47750,1,0,0:0:0:0:
59,79,47815,1,2,0:0:0:0:
156,113,47945,1,0,0:0:0:0:
177,199,48076,1,0,0:0:0:0:
177,199,48141,1,0,0:0:0:0:
177,199,48206,1,0,0:0:0:0:
74,223,48337,1,2,0:0:0:0:
52,321,48467,1,0,0:0:0:0:
52,321,48532,1,0,0:0:0:0:
52,321,48597,1,0,0:0:0:0:
151,280,48728,1,0,0:0:0:0:
200,376,48858,1,2,0:0:0:0:
200,376,48923,1,0,0:0:0:0:
200,376,48989,1,0,0:0:0:0:
241,277,49119,1,0,0:0:0:0:
360,260,49250,1,0,0:0:0:0:
360,260,49315,1,0,0:0:0:0:
360,260,49380,1,10,0:0:0:0:
375,350,49510,1,0,0:0:0:0:
469,296,49641,1,0,0:0:0:0:
469,296,49706,1,0,0:0:0:0:
469,296,49771,1,0,0:0:0:0:
474,190,49902,1,2,0:0:0:0:
297,230,50032,2,0,B|283:140|283:140|329:103|329:103|315:20,1,210,8|0,0:0|2:0,0:0:0:0:
325,49,51467,37,4,0:0:0:0:
325,49,51532,1,0,0:0:0:0:
325,49,51597,1,0,0:0:0:0:
348,132,51727,1,0,0:0:0:0:
265,161,51858,1,0,0:0:0:0:
232,79,51988,1,2,0:0:0:0:
103,52,52119,1,0,0:0:0:0:
103,52,52184,1,0,0:0:0:0:
103,52,52249,1,0,0:0:0:0:
152,124,52380,1,0,0:0:0:0:
89,234,52510,1,10,0:0:0:0:
33,166,52640,1,0,0:0:0:0:
13,273,52771,1,0,0:0:0:0:
13,273,52836,1,0,0:0:0:0:
13,273,52901,1,0,0:0:0:0:
89,316,53032,1,2,0:0:0:0:
168,280,53162,1,0,0:0:0:0:
246,320,53293,1,0,0:0:0:0:
349,247,53423,1,0,0:0:0:0:
349,247,53488,1,0,0:0:0:0:
349,247,53553,1,2,0:0:0:0:
261,251,53684,1,0,0:0:0:0:
206,183,53814,1,0,0:0:0:0:
237,101,53945,1,0,0:0:0:0:
338,129,54075,1,2,0:0:0:0:
338,129,54140,1,0,0:0:0:0:
338,129,54206,1,0,0:0:0:0:
390,59,54336,1,0,0:0:0:0:
462,109,54467,1,0,0:0:0:0:
419,245,54597,1,10,0:0:0:0:
308,205,54727,1,0,0:0:0:0:
308,205,54793,1,0,0:0:0:0:
308,205,54858,1,0,0:0:0:0:
338,286,54988,1,0,0:0:0:0:
263,332,55119,1,2,0:0:0:0:
227,252,55249,1,0,0:0:0:0:
146,314,55380,1,0,0:0:0:0:
146,314,55445,1,0,0:0:0:0:
146,314,55510,1,0,0:0:0:0:
127,228,55640,1,2,0:0:0:0:
54,277,55771,1,0,0:0:0:0:
39,190,55901,1,0,0:0:0:0:
95,106,56032,1,0,0:0:0:0:
95,106,56097,1,0,0:0:0:0:
95,106,56162,1,2,0:0:0:0:
160,164,56293,1,0,0:0:0:0:
218,98,56423,1,0,0:0:0:0:
151,41,56553,1,0,0:0:0:0:
307,7,56684,1,10,0:0:0:0:
307,7,56749,1,0,0:0:0:0:
307,7,56814,1,0,0:0:0:0:
296,94,56945,1,0,0:0:0:0:
343,167,57075,1,0,0:0:0:0:
334,254,57206,1,2,0:0:0:0:
417,353,57336,1,0,0:0:0:0:
417,353,57401,1,0,0:0:0:0:
417,353,57467,1,0,0:0:0:0:
407,266,57597,1,0,0:0:0:0:
423,180,57727,1,2,0:0:0:0:
480,113,57858,1,0,0:0:0:0:
396,32,57988,5,0,0:0:0:0:
392,40,58053,1,0,0:0:0:0:
386,47,58119,1,0,0:0:0:0:
372,135,58249,1,2,0:0:0:0:
284,118,58380,1,0,0:0:0:0:
297,29,58510,1,0,0:0:0:0:
193,66,58640,1,0,0:0:0:0:
191,53,58706,1,0,0:0:0:0:
185,42,58771,1,10,0:0:0:0:
94,16,58901,1,0,0:0:0:0:
70,108,59032,1,0,0:0:0:0:
162,132,59162,1,0,0:0:0:0:
251,215,59293,1,2,0:0:0:0:
235,207,59358,1,0,0:0:0:0:
217,207,59423,1,0,0:0:0:0:
175,299,59553,1,0,0:0:0:0:
73,294,59684,1,0,0:0:0:0:
121,205,59814,1,2,0:0:0:0:
122,74,59945,37,0,0:0:0:0:
122,74,60010,1,0,0:0:0:0:
122,74,60075,1,0,0:0:0:0:
207,92,60206,1,0,0:0:0:0:
258,21,60336,1,2,0:0:0:0:
342,44,60467,1,0,0:0:0:0:
420,132,60597,1,0,0:0:0:0:
420,132,60662,1,0,0:0:0:0:
420,132,60727,1,0,0:0:0:0:
284,128,60858,1,10,0:0:0:0:
236,201,60988,1,0,0:0:0:0:
323,207,61119,1,0,0:0:0:0:
443,250,61249,1,0,0:0:0:0:
443,250,61314,1,0,0:0:0:0:
443,250,61380,1,2,0:0:0:0:
394,322,61510,1,0,0:0:0:0:
323,271,61640,1,0,0:0:0:0:
279,347,61771,1,0,0:0:0:0:
206,247,61901,1,2,0:0:0:0:
206,247,61967,1,0,0:0:0:0:
206,247,62032,1,0,0:0:0:0:
206,334,62162,1,0,0:0:0:0:
118,341,62293,1,0,0:0:0:0:
111,254,62423,1,2,0:0:0:0:
30,177,62553,1,0,0:0:0:0:
30,177,62619,1,0,0:0:0:0:
30,177,62684,1,0,0:0:0:0:
117,157,62814,1,0,0:0:0:0:
71,35,62945,1,10,0:0:0:0:
164,14,63075,1,0,0:0:0:0:
264,40,63206,1,0,0:0:0:0:
264,40,63271,1,0,0:0:0:0:
264,40,63336,1,0,0:0:0:0:
289,124,63467,1,2,0:0:0:0:
227,185,63597,1,0,0:0:0:0:
267,262,63727,1,0,0:0:0:0:
239,362,63858,1,0,0:0:0:0:
239,362,63923,1,0,0:0:0:0:
239,362,63988,1,2,0:0:0:0:
324,381,64119,1,0,0:0:0:0:
373,308,64249,1,0,0:0:0:0:
458,329,64380,1,0,0:0:0:0:
501,232,64510,1,2,0:0:0:0:
501,232,64575,1,0,0:0:0:0:
501,232,64640,1,0,0:0:0:0:
414,247,64771,1,0,0:0:0:0:
335,199,64901,1,0,0:0:0:0:
512,135,65032,1,10,0:0:0:0:
497,41,65162,1,0,0:0:0:0:
497,41,65227,1,0,0:0:0:0:
497,41,65293,1,0,0:0:0:0:
418,79,65423,1,0,0:0:0:0:
330,78,65553,1,2,0:0:0:0:
258,26,65684,1,0,0:0:0:0:
166,68,65814,1,0,0:0:0:0:
166,68,65880,1,0,0:0:0:0:
166,68,65945,1,0,0:0:0:0:
232,124,66075,1,2,0:0:0:0:
152,161,66206,1,0,0:0:0:0:
86,103,66336,1,0,0:0:0:0:
30,206,66467,5,0,0:0:0:0:
38,204,66532,1,0,0:0:0:0:
46,205,66597,1,2,0:0:0:0:
38,293,66727,1,0,0:0:0:0:
126,315,66858,1,0,0:0:0:0:
139,227,66988,1,0,0:0:0:0:
212,369,67119,1,10,0:0:0:0:
222,363,67184,1,0,0:0:0:0:
234,361,67249,1,0,0:0:0:0:
208,268,67380,1,0,0:0:0:0:
284,210,67510,1,0,0:0:0:0:
309,301,67640,1,2,0:0:0:0:
416,369,67771,1,0,0:0:0:0:
409,352,67836,1,0,0:0:0:0:
409,334,67901,1,0,0:0:0:0:
506,275,68032,1,0,0:0:0:0:
384,145,68162,37,6,0:0:0:0:
499,159,68293,1,0,0:0:0:0:
436,64,68423,1,0,0:0:0:0:
424,51,68488,1,0,0:0:0:0:
417,34,68553,1,0,0:0:0:0:
319,95,68684,1,2,0:0:0:0:
326,1,68814,1,0,0:0:0:0:
228,1,68945,1,0,0:0:0:0:
221,97,69075,1,0,0:0:0:0:
212,112,69140,1,0,0:0:0:0:
197,122,69206,1,10,0:0:0:0:
267,202,69336,1,0,0:0:0:0:
170,228,69467,1,0,0:0:0:0:
159,326,69597,1,0,0:0:0:0:
268,303,69727,1,2,0:0:0:0:
285,305,69793,1,0,0:0:0:0:
300,312,69858,1,0,0:0:0:0:
357,229,69988,1,0,0:0:0:0:
365,338,70119,1,0,0:0:0:0:
382,340,70184,1,0,0:0:0:0:
398,335,70249,1,2,0:0:0:0:
500,373,70380,1,0,0:0:0:0:
450,256,70510,5,0,0:0:0:0:
454,233,70575,1,0,0:0:0:0:
466,213,70640,1,0,0:0:0:0:
344,168,70771,1,2,0:0:0:0:
432,68,70901,1,0,0:0:0:0:
419,48,70967,1,0,0:0:0:0:
399,36,71032,1,0,0:0:0:0:
421,148,71162,1,0,0:0:0:0:
245,87,71293,1,10,0:0:0:0:
257,54,71358,1,0,0:0:0:0:
285,34,71423,1,0,0:0:0:0:
365,103,71553,1,0,0:0:0:0:
274,152,71684,1,0,0:0:0:0:
246,153,71749,1,0,0:0:0:0:
221,165,71814,1,2,0:0:0:0:
173,83,71945,1,0,0:0:0:0:
170,193,72075,1,0,0:0:0:0:
153,198,72140,1,0,0:0:0:0:
135,197,72206,1,0,0:0:0:0:
112,293,72336,1,2,0:0:0:0:
50,191,72467,37,0,0:0:0:0:
50,191,72532,1,0,0:0:0:0:
50,191,72597,1,0,0:0:0:0:
86,111,72727,1,0,0:0:0:0:
173,112,72858,1,2,0:0:0:0:
218,37,72988,1,0,0:0:0:0:
328,57,73119,1,0,0:0:0:0:
328,57,73184,1,0,0:0:0:0:
328,57,73249,1,0,0:0:0:0:
396,197,73380,1,10,0:0:0:0:
465,144,73510,1,0,0:0:0:0:
412,74,73640,1,0,0:0:0:0:
288,127,73771,1,0,0:0:0:0:
288,127,73836,1,0,0:0:0:0:
288,127,73901,1,2,0:0:0:0:
310,211,74032,1,0,0:0:0:0:
266,286,74162,1,0,0:0:0:0:
178,292,74293,1,0,0:0:0:0:
133,186,74423,1,2,0:0:0:0:
133,186,74488,1,0,0:0:0:0:
133,186,74553,1,0,0:0:0:0:
180,111,74684,1,0,0:0:0:0:
101,73,74814,1,0,0:0:0:0:
52,146,74945,1,2,0:0:0:0:
37,263,75075,1,0,0:0:0:0:
37,263,75140,1,0,0:0:0:0:
37,263,75206,1,0,0:0:0:0:
124,261,75336,1,0,0:0:0:0:
81,380,75467,1,10,0:0:0:0:
168,381,75597,1,0,0:0:0:0:
247,304,75727,1,0,0:0:0:0:
247,304,75793,1,0,0:0:0:0:
247,304,75858,1,0,0:0:0:0:
304,369,75988,1,2,0:0:0:0:
387,341,76119,1,0,0:0:0:0:
329,275,76249,1,0,0:0:0:0:
316,166,76380,5,4,0:0:0:0:
332,161,76445,1,0,0:0:0:0:
345,150,76510,1,0,0:0:0:0:
434,185,76640,1,0,0:0:0:0:
466,95,76771,1,0,0:0:0:0:
377,64,76901,1,0,0:0:0:0:
287,2,77032,1,2,0:0:0:0:
275,15,77097,1,0,0:0:0:0:
258,21,77162,1,0,0:0:0:0:
241,115,77293,1,0,0:0:0:0:
146,127,77423,1,0,0:0:0:0:
71,0,77553,1,10,0:0:0:0:
4,74,77684,1,0,0:0:0:0:
12,89,77749,1,0,0:0:0:0:
17,105,77814,1,0,0:0:0:0:
1,198,77945,1,0,0:0:0:0:
80,248,78075,1,2,0:0:0:0:
51,337,78206,1,0,0:0:0:0:
154,343,78336,1,0,0:0:0:0:
169,335,78401,1,0,0:0:0:0:
186,334,78467,1,0,0:0:0:0:
199,247,78597,1,2,0:0:0:0:
253,339,78727,37,0,0:0:0:0:
273,333,78793,1,0,0:0:0:0:
288,319,78858,1,0,0:0:0:0:
368,353,78988,1,0,0:0:0:0:
336,258,79119,1,2,0:0:0:0:
341,236,79184,1,0,0:0:0:0:
354,218,79249,1,0,0:0:0:0:
256,162,79380,1,0,0:0:0:0:
406,170,79510,1,0,0:0:0:0:
416,136,79575,1,0,0:0:0:0:
407,102,79640,1,10,0:0:0:0:
511,43,79771,1,0,0:0:0:0:
356,67,79901,1,0,0:0:0:0:
360,38,79967,1,0,0:0:0:0:
375,14,80032,1,0,0:0:0:0:
255,3,80162,1,2,0:0:0:0:
285,87,80293,1,0,0:0:0:0:
287,109,80358,1,0,0:0:0:0:
280,130,80423,1,0,0:0:0:0:
343,192,80553,1,0,0:0:0:0:
242,201,80684,5,6,0:0:0:0:
242,201,80749,1,0,0:0:0:0:
242,201,80814,1,0,0:0:0:0:
185,133,80945,1,0,0:0:0:0:
103,163,81075,1,0,0:0:0:0:
158,230,81206,1,2,0:0:0:0:
128,323,81336,1,0,0:0:0:0:
128,323,81401,1,0,0:0:0:0:
128,323,81467,1,0,0:0:0:0:
42,305,81597,1,0,0:0:0:0:
103,163,81727,1,10,0:0:0:0:
17,143,81858,1,0,0:0:0:0:
12,44,81988,1,0,0:0:0:0:
12,44,82053,1,0,0:0:0:0:
12,44,82119,1,0,0:0:0:0:
93,74,82249,1,2,0:0:0:0:
159,16,82380,1,0,0:0:0:0:
237,53,82510,1,0,0:0:0:0:
272,149,82640,1,0,0:0:0:0:
272,149,82706,1,0,0:0:0:0:
272,149,82771,1,2,0:0:0:0:
339,94,82901,1,0,0:0:0:0:
397,159,83032,1,0,0:0:0:0:
328,212,83162,1,0,0:0:0:0:
363,306,83293,1,2,0:0:0:0:
363,306,83358,1,0,0:0:0:0:
363,306,83423,1,0,0:0:0:0:
443,273,83553,1,0,0:0:0:0:
427,359,83684,1,0,0:0:0:0:
266,384,83814,37,10,0:0:0:0:
216,250,83945,1,0,0:0:0:0:
229,227,84010,1,0,0:0:0:0:
232,201,84075,1,0,0:0:0:0:
133,282,84206,1,10,0:0:0:0:
100,164,84336,1,0,0:0:0:0:
124,155,84401,1,0,0:0:0:0:
150,155,84467,1,0,0:0:0:0:
206,60,84597,1,10,0:0:0:0:
285,157,84727,1,0,0:0:0:0:
301,136,84793,1,0,0:0:0:0:
306,110,84858,1,6,0:0:0:0:
369,20,84988,1,8,0:0:0:0:
419,135,85119,1,2,0:0:0:0:
425,109,85184,1,0,0:0:0:0:
440,88,85249,1,0,0:0:0:0:
502,214,85380,1,10,0:0:0:0:
365,191,85510,1,0,0:0:0:0:
380,212,85575,1,0,0:0:0:0:
386,237,85640,1,2,0:0:0:0:
486,306,85771,1,8,0:0:0:0:
351,338,85901,1,2,0:0:0:0:
375,348,85967,1,0,0:0:0:0:
400,343,86032,1,0,0:0:0:0:
319,240,86162,1,10,0:0:0:0:
268,330,86293,1,0,0:0:0:0:
259,305,86358,1,0,0:0:0:0:
238,288,86423,1,2,0:0:0:0:
126,342,86553,1,8,0:0:0:0:
147,214,86684,1,2,0:0:0:0:
172,221,86749,1,0,0:0:0:0:
198,219,86814,1,0,0:0:0:0:
120,109,86945,1,10,0:0:0:0:
63,220,87075,1,0,0:0:0:0:
63,193,87140,1,0,0:0:0:0:
49,169,87206,1,2,0:0:0:0:
178,153,87336,1,8,0:0:0:0:
138,39,87467,1,2,0:0:0:0:
162,49,87532,1,0,0:0:0:0:
188,49,87597,1,0,0:0:0:0:
296,0,87727,1,10,0:0:0:0:
278,118,87858,1,0,0:0:0:0:
299,103,87923,1,0,0:0:0:0:
324,98,87988,1,2,0:0:0:0:
233,195,88119,1,8,0:0:0:0:
337,189,88249,1,2,0:0:0:0:
326,213,88314,1,0,0:0:0:0:
326,239,88380,1,0,0:0:0:0:
384,333,88510,1,10,0:0:0:0:
460,223,88640,1,0,0:0:0:0:
434,231,88706,1,0,0:0:0:0:
407,231,88771,1,2,0:0:0:0:
504,137,88901,1,8,0:0:0:0:
383,142,89032,1,2,0:0:0:0:
394,118,89097,1,0,0:0:0:0:
390,92,89162,1,0,0:0:0:0:
454,9,89293,1,10,0:0:0:0:
308,24,89423,1,0,0:0:0:0:
310,50,89488,1,0,0:0:0:0:
321,73,89553,1,2,0:0:0:0:
270,160,89684,1,8,0:0:0:0:
194,58,89814,1,6,0:0:0:0:
216,72,89880,1,0,0:0:0:0:
241,75,89945,1,0,0:0:0:0:
113,126,90075,1,10,0:0:0:0:
201,206,90206,1,0,0:0:0:0:
207,180,90271,1,0,0:0:0:0:
201,154,90336,1,2,0:0:0:0:
124,60,90467,1,8,0:0:0:0:
12,112,90597,1,2,0:0:0:0:
36,121,90662,1,0,0:0:0:0:
50,142,90727,1,0,0:0:0:0:
24,249,90858,1,10,0:0:0:0:
125,185,90988,1,0,0:0:0:0:
115,209,91053,1,0,0:0:0:0:
120,235,91119,1,2,0:0:0:0:
224,287,91249,1,8,0:0:0:0:
99,344,91380,1,2,0:0:0:0:
121,330,91445,1,0,0:0:0:0:
146,334,91510,1,0,0:0:0:0:
184,236,91640,1,10,0:0:0:0:
275,329,91771,1,0,0:0:0:0:
257,348,91836,1,0,0:0:0:0:
251,373,91901,1,2,0:0:0:0:
378,322,92032,1,8,0:0:0:0:
297,231,92162,1,2,0:0:0:0:
315,249,92227,1,0,0:0:0:0:
323,274,92293,1,0,0:0:0:0:
409,210,92423,1,10,0:0:0:0:
287,152,92553,1,0,0:0:0:0:
312,159,92619,1,0,0:0:0:0:
337,151,92684,1,2,0:0:0:0:
216,195,92814,1,8,0:0:0:0:
206,74,92945,1,2,0:0:0:0:
206,100,93010,1,0,0:0:0:0:
190,121,93075,1,0,0:0:0:0:
273,36,93206,1,10,0:0:0:0:
351,88,93336,1,0,0:0:0:0:
363,65,93401,1,0,0:0:0:0:
386,52,93467,1,6,0:0:0:0:
502,103,93597,1,8,0:0:0:0:
428,195,93727,1,2,0:0:0:0:
433,168,93793,1,0,0:0:0:0:
423,143,93858,1,0,0:0:0:0:
507,223,93988,1,10,0:0:0:0:
408,284,94119,1,0,0:0:0:0:
432,275,94184,1,0,0:0:0:0:
457,281,94249,1,2,0:0:0:0:
346,205,94380,1,8,0:0:0:0:
330,317,94510,1,2,0:0:0:0:
326,291,94575,1,0,0:0:0:0:
305,274,94640,1,0,0:0:0:0:
202,289,94771,1,10,0:0:0:0:
241,171,94901,1,0,0:0:0:0:
253,194,94967,1,0,0:0:0:0:
254,220,95032,1,2,0:0:0:0:
260,333,95162,1,8,0:0:0:0:
132,373,95293,1,2,0:0:0:0:
143,349,95358,1,0,0:0:0:0:
166,338,95423,1,0,0:0:0:0:
119,239,95553,1,10,0:0:0:0:
58,324,95684,1,0,0:0:0:0:
51,298,95749,1,0,0:0:0:0:
56,272,95814,1,2,0:0:0:0:
2,187,95945,1,8,0:0:0:0:
135,162,96075,1,2,0:0:0:0:
108,160,96140,1,0,0:0:0:0:
86,144,96206,1,0,0:0:0:0:
90,34,96336,1,10,0:0:0:0:
162,98,96467,1,0,0:0:0:0:
178,77,96532,1,0,0:0:0:0:
202,67,96597,1,6,0:0:0:0:
211,169,96727,1,8,0:0:0:0:
298,78,96858,1,2,0:0:0:0:
290,102,96923,1,0,0:0:0:0:
295,127,96988,1,0,0:0:0:0:
386,107,97119,1,10,0:0:0:0:
379,200,97249,1,0,0:0:0:0:
355,189,97314,1,0,0:0:0:0:
328,193,97380,1,6,0:0:0:0:
253,273,97510,1,8,0:0:0:0:
367,325,97640,1,2,0:0:0:0:
349,305,97706,1,0,0:0:0:0:
346,278,97771,1,0,0:0:0:0:
466,315,97901,1,10,0:0:0:0:
453,196,98032,1,0,0:0:0:0:
473,212,98097,1,0,0:0:0:0:
483,236,98162,1,2,0:0:0:0:
512,130,98293,1,8,0:0:0:0:
386,126,98423,1,2,0:0:0:0:
409,113,98488,1,0,0:0:0:0:
418,88,98553,1,0,0:0:0:0:
370,0,98684,1,10,0:0:0:0:
281,62,98814,1,0,0:0:0:0:
305,71,98880,1,0,0:0:0:0:
321,91,98945,1,2,0:0:0:0:
291,182,99075,1,8,0:0:0:0:
190,115,99206,1,2,0:0:0:0:
195,140,99271,1,0,0:0:0:0:
191,165,99336,1,0,0:0:0:0:
126,62,99467,1,10,0:0:0:0:
62,155,99597,1,0,0:0:0:0:
86,145,99662,1,0,0:0:0:0:
112,143,99727,1,2,0:0:0:0:
163,243,99858,1,8,0:0:0:0:
41,291,99988,1,2,0:0:0:0:
62,276,100053,1,0,0:0:0:0:
71,251,100119,1,0,0:0:0:0:
102,353,100249,1,10,0:0:0:0:
172,303,100380,1,0,0:0:0:0:
187,323,100445,1,0,0:0:0:0:
212,329,100510,1,6,0:0:0:0:
257,234,100640,1,8,0:0:0:0:
296,344,100771,1,2,0:0:0:0:
306,319,100836,1,0,0:0:0:0:
328,306,100901,1,0,0:0:0:0:
443,348,101032,1,10,0:0:0:0:
365,208,101162,1,0,0:0:0:0:
374,232,101227,1,0,0:0:0:0:
395,247,101293,1,2,0:0:0:0:
469,132,101423,1,8,0:0:0:0:
347,67,101553,6,0,B|267:86|267:86|237:142|237:142|128:164,1,210,6|0,0:0|2:0,0:0:0:0:
123,124,101814,2,0,B|186:111|186:111|216:55|216:55|295:36,1,210,2|0,0:0|2:0,0:0:0:0:
319,146,102075,1,0,0:0:0:0:
298,182,102140,1,0,0:0:0:0:
295,223,102206,1,0,0:0:0:0:
174,154,102336,1,8,0:0:0:0:
208,296,102467,2,0,B|143:250|143:250|93:265|93:265|20:213,1,210,2|0,0:0|2:0,0:0:0:0:
35,273,102727,2,0,B|98:318|98:318|148:303|148:303|213:349,1,210,2|0,0:0|2:0,0:0:0:0:
329,363,102988,1,0,0:0:0:0:
305,328,103053,1,0,0:0:0:0:
299,285,103119,1,0,0:0:0:0:
412,236,103249,1,8,0:0:0:0:
221,242,103380,1,0,0:0:0:0:
231,201,103445,1,0,0:0:0:0:
262,172,103510,1,0,0:0:0:0:
412,236,103640,1,8,0:0:0:0:
416,73,103771,2,0,B|341:79|341:79|300:34|300:34|207:41,1,210,2|0,0:0|2:0,0:0:0:0:
160,133,104032,1,2,0:0:0:0:
201,130,104097,1,0,0:0:0:0:
234,104,104162,1,0,0:0:0:0:
114,12,104293,1,8,0:0:0:0:
53,135,104423,2,0,B|38:211|38:211|79:263|79:263|64:335,1,210,2|0,0:0|2:0,0:0:0:0:
110,291,104684,2,0,B|123:226|123:226|82:174|82:174|97:98,1,210,2|0,0:0|2:0,0:0:0:0:
234,104,104945,1,0,0:0:0:0:
212,139,105010,1,0,0:0:0:0:
222,179,105075,1,0,0:0:0:0:
380,216,105206,1,8,0:0:0:0:
213,289,105336,2,0,B|280:335|280:335|342:317|342:317|421:367,1,210,2|0,0:0|2:0,0:0:0:0:
445,317,105597,2,0,B|391:283|391:283|329:301|329:301|262:255,1,210,2|0,0:0|2:0,0:0:0:0:
292,128,105858,1,0,0:0:0:0:
307,166,105923,1,0,0:0:0:0:
302,207,105988,1,0,0:0:0:0:
188,228,106119,1,8,0:0:0:0:
380,216,106249,1,0,0:0:0:0:
362,253,106314,1,0,0:0:0:0:
325,275,106380,1,0,0:0:0:0:
188,228,106510,1,8,0:0:0:0:
219,69,106640,2,0,B|290:32|290:32|351:47|351:47|425:8,1,210,2|0,0:0|2:0,0:0:0:0:
456,90,106901,1,0,0:0:0:0:
413,91,106967,1,0,0:0:0:0:
376,112,107032,1,0,0:0:0:0:
494,196,107162,1,8,0:0:0:0:
350,185,107293,2,0,B|317:245|317:245|347:297|347:297|305:371,1,210,2|0,0:0|2:0,0:0:0:0:
253,383,107553,2,0,B|293:312|293:312|263:260|263:260|296:200,1,210,2|0,0:0|2:0,0:0:0:0:
269,119,107814,1,0,0:0:0:0:
228,132,107880,1,0,0:0:0:0:
189,114,107945,1,0,0:0:0:0:
122,0,108075,1,8,0:0:0:0:
46,132,108206,2,0,B|67:199|67:199|38:252|38:252|66:336,1,210,2|0,0:0|2:0,0:0:0:0:
113,299,108467,2,0,B|87:223|87:223|116:170|116:170|95:103,1,210,2|0,0:0|2:0,0:0:0:0:
156,48,108727,1,0,0:0:0:0:
197,44,108793,1,0,0:0:0:0:
234,65,108858,1,0,0:0:0:0:
234,193,108988,1,8,0:0:0:0:
310,22,109119,1,0,0:0:0:0:
333,56,109184,1,0,0:0:0:0:
335,97,109249,1,0,0:0:0:0:
234,193,109380,1,8,0:0:0:0:
402,178,109510,2,0,B|424:248|424:248|383:287|383:287|407:366,1,210,2|0,0:0|2:0,0:0:0:0:
492,379,109771,1,0,0:0:0:0:
492,337,109836,1,0,0:0:0:0:
461,308,109901,1,0,0:0:0:0:
308,366,110032,1,8,0:0:0:0:
305,206,110162,2,0,B|332:137|332:137|400:105|400:105|429:25,1,210,2|0,0:0|2:0,0:0:0:0:
394,0,110423,2,0,B|373:57|373:57|305:89|305:89|278:158,1,210,4|0,0:0|2:0,0:0:0:0:
198,212,110684,1,0,0:0:0:0:
211,172,110749,1,0,0:0:0:0:
199,131,110814,1,0,0:0:0:0:
66,76,110945,1,8,0:0:0:0:
58,219,111075,2,0,B|133:231|133:231|176:287|176:287|265:302,1,210,2|0,0:0|2:0,0:0:0:0:
261,358,111336,2,0,B|198:347|198:347|155:291|155:291|80:279,1,210,2|0,0:0|2:0,0:0:0:0:
0,294,111597,1,0,0:0:0:0:
19,330,111662,1,0,0:0:0:0:
52,354,111727,1,0,0:0:0:0:
238,297,111858,1,8,0:0:0:0:
58,219,111988,1,0,0:0:0:0:
82,184,112053,1,0,0:0:0:0:
123,175,112119,1,0,0:0:0:0:
238,297,112249,1,8,0:0:0:0:
204,114,112380,2,0,B|284:75|284:75|344:91|344:91|446:38,1,210,2|0,0:0|2:0,0:0:0:0:
342,2,112640,1,0,0:0:0:0:
300,12,112706,1,0,0:0:0:0:
258,3,112771,1,0,0:0:0:0:
145,70,112901,1,0,0:0:0:0:
285,149,113032,2,0,B|360:169|360:169|419:139|419:139|511:166,1,210,2|0,0:0|2:0,0:0:0:0:
512,205,113293,2,0,B|448:186|448:186|389:216|389:216|314:196,1,210,2|0,0:0|2:0,0:0:0:0:
233,240,113553,1,0,0:0:0:0:
275,242,113619,1,0,0:0:0:0:
308,267,113684,1,0,0:0:0:0:
377,384,113814,1,8,0:0:0:0:
214,384,113945,2,0,B|207:319|207:319|149:274|149:274|136:181,1,210,4|0,0:0|2:0,0:0:0:0:
80,186,114206,2,0,B|89:256|89:256|147:301|147:301|154:366,1,210,2|0,0:0|2:0,0:0:0:0:
55,382,114467,1,0,0:0:0:0:
65,341,114532,1,0,0:0:0:0:
40,306,114597,1,0,0:0:0:0:
5,172,114727,1,8,0:0:0:0:
159,281,114858,1,0,0:0:0:0:
116,278,114923,1,0,0:0:0:0:
89,246,114988,1,0,0:0:0:0:
5,172,115119,1,8,0:0:0:0:
179,153,115249,2,0,B|240:206|240:206|261:263|261:263|318:316,1,210,2|0,0:0|2:0,0:0:0:0:
418,295,115510,1,0,0:0:0:0:
377,285,115575,1,0,0:0:0:0:
348,253,115640,1,0,0:0:0:0:
457,150,115771,1,8,0:0:0:0:
305,150,115901,2,0,B|279:78|279:78|203:48|203:48|182:-11,1,210,2|0,0:0|2:0,0:0:0:0:
130,12,116162,2,0,B|147:60|147:60|223:90|223:90|249:162,1,210,2|0,0:0|2:0,0:0:0:0:
206,253,116423,1,0,0:0:0:0:
239,227,116488,1,0,0:0:0:0:
280,221,116553,1,0,0:0:0:0:
374,346,116684,1,8,0:0:0:0:
420,195,116814,2,0,B|470:135|470:135|454:66|454:66|496:11,1,210,2|0,0:0|2:0,0:0:0:0:
436,23,117075,2,0,B|398:71|398:71|414:140|414:140|364:200,1,210,2|0,0:0|2:0,0:0:0:0:
405,265,117336,37,8,0:0:0:0:
356,273,117401,1,8,0:0:0:0:
306,280,117467,1,0,0:0:0:0:
290,322,117532,5,0,0:0:0:0:
283,321,117597,1,0,0:0:0:0:
276,321,117662,1,0,0:0:0:0:
236,285,117727,37,4,0:0:0:0:
236,285,118249,6,0,B|129:318|129:318|23:294,1,210,2|0,0:0|2:0,0:0:0:0:
55,381,118510,2,0,B|137:329|137:329|195:217,1,210,2|0,0:0|2:0,0:0:0:0:
187,139,118771,1,0,0:0:0:0:
149,157,118836,1,0,0:0:0:0:
107,149,118901,1,0,0:0:0:0:
70,18,119032,1,8,0:0:0:0:
203,43,119162,2,0,B|277:120|277:120|282:228,1,210,2|0,0:0|2:0,0:0:0:0:
386,196,119423,2,0,B|299:133|299:133|276:27,1,210,2|0,0:0|2:0,0:0:0:0:
368,0,119684,1,0,0:0:0:0:
363,41,119749,1,0,0:0:0:0:
383,77,119814,1,0,0:0:0:0:
501,137,119945,1,8,0:0:0:0:
299,101,120075,1,0,0:0:0:0:
325,133,120140,1,0,0:0:0:0:
366,141,120206,1,0,0:0:0:0:
501,137,120336,1,8,0:0:0:0:
450,283,120467,2,0,B|351:265|351:265|248:314,1,210,2|0,0:0|2:0,0:0:0:0:
161,322,120727,1,0,0:0:0:0:
185,287,120793,1,0,0:0:0:0:
182,245,120858,1,0,0:0:0:0:
299,208,120988,1,8,0:0:0:0:
144,185,121119,2,0,B|74:121|74:121|68:-14,1,210,2|0,0:0|2:0,0:0:0:0:
156,26,121380,2,0,B|111:132|111:132|24:168,1,210,2|0,0:0|2:0,0:0:0:0:
14,251,121640,1,0,0:0:0:0:
50,229,121706,1,0,0:0:0:0:
91,231,121771,1,0,0:0:0:0:
102,337,121901,1,8,0:0:0:0:
202,252,122032,2,0,B|296:293|296:293|415:273,1,210,2|0,0:0|2:0,0:0:0:0:
400,375,122293,2,0,B|318:305|318:305|289:206,1,210,2|0,0:0|2:0,0:0:0:0:
380,164,122553,1,0,0:0:0:0:
339,152,122619,1,0,0:0:0:0:
317,116,122684,1,0,0:0:0:0:
305,4,122814,1,8,0:0:0:0:
233,154,122945,1,0,0:0:0:0:
222,113,123010,1,0,0:0:0:0:
233,72,123075,1,0,0:0:0:0:
305,4,123206,1,8,0:0:0:0:
158,21,123336,2,0,B|55:60|55:60|-1:148,1,210,2|0,0:0|2:0,0:0:0:0:
56,224,123597,1,0,0:0:0:0:
70,185,123662,1,0,0:0:0:0:
109,169,123727,1,0,0:0:0:0:
215,248,123858,1,8,0:0:0:0:
279,117,123988,2,0,B|381:123|381:123|479:201,1,210,2|0,0:0|2:0,0:0:0:0:
448,68,124249,2,0,B|387:149|387:149|383:275,1,210,2|0,0:0|2:0,0:0:0:0:
462,316,124510,1,0,0:0:0:0:
420,321,124575,1,0,0:0:0:0:
391,351,124640,1,0,0:0:0:0:
321,256,124771,1,8,0:0:0:0:
278,373,124901,2,0,B|196:315|196:315|69:326,1,210,2|0,0:0|2:0,0:0:0:0:
147,384,125162,2,0,B|224:306|224:306|232:206,1,210,2|0,0:0|2:0,0:0:0:0:
193,122,125423,1,0,0:0:0:0:
152,132,125488,1,0,0:0:0:0:
129,166,125553,1,0,0:0:0:0:
150,278,125684,1,8,0:0:0:0:
49,129,125814,1,0,0:0:0:0:
40,170,125880,1,0,0:0:0:0:
51,210,125945,1,0,0:0:0:0:
150,278,126075,1,8,0:0:0:0:
263,147,126206,2,0,B|349:202|349:202|475:197,1,210,2|0,0:0|2:0,0:0:0:0:
493,125,126467,1,0,0:0:0:0:
451,132,126532,1,0,0:0:0:0:
412,115,126597,1,0,0:0:0:0:
378,0,126727,1,8,0:0:0:0:
330,115,126858,2,0,B|320:223|320:223|246:304,1,210,2|0,0:0|2:0,0:0:0:0:
363,278,127119,2,0,B|264:232|264:232|157:256,1,210,2|0,0:0|2:0,0:0:0:0:
110,343,127380,1,0,0:0:0:0:
118,301,127445,1,0,0:0:0:0:
101,262,127510,1,0,0:0:0:0:
0,167,127640,1,8,0:0:0:0:
135,150,127771,2,0,B|213:92|213:92|330:89,1,210,4|0,0:0|2:0,0:0:0:0:
293,178,128032,2,0,B|208:103|208:103|186:8,1,210,2|0,0:0|2:0,0:0:0:0:
263,0,128293,1,0,0:0:0:0:
296,24,128358,1,0,0:0:0:0:
337,24,128423,1,0,0:0:0:0:
448,117,128553,1,8,0:0:0:0:
252,116,128684,1,0,0:0:0:0:
284,89,128749,1,0,0:0:0:0:
325,89,128814,1,0,0:0:0:0:
448,117,128945,1,8,0:0:0:0:
363,226,129075,2,0,B|400:314|400:314|518:356,1,210,2|0,0:0|2:0,0:0:0:0:
504,271,129336,1,0,0:0:0:0:
462,265,129401,1,0,0:0:0:0:
440,228,129467,1,0,0:0:0:0:
512,123,129597,1,8,0:0:0:0:
374,143,129727,2,0,B|276:190|276:190|157:173,1,210,2|0,0:0|2:0,0:0:0:0:
260,112,129988,2,0,B|251:220|251:220|177:314,1,210,2|0,0:0|2:0,0:0:0:0:
228,377,130249,1,0,0:0:0:0:
252,343,130314,1,0,0:0:0:0:
293,334,130380,1,0,0:0:0:0:
341,223,130510,1,8,0:0:0:0:
212,247,130640,2,0,B|105:221|105:221|63:128,1,210,2|0,0:0|2:0,0:0:0:0:
11,209,130901,2,0,B|118:183|118:183|159:91,1,210,2|0,0:0|2:0,0:0:0:0:
123,2,131162,1,0,0:0:0:0:
154,30,131227,1,0,0:0:0:0:
196,35,131293,1,0,0:0:0:0:
310,5,131423,1,8,0:0:0:0:
159,91,131553,1,0,0:0:0:0:
199,102,131619,1,0,0:0:0:0:
239,90,131684,1,0,0:0:0:0:
310,5,131814,1,8,0:0:0:0:
355,134,131945,2,0,B|269:197|269:197|246:308,1,210,2|0,0:0|2:0,0:0:0:0:
183,336,132206,1,0,0:0:0:0:
179,294,132271,1,0,0:0:0:0:
149,263,132336,1,0,0:0:0:0:
8,248,132467,1,8,0:0:0:0:
106,156,132597,2,0,B|212:160|212:160|311:79,1,210,2|0,0:0|2:0,0:0:0:0:
256,210,132858,2,0,B|199:120|199:120|220:-6,1,210,2|0,0:0|2:0,0:0:0:0:
139,1,133119,1,0,0:0:0:0:
130,41,133184,1,0,0:0:0:0:
93,61,133249,1,0,0:0:0:0:
179,137,133380,1,8,0:0:0:0:
57,192,133510,2,0,B|109:278|109:278|80:398,1,210,2|0,0:0|2:0,0:0:0:0:
0,352,133771,2,0,B|91:291|91:291|189:310,1,210,2|0,0:0|2:0,0:0:0:0:
225,381,134032,1,0,0:0:0:0:
251,348,134097,1,0,0:0:0:0:
291,336,134162,1,0,0:0:0:0:
411,369,134293,1,8,0:0:0:0:
321,194,134423,1,0,0:0:0:0:
304,231,134488,1,0,0:0:0:0:
311,271,134553,1,0,0:0:0:0:
411,369,134684,1,8,0:0:0:0:
429,214,134814,1,0,0:0:0:0:
448,176,134880,1,0,0:0:0:0:
468,139,134945,38,0,B|411:91|411:91|335:86|335:86|262:23,1,210,2|0,0:0|2:0,0:0:0:0:
212,66,135206,2,0,B|256:104|256:104|332:109|332:109|389:157,1,210,2|0,0:0|2:0,0:0:0:0:
321,194,135467,1,0,0:0:0:0:
280,183,135532,1,0,0:0:0:0:
240,196,135597,1,0,0:0:0:0:
185,312,135727,1,8,0:0:0:0:
120,206,135858,2,0,B|147:125|147:125|117:70|117:70|139:4,1,210,2|0,0:0|2:0,0:0:0:0:
81,0,136119,2,0,B|61:58|61:58|91:113|91:113|64:194,1,210,2|0,0:0|2:0,0:0:0:0:
12,261,136380,1,0,0:0:0:0:
53,257,136445,1,0,0:0:0:0:
86,282,136510,1,0,0:0:0:0:
136,384,136640,1,8,0:0:0:0:
139,189,136771,1,0,0:0:0:0:
166,220,136836,1,0,0:0:0:0:
169,261,136901,1,0,0:0:0:0:
136,384,137032,1,8,0:0:0:0:
263,300,137162,2,0,B|334:319|334:319|376:365|376:365|468:390,1,210,2|0,0:0|2:0,0:0:0:0:
510,328,137423,1,0,0:0:0:0:
469,317,137488,1,0,0:0:0:0:
447,281,137553,1,0,0:0:0:0:
330,255,137684,1,8,0:0:0:0:
455,192,137814,2,0,B|458:116|458:116|408:61|408:61|408:-7,1,210,2|0,0:0|2:0,0:0:0:0:
367,40,138075,2,0,B|367:99|367:99|417:154|417:154|414:230,1,210,2|0,0:0|2:0,0:0:0:0:
349,191,138336,1,0,0:0:0:0:
322,158,138401,1,0,0:0:0:0:
279,155,138467,1,0,0:0:0:0:
240,43,138597,1,8,0:0:0:0:
181,165,138727,2,0,B|152:227|152:227|93:249|93:249|44:341,1,210,2|0,0:0|2:0,0:0:0:0:
0,302,138988,2,0,B|36:232|36:232|95:210|95:210|124:148,1,210,2|0,0:0|2:0,0:0:0:0:
94,67,139249,1,0,0:0:0:0:
135,67,139314,1,0,0:0:0:0:
171,89,139380,1,0,0:0:0:0:
228,204,139510,1,8,0:0:0:0:
49,173,139640,1,0,0:0:0:0:
83,148,139706,1,0,0:0:0:0:
124,148,139771,1,0,0:0:0:0:
228,204,139901,1,8,0:0:0:0:
268,76,140032,2,0,B|341:88|341:88|410:53|410:53|497:64,1,210,2|0,0:0|2:0,0:0:0:0:
489,141,140293,1,0,0:0:0:0:
448,131,140358,1,0,0:0:0:0:
408,145,140423,1,0,0:0:0:0:
413,261,140553,1,8,0:0:0:0:
299,158,140684,2,0,B|305:235|305:235|264:287|264:287|274:364,1,210,2|0,0:0|2:0,0:0:0:0:
318,384,140945,2,0,B|309:318|309:318|350:266|350:266|344:189,1,210,2|0,0:0|2:0,0:0:0:0:
408,145,141206,1,0,0:0:0:0:
371,123,141271,1,0,0:0:0:0:
356,83,141336,1,0,0:0:0:0:
238,41,141467,1,8,0:0:0:0:
251,162,141597,2,0,B|176:150|176:150|112:175|112:175|25:157,1,210,2|0,0:0|2:0,0:0:0:0:
16,215,141858,2,0,B|79:228|79:228|143:203|143:203|218:215,1,210,2|0,0:0|2:0,0:0:0:0:
230,295,142119,1,0,0:0:0:0:
190,282,142184,1,0,0:0:0:0:
149,291,142249,1,0,0:0:0:0:
37,354,142380,1,8,0:0:0:0:
111,177,142510,1,0,0:0:0:0:
112,218,142575,1,0,0:0:0:0:
89,253,142640,1,0,0:0:0:0:
37,354,142771,1,8,0:0:0:0:
186,355,142901,2,0,B|264:381|264:381|332:351|332:351|430:378,1,210,2|0,0:0|2:0,0:0:0:0:
366,283,143162,1,0,0:0:0:0:
331,259,143227,1,0,0:0:0:0:
319,218,143293,1,0,0:0:0:0:
339,86,143423,1,8,0:0:0:0:
400,203,143553,2,0,B|443:258|443:258|451:329|451:329|497:387,1,210,2|0,0:0|2:0,0:0:0:0:
512,312,143814,2,0,B|469:258|469:258|461:187|461:187|418:132,1,210,2|0,0:0|2:0,0:0:0:0:
470,61,144075,1,0,0:0:0:0:
428,57,144140,1,0,0:0:0:0:
394,30,144206,1,0,0:0:0:0:
333,150,144336,1,8,0:0:0:0:
263,45,144467,2,0,B|203:79|203:79|181:145|181:145|93:193,1,210,2|0,0:0|2:0,0:0:0:0:
114,248,144727,2,0,B|176:213|176:213|198:147|198:147|258:113,1,210,2|0,0:0|2:0,0:0:0:0:
265,188,144988,1,0,0:0:0:0:
252,227,145053,1,0,0:0:0:0:
264,267,145119,1,0,0:0:0:0:
380,327,145249,1,8,0:0:0:0:
371,160,145380,1,0,0:0:0:0:
339,187,145445,1,0,0:0:0:0:
326,226,145510,1,0,0:0:0:0:
380,327,145640,1,8,0:0:0:0:
257,361,145771,2,0,B|210:316|210:316|190:234|190:234|135:178,1,210,2|0,0:0|2:0,0:0:0:0:
77,223,146032,1,0,0:0:0:0:
82,181,146097,1,0,0:0:0:0:
58,146,146162,1,0,0:0:0:0:
43,24,146293,1,8,0:0:0:0:
139,81,146423,2,0,B|202:96|202:96|277:57|277:57|359:74,1,210,2|0,0:0|2:0,0:0:0:0:
393,106,146684,2,0,B|333:93|333:93|258:132|258:132|195:117,1,210,2|0,0:0|2:0,0:0:0:0:
201,193,146945,1,0,0:0:0:0:
241,205,147010,1,0,0:0:0:0:
261,241,147075,1,0,0:0:0:0:
273,363,147206,1,8,0:0:0:0:
366,258,147336,2,0,B|394:184|394:184|455:157|455:157|489:70,1,210,2|0,0:0|2:0,0:0:0:0:
461,42,147597,2,0,B|437:101|437:101|376:128|376:128|348:202,1,210,2|0,0:0|2:0,0:0:0:0:
282,162,147858,1,0,0:0:0:0:
244,142,147923,1,0,0:0:0:0:
203,151,147988,1,0,0:0:0:0:
131,253,148119,1,8,0:0:0:0:
85,68,148249,1,0,0:0:0:0:
117,94,148314,1,0,0:0:0:0:
133,132,148380,1,0,0:0:0:0:
131,253,148510,1,8,0:0:0:0:
268,223,148640,2,0,B|297:296|297:296|360:323|360:323|390:392,1,210,2|0,0:0|2:0,0:0:0:0:
296,380,148901,1,0,0:0:0:0:
255,368,148967,1,0,0:0:0:0:
228,335,149032,1,0,0:0:0:0:
194,213,149162,1,8,0:0:0:0:
124,340,149293,2,0,B|67:293|67:293|54:231|54:231|-7:178,1,210,2|0,0:0|2:0,0:0:0:0:
21,122,149553,2,0,B|75:169|75:169|88:231|88:231|145:278,1,210,2|0,0:0|2:0,0:0:0:0:
194,213,149814,1,0,0:0:0:0:
165,181,149880,1,0,0:0:0:0:
164,139,149945,1,0,0:0:0:0:
231,31,150075,1,8,0:0:0:0:
294,148,150206,2,0,B|353:107|353:107|381:40|381:40|451:-16,1,210,2|0,0:0|2:0,0:0:0:0:
446,58,150467,2,0,B|394:98|394:98|366:165|366:165|307:206,1,210,2|0,0:0|2:0,0:0:0:0:
259,275,150727,5,8,0:0:0:0:
256,268,150793,1,8,0:0:0:0:
253,261,150858,1,8,0:0:0:0:
250,254,150923,1,8,0:0:0:0:
201,235,150988,37,12,0:3:0:0:
209,186,151053,1,4,0:3:0:0:
217,135,151119,5,12,0:3:0:0:
223,141,151640,37,4,0:0:0:0:
223,141,151706,1,0,0:0:0:0:
223,141,151771,1,0,0:0:0:0:
198,57,151901,1,0,0:0:0:0:
112,37,152032,1,0,0:0:0:0:
53,101,152162,1,2,0:0:0:0:
78,185,152293,1,0,0:0:0:0:
164,205,152423,1,0,0:0:0:0:
250,288,152553,1,0,0:0:0:0:
250,288,152619,1,0,0:0:0:0:
250,288,152684,1,10,0:0:0:0:
305,219,152814,1,0,0:0:0:0:
391,233,152944,1,0,0:0:0:0:
422,315,153075,1,0,0:0:0:0:
367,383,153205,1,2,0:0:0:0:
281,369,153335,1,0,0:0:0:0:
163,384,153467,1,0,0:0:0:0:
163,384,153532,1,0,0:0:0:0:
163,384,153597,1,0,0:0:0:0:
191,301,153727,1,2,0:0:0:0:
108,269,153858,1,0,0:0:0:0:
79,352,153988,1,0,0:0:0:0:
4,263,154119,1,0,0:0:0:0:
4,263,154184,1,0,0:0:0:0:
4,263,154249,1,2,0:0:0:0:
24,177,154380,1,0,0:0:0:0:
133,199,154510,1,0,0:0:0:0:
133,199,154575,1,0,0:0:0:0:
133,199,154640,1,0,0:0:0:0:
50,51,154771,1,10,0:0:0:0:
129,12,154901,1,0,0:0:0:0:
167,91,155032,1,0,0:0:0:0:
276,139,155162,1,0,0:0:0:0:
276,139,155227,1,0,0:0:0:0:
276,139,155293,1,2,0:0:0:0:
209,193,155423,1,0,0:0:0:0:
223,280,155554,1,0,0:0:0:0:
306,309,155684,1,0,0:0:0:0:
374,253,155814,1,2,0:0:0:0:
358,167,155945,1,0,0:0:0:0:
443,98,156075,1,0,0:0:0:0:
443,98,156140,1,0,0:0:0:0:
443,98,156206,1,0,0:0:0:0:
411,16,156336,1,2,0:0:0:0:
327,0,156466,1,0,0:0:0:0:
269,66,156597,1,0,0:0:0:0:
299,147,156727,1,0,0:0:0:0:
475,187,156858,1,10,0:0:0:0:
322,228,156988,1,0,0:0:0:0:
322,228,157053,1,0,0:0:0:0:
322,228,157119,1,0,0:0:0:0:
358,307,157249,1,0,0:0:0:0:
279,344,157379,1,2,0:0:0:0:
242,264,157510,1,0,0:0:0:0:
136,202,157640,1,0,0:0:0:0:
136,202,157706,1,0,0:0:0:0:
136,202,157771,1,0,0:0:0:0:
202,145,157901,1,2,0:0:0:0:
92,118,158032,1,0,0:0:0:0:
92,118,158097,1,0,0:0:0:0:
92,118,158162,1,0,0:0:0:0:
130,39,158293,1,0,0:0:0:0:
51,0,158424,1,2,0:0:0:0:
13,79,158554,1,0,0:0:0:0:
71,180,158684,1,0,0:0:0:0:
71,180,158749,1,0,0:0:0:0:
71,180,158814,1,0,0:0:0:0:
1,297,158945,1,10,0:0:0:0:
38,376,159076,1,0,0:0:0:0:
125,384,159206,1,0,0:0:0:0:
175,312,159337,1,0,0:0:0:0:
139,232,159467,1,2,0:0:0:0:
248,183,159597,1,0,0:0:0:0:
248,183,159662,1,0,0:0:0:0:
248,183,159727,1,0,0:0:0:0:
248,268,159858,1,0,0:0:0:0:
324,312,159989,1,2,0:0:0:0:
399,269,160119,1,0,0:0:0:0:
399,181,160250,1,0,0:0:0:0:
324,138,160380,1,0,0:0:0:0:
225,82,160510,1,2,0:0:0:0:
225,82,160575,1,0,0:0:0:0:
225,82,160640,1,0,0:0:0:0:
152,132,160771,1,0,0:0:0:0:
102,60,160902,1,0,0:0:0:0:
249,0,161032,1,10,0:0:0:0:
308,89,161162,1,0,0:0:0:0:
308,89,161227,1,0,0:0:0:0:
308,89,161293,1,0,0:0:0:0:
360,19,161423,1,0,0:0:0:0:
454,75,161553,1,2,0:0:0:0:
454,75,161619,1,0,0:0:0:0:
454,75,161684,1,0,0:0:0:0:
381,124,161814,1,0,0:0:0:0:
432,196,161944,1,0,0:0:0:0:
503,146,162075,1,2,0:0:0:0:
482,233,162206,1,0,0:0:0:0:
482,233,162271,1,0,0:0:0:0:
482,233,162336,1,0,0:0:0:0:
512,314,162467,1,0,0:0:0:0:
455,381,162598,1,2,0:0:0:0:
369,366,162728,1,0,0:0:0:0:
339,284,162858,1,0,0:0:0:0:
395,216,162989,1,0,0:0:0:0:
236,178,163119,1,10,0:0:0:0:
236,178,163184,1,0,0:0:0:0:
236,178,163249,1,0,0:0:0:0:
220,264,163380,1,0,0:0:0:0:
137,293,163511,1,0,0:0:0:0:
70,237,163641,1,2,0:0:0:0:
85,151,163771,1,0,0:0:0:0:
168,121,163902,1,0,0:0:0:0:
243,38,164032,1,0,0:0:0:0:
243,38,164097,1,0,0:0:0:0:
243,38,164162,1,2,0:0:0:0:
279,116,164293,1,0,0:0:0:0:
358,80,164424,1,0,0:0:0:0:
321,0,164554,1,0,0:0:0:0:
432,11,164684,1,2,0:0:0:0:
432,11,164749,1,0,0:0:0:0:
432,11,164814,1,0,0:0:0:0:
452,96,164945,1,0,0:0:0:0:
418,215,165075,1,0,0:0:0:0:
418,215,165140,1,0,0:0:0:0:
418,215,165206,1,10,0:0:0:0:
367,143,165336,1,0,0:0:0:0:
296,192,165466,1,0,0:0:0:0:
346,264,165597,1,0,0:0:0:0:
263,317,165727,1,2,0:0:0:0:
263,317,165793,1,0,0:0:0:0:
263,317,165858,1,0,0:0:0:0:
207,384,165988,1,0,0:0:0:0:
120,369,166118,1,0,0:0:0:0:
90,286,166249,1,2,0:0:0:0:
147,219,166379,1,0,0:0:0:0:
233,234,166510,1,0,0:0:0:0:
187,151,166640,1,0,0:0:0:0:
187,151,166706,1,0,0:0:0:0:
187,151,166771,1,2,0:0:0:0:
100,166,166901,1,0,0:0:0:0:
43,99,167031,1,0,0:0:0:0:
73,16,167162,1,0,0:0:0:0:
219,0,167292,1,10,0:0:0:0:
275,67,167423,1,0,0:0:0:0:
298,184,167553,1,0,0:0:0:0:
298,184,167619,1,0,0:0:0:0:
298,184,167684,1,0,0:0:0:0:
213,205,167814,1,2,0:0:0:0:
236,290,167944,1,0,0:0:0:0:
320,267,168075,1,0,0:0:0:0:
438,303,168206,1,0,0:0:0:0:
438,303,168271,1,0,0:0:0:0:
438,303,168336,5,4,0:0:0:0:
446,254,168401,1,0,0:0:0:0:
456,205,168467,1,0,0:0:0:0:
359,187,168597,1,0,0:0:0:0:
357,138,168662,1,0,0:0:0:0:
355,89,168727,1,0,0:0:0:0:
267,97,168858,37,2,0:0:0:0:
255,129,168988,1,0,0:0:0:0:
232,103,169119,1,0,0:0:0:0:
191,197,169249,5,0,0:0:0:0:
223,233,169314,1,0,0:0:0:0:
256,269,169380,1,10,0:0:0:0:
200,346,169510,37,0,0:0:0:0:
190,312,169641,1,0,0:0:0:0:
155,311,169771,1,0,0:0:0:0:
143,344,169902,1,2,0:0:0:0:
171,366,170032,1,0,0:0:0:0:
82,304,170162,5,0,0:0:0:0:
91,256,170227,1,0,0:0:0:0:
100,207,170293,1,0,0:0:0:0:
41,143,170423,37,2,0:0:0:0:
7,132,170553,1,0,0:0:0:0:
7,97,170684,1,0,0:0:0:0:
41,86,170814,1,0,0:0:0:0:
61,114,170945,1,2,0:0:0:0:
139,69,171075,5,0,0:0:0:0:
154,115,171140,1,0,0:0:0:0:
170,161,171206,1,0,0:0:0:0:
267,208,171336,37,0,0:0:0:0:
260,173,171466,1,10,0:0:0:0:
233,195,171597,1,0,0:0:0:0:
212,284,171727,5,0,0:0:0:0:
165,302,171793,1,0,0:0:0:0:
118,318,171858,1,0,0:0:0:0:
200,384,171988,37,2,0:0:0:0:
291,344,172119,5,0,0:0:0:0:
299,295,172184,1,0,0:0:0:0:
307,246,172249,1,0,0:0:0:0:
397,272,172380,37,0,0:0:0:0:
408,304,172510,1,2,0:0:0:0:
431,278,172640,1,0,0:0:0:0:
417,173,172771,5,0,0:0:0:0:
441,130,172836,1,0,0:0:0:0:
466,88,172901,1,0,0:0:0:0:
365,75,173032,37,2,0:0:0:0:
338,98,173162,1,0,0:0:0:0:
308,80,173293,1,0,0:0:0:0:
315,46,173423,1,0,0:0:0:0:
350,43,173553,1,10,0:0:0:0:
251,1,173684,5,0,0:0:0:0:
222,40,173749,1,0,0:0:0:0:
194,80,173814,1,0,0:0:0:0:
234,161,173945,37,0,0:0:0:0:
267,171,174075,1,2,0:0:0:0:
267,206,174206,1,0,0:0:0:0:
234,217,174336,1,0,0:0:0:0:
213,189,174467,1,0,0:0:0:0:
120,167,174597,5,2,0:0:0:0:
109,119,174662,1,0,0:0:0:0:
98,71,174727,1,0,0:0:0:0:
23,121,174858,37,0,0:0:0:0:
34,153,174988,1,0,0:0:0:0:
0,148,175119,1,2,0:0:0:0:
52,234,175249,5,0,0:0:0:0:
42,281,175314,1,0,0:0:0:0:
31,329,175380,1,0,0:0:0:0:
147,345,175510,37,0,0:0:0:0:
170,233,175640,5,10,0:0:0:0:
212,207,175706,1,0,0:0:0:0:
254,182,175771,1,0,0:0:0:0:
212,105,175901,37,0,0:0:0:0:
202,71,176032,1,0,0:0:0:0:
236,79,176162,1,2,0:0:0:0:
320,23,176293,5,0,0:0:0:0:
332,70,176358,1,0,0:0:0:0:
344,117,176423,1,0,0:0:0:0:
431,158,176553,37,0,0:0:0:0:
448,127,176684,1,2,0:0:0:0:
482,134,176814,1,0,0:0:0:0:
486,169,176945,1,0,0:0:0:0:
454,184,177075,1,0,0:0:0:0:
373,240,177206,5,2,0:0:0:0:
409,272,177271,1,0,0:0:0:0:
445,304,177336,1,0,0:0:0:0:
345,366,177467,37,0,0:0:0:0:
363,336,177597,1,0,0:0:0:0:
340,309,177727,1,10,0:0:0:0:
308,322,177858,1,0,0:0:0:0:
310,357,177988,1,0,0:0:0:0:
201,311,178119,5,0,0:0:0:0:
215,264,178184,1,0,0:0:0:0:
229,217,178249,1,2,0:0:0:0:
308,159,178380,37,0,0:0:0:0:
319,191,178510,1,0,0:0:0:0:
342,165,178640,1,0,0:0:0:0:
250,78,178771,5,2,0:0:0:0:
211,107,178836,1,0,0:0:0:0:
172,136,178901,1,0,0:0:0:0:
126,42,179032,37,0,0:0:0:0:
19,83,179162,5,0,0:0:0:0:
44,124,179227,1,0,0:0:0:0:
69,166,179293,1,2,0:0:0:0:
140,236,179423,37,0,0:0:0:0:
151,203,179553,1,0,0:0:0:0:
174,229,179684,1,0,0:0:0:0:
67,313,179814,5,10,0:0:0:0:
114,325,179880,1,0,0:0:0:0:
161,337,179945,1,0,0:0:0:0:
261,311,180075,37,0,0:0:0:0:
237,284,180206,1,0,0:0:0:0:
254,254,180336,1,2,0:0:0:0:
289,261,180467,1,0,0:0:0:0:
292,295,180597,1,0,0:0:0:0:
379,377,180727,5,0,0:0:0:0:
393,329,180793,1,0,0:0:0:0:
406,282,180858,1,2,0:0:0:0:
502,220,180988,37,0,0:0:0:0:
467,227,181119,1,0,0:0:0:0:
449,197,181249,1,0,0:0:0:0:
473,170,181380,1,2,0:0:0:0:
504,184,181510,1,0,0:0:0:0:
416,105,181640,5,0,0:0:0:0:
369,121,181706,1,0,0:0:0:0:
322,137,181771,1,0,0:0:0:0:
280,219,181901,37,10,0:0:0:0:
314,214,182032,1,0,0:0:0:0:
299,245,182162,1,0,0:0:0:0:
232,318,182293,5,0,0:0:0:0:
191,291,182358,1,0,0:0:0:0:
149,264,182423,1,2,0:0:0:0:
42,320,182553,37,0,0:0:0:0:
16,207,182684,5,0,0:0:0:0:
40,164,182749,1,0,0:0:0:0:
64,122,182814,1,0,0:0:0:0:
157,143,182945,37,2,0:0:0:0:
163,177,183075,1,0,0:0:0:0:
189,155,183206,1,0,0:0:0:0:
153,45,183336,5,0,0:0:0:0:
199,30,183401,1,0,0:0:0:0:
246,15,183467,1,2,0:0:0:0:
312,85,183597,37,0,0:0:0:0:
276,83,183727,1,0,0:0:0:0:
264,116,183858,1,0,0:0:0:0:
292,138,183988,1,10,0:0:0:0:
320,119,184119,1,0,0:0:0:0:
400,36,184249,5,0,0:0:0:0:
422,79,184314,1,0,0:0:0:0:
445,122,184380,1,0,0:0:0:0:
369,186,184510,37,2,0:0:0:0:
335,196,184640,1,0,0:0:0:0:
335,231,184771,1,0,0:0:0:0:
369,242,184901,1,0,0:0:0:0:
389,214,185032,1,4,0:0:0:0:
488,272,185162,5,0,0:0:0:0:
450,302,185227,1,0,0:0:0:0:
411,333,185293,1,0,0:0:0:0:
315,342,185423,37,0,0:0:0:0:
321,307,185553,1,2,0:0:0:0:
288,319,185684,1,0,0:0:0:0:
170,276,185814,5,0,0:0:0:0:
183,323,185880,1,0,0:0:0:0:
196,369,185945,1,0,0:0:0:0:
72,369,186075,37,10,0:0:0:0:
81,248,186206,5,0,0:0:0:0:
113,211,186271,1,0,0:0:0:0:
146,175,186336,1,0,0:0:0:0:
238,208,186467,37,0,0:0:0:0:
241,243,186597,1,2,0:0:0:0:
269,222,186727,1,0,0:0:0:0:
247,95,186858,5,0,0:0:0:0:
202,74,186923,1,0,0:0:0:0:
158,52,186988,1,0,0:0:0:0:
68,113,187119,37,2,0:0:0:0:
102,120,187249,1,0,0:0:0:0:
105,155,187380,1,0,0:0:0:0:
72,169,187510,1,0,0:0:0:0:
50,143,187640,1,2,0:0:0:0:
21,260,187771,5,0,0:0:0:0:
68,248,187836,1,0,0:0:0:0:
115,237,187901,1,0,0:0:0:0:
146,318,188032,37,0,0:0:0:0:
110,321,188162,1,10,0:0:0:0:
104,356,188293,1,0,0:0:0:0:
136,373,188423,1,0,0:0:0:0:
160,349,188553,1,0,0:0:0:0:
246,269,188684,5,2,0:0:0:0:
273,309,188749,1,0,0:0:0:0:
300,349,188814,1,0,0:0:0:0:
376,281,188945,37,0,0:0:0:0:
376,246,189075,1,0,0:0:0:0:
406,263,189206,1,2,0:0:0:0:
397,157,189336,5,0,0:0:0:0:
434,125,189401,1,0,0:0:0:0:
472,93,189467,1,0,0:0:0:0:
391,13,189597,37,0,0:0:0:0:
318,105,189727,5,2,0:0:0:0:
276,78,189793,1,0,0:0:0:0:
234,51,189858,1,0,0:0:0:0:
185,137,189988,37,0,0:0:0:0:
196,169,190119,1,0,0:0:0:0:
219,142,190249,1,10,0:0:0:0:
144,55,190380,5,0,0:0:0:0:
114,93,190445,1,0,0:0:0:0:
85,132,190510,1,0,0:0:0:0:
133,213,190640,37,0,0:0:0:0:
99,223,190771,1,2,0:0:0:0:
99,258,190901,1,0,0:0:0:0:
133,269,191032,1,0,0:0:0:0:
153,241,191162,1,0,0:0:0:0:
170,349,191293,5,2,0:0:0:0:
217,361,191358,1,0,0:0:0:0:
264,373,191423,1,0,0:0:0:0:
289,266,191553,37,0,0:0:0:0:
259,284,191684,1,0,0:0:0:0:
232,262,191814,1,2,0:0:0:0:
245,229,191945,1,0,0:0:0:0:
280,232,192075,1,0,0:0:0:0:
266,122,192206,5,0,0:0:0:0:
240,80,192271,1,0,0:0:0:0:
214,38,192336,1,10,0:0:0:0:
319,50,192467,37,0,0:0:0:0:
325,15,192597,1,0,0:0:0:0:
351,37,192727,1,0,0:0:0:0:
383,135,192858,5,2,0:0:0:0:
369,181,192923,1,0,0:0:0:0:
355,227,192988,1,0,0:0:0:0:
465,292,193119,37,0,0:0:0:0:
369,363,193249,5,0,0:0:0:0:
330,333,193314,1,0,0:0:0:0:
290,303,193380,1,2,0:0:0:0:
214,361,193510,37,0,0:0:0:0:
202,328,193640,1,0,0:0:0:0:
178,354,193771,1,0,0:0:0:0:
127,272,193901,5,2,0:0:0:0:
79,287,193967,1,0,0:0:0:0:
32,302,194032,1,0,0:0:0:0:
40,210,194162,37,0,0:0:0:0:
69,190,194293,1,0,0:0:0:0:
60,156,194423,1,10,0:0:0:0:
25,154,194553,1,0,0:0:0:0:
13,187,194684,1,0,0:0:0:0:
0,76,194814,5,0,0:0:0:0:
46,59,194880,1,0,0:0:0:0:
92,42,194945,1,2,0:0:0:0:
183,101,195075,37,0,0:0:0:0:
147,104,195206,1,0,0:0:0:0:
141,139,195336,1,0,0:0:0:0:
173,156,195467,1,2,0:0:0:0:
197,132,195597,1,0,0:0:0:0:
286,201,195727,5,0,0:0:0:0:
277,249,195793,1,0,0:0:0:0:
269,297,195858,1,0,0:0:0:0:
342,371,195988,37,2,0:0:0:0:
365,345,196119,1,0,0:0:0:0:
333,336,196249,1,0,0:0:0:0:
230,383,196380,5,0,0:0:0:0:
184,364,196445,1,0,0:0:0:0:
138,345,196510,1,10,0:0:0:0:
186,237,196640,37,0,0:0:0:0:
75,258,196771,5,0,0:0:0:0:
49,299,196836,1,0,0:0:0:0:
21,339,196901,1,0,0:0:0:0:
3,226,197032,37,2,0:0:0:0:
0,191,197162,1,0,0:0:0:0:
31,205,197293,1,0,0:0:0:0:
90,117,197423,5,0,0:0:0:0:
136,132,197488,1,0,0:0:0:0:
182,147,197553,1,2,0:0:0:0:
240,246,197684,37,0,0:0:0:0:
220,216,197814,1,0,0:0:0:0:
242,189,197945,1,0,0:0:0:0:
275,203,198075,1,2,0:0:0:0:
273,237,198206,1,0,0:0:0:0:
389,274,198336,5,0,0:0:0:0:
404,227,198401,1,0,0:0:0:0:
419,180,198467,1,0,0:0:0:0:
364,96,198597,37,10,0:0:0:0:
333,76,198727,1,0,0:0:0:0:
342,42,198858,1,0,0:0:0:0:
378,40,198988,1,0,0:0:0:0:
390,72,199119,1,2,0:0:0:0:
340,171,199249,5,0,0:0:0:0:
294,153,199314,1,0,0:0:0:0:
247,134,199380,1,0,0:0:0:0:
222,37,199510,37,0,0:0:0:0:
244,10,199640,1,2,0:0:0:0:
256,42,199771,1,0,0:0:0:0:
162,94,199901,5,0,0:0:0:0:
153,142,199967,1,0,0:0:0:0:
144,190,200032,1,0,0:0:0:0:
269,206,200162,37,2,0:0:0:0:
179,289,200293,5,0,0:0:0:0:
132,303,200358,1,0,0:0:0:0:
85,317,200423,1,0,0:0:0:0:
29,235,200553,37,0,0:0:0:0:
57,214,200684,1,10,0:0:0:0:
25,200,200814,1,0,0:0:0:0:
2,97,200945,5,0,0:0:0:0:
43,71,201010,1,0,0:0:0:0:
85,47,201075,1,0,0:0:0:0:
229,93,201206,38,0,L|215:136,1,35,8|0,0:0|0:0,0:0:0:0:
280,314,201467,2,0,L|284:268,1,35,12|0,0:3|0:0,0:0:0:0:
368,79,201727,5,6,0:0:0:0:
394,124,201793,1,0,0:0:0:0:
390,176,201858,1,0,0:0:0:0:
246,221,201988,1,0,0:0:0:0:
469,199,202119,1,0,0:0:0:0:
437,240,202184,1,0,0:0:0:0:
388,259,202249,1,2,0:0:0:0:
268,145,202380,38,0,B|243:140|243:140|220:144,1,43.75,4|0,0:0|2:0,0:0:0:0:
162,209,202771,5,10,0:0:0:0:
110,200,202836,1,0,0:0:0:0:
72,163,202901,1,0,0:0:0:0:
74,19,203032,1,0,0:0:0:0:
5,225,203162,1,0,0:0:0:0:
0,172,203227,1,0,0:0:0:0:
15,121,203293,1,2,0:0:0:0:
74,19,203423,1,0,0:0:0:0:
225,143,203554,1,0,0:0:0:0:
239,92,203619,1,0,0:0:0:0:
220,42,203684,1,0,0:0:0:0:
74,19,203814,1,2,0:0:0:0:
168,183,203945,38,0,B|166:209|166:209|175:231,1,43.75,4|0,0:0|2:0,0:0:0:0:
247,241,204336,5,2,0:0:0:0:
233,291,204401,1,0,0:0:0:0:
188,320,204467,1,0,0:0:0:0:
17,318,204597,1,0,0:0:0:0:
237,378,204727,1,0,0:0:0:0:
184,384,204793,1,0,0:0:0:0:
134,367,204858,1,10,0:0:0:0:
110,208,204988,38,0,B|106:183|106:183|95:164,1,43.75,4|0,0:0|2:0,0:0:0:0:
157,110,205380,5,2,0:0:0:0:
179,62,205445,1,0,0:0:0:0:
228,43,205510,1,0,0:0:0:0:
370,95,205640,1,0,0:0:0:0:
199,169,205771,1,0,0:0:0:0:
240,200,205836,1,0,0:0:0:0:
292,204,205901,1,2,0:0:0:0:
370,95,206032,1,0,0:0:0:0:
300,289,206162,1,0,0:0:0:0:
349,271,206227,1,0,0:0:0:0:
375,224,206293,1,0,0:0:0:0:
370,95,206423,1,2,0:0:0:0:
471,225,206553,38,0,B|462:249|462:249|459:271,1,43.75,4|0,0:0|2:0,0:0:0:0:
478,350,206945,5,10,0:0:0:0:
427,363,207010,1,0,0:0:0:0:
379,341,207075,1,0,0:0:0:0:
311,209,207206,1,0,0:0:0:0:
507,162,207336,1,0,0:0:0:0:
468,126,207401,1,0,0:0:0:0:
415,118,207467,1,2,0:0:0:0:
348,273,207597,38,0,B|333:287|333:287|323:309,1,43.75,4|0,0:0|2:0,0:0:0:0:
241,327,207988,5,2,0:0:0:0:
204,364,208053,1,0,0:0:0:0:
150,362,208119,1,0,0:0:0:0:
75,205,208249,1,0,0:0:0:0:
2,341,208380,1,0,0:0:0:0:
49,362,208445,1,0,0:0:0:0:
96,339,208510,1,2,0:0:0:0:
75,205,208640,1,0,0:0:0:0:
237,179,208771,1,0,0:0:0:0:
241,231,208836,1,0,0:0:0:0:
214,276,208901,1,0,0:0:0:0:
75,205,209032,1,10,0:0:0:0:
202,100,209162,38,0,B|229:95|229:95|247:85,1,43.75,4|0,0:0|2:0,0:0:0:0:
221,15,209553,5,2,0:0:0:0:
167,15,209619,1,0,0:0:0:0:
126,48,209684,1,0,0:0:0:0:
136,182,209814,1,0,0:0:0:0:
47,31,209945,1,0,0:0:0:0:
53,82,210010,1,0,0:0:0:0:
87,121,210075,1,2,0:0:0:0:
233,171,210206,38,0,B|254:165|254:165|279:165,1,43.75,4|0,0:0|2:0,0:0:0:0:
320,97,210597,5,2,0:0:0:0:
369,112,210662,1,0,0:0:0:0:
390,159,210727,1,0,0:0:0:0:
330,265,210858,1,0,0:0:0:0:
455,124,210988,1,0,0:0:0:0:
468,174,211053,1,0,0:0:0:0:
447,223,211119,1,10,0:0:0:0:
330,265,211249,1,0,0:0:0:0:
510,290,211380,1,0,0:0:0:0:
478,331,211445,1,0,0:0:0:0:
427,343,211510,1,0,0:0:0:0:
330,265,211640,1,2,0:0:0:0:
219,381,211771,38,0,B|201:370|201:370|188:351,1,43.75,4|0,0:0|2:0,0:0:0:0:
214,273,212162,5,2,0:0:0:0:
196,223,212227,1,0,0:0:0:0:
150,195,212293,1,0,0:0:0:0:
3,237,212423,1,0,0:0:0:0:
122,362,212553,1,0,0:0:0:0:
141,312,212619,1,0,0:0:0:0:
120,263,212684,1,2,0:0:0:0:
40,146,212814,38,0,B|52:119|52:119|54:102,1,43.75,4|0,0:0|2:0,0:0:0:0:
125,79,213206,5,10,0:0:0:0:
152,34,213271,1,0,0:0:0:0:
202,19,213336,1,0,0:0:0:0:
331,91,213467,1,0,0:0:0:0:
177,157,213597,1,0,0:0:0:0:
207,199,213662,1,0,0:0:0:0:
257,212,213727,1,2,0:0:0:0:
331,91,213858,1,0,0:0:0:0:
278,285,213988,1,0,0:0:0:0:
326,264,214053,1,0,0:0:0:0:
352,217,214119,1,0,0:0:0:0:
331,91,214249,1,2,0:0:0:0:
481,152,214380,38,0,B|491:124|491:124|490:108,1,43.75,4|0,0:0|2:0,0:0:0:0:
511,43,214771,5,2,0:0:0:0:
472,7,214836,1,0,0:0:0:0:
419,7,214901,1,0,0:0:0:0:
380,159,215032,1,0,0:0:0:0:
264,34,215162,1,0,0:0:0:0:
314,20,215227,1,0,0:0:0:0:
361,43,215293,1,10,0:0:0:0:
306,187,215423,38,0,B|315:213|315:213|331:229,1,43.75,4|0,0:0|2:0,0:0:0:0:
346,310,215814,5,0,0:0:0:0:
303,342,215880,1,0,0:0:0:0:
250,339,215945,1,0,0:0:0:0:
199,196,216075,1,0,0:0:0:0:
114,370,216206,1,0,0:0:0:0:
164,357,216271,1,0,0:0:0:0:
192,312,216336,1,2,0:0:0:0:
199,196,216467,1,0,0:0:0:0:
40,240,216597,1,0,0:0:0:0:
68,283,216662,1,0,0:0:0:0:
118,294,216727,1,0,0:0:0:0:
199,196,216858,1,2,0:0:0:0:
99,75,216988,38,0,B|115:53|115:53|136:44,1,43.75,4|0,0:0|2:0,0:0:0:0:
197,4,217380,5,10,0:0:0:0:
247,17,217445,1,0,0:0:0:0:
271,63,217510,1,0,0:0:0:0:
199,196,217640,1,0,0:0:0:0:
358,72,217771,1,0,0:0:0:0:
340,121,217836,1,0,0:0:0:0:
293,145,217901,1,2,0:0:0:0:
129,117,218032,38,0,B|101:128|101:128|83:129,1,43.75,4|0,0:0|2:0,0:0:0:0:
42,187,218423,5,2,0:0:0:0:
67,205,218488,1,0,0:0:0:0:
81,232,218553,1,0,0:0:0:0:
44,353,218684,1,0,0:0:0:0:
161,308,218814,38,0,L|187:315,1,26.2499991989136,0|0,0:0|2:0,0:0:0:0:
234,369,219206,5,0,0:0:0:0:
263,358,219271,1,0,0:0:0:0:
282,333,219336,1,0,0:0:0:0:
276,195,219467,1,10,0:0:0:0:
346,364,219597,1,0,0:0:0:0:
357,334,219662,1,0,0:0:0:0:
354,302,219727,1,0,0:0:0:0:
276,195,219858,1,0,0:0:0:0:
429,323,219988,1,2,0:0:0:0:
425,291,220053,1,0,0:0:0:0:
409,263,220119,1,0,0:0:0:0:
276,195,220249,1,0,0:0:0:0:
434,162,220380,38,0,L|441:133,1,26.2499991989136,0|0,0:0|2:0,0:0:0:0:
395,74,220771,5,0,0:0:0:0:
377,100,220836,1,0,0:0:0:0:
347,110,220901,1,0,0:0:0:0:
235,39,221032,1,2,0:0:0:0:
239,179,221162,38,0,L|255:157,1,26.2499991989136,0|0,0:0|2:0,0:0:0:0:
324,204,221553,5,10,0:0:0:0:
323,235,221619,1,0,0:0:0:0:
304,260,221684,1,0,0:0:0:0:
133,299,221814,1,0,0:0:0:0:
351,334,221945,1,0,0:0:0:0:
326,353,222010,1,0,0:0:0:0:
295,359,222075,1,2,0:0:0:0:
133,299,222206,1,0,0:0:0:0:
254,157,222336,1,0,0:0:0:0:
223,148,222401,1,0,0:0:0:0:
191,153,222467,1,0,0:0:0:0:
133,299,222597,1,2,0:0:0:0:
26,164,222727,38,0,L|31:192,1,26.2499991989136,0|0,0:0|2:0,0:0:0:0:
98,127,223119,5,2,0:0:0:0:
105,96,223184,1,0,0:0:0:0:
128,74,223249,1,0,0:0:0:0:
279,99,223380,1,0,0:0:0:0:
196,207,223510,38,0,L|199:235,1,26.2499991989136,0|0,0:0|2:0,0:0:0:0:
142,294,223901,5,0,0:0:0:0:
155,322,223967,1,0,0:0:0:0:
181,338,224032,1,0,0:0:0:0:
302,243,224162,1,2,0:0:0:0:
111,215,224293,1,0,0:0:0:0:
126,187,224358,1,0,0:0:0:0:
154,174,224423,1,0,0:0:0:0:
302,243,224553,1,0,0:0:0:0:
130,105,224684,1,2,0:0:0:0:
161,101,224749,1,0,0:0:0:0:
191,109,224814,1,0,0:0:0:0:
302,243,224945,1,0,0:0:0:0:
306,88,225075,38,0,L|289:68,1,26.2499991989136,0|0,0:0|2:0,0:0:0:0:
359,2,225467,5,0,0:0:0:0:
365,32,225532,1,0,0:0:0:0:
388,53,225597,1,0,0:0:0:0:
506,108,225727,1,10,0:0:0:0:
349,207,225858,1,0,0:0:0:0:
348,175,225923,1,0,0:0:0:0:
363,147,225988,1,0,0:0:0:0:
506,108,226119,1,0,0:0:0:0:
457,268,226249,1,2,0:0:0:0:
426,260,226314,1,0,0:0:0:0:
409,232,226380,1,0,0:0:0:0:
506,108,226510,1,0,0:0:0:0:
353,68,226640,38,0,L|375:51,1,26.2499991989136,0|0,0:0|2:0,0:0:0:0:
294,0,227032,5,0,0:0:0:0:
288,30,227097,1,0,0:0:0:0:
268,54,227162,1,0,0:0:0:0:
129,104,227293,1,2,0:0:0:0:
265,172,227423,38,0,L|267:201,1,26.2499991989136,0|0,0:0|2:0,0:0:0:0:
321,284,227814,5,10,0:0:0:0:
294,266,227880,1,0,0:0:0:0:
262,265,227945,1,0,0:0:0:0:
125,354,228075,1,0,0:0:0:0:
266,198,228206,1,0,0:0:0:0:
234,197,228271,1,0,0:0:0:0:
205,210,228336,1,2,0:0:0:0:
125,354,228467,1,0,0:0:0:0:
152,142,228597,1,0,0:0:0:0:
127,161,228662,1,0,0:0:0:0:
115,190,228727,1,0,0:0:0:0:
125,354,228858,1,2,0:0:0:0:
16,203,228988,38,0,L|14:231,1,26.2499991989136,0|0,0:0|2:0,0:0:0:0:
60,152,229380,5,2,0:0:0:0:
58,120,229445,1,0,0:0:0:0:
74,93,229510,1,0,0:0:0:0:
210,25,229640,1,0,0:0:0:0:
303,138,229771,38,0,L|276:135,1,26.2499991989136,0|0,0:0|2:0,0:0:0:0:
215,193,230162,5,0,0:0:0:0:
213,224,230227,1,0,0:0:0:0:
227,252,230293,1,0,0:0:0:0:
395,288,230423,1,2,0:0:0:0:
155,321,230553,1,0,0:0:0:0:
179,340,230619,1,0,0:0:0:0:
208,351,230684,1,0,0:0:0:0:
395,288,230814,1,0,0:0:0:0:
355,91,230945,1,2,0:0:0:0:
330,110,231010,1,0,0:0:0:0:
321,140,231075,1,0,0:0:0:0:
395,288,231206,1,0,0:0:0:0:
483,135,231336,38,0,L|457:141,1,26.2499991989136,0|0,0:0|2:0,0:0:0:0:
435,221,231727,5,0,0:0:0:0:
403,218,231793,1,0,0:0:0:0:
378,198,231858,1,0,0:0:0:0:
329,62,231988,1,10,0:0:0:0:
316,240,232119,1,0,0:0:0:0:
292,218,232184,1,0,0:0:0:0:
284,187,232249,1,0,0:0:0:0:
329,62,232380,1,0,0:0:0:0:
191,201,232510,1,2,0:0:0:0:
194,169,232575,1,0,0:0:0:0:
207,140,232640,1,0,0:0:0:0:
329,62,232771,1,0,0:0:0:0:
162,28,232901,38,0,L|174:2,1,26.2499991989136,0|0,0:0|2:0,0:0:0:0:
86,2,233293,5,0,0:0:0:0:
92,32,233358,1,0,0:0:0:0:
85,62,233423,1,0,0:0:0:0:
3,176,233553,1,2,0:0:0:0:
155,189,233684,38,0,L|161:216,1,26.2499991989136,0|0,0:0|2:0,0:0:0:0:
92,291,234075,5,10,0:0:0:0:
123,287,234140,1,0,0:0:0:0:
153,296,234206,1,0,0:0:0:0:
258,384,234336,1,0,0:0:0:0:
274,190,234467,1,0,0:0:0:0:
244,200,234532,1,0,0:0:0:0:
224,224,234597,1,2,0:0:0:0:
258,384,234727,1,0,0:0:0:0:
388,243,234858,1,0,0:0:0:0:
359,229,234923,1,0,0:0:0:0:
327,230,234988,1,0,0:0:0:0:
258,384,235119,1,2,0:0:0:0:
153,230,235249,38,0,L|159:201,1,26.2499991989136,0|0,0:0|2:0,0:0:0:0:
126,121,235640,5,2,0:0:0:0:
157,123,235706,1,0,0:0:0:0:
186,111,235771,1,0,0:0:0:0:
269,0,235901,1,0,0:0:0:0:
309,136,236032,38,0,L|296:113,1,26.2499991989136,0|0,0:0|2:0,0:0:0:0:
356,40,236423,5,0,0:0:0:0:
387,44,236488,1,0,0:0:0:0:
410,64,236553,1,0,0:0:0:0:
438,215,236684,1,2,0:0:0:0:
250,173,236814,1,0,0:0:0:0:
257,203,236880,1,0,0:0:0:0:
276,227,236945,1,0,0:0:0:0:
438,215,237075,1,0,0:0:0:0:
251,304,237206,1,2,0:0:0:0:
282,307,237271,1,0,0:0:0:0:
312,299,237336,1,0,0:0:0:0:
438,215,237467,1,0,0:0:0:0:
288,102,237597,38,0,L|262:108,1,26.2499991989136,0|0,0:0|2:0,0:0:0:0:
185,69,237988,5,0,0:0:0:0:
174,98,238053,1,0,0:0:0:0:
152,121,238119,1,0,0:0:0:0:
8,168,238249,1,10,0:0:0:0:
214,181,238380,1,0,0:0:0:0:
189,200,238445,1,0,0:0:0:0:
158,208,238510,1,0,0:0:0:0:
8,168,238640,1,0,0:0:0:0:
158,291,238771,1,2,0:0:0:0:
128,300,238836,1,0,0:0:0:0:
96,296,238901,1,0,0:0:0:0:
8,168,239032,1,0,0:0:0:0:
10,347,239162,38,0,L|19:320,1,26.2499991989136,0|0,0:0|2:0,0:0:0:0:
3,243,239553,5,0,0:0:0:0:
31,228,239619,1,0,0:0:0:0:
62,232,239684,1,0,0:0:0:0:
147,359,239814,1,2,0:0:0:0:
198,202,239945,38,0,L|171:215,1,26.2499991989136,0|0,0:0|2:0,0:0:0:0:
100,147,240336,5,10,0:0:0:0:
114,119,240401,1,0,0:0:0:0:
141,103,240467,1,0,0:0:0:0:
300,139,240597,1,0,0:0:0:0:
118,27,240727,1,0,0:0:0:0:
149,22,240793,1,0,0:0:0:0:
180,26,240858,1,2,0:0:0:0:
300,139,240988,1,0,0:0:0:0:
119,222,241119,1,0,0:0:0:0:
148,232,241184,1,0,0:0:0:0:
179,228,241249,1,0,0:0:0:0:
300,139,241380,1,2,0:0:0:0:
252,311,241510,38,0,L|246:282,1,26.2499991989136,0|0,0:0|2:0,0:0:0:0:
318,239,241901,5,2,0:0:0:0:
344,256,241967,1,0,0:0:0:0:
375,253,242032,1,0,0:0:0:0:
491,162,242162,1,0,0:0:0:0:
349,98,242293,38,0,L|357:122,1,26.2499991989136,0|0,0:0|2:0,0:0:0:0:
294,51,242684,5,0,0:0:0:0:
268,68,242749,1,0,0:0:0:0:
258,97,242814,1,0,0:0:0:0:
281,231,242945,1,2,0:0:0:0:
185,65,243075,1,0,0:0:0:0:
173,94,243140,1,0,0:0:0:0:
173,125,243206,1,0,0:0:0:0:
281,231,243336,1,0,0:0:0:0:
80,217,243467,1,2,0:0:0:0:
100,193,243532,1,0,0:0:0:0:
129,183,243597,1,0,0:0:0:0:
281,231,243727,1,0,0:0:0:0:
125,349,243858,38,0,L|132:320,1,26.2499991989136,0|0,0:0|2:0,0:0:0:0:
209,266,244249,5,0,0:0:0:0:
217,296,244314,1,0,0:0:0:0:
241,316,244380,1,0,0:0:0:0:
402,329,244510,1,10,0:0:0:0:
274,171,244640,1,0,0:0:0:0:
268,202,244706,1,0,0:0:0:0:
276,232,244771,1,0,0:0:0:0:
402,329,244901,1,0,0:0:0:0:
464,127,245032,1,2,0:0:0:0:
478,154,245097,1,0,0:0:0:0:
480,185,245162,1,0,0:0:0:0:
402,329,245293,1,0,0:0:0:0:
363,138,245423,38,0,L|373:112,1,26.2499991989136,0|0,0:0|2:0,0:0:0:0:
420,191,245814,5,0,0:0:0:0:
389,199,245880,1,0,0:0:0:0:
369,223,245945,1,0,0:0:0:0:
284,107,246075,1,2,0:0:0:0:
258,244,246206,38,0,L|234:252,1,26.2499991989136,0|0,0:0|2:0,0:0:0:0:
207,335,246597,5,10,0:0:0:0:
175,334,246662,1,0,0:0:0:0:
152,311,246727,1,0,0:0:0:0:
128,153,246858,1,0,0:0:0:0:
88,365,246988,1,0,0:0:0:0:
73,337,247053,1,0,0:0:0:0:
74,305,247119,1,2,0:0:0:0:
128,153,247249,1,0,0:0:0:0:
0,290,247380,1,0,0:0:0:0:
2,258,247445,1,0,0:0:0:0:
16,230,247510,1,0,0:0:0:0:
128,153,247640,1,2,0:0:0:0:
27,42,247771,38,0,L|53:31,1,26.2499991989136,0|0,0:0|2:0,0:0:0:0:
127,73,248162,5,2,0:0:0:0:
158,75,248227,1,0,0:0:0:0:
186,60,248293,1,0,0:0:0:0:
277,153,248423,1,0,0:0:0:0:
362,13,248553,38,0,L|335:8,1,26.2499991989136,0|0,0:0|2:0,0:0:0:0:
339,90,248945,5,0,0:0:0:0:
354,117,249010,1,0,0:0:0:0:
359,147,249075,1,0,0:0:0:0:
252,257,249206,1,2,0:0:0:0:
460,264,249336,1,0,0:0:0:0:
443,237,249401,1,0,0:0:0:0:
418,216,249467,1,0,0:0:0:0:
252,257,249597,1,0,0:0:0:0:
401,358,249727,1,2,0:0:0:0:
410,327,249793,1,0,0:0:0:0:
398,297,249858,1,0,0:0:0:0:
252,257,249988,1,0,0:0:0:0:
131,377,250119,38,0,L|157:385,1,26.2499991989136,0|0,0:0|2:0,0:0:0:0:
147,306,250510,5,8,0:0:0:0:
146,302,250575,1,8,0:0:0:0:
112,286,250640,37,8,0:0:0:0:
119,237,250706,1,8,0:0:0:0:
152,219,250771,5,8,0:3:0:0:
149,201,250836,1,8,0:3:0:0:
146,184,250902,1,4,0:3:0:0:
143,167,250967,1,4,0:3:0:0:
141,149,251032,1,4,0:3:0:0:
138,132,251097,1,4,0:3:0:0:
94,141,251162,37,0,0:0:0:0:
96,123,251227,1,0,0:0:0:0:
99,106,251293,1,8,0:3:0:0:
102,89,251358,1,8,0:3:0:0:
104,71,251422,1,8,0:3:0:0:
107,54,251488,1,8,0:3:0:0:
146,40,251553,5,0,0:0:0:0:
98,27,251619,1,0,0:0:0:0:
51,11,251684,37,8,0:0:0:0:
51,11,285206,22,0,B|116:5|144:45|164:101|106:151|106:151|65:191|59:261|118:324|197:318|247:284|259:206|255:161|191:133|142:109|142:109|106:91|102:62,1,700,2|0,0:0|2:0,0:0:0:0:
42,182,287945,2,0,P|61:153|64:132,1,52.5
105,298,288336,2,0,B|147:279|163:224|155:197|155:197|140:222|149:247|171:264,1,192.5,2|0,0:0|2:0,0:0:0:0:
231,358,289119,2,0,P|204:343|192:330,1,35
300,257,289380,2,0,B|341:262|372:217|357:170|357:170|367:144|367:144|351:114|359:86|372:64|372:64|342:85|295:81|295:81|322:89|335:113,1,367.500014019013,2|0,0:0|2:0,0:0:0:0:
333,298,290423,2,0,B|327:259|348:225|378:210|378:210|372:167|372:167|392:150|399:131|404:109|393:82|393:82|436:109|488:109|488:109|459:115|424:141|411:167|411:167|363:165|334:172|334:172|301:162|301:162|272:192|235:198|208:181|208:181|239:178|261:221,1,717.5,2|0,0:0|2:0,0:0:0:0:
367,54,293227,2,0,P|360:73|347:87,1,35
214,107,293553,2,0,B|190:83|155:85|155:85|152:70|152:70|125:73|97:53|97:11|97:11|117:20|143:12,1,210.000008010865,2|0,0:0|2:0,0:0:0:0:
166,149,294206,2,0,P|133:122|96:134,1,70,0|0,0:0|2:0,0:0:0:0:
228,240,294467,2,0,B|198:270|206:332|206:332|191:348|186:376|186:376|176:355|176:355|242:361|264:338|264:338|259:325|256:306|260:288|260:288|220:299|220:299|175:288|175:288|153:304|116:301|94:275|94:275|133:289|135:346|90:358|90:358|72:354|48:363|48:363|29:354|29:354|46:341|46:317,1,700,2|0,0:0|2:0,0:0:0:0:
12,250,297206,2,0,B|54:234|97:247|115:284|115:284|134:268|134:268|165:276|193:254|193:254|227:265|227:265|266:238|308:250|308:250|294:211|302:169|302:169|265:182|265:182|241:167|205:171|180:187,1,525.000020027161,2|0,0:0|0:0,0:0:0:0:
145,168,298597,1,0,0:0:0:0:
127,122,298684,1,0,0:0:0:0:
151,79,298771,2,0,B|189:49|186:18|186:18|181:40|206:58|206:58|223:58|223:58|231:82|251:96|251:96|273:94|273:94|292:103|292:103|324:103|342:114|364:137|364:137|369:119,1,326.666666666667,2|0,0:0|2:0,0:0:0:0:
394,73,300104,1,0,0:0:0:0:
448,58,300220,1,0,0:0:0:0:
496,86,300336,1,2,0:0:0:0:
496,86,300394,2,0,B|512:125|501:154|501:154|511:178|511:178|475:167|441:191,1,163.333339564006,0|0,0:0|2:0,0:0:0:0:
422,213,300858,1,0,0:0:0:0:
412,246,300945,1,0,0:0:0:0:
421,279,301032,1,0,0:0:0:0:
450,297,301119,2,0,B|448:259|405:230|363:232|363:232|352:212|352:212|333:238|297:239|297:239|314:241|326:260,1,233.333333333333,2|0,0:0|2:0,0:0:0:0:
338,295,301640,1,0,0:0:0:0:
326,340,301727,1,0,0:0:0:0:
284,362,301814,1,0,0:0:0:0:
238,350,301901,2,0,B|268:338|268:338|222:307|236:268|260:240|260:240|257:263|268:283|268:283|239:267|201:269|201:269|186:270|186:270|171:253|149:245|124:245|124:245|124:291|102:322|102:322|99:313|94:304|94:304|130:302|158:323|169:357|169:357|183:328|183:328|180:291|180:291|191:251|191:251|194:207|194:207|216:197|226:169|226:169|251:199,1,770,2|0,0:0|2:0,0:0:0:0:
116,178,303467,2,0,B|102:204|106:228|106:228|86:219|70:222|70:222|61:191,1,105,2|0,0:0|2:0,0:0:0:0:
116,178,303727,2,0,B|102:204|106:228|106:228|86:219|70:222|70:222|61:191,1,105,0|0,0:0|2:0,0:0:0:0:
116,178,303988,2,0,B|102:204|106:228|106:228|86:219|70:222|70:222|61:191,1,105,0|0,0:0|2:0,0:0:0:0:
116,178,304249,2,0,B|102:204|106:228|106:228|86:219|70:222|70:222|61:191,1,105,0|0,0:0|2:0,0:0:0:0:
116,178,304510,2,0,B|102:204|106:228|106:228|86:219|70:222|70:222|61:191,1,105,0|0,0:0|2:0,0:0:0:0:
116,178,304771,2,0,B|102:204|106:228|106:228|86:219|70:222|70:222|61:191,1,105,0|0,0:0|2:0,0:0:0:0:
116,178,305032,2,0,B|102:204|106:228|106:228|86:219|70:222|70:222|61:191,1,105,0|0,0:0|2:0,0:0:0:0:
116,178,305293,2,0,B|102:204|106:228|106:228|86:219|70:222|70:222|61:191,1,105,0|0,0:0|2:0,0:0:0:0:
204,216,305553,2,0,B|176:178|136:168|136:168|177:154|199:117|199:117|211:144,1,183.750007009506,2|0,0:0|2:0,0:0:0:0:
251,269,306075,2,0,B|227:232|237:186|261:165|261:165|251:171|241:173|241:173|285:196|312:194|312:194|329:173|376:176,1,245,2|0,0:0|2:0,0:0:0:0:
377,176,306597,1,0,0:0:0:0:
408,191,306662,1,0,0:0:0:0:
426,223,306727,2,0,B|436:186|466:170|466:170|439:146|432:119|432:119|410:123|410:123|401:99|375:87|356:84|356:84|368:74|372:56|372:56|390:62|408:73|408:73|414:42,1,315.000012016297,2|0,0:0|2:0,0:0:0:0:
304,274,307640,2,0,B|311:233|337:217|337:217|334:202|334:202|364:182|347:157|347:157|349:188|382:205|410:210|410:210|392:242|389:279|389:279|367:257|343:242|343:242|318:242|287:221|287:221|274:200|274:200|244:215|225:204|225:204|237:227|238:246,1,525,2|0,0:0|2:0,0:0:0:0:
304,274,308684,2,0,B|311:233|337:217|337:217|334:202|334:202|364:182|347:157|347:157|349:188|382:205|410:210|410:210|392:242|389:279|389:279|367:257|343:242|343:242|318:242|287:221|287:221|274:200|274:200|244:215|225:204|225:204|237:227|238:246,1,525,2|0,0:0|2:0,0:0:0:0:
194,367,309727,2,0,B|215:341|210:308|210:308|230:283|230:283|205:259|199:231,1,140
94,180,310249,2,0,B|106:200|110:227|110:227|92:279|144:288|144:288|145:246|81:246|54:263|54:263|56:242|56:242|52:206|13:183,1,306.25,2|0,0:0|2:0,0:0:0:0:
24,136,310771,2,0,B|66:132|95:160|95:160|115:118|136:111|136:111|139:78|139:78|170:68|185:37|185:37|150:38|124:18|124:18|108:40|83:53|83:53|112:61|153:95|153:95|188:100|188:100|205:135,1,490,2|0,0:0|2:0,0:0:0:0:
197,227,311814,2,0,B|199:191|169:174|169:174|209:189|259:162|259:162|274:186|274:186|295:170|326:169|326:169|315:154|315:154|306:125|287:110|287:110|266:103|246:87|246:87|259:122|242:146|242:146|246:199|266:232|266:232|247:227,1,525,2|0,0:0|2:0,0:0:0:0:
197,227,312858,2,0,B|199:191|169:174|169:174|209:189|259:162|259:162|274:186|274:186|295:170|326:169|326:169|315:154|315:154|306:125|287:110|287:110|266:103|246:87|246:87|259:122|242:146|242:146|246:199|266:232|266:232|247:227,1,525,2|0,0:0|2:0,0:0:0:0:
197,227,313901,2,0,B|199:191|169:174|169:174|209:189|259:162|259:162|274:186|274:186|295:170|326:169|326:169|313:156|310:139,1,269.500008224488,0|0,0:0|2:0,0:0:0:0:
379,132,314423,2,0,B|356:169|366:205|366:205|386:189|406:186|406:186|411:225|438:237|461:241|461:241|442:259|434:287|434:287|410:262|390:256|390:256|370:265|339:255,1,367.500014019013,2|0,0:0|2:0,0:0:0:0:
408,377,315467,2,0,B|416:370|416:370|433:363|433:363|440:321|476:313|476:313|467:267|504:239|504:239|497:222|499:206,1,210.000008010865,2|0,0:0|2:0,0:0:0:0:
402,163,316119,2,0,P|446:157|479:108,1,105,0|0,0:0|2:0,0:0:0:0:
332,46,316640,2,0,B|348:82|339:117|339:117|373:136|373:136|383:171,2,131.25000500679,2|0|0,0:0|0:0|0:0,0:0:0:0:
225,130,317684,2,0,B|250:102|251:61|251:61|234:68|216:68|216:68|242:81,1,131.25000500679,2|0,0:0|2:0,0:0:0:0:
315,188,318075,2,0,B|279:169|247:182|247:182|232:166|232:166|196:201|161:184|161:184|177:218,1,183.750007009506,0|0,0:0|2:0,0:0:0:0:
153,330,318597,6,0,B|152:292|123:267|123:267|165:283|192:277|192:277|191:238|222:218,2,210,6|0|0,0:0|0:0|0:0,0:0:0:0:
319,380,319640,2,0,B|309:338|269:332|269:332|273:338|273:338|289:294|275:267|275:267|283:262|283:262|277:248|277:230,1,183.750007009506,2|0,0:0|2:0,0:0:0:0:
341,219,320162,2,0,B|316:229|300:243|300:243|296:200|269:171|269:171|277:152|277:152|272:115|300:93|300:93|306:117|286:138,1,262.5,2|0,0:0|2:0,0:0:0:0:
190,124,321206,2,0,B|218:99|211:68|211:68|216:30|273:29|273:29|250:41|244:62,1,175,2|0,0:0|2:0,0:0:0:0:
213,155,321597,2,0,B|221:111|199:82|199:82|197:42|236:27|236:27|231:45|240:67,1,175,0|0,0:0|2:0,0:0:0:0:
246,176,321988,2,0,B|229:128|191:117|191:117|179:88|196:51|196:51|202:71|222:75,1,175,0|0,0:0|2:0,0:0:0:0:
281,192,322380,2,0,B|245:145|197:152|197:152|157:125|156:79|156:79|172:94|203:95,1,218.75,0|0,0:0|2:0,0:0:0:0:
215,222,322771,2,0,B|196:196|200:166|200:166|174:196|138:195|138:195|127:210|127:210|95:198|51:240|51:240|91:241|116:284|116:284|107:307|107:307|139:324|143:354,1,393.750015020371,2|0,0:0|2:0,0:0:0:0:
224,376,323814,2,0,B|200:333|229:282|229:282|240:306|268:317|268:317|286:344,1,175,2|0,0:0|2:0,0:0:0:0:
326,384,324206,2,0,B|304:338|321:282|321:282|337:303|371:316|371:316|388:277|366:229,1,245,0|0,0:0|2:0,0:0:0:0:
306,142,324727,2,0,B|316:192|345:221|345:221|306:213|281:233|281:233|258:215|258:215|231:227|189:216,1,218.75,2|0,0:0|2:0,0:0:0:0:
167,283,325119,2,0,B|177:253|209:233|209:233|180:213|174:179|174:179|159:165|159:165|160:146|151:122,1,175,0|0,0:0|2:0,0:0:0:0:
94,84,325510,2,0,B|121:97|133:120|133:120|151:95|179:93|179:93|184:80|184:80|196:86|215:82,1,131.25000500679,0|0,0:0|2:0,0:0:0:0:
267,138,325901,2,0,B|292:113|295:90|295:90|311:97|311:97|324:67|360:63,1,131.25000500679,2|0,0:0|2:0,0:0:0:0:
449,156,326293,2,0,B|425:150|395:170|395:170|401:152|417:138,1,87.5,0|0,0:0|2:0,0:0:0:0:
458,227,326684,2,0,B|420:224|397:190|397:190|375:225|336:226|336:226|315:199|276:204|276:204|261:213|261:213|236:195|236:195|208:220|157:199|157:199|147:204|147:204|132:195|132:195|117:207|82:205|82:205|68:187|39:198|39:198|49:205|51:219,1,498.750019025803,2|0,0:0|2:0,0:0:0:0:
64,304,327988,2,0,B|79:270|107:271|107:271|139:244|112:220|112:220|106:241|169:267|169:267|198:239|229:263|229:263|226:285|226:285|231:305|231:305|205:319|186:354|186:354|153:329|109:347,1,455,2|0,0:0|2:0,0:0:0:0:
74,341,328901,1,0,0:0:0:0:
48,316,328967,1,0,0:0:0:0:
44,281,329032,2,0,B|59:247|100:249|100:249|136:195|86:173|86:173|70:218|124:237|124:237|150:248|150:248|182:217|220:236|220:236|205:264|205:264|220:291|220:291|189:293|168:338|168:338|133:306|76:356,1,568.75,2|0,0:0|2:0,0:0:0:0:
60,332,329945,1,0,0:0:0:0:
40,303,330010,1,0,0:0:0:0:
38,268,330075,2,0,B|60:232|102:242|102:242|157:161|82:136|82:136|40:194|122:228|122:228|155:235|155:235|165:225|165:225|183:239|183:239|219:206|243:235|243:235|317:256|303:172|303:172|243:177|253:252|253:252|235:270|235:270|256:309|256:309|206:284|178:309|178:309|161:306|161:306|154:333|154:333|111:321|83:342|83:342|63:327|35:326,1,980.000037384035,2|0,0:0|2:0,0:0:0:0:
0,358,331380,1,0,0:0:0:0:
33,313,331467,1,0,0:0:0:0:
35,257,331553,1,0,0:0:0:0:
3,210,331640,2,0,B|25:243|88:231|100:195|100:195|83:159|98:117|98:117|59:139|15:134|15:134|40:149|47:171|47:171|85:153|131:157,1,408.333337227503,2|0,0:0|2:0,0:0:0:0:
172,110,332162,1,0,0:0:0:0:
152,163,332249,1,0,0:0:0:0:
168,217,332336,1,0,0:0:0:0:
206,261,332423,2,0,B|198:207|246:186|249:186|253:186|296:163|280:127|280:127|268:165|323:203,1,233.333333333333,2|0,0:0|2:0,0:0:0:0:
371,214,332945,1,0,0:0:0:0:
315,217,333032,1,0,0:0:0:0:
282,262,333119,1,0,0:0:0:0:
301,314,333206,2,0,P|262:281|245:277,1,46.6666666666667,2|0,0:0|0:0,0:0:0:0:
406,285,333380,2,0,B|407:236|457:212|457:212|393:214|360:162|360:162|368:116|368:116|319:61|388:20|444:43|445:110|390:125|390:125|335:117|335:117|311:128|311:128|281:117|250:121|250:121|212:135|155:197|215:235|257:237|314:196|237:109|237:109|216:85|190:51|232:32|232:32|238:68|201:82|201:82|177:89|156:122,1,1050,2|0,0:0|2:0,0:0:0:0:
176,161,335032,1,0,0:0:0:0:
154,106,335119,1,0,0:0:0:0:
97,90,335206,1,0,0:0:0:0:
53,128,335293,1,2,0:0:0:0:
54,186,335380,1,0,0:0:0:0:
102,218,335467,1,0,0:0:0:0:
154,194,335553,1,0,0:0:0:0:
211,206,335640,1,0,0:0:0:0:
240,256,335727,1,0,0:0:0:0:
221,315,335814,2,0,B|261:251|332:279|332:279|316:288|300:294,1,157.500006008148,2|0,0:0|0:0,0:0:0:0:
304,283,336108,1,0,0:0:0:0:
303,273,336206,2,0,B|293:276|278:287|278:287|348:313|388:252,1,140,2|0,0:0|0:0,0:0:0:0:
367,193,336423,1,0,0:0:0:0:
401,245,336510,1,0,0:0:0:0:
464,243,336597,1,0,0:0:0:0:
496,188,336684,1,0,0:0:0:0:
470,130,336771,1,0,0:0:0:0:
407,119,336858,1,2,0:0:0:0:
361,162,336945,1,0,0:0:0:0:
298,157,337032,1,0,0:0:0:0:
261,105,337119,2,0,B|254:77|254:77|256:46,1,52.5000020027161
179,57,337249,2,0,B|181:28|181:28|194:0,1,52.5000020027161
89,57,337380,1,2,0:0:0:0:
53,108,337467,1,0,0:0:0:0:
66,170,337553,2,0,B|41:138|11:140|-15:170|-10:196|15:231|53:208|53:208|63:240|63:240|91:217|131:230|131:230|151:217|151:217|153:248|171:268|171:268|157:275|157:275|169:310|155:337|155:337|174:327,1,437.500016689301,0|0,0:0|2:0,0:0:0:0:
239,273,338717,2,0,P|228:295|228:317,1,39.3750015020371
301,212,338945,1,2,0:0:0:0:
287,161,339032,1,0,0:0:0:0:
237,143,339119,1,0,0:0:0:0:
191,169,339206,1,0,0:0:0:0:
142,147,339293,1,0,0:0:0:0:
139,94,339380,1,0,0:0:0:0:
182,63,339467,1,0,0:0:0:0:
156,115,339553,1,0,0:0:0:0:
199,156,339640,1,0,0:0:0:0:
256,141,339727,1,0,0:0:0:0:
307,170,339814,1,0,0:0:0:0:
318,228,339901,1,0,0:0:0:0:
276,270,339988,2,0,P|301:237|306:196,1,70.0000026702882,2|0,0:0|0:0,0:0:0:0:
271,112,340162,1,0,0:0:0:0:
287,58,340249,1,0,0:0:0:0:
339,37,340336,2,0,P|318:63|307:103,1,70.0000026702882
469,333,340510,2,0,B|497:310|501:260|448:216|409:234|409:234|363:222|363:222|331:235|331:235|366:258|378:276|378:276|389:295|400:312|384:361|349:359|307:335|317:292|339:279|367:277|367:277|397:289|430:288|430:288|440:242|440:242|432:198|432:198|441:157|434:109|434:109|444:74|444:74|405:62|384:69|356:90|355:127|393:146|437:152|437:152|491:143|491:143|501:175|501:175|487:205,1,1050,2|0,0:0|2:0,0:0:0:0:
468,323,341553,2,0,B|493:278|451:231|411:244|411:244|373:255|332:235|332:235|370:293|360:337|360:337|388:302|419:292|419:292|417:244|417:244|425:206|411:169|411:169|407:126|429:118|465:114|488:137|490:183|434:192|434:192|412:186|412:186|378:189|378:189|346:173|313:172,1,787.500030040742,2|0,0:0|2:0,0:0:0:0:
269,243,342597,2,0,B|272:193|313:177|313:177|236:161|259:98|259:98|278:101|283:134,1,245,2|0,0:0|2:0,0:0:0:0:
195,121,343119,2,0,B|232:137|216:196|216:196|184:170|162:165|162:165|172:184|172:219,1,183.750007009506,0|0,0:0|2:0,0:0:0:0:
124,286,343640,1,2,0:0:0:0:
124,286,343771,2,0,B|95:250|106:195|106:195|86:152|115:117|115:117|96:91|96:91|127:73|135:46|135:44|136:41|141:12|174:5|201:5|221:17|221:17|238:28|274:34|304:19,1,455,0|0,0:0|2:0,0:0:0:0:
375,108,345553,2,0,B|363:99|353:84|353:84|342:103|342:103|326:82|326:82|317:99|317:99|296:78|296:78|283:95|283:95|262:73|262:73|251:93|251:93|240:78|240:78|231:93|231:93|204:59,1,280.000010681153,2|0,0:0|2:0,0:0:0:0:
183,131,345988,2,0,B|207:114|235:124|235:124|263:137|307:121,1,105.000004005432,0|0,0:0|2:0,0:0:0:0:
340,192,346336,2,0,B|315:155|315:155|308:181|308:181|287:157|287:157|279:179|279:179|258:158|258:158|242:181|242:181|225:147,1,210.000008010865,2|0,0:0|2:0,0:0:0:0:
190,211,346640,2,0,B|225:206|256:222|256:222|285:241|326:238,1,131.25000500679,0|0,0:0|2:0,0:0:0:0:
367,297,347032,2,0,B|337:262|337:262|321:284|321:284|300:263|300:263|290:287|290:287|261:272|261:272|252:299|252:299|226:279,1,218.75,2|0,0:0|2:0,0:0:0:0:
196,338,347423,2,0,B|227:321|260:335|260:335|290:349|341:338,1,131.25000500679,0|0,0:0|2:0,0:0:0:0:
379,362,347814,2,0,B|307:272|217:366|213:366|209:366|100:440|38:309,1,385,2|0,0:0|2:0,0:0:0:0:
4,263,348597,2,0,P|40:292|117:266,1,131.25000500679,2|0,0:0|2:0,0:0:0:0:
177,281,348988,2,0,P|146:257|95:256,1,87.5,0|0,0:0|2:0,0:0:0:0:
39,209,349380,2,0,B|62:224|62:224|73:207|73:207|89:218|89:218|104:199|104:199|120:214|120:214|133:201,1,131.25000500679,2|0,0:0|2:0,0:0:0:0:
184,173,349771,2,0,B|166:188|166:188|157:169|157:169|146:182|146:182|135:158|135:158|120:172|120:172|99:147,1,131.25000500679,0|0,0:0|2:0,0:0:0:0:
47,132,350162,2,0,P|82:134|121:101,1,87.5,2|0,0:0|2:0,0:0:0:0:
73,32,350553,2,0,B|97:72|97:72|119:45|119:45|149:94|149:94|184:49|184:49|195:93,1,218.75,0|0,0:0|2:0,0:0:0:0:
223,141,350945,5,8,0:0:0:0:
270,128,351010,1,8,0:0:0:0:
284,82,351075,5,0,0:0:0:0:
297,85,351140,1,0,0:0:0:0:
310,89,351205,1,8,0:3:0:0:
324,93,351270,1,8,0:3:0:0:
337,97,351335,1,4,0:3:0:0:
351,100,351401,1,4,0:3:0:0:
366,148,351467,37,0,0:0:0:0:
379,144,351532,1,0,0:0:0:0:
392,140,351597,1,8,0:3:0:0:
406,136,351662,1,8,0:3:0:0:
419,132,351727,1,4,0:3:0:0:
433,129,351793,1,4,0:3:0:0:
457,75,351858,5,8,0:0:0:0:
463,81,353032,37,4,0:0:0:0:
463,81,353097,1,0,0:0:0:0:
463,81,353162,1,0,0:0:0:0:
395,24,353293,1,0,0:0:0:0:
313,54,353423,1,0,0:0:0:0:
297,140,353553,1,2,0:0:0:0:
365,196,353684,1,0,0:0:0:0:
447,166,353814,1,0,0:0:0:0:
502,269,353945,1,0,0:0:0:0:
502,269,354010,1,0,0:0:0:0:
502,269,354075,1,10,0:0:0:0:
510,354,354205,1,0,0:0:0:0:
422,361,354335,1,0,0:0:0:0:
415,273,354465,1,0,0:0:0:0:
298,235,354597,1,2,0:0:0:0:
298,235,354662,1,0,0:0:0:0:
298,235,354727,1,0,0:0:0:0:
276,320,354858,1,0,0:0:0:0:
191,241,354988,1,0,0:0:0:0:
191,241,355053,1,0,0:0:0:0:
191,241,355118,1,2,0:0:0:0:
106,263,355249,1,0,0:0:0:0:
83,179,355380,1,0,0:0:0:0:
167,157,355510,1,0,0:0:0:0:
280,181,355640,1,2,0:0:0:0:
280,181,355705,1,0,0:0:0:0:
280,181,355771,1,0,0:0:0:0:
365,195,355901,1,0,0:0:0:0:
423,130,356031,1,0,0:0:0:0:
360,0,356162,1,10,0:0:0:0:
272,0,356292,1,0,0:0:0:0:
229,76,356422,1,0,0:0:0:0:
143,19,356553,1,0,0:0:0:0:
143,19,356618,1,0,0:0:0:0:
143,19,356684,1,2,0:0:0:0:
55,2,356814,1,0,0:0:0:0:
0,69,356944,1,0,0:0:0:0:
30,152,357074,1,0,0:0:0:0:
116,167,357205,1,2,0:0:0:0:
171,101,357335,1,0,0:0:0:0:
227,198,357466,1,0,0:0:0:0:
227,198,357532,1,0,0:0:0:0:
227,198,357597,1,0,0:0:0:0:
189,276,357727,1,2,0:0:0:0:
269,313,357857,1,0,0:0:0:0:
305,234,357988,1,0,0:0:0:0:
397,176,358118,1,0,0:0:0:0:
397,176,358184,1,0,0:0:0:0:
397,176,358249,1,10,0:0:0:0:
451,244,358379,1,0,0:0:0:0:
474,126,358510,1,0,0:0:0:0:
474,126,358575,1,0,0:0:0:0:
474,126,358640,1,0,0:0:0:0:
511,46,358771,1,2,0:0:0:0:
431,10,358902,1,0,0:0:0:0:
395,88,359032,1,0,0:0:0:0:
295,134,359162,1,0,0:0:0:0:
295,134,359227,1,0,0:0:0:0:
295,134,359292,1,2,0:0:0:0:
263,51,359423,1,0,0:0:0:0:
177,36,359554,1,0,0:0:0:0:
121,103,359684,1,0,0:0:0:0:
152,186,359815,1,2,0:0:0:0:
237,201,359945,1,0,0:0:0:0:
313,287,360075,1,0,0:0:0:0:
313,287,360140,1,0,0:0:0:0:
313,287,360205,1,0,0:0:0:0:
317,144,360336,1,10,0:0:0:0:
392,100,360467,1,0,0:0:0:0:
468,144,360597,1,0,0:0:0:0:
468,232,360728,1,0,0:0:0:0:
392,275,360858,1,2,0:0:0:0:
291,227,360988,1,0,0:0:0:0:
291,227,361053,1,0,0:0:0:0:
291,227,361118,1,0,0:0:0:0:
253,148,361249,1,0,0:0:0:0:
77,179,361380,1,2,0:0:0:0:
114,259,361510,1,0,0:0:0:0:
187,173,361640,1,0,0:0:0:0:
187,173,361705,1,0,0:0:0:0:
187,173,361771,1,0,0:0:0:0:
177,86,361901,1,2,0:0:0:0:
79,19,362032,1,0,0:0:0:0:
79,19,362097,1,0,0:0:0:0:
79,19,362162,1,0,0:0:0:0:
116,98,362292,1,0,0:0:0:0:
36,236,362423,1,10,0:0:0:0:
0,157,362553,1,0,0:0:0:0:
131,206,362684,1,0,0:0:0:0:
131,206,362749,1,0,0:0:0:0:
131,206,362814,1,0,0:0:0:0:
138,292,362945,1,2,0:0:0:0:
217,329,363076,1,0,0:0:0:0:
289,279,363206,1,0,0:0:0:0:
281,192,363336,1,0,0:0:0:0:
201,155,363467,1,2,0:0:0:0:
286,117,363597,1,0,0:0:0:0:
286,117,363662,1,0,0:0:0:0:
286,117,363727,1,0,0:0:0:0:
301,28,363858,1,0,0:0:0:0:
383,0,363989,1,2,0:0:0:0:
450,55,364119,1,0,0:0:0:0:
435,141,364249,1,0,0:0:0:0:
353,172,364380,1,0,0:0:0:0:
430,335,364510,1,10,0:0:0:0:
430,335,364575,1,0,0:0:0:0:
430,335,364640,1,0,0:0:0:0:
512,304,364771,1,0,0:0:0:0:
482,222,364902,1,0,0:0:0:0:
400,252,365032,1,2,0:0:0:0:
305,349,365162,1,0,0:0:0:0:
305,349,365227,1,0,0:0:0:0:
305,349,365292,1,0,0:0:0:0:
279,264,365423,1,0,0:0:0:0:
324,170,365553,1,2,0:0:0:0:
324,170,365618,1,0,0:0:0:0:
324,170,365684,1,0,0:0:0:0:
395,119,365814,1,0,0:0:0:0:
345,47,365944,1,0,0:0:0:0:
274,98,366075,1,2,0:0:0:0:
187,33,366205,1,0,0:0:0:0:
187,33,366271,1,0,0:0:0:0:
187,33,366336,1,0,0:0:0:0:
104,2,366466,1,0,0:0:0:0:
0,115,366596,1,10,0:0:0:0:
16,201,366727,1,0,0:0:0:0:
99,231,366857,1,0,0:0:0:0:
165,175,366988,1,0,0:0:0:0:
295,193,367118,1,2,0:0:0:0:
295,193,367184,1,0,0:0:0:0:
295,193,367249,1,0,0:0:0:0:
361,248,367379,1,0,0:0:0:0:
346,334,367509,1,0,0:0:0:0:
263,364,367640,1,2,0:0:0:0:
197,307,367770,1,0,0:0:0:0:
212,221,367901,1,0,0:0:0:0:
100,168,368032,1,0,0:0:0:0:
100,168,368097,1,0,0:0:0:0:
100,168,368162,1,2,0:0:0:0:
49,96,368292,1,0,0:0:0:0:
121,45,368422,1,0,0:0:0:0:
170,117,368553,1,0,0:0:0:0:
114,279,368684,1,10,0:0:0:0:
114,279,368749,1,0,0:0:0:0:
114,279,368814,1,0,0:0:0:0:
31,308,368945,1,0,0:0:0:0:
169,362,369075,1,0,0:0:0:0:
169,362,369140,1,0,0:0:0:0:
169,362,369205,1,2,0:0:0:0:
191,276,369336,1,0,0:0:0:0:
275,299,369467,1,0,0:0:0:0:
253,384,369597,1,0,0:0:0:0:
229,195,369727,1,4,0:0:0:0:
229,195,369792,1,0,0:0:0:0:
229,195,369858,1,0,0:0:0:0:
143,172,369988,1,0,0:0:0:0:
121,87,370118,1,0,0:0:0:0:
183,25,370248,1,2,0:0:0:0:
268,48,370379,1,0,0:0:0:0:
290,132,370509,1,0,0:0:0:0:
367,235,370640,1,0,0:0:0:0:
367,235,370705,1,0,0:0:0:0:
367,235,370771,1,10,0:0:0:0:
337,317,370901,1,0,0:0:0:0:
393,384,371031,1,0,0:0:0:0:
479,369,371162,1,0,0:0:0:0:
509,286,371292,1,2,0:0:0:0:
453,219,371422,1,0,0:0:0:0:
448,108,371553,1,0,0:0:0:0:
448,108,371618,1,0,0:0:0:0:
448,108,371684,1,0,0:0:0:0:
470,23,371814,1,2,0:0:0:0:
386,0,371945,1,0,0:0:0:0:
364,84,372075,1,0,0:0:0:0:
274,179,372205,1,0,0:0:0:0:
274,179,372271,1,0,0:0:0:0:
274,179,372336,1,2,0:0:0:0:
255,93,372466,1,0,0:0:0:0:
147,44,372597,1,0,0:0:0:0:
147,44,372662,1,0,0:0:0:0:
147,44,372727,1,0,0:0:0:0:
10,137,372858,1,10,0:0:0:0:
17,223,372989,1,0,0:0:0:0:
104,216,373119,1,0,0:0:0:0:
204,176,373249,1,0,0:0:0:0:
204,176,373314,1,0,0:0:0:0:
204,176,373379,1,2,0:0:0:0:
165,254,373510,1,0,0:0:0:0:
214,326,373641,1,0,0:0:0:0:
302,318,373771,1,0,0:0:0:0:
419,214,373902,1,4,0:0:0:0:
369,144,374032,1,0,0:0:0:0:
267,186,374162,1,0,0:0:0:0:
267,186,374227,1,0,0:0:0:0:
267,186,374292,1,0,0:0:0:0:
209,117,374423,1,2,0:0:0:0:
239,34,374554,1,0,0:0:0:0:
325,19,374684,1,0,0:0:0:0:
382,87,374815,1,0,0:0:0:0:
344,244,374945,1,10,0:0:0:0:
223,239,375075,1,0,0:0:0:0:
223,239,375140,1,0,0:0:0:0:
223,239,375205,1,0,0:0:0:0:
185,317,375336,1,0,0:0:0:0:
105,281,375467,1,2,0:0:0:0:
143,202,375597,1,0,0:0:0:0:
44,111,375727,1,0,0:0:0:0:
44,111,375792,1,0,0:0:0:0:
44,111,375858,1,0,0:0:0:0:
64,195,375988,1,2,0:0:0:0:
152,119,376118,1,0,0:0:0:0:
152,119,376184,1,0,0:0:0:0:
152,119,376249,1,0,0:0:0:0:
114,39,376380,1,0,0:0:0:0:
194,3,376510,1,2,0:0:0:0:
230,81,376641,1,0,0:0:0:0:
343,37,376771,1,0,0:0:0:0:
343,37,376836,1,0,0:0:0:0:
343,37,376901,1,0,0:0:0:0:
470,129,377032,1,10,0:0:0:0:
500,212,377162,1,0,0:0:0:0:
444,279,377292,1,0,0:0:0:0:
359,263,377423,1,0,0:0:0:0:
329,180,377553,1,2,0:0:0:0:
249,261,377684,1,0,0:0:0:0:
249,261,377749,1,0,0:0:0:0:
249,261,377814,1,0,0:0:0:0:
233,347,377945,1,0,0:0:0:0:
69,367,378076,1,4,0:0:0:0:
2,311,378206,1,0,0:0:0:0:
17,224,378336,1,0,0:0:0:0:
99,195,378467,1,0,0:0:0:0:
29,110,378597,1,2,0:0:0:0:
29,110,378662,1,0,0:0:0:0:
29,110,378727,1,0,0:0:0:0:
20,21,378858,1,0,0:0:0:0:
108,16,378989,1,0,0:0:0:0:
182,161,379119,1,10,0:0:0:0:
291,101,379249,1,0,0:0:0:0:
291,101,379314,1,0,0:0:0:0:
291,101,379379,1,0,0:0:0:0:
322,182,379510,1,0,0:0:0:0:
218,221,379640,1,2,0:0:0:0:
218,221,379705,1,0,0:0:0:0:
218,221,379771,1,0,0:0:0:0:
164,288,379901,1,0,0:0:0:0:
232,343,380031,1,0,0:0:0:0:
286,273,380162,1,2,0:0:0:0:
375,211,380292,1,0,0:0:0:0:
375,211,380358,1,0,0:0:0:0:
375,211,380423,1,0,0:0:0:0:
336,130,380553,1,0,0:0:0:0:
387,58,380684,1,2,0:0:0:0:
474,65,380814,1,0,0:0:0:0:
512,145,380945,1,0,0:0:0:0:
460,217,381075,1,0,0:0:0:0:
254,207,381205,1,10,0:0:0:0:
254,207,381271,1,0,0:0:0:0:
254,207,381336,1,0,0:0:0:0:
231,291,381466,1,0,0:0:0:0:
146,313,381596,1,0,0:0:0:0:
84,251,381727,1,2,0:0:0:0:
107,167,381857,1,0,0:0:0:0:
191,144,381988,1,0,0:0:0:0:
273,78,382118,1,0,0:0:0:0:
273,78,382184,1,0,0:0:0:0:
273,78,382249,1,4,0:0:0:0:
309,157,382379,1,0,0:0:0:0:
388,120,382509,1,0,0:0:0:0:
351,42,382640,1,0,0:0:0:0:
226,4,382771,1,2,0:0:0:0:
226,4,382836,1,0,0:0:0:0:
226,4,382901,1,0,0:0:0:0:
191,84,383032,1,0,0:0:0:0:
90,39,383162,1,0,0:0:0:0:
90,39,383227,1,0,0:0:0:0:
90,39,383292,1,10,0:0:0:0:
5,62,383423,1,0,0:0:0:0:
28,146,383554,1,0,0:0:0:0:
112,124,383684,1,0,0:0:0:0:
163,222,383814,1,2,0:0:0:0:
163,222,383879,1,0,0:0:0:0:
163,222,383945,1,0,0:0:0:0:
75,214,384075,1,0,0:0:0:0:
24,285,384205,1,0,0:0:0:0:
62,364,384335,1,2,0:0:0:0:
149,372,384466,1,0,0:0:0:0:
199,300,384596,1,0,0:0:0:0:
278,197,384727,1,0,0:0:0:0:
278,197,384792,1,0,0:0:0:0:
278,197,384858,1,2,0:0:0:0:
314,275,384988,1,0,0:0:0:0:
401,283,385118,1,0,0:0:0:0:
452,212,385248,1,0,0:0:0:0:
405,66,385379,1,10,0:0:0:0:
317,59,385509,1,0,0:0:0:0:
215,124,385640,1,0,0:0:0:0:
215,124,385705,1,0,0:0:0:0:
215,124,385771,1,0,0:0:0:0:
192,207,385901,1,2,0:0:0:0:
108,185,386031,1,0,0:0:0:0:
131,100,386162,1,2,0:0:0:0:
46,13,386292,1,0,0:0:0:0:
46,13,386358,1,0,0:0:0:0:
46,13,386423,5,2,0:0:0:0:
46,13,388510,37,4,0:0:0:0:
71,165,388640,1,8,0:0:0:0:
149,42,388771,2,0,L|152:15,1,17.5,2|0,0:0|0:0,0:0:0:0:
135,48,388901,1,0,0:0:0:0:
179,135,389032,1,10,0:0:0:0:
268,25,389162,1,0,0:0:0:0:
268,25,389227,1,0,0:0:0:0:
268,25,389292,1,2,0:0:0:0:
279,126,389423,1,8,0:0:0:0:
179,209,389553,2,0,L|155:205,1,17.5,2|0,0:0|0:0,0:0:0:0:
181,221,389684,1,0,0:0:0:0:
270,260,389814,1,10,0:0:0:0:
372,162,389945,1,0,0:0:0:0:
372,162,390010,1,0,0:0:0:0:
372,162,390075,1,2,0:0:0:0:
341,47,390205,1,8,0:0:0:0:
452,17,390336,2,0,L|455:-1,1,17.5,2|0,0:0|0:0,0:0:0:0:
466,25,390466,1,0,0:0:0:0:
436,112,390597,1,10,0:0:0:0:
509,236,390727,1,0,0:0:0:0:
509,236,390792,1,0,0:0:0:0:
509,236,390858,1,2,0:0:0:0:
391,215,390988,1,8,0:0:0:0:
307,347,391118,5,2,0:0:0:0:
315,348,391184,1,0,0:0:0:0:
323,347,391249,1,0,0:0:0:0:
314,216,391379,1,10,0:0:0:0:
212,313,391510,1,0,0:0:0:0:
207,301,391575,1,0,0:0:0:0:
199,291,391640,1,2,0:0:0:0:
44,266,391771,1,8,0:0:0:0:
121,148,391901,1,2,0:0:0:0:
125,164,391966,1,0,0:0:0:0:
134,178,392032,1,0,0:0:0:0:
287,161,392162,1,10,0:0:0:0:
179,21,392292,1,0,0:0:0:0:
157,29,392358,1,0,0:0:0:0:
134,28,392423,1,2,0:0:0:0:
25,114,392553,1,8,0:0:0:0:
212,94,392684,1,2,0:0:0:0:
217,110,392749,1,0,0:0:0:0:
217,127,392814,1,0,0:0:0:0:
153,237,392945,1,10,0:0:0:0:
281,243,393075,37,0,0:0:0:0:
281,243,393140,1,0,0:0:0:0:
281,243,393205,1,2,0:0:0:0:
266,336,393336,1,8,0:0:0:0:
390,277,393466,2,0,L|394:248,1,17.5,2|0,0:0|0:0,0:0:0:0:
401,286,393597,1,0,0:0:0:0:
361,193,393727,1,10,0:0:0:0:
227,155,393858,1,0,0:0:0:0:
227,155,393923,1,0,0:0:0:0:
227,155,393988,1,2,0:0:0:0:
296,82,394118,1,8,0:0:0:0:
186,15,394249,2,0,L|188:42,1,17.5,2|0,0:0|0:0,0:0:0:0:
202,7,394379,1,0,0:0:0:0:
85,42,394510,1,10,0:0:0:0:
34,171,394640,1,0,0:0:0:0:
34,171,394705,1,0,0:0:0:0:
34,171,394771,1,2,0:0:0:0:
145,148,394901,1,8,0:0:0:0:
226,271,395032,5,2,0:0:0:0:
217,268,395097,1,0,0:0:0:0:
208,268,395162,1,0,0:0:0:0:
84,344,395292,1,10,0:0:0:0:
96,190,395423,1,0,0:0:0:0:
105,197,395488,1,0,0:0:0:0:
115,202,395553,1,2,0:0:0:0:
246,152,395684,1,8,0:0:0:0:
315,298,395814,1,2,0:0:0:0:
320,281,395879,1,0,0:0:0:0:
331,267,395945,1,0,0:0:0:0:
486,219,396075,1,10,0:0:0:0:
358,94,396205,1,0,0:0:0:0:
369,113,396271,1,0,0:0:0:0:
375,134,396336,1,2,0:0:0:0:
262,229,396466,1,8,0:0:0:0:
230,77,396597,1,2,0:0:0:0:
246,81,396662,1,0,0:0:0:0:
263,80,396727,1,0,0:0:0:0:
379,2,396858,1,10,0:0:0:0:
473,138,396988,37,0,0:0:0:0:
473,138,397053,1,0,0:0:0:0:
473,138,397118,1,2,0:0:0:0:
386,214,397249,1,8,0:0:0:0:
259,140,397379,2,0,L|253:170,1,17.5,2|0,0:0|0:0,0:0:0:0:
241,142,397510,1,0,0:0:0:0:
236,260,397640,1,10,0:0:0:0:
116,358,397771,1,0,0:0:0:0:
116,358,397836,1,0,0:0:0:0:
116,358,397901,1,2,0:0:0:0:
27,251,398032,1,8,0:0:0:0:
161,214,398162,2,0,L|166:185,1,17.5,2|0,0:0|0:0,0:0:0:0:
176,223,398292,1,0,0:0:0:0:
41,163,398423,1,10,0:0:0:0:
89,20,398553,1,0,0:0:0:0:
89,20,398618,1,0,0:0:0:0:
89,20,398684,1,2,0:0:0:0:
137,127,398814,1,8,0:0:0:0:
224,22,398945,2,0,L|217:52,1,17.5,2|0,0:0|0:0,0:0:0:0:
236,16,399075,1,0,0:0:0:0:
333,73,399205,1,10,0:0:0:0:
288,204,399336,5,0,0:0:0:0:
280,199,399401,1,0,0:0:0:0:
271,197,399466,1,2,0:0:0:0:
148,241,399597,1,8,0:0:0:0:
238,359,399727,1,2,0:0:0:0:
241,347,399792,1,0,0:0:0:0:
248,337,399858,1,0,0:0:0:0:
391,287,399988,1,10,0:0:0:0:
425,117,400118,1,0,0:0:0:0:
408,124,400184,1,0,0:0:0:0:
390,125,400249,1,2,0:0:0:0:
512,235,400379,1,8,0:0:0:0:
305,277,400510,1,2,0:0:0:0:
321,261,400575,1,0,0:0:0:0:
332,241,400640,1,0,0:0:0:0:
270,83,400771,1,10,0:0:0:0:
186,212,400901,1,0,0:0:0:0:
181,195,400966,1,0,0:0:0:0:
167,183,401032,1,2,0:0:0:0:
14,207,401162,1,8,0:0:0:0:
62,52,401292,38,0,L|52:22,1,17.5,2|0,0:0|0:0,0:0:0:0:
78,57,401423,1,0,0:0:0:0:
105,163,401553,1,10,0:0:0:0:
17,303,401684,1,0,0:0:0:0:
17,303,401749,1,0,0:0:0:0:
17,303,401814,1,2,0:0:0:0:
116,237,401945,1,8,0:0:0:0:
182,352,402075,2,0,L|166:334,1,17.5,2|0,0:0|0:0,0:0:0:0:
179,369,402205,1,0,0:0:0:0:
217,245,402336,1,10,0:0:0:0:
360,182,402466,1,0,0:0:0:0:
360,182,402532,1,0,0:0:0:0:
360,182,402597,1,2,0:0:0:0:
349,315,402727,1,8,0:0:0:0:
490,357,402858,2,0,L|483:379,1,17.5,2|0,0:0|0:0,0:0:0:0:
503,345,402988,1,0,0:0:0:0:
438,224,403118,1,10,0:0:0:0:
270,288,403249,5,0,0:0:0:0:
274,280,403314,1,0,0:0:0:0:
277,271,403379,1,2,0:0:0:0:
239,151,403510,1,8,0:0:0:0:
131,273,403640,1,2,0:0:0:0:
142,267,403705,1,0,0:0:0:0:
154,266,403771,1,0,0:0:0:0:
229,380,403901,1,10,0:0:0:0:
66,375,404032,1,0,0:0:0:0:
76,361,404097,1,0,0:0:0:0:
78,343,404162,1,2,0:0:0:0:
6,209,404292,1,8,0:0:0:0:
202,177,404423,1,2,0:0:0:0:
180,169,404488,1,0,0:0:0:0:
164,152,404553,1,0,0:0:0:0:
201,3,404684,1,10,0:0:0:0:
290,133,404814,1,0,0:0:0:0:
303,122,404879,1,0,0:0:0:0:
320,117,404945,1,2,0:0:0:0:
417,15,405075,1,8,0:0:0:0:
475,184,405205,37,6,0:0:0:0:
467,174,405271,1,0,0:0:0:0:
459,164,405336,1,0,0:0:0:0:
364,181,405466,1,8,0:0:0:0:
398,287,405597,1,0,0:0:0:0:
403,276,405662,1,0,0:0:0:0:
408,265,405727,1,2,0:0:0:0:
494,344,405858,1,8,0:0:0:0:
370,359,405988,1,2,0:0:0:0:
381,363,406053,1,0,0:0:0:0:
392,367,406118,1,0,0:0:0:0:
304,249,406249,5,10,0:0:0:0:
256,373,406379,1,0,0:0:0:0:
247,351,406445,1,0,0:0:0:0:
240,329,406510,1,2,0:0:0:0:
110,284,406640,1,8,0:0:0:0:
225,186,406771,1,2,0:0:0:0:
218,207,406836,1,0,0:0:0:0:
211,228,406901,1,0,0:0:0:0:
166,83,407032,1,10,0:0:0:0:
43,156,407162,1,0,0:0:0:0:
33,135,407227,1,0,0:0:0:0:
23,114,407292,37,2,0:0:0:0:
167,180,407423,1,8,0:0:0:0:
150,17,407553,1,2,0:0:0:0:
115,11,407618,1,0,0:0:0:0:
80,6,407683,1,0,0:0:0:0:
121,138,407814,1,10,0:0:0:0:
242,0,407944,1,0,0:0:0:0:
249,34,408009,1,0,0:0:0:0:
254,68,408075,1,2,0:0:0:0:
384,143,408205,1,8,0:0:0:0:
468,23,408336,5,2,0:0:0:0:
445,26,408401,1,0,0:0:0:0:
422,29,408466,1,0,0:0:0:0:
499,150,408597,1,10,0:0:0:0:
343,76,408727,1,0,0:0:0:0:
333,96,408792,1,0,0:0:0:0:
322,116,408858,1,2,0:0:0:0:
426,194,408988,1,8,0:0:0:0:
317,271,409118,1,2,0:0:0:0:
305,251,409184,1,0,0:0:0:0:
294,230,409249,1,0,0:0:0:0:
187,195,409379,37,10,0:0:0:0:
201,297,409510,1,0,0:0:0:0:
189,293,409575,1,0,0:0:0:0:
177,290,409640,1,2,0:0:0:0:
92,366,409771,1,8,0:0:0:0:
198,380,409901,1,2,0:0:0:0:
209,377,409966,1,0,0:0:0:0:
221,373,410032,1,0,0:0:0:0:
261,289,410162,1,10,0:0:0:0:
345,364,410292,1,0,0:0:0:0:
333,360,410358,1,0,0:0:0:0:
321,356,410423,5,2,0:0:0:0:
446,288,410553,1,8,0:0:0:0:
331,233,410684,1,2,0:0:0:0:
349,219,410749,1,0,0:0:0:0:
367,206,410814,1,0,0:0:0:0:
450,91,410945,1,10,0:0:0:0:
307,37,411075,1,0,0:0:0:0:
323,52,411140,1,0,0:0:0:0:
339,68,411205,1,2,0:0:0:0:
285,173,411336,1,8,0:0:0:0:
190,29,411466,37,2,0:0:0:0:
183,63,411532,1,0,0:0:0:0:
177,97,411597,1,0,0:0:0:0:
46,84,411727,1,10,0:0:0:0:
76,235,411858,1,0,0:0:0:0:
107,220,411923,1,0,0:0:0:0:
139,206,411988,1,2,0:0:0:0:
273,271,412118,1,8,0:0:0:0:
121,324,412249,1,2,0:0:0:0:
145,348,412314,1,0,0:0:0:0:
169,372,412379,1,0,0:0:0:0:
11,384,412510,5,10,0:0:0:0:
21,217,412640,1,0,0:0:0:0:
15,239,412705,1,0,0:0:0:0:
10,261,412771,1,2,0:0:0:0:
153,270,412901,1,8,0:0:0:0:
103,127,413032,1,2,0:0:0:0:
100,149,413097,1,0,0:0:0:0:
97,171,413162,1,0,0:0:0:0:
1,98,413292,1,10,0:0:0:0:
122,23,413423,1,0,0:0:0:0:
138,39,413488,1,0,0:0:0:0:
154,55,413553,37,2,0:0:0:0:
189,176,413684,1,8,0:0:0:0:
261,82,413814,1,2,0:0:0:0:
249,84,413879,1,0,0:0:0:0:
236,86,413945,1,0,0:0:0:0:
297,179,414075,1,10,0:0:0:0:
346,71,414205,1,0,0:0:0:0:
337,62,414271,1,0,0:0:0:0:
328,53,414336,1,2,0:0:0:0:
426,4,414466,1,8,0:0:0:0:
478,115,414597,5,2,0:0:0:0:
459,128,414662,1,0,0:0:0:0:
441,141,414727,1,0,0:0:0:0:
311,121,414858,1,10,0:0:0:0:
382,248,414988,1,0,0:0:0:0:
404,244,415053,1,0,0:0:0:0:
426,240,415118,1,2,0:0:0:0:
392,357,415249,1,8,0:0:0:0:
283,274,415379,1,2,0:0:0:0:
292,295,415445,1,0,0:0:0:0:
301,315,415510,1,0,0:0:0:0:
149,368,415640,37,10,0:0:0:0:
202,219,415771,1,0,0:0:0:0:
169,231,415836,1,0,0:0:0:0:
136,244,415901,1,2,0:0:0:0:
8,174,416032,1,8,0:0:0:0:
151,105,416162,1,2,0:0:0:0:
129,77,416227,1,0,0:0:0:0:
107,49,416292,1,0,0:0:0:0:
257,81,416423,1,10,0:0:0:0:
101,161,416553,1,0,0:0:0:0:
83,191,416618,1,0,0:0:0:0:
65,221,416684,5,2,0:0:0:0:
175,299,416814,1,8,0:0:0:0:
48,347,416945,1,2,0:0:0:0:
69,355,417010,1,0,0:0:0:0:
90,363,417075,1,0,0:0:0:0:
137,234,417205,1,10,0:0:0:0:
254,329,417336,1,0,0:0:0:0:
239,346,417401,1,0,0:0:0:0:
224,363,417466,1,2,0:0:0:0:
365,355,417597,1,8,0:0:0:0:
304,255,417727,37,2,0:0:0:0:
315,258,417792,1,0,0:0:0:0:
326,261,417858,1,0,0:0:0:0:
414,219,417988,1,10,0:0:0:0:
382,124,418118,1,0,0:0:0:0:
394,122,418184,1,0,0:0:0:0:
406,120,418249,1,2,0:0:0:0:
495,180,418379,1,8,0:0:0:0:
484,55,418510,1,2,0:0:0:0:
471,53,418575,1,0,0:0:0:0:
458,52,418640,1,0,0:0:0:0:
340,0,418771,5,10,0:0:0:0:
307,142,418901,1,0,0:0:0:0:
317,122,418966,1,0,0:0:0:0:
328,102,419032,1,2,0:0:0:0:
426,178,419162,1,8,0:0:0:0:
333,258,419292,1,2,0:0:0:0:
313,245,419358,1,0,0:0:0:0:
293,232,419423,1,0,0:0:0:0:
163,276,419553,1,10,0:0:0:0:
203,157,419684,1,0,0:0:0:0:
205,134,419749,1,0,0:0:0:0:
208,111,419814,37,2,0:0:0:0:
36,166,419945,1,8,0:0:0:0:
122,22,420075,1,2,0:0:0:0:
131,55,420140,1,0,0:0:0:0:
140,88,420205,1,0,0:0:0:0:
302,137,420336,1,10,0:0:0:0:
128,220,420466,1,0,0:0:0:0:
116,186,420532,1,0,0:0:0:0:
104,153,420597,1,2,0:0:0:0:
17,313,420727,1,8,0:0:0:0:
192,355,420858,5,2,0:0:0:0:
200,334,420923,1,0,0:0:0:0:
209,313,420988,1,0,0:0:0:0:
187,181,421118,1,10,0:0:0:0:
326,240,421249,1,0,0:0:0:0:
330,262,421314,1,0,0:0:0:0:
334,284,421379,1,2,0:0:0:0:
434,183,421510,1,8,0:0:0:0:
290,118,421640,1,2,0:0:0:0:
287,140,421705,1,0,0:0:0:0:
284,162,421771,1,0,0:0:0:0:
409,60,421901,37,12,0:0:0:0:
241,43,422032,1,0,0:0:0:0:
271,34,422097,1,0,0:0:0:0:
294,13,422162,1,2,0:0:0:0:
128,9,422292,1,8,0:0:0:0:
192,141,422423,1,2,0:0:0:0:
164,126,422488,1,0,0:0:0:0:
132,124,422553,1,0,0:0:0:0:
13,209,422684,1,10,0:0:0:0:
16,56,422814,1,0,0:0:0:0:
25,86,422879,1,0,0:0:0:0:
49,106,422945,1,2,0:0:0:0:
185,66,423075,1,8,0:0:0:0:
106,209,423205,1,2,0:0:0:0:
136,200,423271,1,0,0:0:0:0:
166,206,423336,1,0,0:0:0:0:
210,315,423466,1,10,0:0:0:0:
65,356,423597,1,0,0:0:0:0:
94,344,423662,1,0,0:0:0:0:
108,316,423727,1,2,0:0:0:0:
250,250,423858,1,8,0:0:0:0:
321,373,423988,1,0,0:0:0:0:
292,358,424053,1,0,0:0:0:0:
260,360,424118,1,0,0:0:0:0:
374,268,424249,1,10,0:0:0:0:
278,166,424379,1,0,0:0:0:0:
309,161,424445,1,0,0:0:0:0:
332,139,424510,1,2,0:0:0:0:
375,17,424640,1,8,0:0:0:0:
495,112,424771,1,2,0:0:0:0:
464,120,424836,1,0,0:0:0:0:
433,114,424901,1,0,0:0:0:0:
491,242,425032,1,10,0:0:0:0:
314,234,425162,1,0,0:0:0:0:
341,218,425227,1,0,0:0:0:0:
372,215,425292,1,2,0:0:0:0:
298,82,425423,1,8,0:0:0:0:
194,189,425553,1,2,0:0:0:0:
198,157,425618,1,0,0:0:0:0:
188,126,425684,1,0,0:0:0:0:
116,252,425814,1,10,0:0:0:0:
260,293,425945,1,0,0:0:0:0:
230,282,426010,1,0,0:0:0:0:
198,286,426075,1,2,0:0:0:0:
85,367,426205,1,8,0:0:0:0:
2,220,426336,1,2,0:0:0:0:
31,230,426401,1,0,0:0:0:0:
61,222,426466,1,0,0:0:0:0:
131,104,426597,1,10,0:0:0:0:
9,10,426727,1,0,0:0:0:0:
12,41,426792,1,0,0:0:0:0:
30,66,426858,1,2,0:0:0:0:
175,15,426988,1,8,0:0:0:0:
169,186,427118,1,2,0:0:0:0:
184,158,427184,1,0,0:0:0:0:
213,148,427249,1,0,0:0:0:0:
366,192,427379,1,10,0:0:0:0:
309,37,427510,1,0,0:0:0:0:
336,52,427575,1,0,0:0:0:0:
367,56,427640,1,2,0:0:0:0:
216,84,427771,1,8,0:0:0:0:
381,122,427901,1,2,0:0:0:0:
349,118,427966,1,0,0:0:0:0:
319,131,428032,1,0,0:0:0:0:
245,255,428162,1,10,0:0:0:0:
411,306,428292,1,0,0:0:0:0:
401,275,428358,1,0,0:0:0:0:
404,243,428423,1,2,0:0:0:0:
506,119,428553,1,8,0:0:0:0:
379,7,428684,1,2,0:0:0:0:
359,31,428749,1,0,0:0:0:0:
329,41,428814,1,0,0:0:0:0:
296,186,428945,1,10,0:0:0:0:
154,224,429075,1,0,0:0:0:0:
179,242,429140,1,0,0:0:0:0:
193,269,429205,1,2,0:0:0:0:
343,288,429336,1,8,0:0:0:0:
248,135,429466,1,2,0:0:0:0:
219,149,429532,1,0,0:0:0:0:
187,147,429597,1,0,0:0:0:0:
174,10,429727,1,10,0:0:0:0:
38,65,429858,1,0,0:0:0:0:
66,78,429923,1,0,0:0:0:0:
85,102,429988,1,2,0:0:0:0:
16,217,430118,1,8,0:0:0:0:
154,249,430249,1,4,0:0:0:0:
135,223,430314,1,0,0:0:0:0:
131,191,430379,1,0,0:0:0:0:
216,70,430510,1,8,0:0:0:0:
309,220,430640,1,0,0:0:0:0:
277,218,430705,1,0,0:0:0:0:
246,228,430771,1,2,0:0:0:0:
175,361,430901,1,8,0:0:0:0:
23,268,431032,1,2,0:0:0:0:
48,285,431097,1,0,0:0:0:0:
79,289,431162,1,0,0:0:0:0:
197,173,431292,1,12,0:0:0:0:
263,347,431423,1,0,0:0:0:0:
281,321,431488,1,0,0:0:0:0:
309,308,431553,1,0,0:0:0:0:
469,361,431684,1,8,0:0:0:0:
397,182,431814,1,2,0:0:0:0:
418,204,431879,1,0,0:0:0:0:
448,212,431945,1,0,0:0:0:0:
504,90,432075,1,10,0:0:0:0:
342,31,432205,1,0,0:0:0:0:
353,60,432271,1,0,0:0:0:0:
349,91,432336,1,4,0:0:0:0:
237,187,432466,1,8,0:0:0:0:
386,270,432597,1,0,0:0:0:0:
360,252,432662,1,0,0:0:0:0:
328,253,432727,1,0,0:0:0:0:
179,332,432858,1,10,0:0:0:0:
155,162,432988,1,0,0:0:0:0:
153,193,433053,1,0,0:0:0:0:
137,220,433118,1,2,0:0:0:0:
2,159,433249,1,8,0:0:0:0:
104,33,433379,1,4,0:0:0:0:
126,55,433445,1,0,0:0:0:0:
155,66,433510,1,0,0:0:0:0:
301,3,433640,1,8,0:0:0:0:
272,172,433771,1,0,0:0:0:0:
278,141,433836,1,0,0:0:0:0:
266,111,433901,1,2,0:0:0:0:
434,97,434032,1,8,0:0:0:0:
433,245,434162,1,2,0:0:0:0:
403,233,434227,1,0,0:0:0:0:
371,234,434292,1,0,0:0:0:0:
347,88,434423,1,12,0:0:0:0:
205,229,434553,1,0,0:0:0:0:
204,197,434618,1,0,0:0:0:0:
214,166,434684,1,0,0:0:0:0:
134,28,434814,1,8,0:0:0:0:
21,140,434945,1,2,0:0:0:0:
50,129,435010,1,0,0:0:0:0:
81,132,435075,1,0,0:0:0:0:
145,266,435205,1,10,0:0:0:0:
4,372,435336,1,0,0:0:0:0:
18,344,435401,1,0,0:0:0:0:
15,312,435466,1,4,0:0:0:0:
166,381,435597,1,8,0:0:0:0:
67,230,435727,1,0,0:0:0:0:
97,222,435792,1,0,0:0:0:0:
123,203,435858,1,0,0:0:0:0:
277,201,435988,1,10,0:0:0:0:
290,366,436118,1,0,0:0:0:0:
280,335,436184,1,0,0:0:0:0:
255,315,436249,1,2,0:0:0:0:
86,294,436379,1,8,0:0:0:0:
215,166,436510,1,4,0:0:0:0:
185,155,436575,1,0,0:0:0:0:
166,129,436640,1,0,0:0:0:0:
316,64,436771,1,8,0:0:0:0:
315,243,436901,1,0,0:0:0:0:
331,216,436966,1,0,0:0:0:0:
360,203,437032,1,2,0:0:0:0:
492,348,437162,1,8,0:0:0:0:
499,125,437292,1,2,0:0:0:0:
483,152,437358,1,0,0:0:0:0:
454,165,437423,1,0,0:0:0:0:
282,126,437553,1,12,0:0:0:0:
225,328,437684,1,0,0:0:0:0:
220,296,437749,1,0,0:0:0:0:
195,276,437814,1,0,0:0:0:0:
0,232,437945,1,8,0:0:0:0:
148,102,438075,1,2,0:0:0:0:
120,86,438140,1,0,0:0:0:0:
107,57,438205,1,0,0:0:0:0:
403,120,438336,6,0,B|277:214|277:214|335:222,1,210,14|0,0:0|2:0,0:0:0:0:
