osu file format v14

[General]
AudioFilename: Merv Griffin - Think Music.mp3
AudioLeadIn: 0
PreviewTime: 1452
Countdown: 0
SampleSet: Normal
StackLeniency: 0.7
Mode: 0
LetterboxInBreaks: 0
WidescreenStoryboard: 1

[Editor]
DistanceSpacing: 1.8
BeatDivisor: 8
GridSize: 4
TimelineZoom: 1

[Metadata]
Title:Think Music
TitleUnicode:Think Music
Artist:Merv Griffin
ArtistUnicode:Merv Griffin
Creator:Dovu
Version:Hard
Source:Jeopardy!
Tags:think music jeopardy bbc alex trebek Nerthar
BeatmapID:807173
BeatmapSetID:367958

[Difficulty]
HPDrainRate:5
CircleSize:3.5
OverallDifficulty:6
ApproachRate:7
SliderMultiplier:1.4
SliderTickRate:1

[Events]
//Background and Video events
0,0,"jeopardy.jpg",0,0
//Break Periods
//Storyboard Layer 0 (Background)
//Storyboard Layer 1 (Fail)
//Storyboard Layer 2 (Pass)
//Storyboard Layer 3 (Foreground)
//Storyboard Sound Samples

[TimingPoints]
1452,480,4,1,0,85,1,0
7210,-133.333333333333,4,1,0,85,0,0
7930,-100,4,1,0,85,0,0
16812,-100,4,1,0,85,0,1
19688,-66.6666666666667,4,1,0,85,0,1
20648,-100,4,1,0,85,0,1
27852,-100,4,1,0,85,0,0

[HitObjects]
96,140,1453,6,0,B|180:164|216:128|216:128|200:112,1,140,0|8,0:0|0:0,0:0:0:0:
268,64,2232,1,0,0:0:0:0:
412,152,2412,2,0,B|368:168|296:164|296:164|308:196,1,140,0|8,0:0|0:0,0:0:0:0:
220,232,3192,1,0,0:0:0:0:
272,304,3372,2,0,B|328:344|380:312|380:312|384:288,2,140,0|8|0,0:0|0:0|0:0,0:0:0:0:
272,304,4813,1,8,0:0:0:0:
96,140,5293,6,0,B|180:164|208:128|208:128|192:108,1,140,0|8,0:0|0:0,0:0:0:0:
272,64,6072,1,0,0:0:0:0:
424,272,6253,2,0,B|360:292|296:264|296:264|308:244,1,140,0|8,0:0|0:0,0:0:0:0:
468,156,7212,1,2,0:0:0:0:
276,52,7692,1,8,0:0:0:0:
216,172,7932,6,0,P|176:200|168:232,2,70,0|8|0,0:0|0:0|0:0,0:0:0:0:
308,320,8652,2,0,P|336:280|328:248,2,70,8|0|8,0:0|0:0|0:0,0:0:0:0:
112,168,9612,5,8,0:0:0:0:
216,112,10092,2,0,B|260:140|328:120|328:120|312:156,1,140,0|8,0:0|0:0,0:0:0:0:
240,224,10812,1,0,0:0:0:0:
188,324,11052,2,0,P|244:340|324:312,2,140,0|8|0,0:0|0:0|0:0,0:0:0:0:
56,192,12492,1,8,0:0:0:0:
136,72,12972,5,2,0:0:0:0:
140,184,13693,2,8,P|204:192|216:188,1,70
288,236,14413,1,8,0:0:0:0:
352,272,14893,1,8,0:0:0:0:
416,312,15373,1,8,0:0:0:0:
476,352,15852,1,14,0:0:0:0:
84,136,16812,6,0,B|136:116|184:172|184:172|180:132,1,140,0|10,0:0|0:0,0:0:0:0:
212,76,17592,1,8,0:0:0:0:
352,136,17772,2,0,B|312:164|244:144|244:144|256:180,1,140,0|10,0:0|0:0,0:0:0:0:
212,236,18552,1,8,0:0:0:0:
156,288,18732,2,0,P|184:312|272:280,1,140,0|8,0:0|0:0,0:0:0:0:
456,188,19693,2,0,B|336:84|160:264|48:156,1,420.000016021729
60,212,21132,5,8,0:0:0:0:
148,252,21432,1,10,0:0:0:0:
220,184,21612,2,0,B|264:140|316:200|316:200|328:180,1,122.5,0|8,0:0|0:0,0:0:0:0:
460,72,22512,1,8,0:0:0:0:
124,68,23292,6,0,P|100:84|80:132,1,70,8|2,0:0|0:0,0:0:0:0:
136,132,23772,2,0,P|136:160|112:192,1,70,8|2,0:0|0:0,0:0:0:0:
80,240,24252,2,0,P|72:256|96:300,1,70,8|0,0:0|0:0,0:0:0:0:
184,232,24972,6,0,B|224:208|276:268|324:224,2,140,10|0|10,0:0|0:0|0:0,0:0:0:0:
416,156,26232,1,8,0:0:0:0:
332,96,26413,2,0,B|284:60|240:132|220:120|220:120|212:92,1,140,0|10,0:0|0:0,0:0:0:0:
132,68,27192,1,8,0:0:0:0:
88,156,27372,2,0,B|16:232|160:224|88:280,1,140,0|2,0:0|0:0,0:0:0:0:
216,304,28152,2,0,L|244:296,2,17.5
260,100,29052,6,8,P|324:112|336:120,1,70
352,180,29773,1,8,0:0:0:0:
408,224,30192,1,8,0:0:0:0:
184,56,31212,1,0,0:0:0:0:
368,268,32171,1,0,0:0:0:0:
256,176,32652,5,8,0:0:0:0:
344,80,33132,1,14,0:0:0:0:
256,192,33372,12,0,35052,0:0:0:0:
