osu file format v14

[General]
AudioFilename: audio.mp3
AudioLeadIn: 0
PreviewTime: 78029
Countdown: 0
SampleSet: Normal
StackLeniency: 0.7
Mode: 1
LetterboxInBreaks: 0
WidescreenStoryboard: 1

[Editor]
Bookmarks: 18580,23177,32294,41437,50580,59723,68866,78009,87152,96294,105462,114605,123748
DistanceSpacing: 1
BeatDivisor: 4
GridSize: 32
TimelineZoom: 1.3

[Metadata]
Title:HOLY WORRY
TitleUnicode:HOLY WORRY
Artist:Merm4id
ArtistUnicode:Merm4id
Creator:DakeDekaane
Version:Kantan
Source:D4DJ Groovy Mix
Tags:Mermaid マーメード 瀬戸 リカ 瀬戸リカ Rika Seto 平嶋 夏海 平嶋夏海 Hirajima Natsumi 水島 茉莉花 水島茉莉花 Marika Mizushima 岡田 夢以 岡田夢以 Okada Mei 日高 さおり 日高さおり Saori Hidaka 葉月 ひまり 葉月ひまり Hazuki Himari 松山 ダリア 松山ダリア Daria Dalia Matsuyama 根岸 愛 根岸愛 Negishi Ai videogame video game version j-pop jpop pop Japanese Dig Delight Direct Drive グルミク gurumiku DJ EDM Electronic Dance Music Merry Christmas holiday V.I.P VIP LAGOON
BeatmapID:3594769
BeatmapSetID:1756641

[Difficulty]
HPDrainRate:8
CircleSize:5
OverallDifficulty:3
ApproachRate:5
SliderMultiplier:1.4
SliderTickRate:1

[Events]
//Background and Video events
0,0,"holyworry.jpg",0,75
//Break Periods
//Storyboard Layer 0 (Background)
//Storyboard Layer 1 (Fail)
//Storyboard Layer 2 (Pass)
//Storyboard Layer 3 (Foreground)
//Storyboard Layer 4 (Overlay)
//Storyboard Sound Samples

[TimingPoints]
321,571.428571428571,4,1,0,80,1,0
9463,-100,4,1,0,85,0,0
18606,-100,4,1,0,45,0,0
22035,285.714285714286,4,1,0,80,1,0
23177,285.714285714286,4,1,0,85,1,0
32319,-100,4,1,0,80,0,0
41462,-100,4,1,0,85,0,0
68891,-100,4,1,0,80,0,0
70034,-100,4,1,0,70,0,0
71177,-100,4,1,0,80,0,0
72319,-100,4,1,0,70,0,0
73462,-100,4,1,0,80,0,0
74604,-100,4,1,0,70,0,0
75748,-100,4,1,0,80,0,0
76890,-100,4,1,0,80,0,0
78034,-100,4,1,0,90,0,1
114605,-100,4,1,0,80,0,0

[HitObjects]
256,192,321,5,4,0:0:0:0:
256,192,2606,1,8,0:0:0:0:
256,192,4892,1,0,0:0:0:0:
256,192,7178,1,8,0:0:0:0:
256,192,9463,1,4,0:0:0:0:
256,192,10606,1,8,0:0:0:0:
256,192,11749,1,0,0:0:0:0:
256,192,12892,1,8,0:0:0:0:
256,192,14035,1,0,0:0:0:0:
256,192,15178,1,8,0:0:0:0:
256,192,16320,1,0,0:0:0:0:
256,192,17463,1,8,0:0:0:0:
256,192,18606,8,0,22035,0:0:0:0:
256,192,23177,5,4,0:0:0:0:
256,192,25462,1,4,0:0:0:0:
256,192,27748,1,4,0:0:0:0:
256,192,30034,1,4,0:0:0:0:
256,192,31177,1,4,0:0:0:0:
256,192,31748,1,8,0:0:0:0:
256,192,32034,1,8,0:0:0:0:
256,192,32319,5,0,0:0:0:0:
256,192,34034,1,0,0:0:0:0:
256,192,34319,1,8,0:0:0:0:
256,192,34605,1,0,0:0:0:0:
256,192,36319,1,8,0:0:0:0:
256,192,36605,1,8,0:0:0:0:
256,192,36891,1,0,0:0:0:0:
256,192,38319,1,0,0:0:0:0:
256,192,38605,1,0,0:0:0:0:
256,192,38891,1,8,0:0:0:0:
256,192,39177,1,0,0:0:0:0:
256,192,40034,1,0,0:0:0:0:
256,192,40319,1,8,0:0:0:0:
256,192,41462,5,0,0:0:0:0:
256,192,42605,1,0,0:0:0:0:
256,192,43177,1,0,0:0:0:0:
256,192,43462,1,8,0:0:0:0:
256,192,43748,1,0,0:0:0:0:
256,192,45462,1,0,0:0:0:0:
256,192,45748,1,8,0:0:0:0:
256,192,46034,1,0,0:0:0:0:
256,192,46891,1,8,0:0:0:0:
256,192,47177,1,0,0:0:0:0:
256,192,47748,1,8,0:0:0:0:
256,192,48034,1,8,0:0:0:0:
256,192,48319,1,0,0:0:0:0:
256,192,50605,5,0,0:0:0:0:
256,192,52034,1,8,0:0:0:0:
256,192,52319,1,0,0:0:0:0:
256,192,52605,1,8,0:0:0:0:
256,192,52891,1,0,0:0:0:0:
256,192,54605,1,0,0:0:0:0:
256,192,54891,1,8,0:0:0:0:
256,192,55177,1,0,0:0:0:0:
256,192,56034,1,8,0:0:0:0:
256,192,56319,1,0,0:0:0:0:
256,192,56891,1,0,0:0:0:0:
256,192,57177,1,8,0:0:0:0:
256,192,57462,1,0,0:0:0:0:
256,192,58319,1,8,0:0:0:0:
256,192,59748,5,0,0:0:0:0:
256,192,60319,1,0,0:0:0:0:
256,192,60891,1,0,0:0:0:0:
256,192,61462,1,0,0:0:0:0:
256,192,61748,1,8,0:0:0:0:
256,192,62034,1,0,0:0:0:0:
256,192,63748,1,8,0:0:0:0:
256,192,64034,1,8,0:0:0:0:
256,192,64319,1,0,0:0:0:0:
256,192,65177,1,8,0:0:0:0:
256,192,65462,1,0,0:0:0:0:
256,192,66034,1,0,0:0:0:0:
256,192,66319,1,8,0:0:0:0:
256,192,66605,1,0,0:0:0:0:
256,192,67462,1,0,0:0:0:0:
256,192,67748,1,8,0:0:0:0:
256,192,68319,1,8,0:0:0:0:
256,192,68605,1,8,0:0:0:0:
256,192,68891,5,4,0:0:0:0:
256,192,70034,8,0,70605,0:0:0:0:
256,192,71177,8,0,71748,0:0:0:0:
256,192,72319,8,0,72891,0:0:0:0:
256,192,73462,5,4,0:0:0:0:
256,192,74605,8,0,75177,0:0:0:0:
256,192,75748,8,0,76319,0:0:0:0:
256,192,76891,6,0,B|512:192|512:192|512:128,1,280
256,192,78034,5,0,0:0:0:0:
256,192,78177,1,0,0:0:0:0:
256,192,78319,1,0,0:0:0:0:
256,192,79177,1,0,0:0:0:0:
256,192,80319,1,8,0:0:0:0:
256,192,80462,1,8,0:0:0:0:
256,192,80605,1,8,0:0:0:0:
256,192,81462,1,8,0:0:0:0:
256,192,82034,1,8,0:0:0:0:
256,192,82605,1,0,0:0:0:0:
256,192,82748,1,0,0:0:0:0:
256,192,82891,1,0,0:0:0:0:
256,192,83748,1,0,0:0:0:0:
256,192,84891,1,8,0:0:0:0:
256,192,85034,1,8,0:0:0:0:
256,192,85177,1,8,0:0:0:0:
256,192,86034,1,8,0:0:0:0:
256,192,86319,1,8,0:0:0:0:
256,192,86605,1,8,0:0:0:0:
256,192,87177,5,0,0:0:0:0:
256,192,87748,1,0,0:0:0:0:
256,192,88034,1,8,0:0:0:0:
256,192,88319,1,0,0:0:0:0:
256,192,88891,1,8,0:0:0:0:
256,192,89462,8,0,90605,0:0:0:0:
256,192,91748,5,0,0:0:0:0:
256,192,91891,1,0,0:0:0:0:
256,192,92034,1,0,0:0:0:0:
256,192,92891,1,8,0:0:0:0:
256,192,94034,1,0,0:0:0:0:
256,192,94177,1,0,0:0:0:0:
256,192,94319,1,0,0:0:0:0:
256,192,95177,2,0,B|512:192|512:192|512:160,1,280
256,192,96319,5,0,0:0:0:0:
256,192,96462,1,0,0:0:0:0:
256,192,96605,1,0,0:0:0:0:
256,192,97462,1,0,0:0:0:0:
256,192,98605,1,8,0:0:0:0:
256,192,98748,1,8,0:0:0:0:
256,192,98891,1,8,0:0:0:0:
256,192,99748,1,8,0:0:0:0:
256,192,100319,1,8,0:0:0:0:
256,192,100891,1,0,0:0:0:0:
256,192,101034,1,0,0:0:0:0:
256,192,101177,1,0,0:0:0:0:
256,192,102034,1,0,0:0:0:0:
256,192,103177,1,8,0:0:0:0:
256,192,103319,1,8,0:0:0:0:
256,192,103462,1,8,0:0:0:0:
256,192,104319,1,8,0:0:0:0:
256,192,104605,1,8,0:0:0:0:
256,192,104891,1,8,0:0:0:0:
256,192,105462,5,0,0:0:0:0:
256,192,106034,1,0,0:0:0:0:
256,192,106319,1,8,0:0:0:0:
256,192,106605,1,0,0:0:0:0:
256,192,107177,1,8,0:0:0:0:
256,192,107748,8,0,108891,0:0:0:0:
256,192,110034,5,0,0:0:0:0:
256,192,110177,1,0,0:0:0:0:
256,192,110319,1,0,0:0:0:0:
256,192,111177,1,8,0:0:0:0:
256,192,112319,1,0,0:0:0:0:
256,192,112462,1,0,0:0:0:0:
256,192,112605,1,0,0:0:0:0:
256,192,113462,2,0,B|512:192|512:192|512:160,1,280
256,192,114605,5,4,0:0:0:0:
256,192,116891,1,4,0:0:0:0:
256,192,119177,1,4,0:0:0:0:
256,192,121462,1,4,0:0:0:0:
256,192,122605,1,4,0:0:0:0:
256,192,123177,1,8,0:0:0:0:
256,192,123462,1,8,0:0:0:0:
256,192,123748,5,0,0:0:0:0:
