osu file format v14

[General]
AudioFilename: audio.mp3
AudioLeadIn: 0
PreviewTime: 78029
Countdown: 0
SampleSet: Normal
StackLeniency: 0.7
Mode: 1
LetterboxInBreaks: 0
WidescreenStoryboard: 1

[Editor]
Bookmarks: 18580,32294,41437,50580,59723,68866,78009,87152,96294,105462,114605,123748
DistanceSpacing: 1.1
BeatDivisor: 8
GridSize: 32
TimelineZoom: 1.3

[Metadata]
Title:HOLY WORRY
TitleUnicode:HOLY WORRY
Artist:Merm4id
ArtistUnicode:Merm4id
Creator:DakeDekaane
Version:Inner Oni
Source:D4DJ Groovy Mix
Tags:Mermaid マーメード 瀬戸 リカ 瀬戸リカ Rika Seto 平嶋 夏海 平嶋夏海 Hirajima Natsumi 水島 茉莉花 水島茉莉花 Marika Mizushima 岡田 夢以 岡田夢以 Okada Mei 日高 さおり 日高さおり Saori Hidaka 葉月 ひまり 葉月ひまり Hazuki Himari 松山 ダリア 松山ダリア Daria Dalia Matsuyama 根岸 愛 根岸愛 Negishi Ai videogame video game version j-pop jpop pop Japanese Dig Delight Direct Drive グルミク gurumiku DJ EDM Electronic Dance Music Merry Christmas holiday V.I.P VIP LAGOON
BeatmapID:3615335
BeatmapSetID:1756641

[Difficulty]
HPDrainRate:6
CircleSize:5
OverallDifficulty:6.5
ApproachRate:5
SliderMultiplier:1.4
SliderTickRate:1

[Events]
//Background and Video events
0,0,"holyworry.jpg",0,75
//Break Periods
//Storyboard Layer 0 (Background)
//Storyboard Layer 1 (Fail)
//Storyboard Layer 2 (Pass)
//Storyboard Layer 3 (Foreground)
//Storyboard Layer 4 (Overlay)
//Storyboard Sound Samples

[TimingPoints]
321,571.428571428571,4,1,0,80,1,0
9463,-100,4,1,0,85,0,0
18606,-100,4,1,0,45,0,0
22035,285.714285714286,4,1,0,80,1,0
23177,285.714285714286,4,1,0,85,1,0
32319,-100,4,1,0,80,0,0
41462,-100,4,1,0,85,0,0
68891,-100,4,1,0,80,0,0
70034,-100,4,1,0,70,0,0
71177,-66.6666666666667,4,1,0,80,0,0
72319,-100,4,1,0,70,0,0
73462,-66.6666666666667,4,1,0,80,0,0
74604,-100,4,1,0,70,0,0
75748,-66.6666666666667,4,1,0,80,0,0
76890,-100,4,1,0,80,0,0
76962,-96.6775705850363,4,1,0,80,0,0
77034,-93.4655265126116,4,1,0,80,0,0
77105,-90.3602003365158,4,1,0,80,0,0
77177,-87.3580464395427,4,1,0,80,0,0
77248,-84.4556370572441,4,1,0,80,0,0
77319,-81.6496581188785,4,1,0,80,0,0
77391,-78.9369058535035,4,1,0,80,0,0
77462,-76.3142828429717,4,1,0,80,0,0
77534,-73.7787946692652,4,1,0,80,0,0
77605,-71.327546250853,4,1,0,80,0,0
77677,-68.9577389035451,4,1,0,80,0,0
77748,-50,4,1,0,80,0,0
78034,-90.9090909090909,4,1,0,90,0,1
96319,-83.3333333333333,4,1,0,90,0,1
114605,-83.3333333333333,4,1,0,80,0,0
114677,-100,4,1,0,80,0,0

[HitObjects]
256,192,321,5,4,0:0:0:0:
256,192,606,1,8,0:0:0:0:
256,192,749,1,8,0:0:0:0:
256,192,892,1,0,0:0:0:0:
256,192,1320,1,0,0:0:0:0:
256,192,1463,1,8,0:0:0:0:
256,192,1892,1,8,0:0:0:0:
256,192,2035,1,0,0:0:0:0:
256,192,2320,1,8,0:0:0:0:
256,192,2463,1,0,0:0:0:0:
256,192,2606,1,0,0:0:0:0:
256,192,2892,1,8,0:0:0:0:
256,192,3035,1,8,0:0:0:0:
256,192,3178,1,0,0:0:0:0:
256,192,3606,1,0,0:0:0:0:
256,192,3749,1,8,0:0:0:0:
256,192,4178,1,8,0:0:0:0:
256,192,4320,1,0,0:0:0:0:
256,192,4606,1,8,0:0:0:0:
256,192,4892,1,4,0:0:0:0:
256,192,5178,1,8,0:0:0:0:
256,192,5320,1,8,0:0:0:0:
256,192,5463,1,0,0:0:0:0:
256,192,5749,1,0,0:0:0:0:
256,192,5892,1,8,0:0:0:0:
256,192,6035,1,8,0:0:0:0:
256,192,6463,1,8,0:0:0:0:
256,192,6606,1,0,0:0:0:0:
256,192,6892,1,8,0:0:0:0:
256,192,7035,1,8,0:0:0:0:
256,192,7178,1,0,0:0:0:0:
256,192,7463,1,8,0:0:0:0:
256,192,7606,1,0,0:0:0:0:
256,192,7749,1,8,0:0:0:0:
256,192,8035,1,0,0:0:0:0:
256,192,8178,1,8,0:0:0:0:
256,192,8320,1,8,0:0:0:0:
256,192,8749,1,8,0:0:0:0:
256,192,8892,1,0,0:0:0:0:
256,192,9178,1,8,0:0:0:0:
256,192,9463,1,4,0:0:0:0:
256,192,9749,1,0,0:0:0:0:
256,192,9892,1,0,0:0:0:0:
256,192,10035,1,8,0:0:0:0:
256,192,10463,1,0,0:0:0:0:
256,192,10606,1,8,0:0:0:0:
256,192,11035,1,8,0:0:0:0:
256,192,11178,1,0,0:0:0:0:
256,192,11463,1,8,0:0:0:0:
256,192,11606,1,0,0:0:0:0:
256,192,11749,1,0,0:0:0:0:
256,192,11892,1,8,0:0:0:0:
256,192,12035,1,0,0:0:0:0:
256,192,12178,1,0,0:0:0:0:
256,192,12320,1,8,0:0:0:0:
256,192,12606,1,0,0:0:0:0:
256,192,12749,1,8,0:0:0:0:
256,192,12892,1,8,0:0:0:0:
256,192,13320,1,8,0:0:0:0:
256,192,13463,1,0,0:0:0:0:
256,192,13749,1,8,0:0:0:0:
256,192,14035,1,4,0:0:0:0:
256,192,14320,1,0,0:0:0:0:
256,192,14463,1,0,0:0:0:0:
256,192,14606,1,8,0:0:0:0:
256,192,14892,1,0,0:0:0:0:
256,192,15035,1,8,0:0:0:0:
256,192,15178,1,8,0:0:0:0:
256,192,15606,1,8,0:0:0:0:
256,192,15749,1,0,0:0:0:0:
256,192,16035,1,8,0:0:0:0:
256,192,16178,1,8,0:0:0:0:
256,192,16320,1,0,0:0:0:0:
256,192,16463,1,8,0:0:0:0:
256,192,16606,1,8,0:0:0:0:
256,192,16749,1,0,0:0:0:0:
256,192,16892,1,8,0:0:0:0:
256,192,17178,1,0,0:0:0:0:
256,192,17320,1,8,0:0:0:0:
256,192,17463,1,8,0:0:0:0:
256,192,17892,1,8,0:0:0:0:
256,192,18035,1,0,0:0:0:0:
240,189,18320,1,8,0:0:0:0:
256,192,18606,8,0,21749,0:0:0:0:
256,192,22035,5,8,0:0:0:0:
256,192,22249,1,0,0:0:0:0:
256,192,22320,1,8,0:0:0:0:
256,192,22535,1,0,0:0:0:0:
256,192,22606,1,8,0:0:0:0:
256,192,22749,1,8,0:0:0:0:
256,192,22892,1,0,0:0:0:0:
256,192,22963,1,0,0:0:0:0:
256,192,23035,1,8,0:0:0:0:
256,192,23177,1,4,0:0:0:0:
256,192,23462,1,8,0:0:0:0:
256,192,23605,1,8,0:0:0:0:
256,192,23748,1,0,0:0:0:0:
256,192,23891,1,0,0:0:0:0:
256,192,24034,1,8,0:0:0:0:
256,192,24319,1,0,0:0:0:0:
256,192,24462,1,0,0:0:0:0:
256,192,24534,1,0,0:0:0:0:
256,192,24605,1,8,0:0:0:0:
256,192,24748,1,8,0:0:0:0:
256,192,24891,1,0,0:0:0:0:
256,192,25034,1,0,0:0:0:0:
256,192,25177,1,8,0:0:0:0:
256,192,25319,1,8,0:0:0:0:
256,192,25462,1,4,0:0:0:0:
256,192,25748,1,8,0:0:0:0:
256,192,25891,1,8,0:0:0:0:
256,192,26034,1,0,0:0:0:0:
256,192,26177,1,8,0:0:0:0:
256,192,26319,1,0,0:0:0:0:
256,192,26605,1,0,0:0:0:0:
256,192,26748,1,0,0:0:0:0:
256,192,26819,1,0,0:0:0:0:
256,192,26891,1,8,0:0:0:0:
256,192,27034,1,8,0:0:0:0:
256,192,27177,1,0,0:0:0:0:
256,192,27319,1,8,0:0:0:0:
256,192,27462,1,0,0:0:0:0:
256,192,27605,1,0,0:0:0:0:
256,192,27748,1,4,0:0:0:0:
256,192,28034,1,8,0:0:0:0:
256,192,28177,1,8,0:0:0:0:
256,192,28319,1,0,0:0:0:0:
256,192,28462,1,0,0:0:0:0:
256,192,28605,1,8,0:0:0:0:
256,192,28891,1,0,0:0:0:0:
256,192,29034,1,0,0:0:0:0:
256,192,29105,1,0,0:0:0:0:
256,192,29177,1,8,0:0:0:0:
256,192,29319,1,8,0:0:0:0:
256,192,29462,1,0,0:0:0:0:
256,192,29605,1,0,0:0:0:0:
256,192,29748,1,8,0:0:0:0:
256,192,29891,1,8,0:0:0:0:
256,192,30034,1,4,0:0:0:0:
256,192,30319,1,8,0:0:0:0:
256,192,30462,1,0,0:0:0:0:
256,192,30605,1,8,0:0:0:0:
256,192,30677,1,8,0:0:0:0:
256,192,30748,1,0,0:0:0:0:
256,192,30891,1,8,0:0:0:0:
256,192,31034,1,8,0:0:0:0:
256,192,31177,1,0,0:0:0:0:
256,192,31319,1,0,0:0:0:0:
256,192,31391,1,0,0:0:0:0:
256,192,31462,1,8,0:0:0:0:
256,192,31605,1,8,0:0:0:0:
256,192,31748,1,0,0:0:0:0:
256,192,31891,1,0,0:0:0:0:
256,192,32034,1,8,0:0:0:0:
256,192,32177,1,0,0:0:0:0:
256,192,32248,1,0,0:0:0:0:
256,192,32319,5,0,0:0:0:0:
256,192,32462,1,8,0:0:0:0:
256,192,32605,1,0,0:0:0:0:
256,192,32748,1,8,0:0:0:0:
256,192,32891,1,0,0:0:0:0:
256,192,33034,1,8,0:0:0:0:
256,192,33177,1,0,0:0:0:0:
256,192,33319,1,8,0:0:0:0:
256,192,33462,1,0,0:0:0:0:
256,192,33605,1,0,0:0:0:0:
256,192,33748,1,8,0:0:0:0:
256,192,33891,1,8,0:0:0:0:
256,192,34034,1,0,0:0:0:0:
256,192,34177,1,0,0:0:0:0:
256,192,34319,1,8,0:0:0:0:
256,192,34462,1,8,0:0:0:0:
256,192,34605,1,0,0:0:0:0:
256,192,34748,1,8,0:0:0:0:
256,192,34891,1,0,0:0:0:0:
256,192,35034,1,8,0:0:0:0:
256,192,35177,1,0,0:0:0:0:
256,192,35319,1,8,0:0:0:0:
256,192,35462,1,0,0:0:0:0:
256,192,35605,1,8,0:0:0:0:
256,192,35748,1,0,0:0:0:0:
256,192,35891,1,8,0:0:0:0:
256,192,36034,1,0,0:0:0:0:
256,192,36177,1,8,0:0:0:0:
256,192,36605,1,8,0:0:0:0:
256,192,36748,1,8,0:0:0:0:
256,192,36891,1,0,0:0:0:0:
256,192,37034,1,8,0:0:0:0:
256,192,37177,1,0,0:0:0:0:
256,192,37319,1,8,0:0:0:0:
256,192,37462,1,0,0:0:0:0:
256,192,37605,1,8,0:0:0:0:
256,192,37748,1,0,0:0:0:0:
256,192,37891,1,8,0:0:0:0:
256,192,38034,1,0,0:0:0:0:
256,192,38177,1,0,0:0:0:0:
256,192,38319,1,8,0:0:0:0:
256,192,38462,1,8,0:0:0:0:
256,192,38605,1,0,0:0:0:0:
256,192,38748,1,0,0:0:0:0:
256,192,38891,1,8,0:0:0:0:
256,192,39034,1,8,0:0:0:0:
256,192,39177,1,0,0:0:0:0:
256,192,39319,1,8,0:0:0:0:
256,192,39391,1,8,0:0:0:0:
256,192,39462,1,0,0:0:0:0:
256,192,39534,1,8,0:0:0:0:
256,192,39605,1,8,0:0:0:0:
256,192,39748,1,0,0:0:0:0:
256,192,39891,1,8,0:0:0:0:
256,192,40034,1,8,0:0:0:0:
256,192,41177,1,12,0:0:0:0:
256,192,41462,5,0,0:0:0:0:
256,192,41605,1,0,0:0:0:0:
256,192,41748,1,8,0:0:0:0:
256,192,41819,1,8,0:0:0:0:
256,192,41891,1,0,0:0:0:0:
256,192,42034,1,0,0:0:0:0:
256,192,42177,1,0,0:0:0:0:
256,192,42319,1,8,0:0:0:0:
256,192,42391,1,8,0:0:0:0:
256,192,42462,1,0,0:0:0:0:
256,192,42605,1,0,0:0:0:0:
256,192,42748,1,0,0:0:0:0:
256,192,42891,1,8,0:0:0:0:
256,192,42962,1,8,0:0:0:0:
256,192,43034,1,0,0:0:0:0:
256,192,43177,1,8,0:0:0:0:
256,192,43319,1,8,0:0:0:0:
256,192,43462,1,0,0:0:0:0:
256,192,43534,1,0,0:0:0:0:
256,192,43605,1,8,0:0:0:0:
256,192,43748,1,0,0:0:0:0:
256,192,43891,1,0,0:0:0:0:
256,192,44034,1,8,0:0:0:0:
256,192,44105,1,8,0:0:0:0:
256,192,44177,1,0,0:0:0:0:
256,192,44319,1,0,0:0:0:0:
256,192,44462,1,0,0:0:0:0:
256,192,44605,1,8,0:0:0:0:
256,192,44677,1,8,0:0:0:0:
256,192,44748,1,0,0:0:0:0:
256,192,44891,1,0,0:0:0:0:
256,192,45034,1,0,0:0:0:0:
256,192,45177,1,8,0:0:0:0:
256,192,45248,1,8,0:0:0:0:
256,192,45319,1,0,0:0:0:0:
256,192,45462,1,8,0:0:0:0:
256,192,45605,1,8,0:0:0:0:
256,192,45748,1,0,0:0:0:0:
256,192,45819,1,0,0:0:0:0:
256,192,45891,1,8,0:0:0:0:
256,192,46034,1,0,0:0:0:0:
256,192,46177,1,0,0:0:0:0:
256,192,46319,1,8,0:0:0:0:
256,192,46391,1,8,0:0:0:0:
256,192,46462,1,0,0:0:0:0:
256,192,46605,1,0,0:0:0:0:
256,192,46748,1,0,0:0:0:0:
256,192,46891,1,8,0:0:0:0:
256,192,46962,1,8,0:0:0:0:
256,192,47034,1,0,0:0:0:0:
256,192,47177,1,0,0:0:0:0:
256,192,47319,1,0,0:0:0:0:
256,192,47462,1,8,0:0:0:0:
256,192,47534,1,8,0:0:0:0:
256,192,47605,1,0,0:0:0:0:
256,192,47748,1,8,0:0:0:0:
256,192,47891,1,8,0:0:0:0:
256,192,48034,1,0,0:0:0:0:
256,192,48105,1,0,0:0:0:0:
256,192,48177,1,0,0:0:0:0:
256,192,48319,1,8,0:0:0:0:
256,192,48462,1,0,0:0:0:0:
256,192,48605,1,8,0:0:0:0:
256,192,48677,1,8,0:0:0:0:
256,192,48748,1,0,0:0:0:0:
256,192,48891,1,0,0:0:0:0:
256,192,49034,1,0,0:0:0:0:
256,192,49177,1,8,0:0:0:0:
256,192,49248,1,8,0:0:0:0:
256,192,49319,1,0,0:0:0:0:
256,192,49462,1,0,0:0:0:0:
256,192,49748,1,8,0:0:0:0:
256,192,49891,1,8,0:0:0:0:
256,192,50177,1,0,0:0:0:0:
256,192,50319,1,8,0:0:0:0:
256,192,50462,1,8,0:0:0:0:
256,192,50605,5,0,0:0:0:0:
256,192,50748,1,0,0:0:0:0:
256,192,50891,1,8,0:0:0:0:
256,192,51034,1,8,0:0:0:0:
256,192,51105,1,8,0:0:0:0:
256,192,51177,1,0,0:0:0:0:
256,192,51319,1,0,0:0:0:0:
256,192,51462,1,8,0:0:0:0:
256,192,51534,1,8,0:0:0:0:
256,192,51605,1,0,0:0:0:0:
256,192,51748,1,0,0:0:0:0:
256,192,51891,1,0,0:0:0:0:
256,192,52034,1,8,0:0:0:0:
256,192,52105,1,8,0:0:0:0:
256,192,52177,1,8,0:0:0:0:
256,192,52319,1,0,0:0:0:0:
256,192,52462,1,8,0:0:0:0:
256,192,52605,1,0,0:0:0:0:
256,192,52677,1,0,0:0:0:0:
256,192,52748,1,8,0:0:0:0:
256,192,52891,1,0,0:0:0:0:
256,192,53034,1,0,0:0:0:0:
256,192,53177,1,8,0:0:0:0:
256,192,53319,1,8,0:0:0:0:
256,192,53391,1,8,0:0:0:0:
256,192,53462,1,0,0:0:0:0:
256,192,53605,1,0,0:0:0:0:
256,192,53748,1,8,0:0:0:0:
256,192,53819,1,8,0:0:0:0:
256,192,53891,1,0,0:0:0:0:
256,192,54034,1,0,0:0:0:0:
256,192,54177,1,0,0:0:0:0:
256,192,54319,1,8,0:0:0:0:
256,192,54391,1,8,0:0:0:0:
256,192,54462,1,8,0:0:0:0:
256,192,54605,1,0,0:0:0:0:
256,192,54748,1,8,0:0:0:0:
256,192,54891,1,0,0:0:0:0:
256,192,54962,1,0,0:0:0:0:
256,192,55034,1,8,0:0:0:0:
256,192,55177,1,0,0:0:0:0:
256,192,55319,1,0,0:0:0:0:
256,192,55462,1,8,0:0:0:0:
256,192,55605,1,8,0:0:0:0:
256,192,55677,1,8,0:0:0:0:
256,192,55748,1,0,0:0:0:0:
256,192,55891,1,0,0:0:0:0:
256,192,56034,1,8,0:0:0:0:
256,192,56105,1,8,0:0:0:0:
256,192,56177,1,0,0:0:0:0:
256,192,56319,1,0,0:0:0:0:
256,192,56462,1,0,0:0:0:0:
256,192,56605,1,8,0:0:0:0:
256,192,56677,1,8,0:0:0:0:
256,192,56748,1,8,0:0:0:0:
256,192,56891,1,0,0:0:0:0:
256,192,57034,1,8,0:0:0:0:
256,192,57177,1,0,0:0:0:0:
256,192,57248,1,0,0:0:0:0:
256,192,57319,1,8,0:0:0:0:
256,192,57462,1,0,0:0:0:0:
256,192,57605,1,0,0:0:0:0:
256,192,57748,1,8,0:0:0:0:
256,192,57891,1,8,0:0:0:0:
256,192,57962,1,8,0:0:0:0:
256,192,58034,1,0,0:0:0:0:
256,192,58177,1,0,0:0:0:0:
256,192,58319,1,8,0:0:0:0:
256,192,58391,1,8,0:0:0:0:
256,192,58462,1,0,0:0:0:0:
256,192,58605,1,0,0:0:0:0:
256,192,58891,1,0,0:0:0:0:
256,192,59034,1,8,0:0:0:0:
256,192,59319,1,0,0:0:0:0:
256,192,59462,1,8,0:0:0:0:
256,192,59605,1,8,0:0:0:0:
256,192,59748,5,0,0:0:0:0:
256,192,59891,1,8,0:0:0:0:
256,192,60034,1,0,0:0:0:0:
256,192,60105,1,0,0:0:0:0:
256,192,60177,1,8,0:0:0:0:
256,192,60319,1,0,0:0:0:0:
256,192,60462,1,8,0:0:0:0:
256,192,60534,1,8,0:0:0:0:
256,192,60605,1,0,0:0:0:0:
256,192,60748,1,8,0:0:0:0:
256,192,60891,1,0,0:0:0:0:
256,192,61034,1,8,0:0:0:0:
256,192,61177,1,0,0:0:0:0:
256,192,61248,1,0,0:0:0:0:
256,192,61319,1,8,0:0:0:0:
256,192,61462,1,8,0:0:0:0:
256,192,61605,1,0,0:0:0:0:
256,192,61748,1,8,0:0:0:0:
256,192,61819,1,8,0:0:0:0:
256,192,61891,1,8,0:0:0:0:
256,192,61962,1,8,0:0:0:0:
256,192,62034,1,0,0:0:0:0:
256,192,62177,1,8,0:0:0:0:
256,192,62319,1,0,0:0:0:0:
256,192,62391,1,0,0:0:0:0:
256,192,62462,1,8,0:0:0:0:
256,192,62605,1,0,0:0:0:0:
256,192,62748,1,8,0:0:0:0:
256,192,62819,1,8,0:0:0:0:
256,192,62891,1,0,0:0:0:0:
256,192,63034,1,8,0:0:0:0:
256,192,63177,1,0,0:0:0:0:
256,192,63319,1,8,0:0:0:0:
256,192,63462,1,0,0:0:0:0:
256,192,63534,1,0,0:0:0:0:
256,192,63605,1,8,0:0:0:0:
256,192,63748,1,8,0:0:0:0:
256,192,63891,1,0,0:0:0:0:
256,192,64034,1,8,0:0:0:0:
256,192,64105,1,8,0:0:0:0:
256,192,64177,1,8,0:0:0:0:
256,192,64248,1,8,0:0:0:0:
256,192,64319,1,0,0:0:0:0:
256,192,64462,1,8,0:0:0:0:
256,192,64605,1,0,0:0:0:0:
256,192,64677,1,0,0:0:0:0:
256,192,64748,1,8,0:0:0:0:
256,192,64891,1,0,0:0:0:0:
256,192,65034,1,8,0:0:0:0:
256,192,65105,1,8,0:0:0:0:
256,192,65177,1,0,0:0:0:0:
256,192,65319,1,8,0:0:0:0:
256,192,65462,1,0,0:0:0:0:
256,192,65605,1,8,0:0:0:0:
256,192,65748,1,0,0:0:0:0:
256,192,65819,1,0,0:0:0:0:
256,192,65891,1,8,0:0:0:0:
256,192,66034,1,8,0:0:0:0:
256,192,66177,1,0,0:0:0:0:
256,192,66319,1,8,0:0:0:0:
256,192,66391,1,8,0:0:0:0:
256,192,66462,1,8,0:0:0:0:
256,192,66534,1,8,0:0:0:0:
256,192,66605,1,0,0:0:0:0:
256,192,66748,1,8,0:0:0:0:
256,192,66891,1,0,0:0:0:0:
256,192,66962,1,0,0:0:0:0:
256,192,67034,1,8,0:0:0:0:
256,192,67177,1,0,0:0:0:0:
256,192,67319,1,8,0:0:0:0:
256,192,67391,1,8,0:0:0:0:
256,192,67462,1,0,0:0:0:0:
256,192,67605,1,8,0:0:0:0:
256,192,67748,1,0,0:0:0:0:
256,192,67891,1,0,0:0:0:0:
256,192,68034,1,8,0:0:0:0:
256,192,68177,1,8,0:0:0:0:
256,192,68319,1,0,0:0:0:0:
256,192,68391,1,0,0:0:0:0:
256,192,68462,1,0,0:0:0:0:
256,192,68534,1,0,0:0:0:0:
256,192,68605,1,8,0:0:0:0:
256,192,68677,1,8,0:0:0:0:
256,192,68748,1,8,0:0:0:0:
256,192,68819,1,8,0:0:0:0:
256,192,68891,5,0,0:0:0:0:
256,192,70034,8,0,70605,0:0:0:0:
256,192,71177,8,0,71748,0:0:0:0:
256,192,72319,8,0,72891,0:0:0:0:
256,192,73462,5,4,0:0:0:0:
256,192,74605,8,0,75177,0:0:0:0:
256,192,75748,8,0,76319,0:0:0:0:
256,192,76891,5,8,0:0:0:0:
256,192,76962,1,8,0:0:0:0:
256,192,77034,1,0,0:0:0:0:
256,192,77105,1,0,0:0:0:0:
256,192,77177,1,8,0:0:0:0:
256,192,77248,1,8,0:0:0:0:
256,192,77319,1,0,0:0:0:0:
256,192,77391,1,0,0:0:0:0:
256,192,77462,1,8,0:0:0:0:
256,192,77534,1,8,0:0:0:0:
256,192,77605,1,0,0:0:0:0:
256,192,77677,1,0,0:0:0:0:
256,192,77748,1,12,0:0:0:0:
256,192,78034,5,4,0:0:0:0:
256,192,78177,1,8,0:0:0:0:
256,192,78319,1,4,0:0:0:0:
256,192,78605,1,4,0:0:0:0:
256,192,78891,1,4,0:0:0:0:
256,192,79034,1,8,0:0:0:0:
256,192,79177,1,12,0:0:0:0:
256,192,79462,1,12,0:0:0:0:
256,192,79748,1,12,0:0:0:0:
256,192,79891,1,0,0:0:0:0:
256,192,80034,1,12,0:0:0:0:
256,192,80177,1,0,0:0:0:0:
256,192,80319,1,4,0:0:0:0:
256,192,80462,1,8,0:0:0:0:
256,192,80605,1,4,0:0:0:0:
256,192,80891,1,4,0:0:0:0:
256,192,81177,1,4,0:0:0:0:
256,192,81319,1,8,0:0:0:0:
256,192,81462,1,12,0:0:0:0:
256,192,81748,1,12,0:0:0:0:
256,192,81891,1,0,0:0:0:0:
256,192,82034,1,12,0:0:0:0:
256,192,82319,1,12,0:0:0:0:
256,192,82462,1,8,0:0:0:0:
256,192,82510,1,8,0:0:0:0:
256,192,82557,1,8,0:0:0:0:
256,192,82605,1,4,0:0:0:0:
256,192,82748,1,8,0:0:0:0:
256,192,82891,1,4,0:0:0:0:
256,192,83177,1,4,0:0:0:0:
256,192,83462,1,4,0:0:0:0:
256,192,83605,1,8,0:0:0:0:
256,192,83748,1,12,0:0:0:0:
256,192,84034,1,12,0:0:0:0:
256,192,84319,1,12,0:0:0:0:
256,192,84462,1,0,0:0:0:0:
256,192,84605,1,12,0:0:0:0:
256,192,84748,1,8,0:0:0:0:
256,192,84891,1,4,0:0:0:0:
256,192,85034,1,8,0:0:0:0:
256,192,85177,1,4,0:0:0:0:
256,192,85462,1,4,0:0:0:0:
256,192,85748,1,4,0:0:0:0:
256,192,85891,1,0,0:0:0:0:
256,192,86034,1,12,0:0:0:0:
256,192,86319,1,12,0:0:0:0:
256,192,86605,1,12,0:0:0:0:
256,192,86748,1,8,0:0:0:0:
256,192,86891,1,12,0:0:0:0:
256,192,87034,1,8,0:0:0:0:
256,192,87081,1,8,0:0:0:0:
256,192,87129,1,8,0:0:0:0:
256,192,87177,5,4,0:0:0:0:
256,192,87462,1,4,0:0:0:0:
256,192,87748,1,4,0:0:0:0:
256,192,88034,1,4,0:0:0:0:
256,192,88177,1,8,0:0:0:0:
256,192,88319,1,12,0:0:0:0:
256,192,88605,1,12,0:0:0:0:
256,192,88891,1,12,0:0:0:0:
256,192,89177,1,12,0:0:0:0:
256,192,89319,1,0,0:0:0:0:
256,192,89462,1,4,0:0:0:0:
256,192,89748,1,4,0:0:0:0:
256,192,90034,1,4,0:0:0:0:
256,192,90319,1,4,0:0:0:0:
256,192,90462,1,8,0:0:0:0:
256,192,90605,1,12,0:0:0:0:
256,192,90891,1,12,0:0:0:0:
256,192,91177,1,12,0:0:0:0:
256,192,91462,1,12,0:0:0:0:
256,192,91605,1,8,0:0:0:0:
256,192,91653,1,8,0:0:0:0:
256,192,91700,1,8,0:0:0:0:
256,192,91748,1,4,0:0:0:0:
256,192,91891,1,8,0:0:0:0:
256,192,92034,1,4,0:0:0:0:
256,192,92319,1,4,0:0:0:0:
256,192,92605,1,4,0:0:0:0:
256,192,92748,1,8,0:0:0:0:
256,192,92891,1,12,0:0:0:0:
256,192,93177,1,12,0:0:0:0:
256,192,93462,1,12,0:0:0:0:
256,192,93605,1,0,0:0:0:0:
256,192,93748,1,12,0:0:0:0:
256,192,93891,1,8,0:0:0:0:
256,192,94034,1,4,0:0:0:0:
256,192,94177,1,8,0:0:0:0:
256,192,94319,1,4,0:0:0:0:
256,192,94462,1,8,0:0:0:0:
256,192,94605,1,4,0:0:0:0:
256,192,94891,1,4,0:0:0:0:
256,192,95034,1,0,0:0:0:0:
256,192,95177,1,8,0:0:0:0:
256,192,95248,1,8,0:0:0:0:
256,192,95319,1,8,0:0:0:0:
256,192,95391,1,8,0:0:0:0:
256,192,95462,1,0,0:0:0:0:
256,192,95534,1,0,0:0:0:0:
256,192,95605,1,0,0:0:0:0:
256,192,95677,1,0,0:0:0:0:
256,192,95748,1,8,0:0:0:0:
256,192,95819,1,0,0:0:0:0:
256,192,95891,1,8,0:0:0:0:
256,192,95962,1,0,0:0:0:0:
256,192,96034,1,8,0:0:0:0:
256,192,96105,1,8,0:0:0:0:
256,192,96177,1,8,0:0:0:0:
256,192,96248,1,8,0:0:0:0:
256,192,96319,5,4,0:0:0:0:
256,192,96462,1,8,0:0:0:0:
256,192,96605,1,4,0:0:0:0:
256,192,96891,1,4,0:0:0:0:
256,192,97177,1,4,0:0:0:0:
256,192,97319,1,8,0:0:0:0:
256,192,97462,1,12,0:0:0:0:
256,192,97748,1,12,0:0:0:0:
256,192,98034,1,12,0:0:0:0:
256,192,98177,1,0,0:0:0:0:
256,192,98319,1,12,0:0:0:0:
256,192,98462,1,0,0:0:0:0:
256,192,98605,1,4,0:0:0:0:
256,192,98748,1,8,0:0:0:0:
256,192,98891,1,4,0:0:0:0:
256,192,99177,1,4,0:0:0:0:
256,192,99462,1,4,0:0:0:0:
256,192,99605,1,8,0:0:0:0:
256,192,99748,1,12,0:0:0:0:
256,192,100034,1,12,0:0:0:0:
256,192,100177,1,0,0:0:0:0:
256,192,100319,1,12,0:0:0:0:
256,192,100605,1,12,0:0:0:0:
256,192,100748,1,8,0:0:0:0:
256,192,100796,1,8,0:0:0:0:
256,192,100843,1,8,0:0:0:0:
256,192,100891,1,4,0:0:0:0:
256,192,101034,1,8,0:0:0:0:
256,192,101177,1,4,0:0:0:0:
256,192,101462,1,4,0:0:0:0:
256,192,101748,1,4,0:0:0:0:
256,192,101891,1,8,0:0:0:0:
256,192,102034,1,12,0:0:0:0:
256,192,102319,1,12,0:0:0:0:
256,192,102605,1,12,0:0:0:0:
256,192,102748,1,0,0:0:0:0:
256,192,102891,1,12,0:0:0:0:
256,192,103034,1,8,0:0:0:0:
256,192,103177,1,4,0:0:0:0:
256,192,103319,1,8,0:0:0:0:
256,192,103462,1,4,0:0:0:0:
256,192,103748,1,4,0:0:0:0:
256,192,104034,1,4,0:0:0:0:
256,192,104177,1,8,0:0:0:0:
256,192,104319,1,12,0:0:0:0:
256,192,104605,1,12,0:0:0:0:
256,192,104891,1,12,0:0:0:0:
256,192,105034,1,8,0:0:0:0:
256,192,105177,1,12,0:0:0:0:
256,192,105319,1,8,0:0:0:0:
256,192,105367,1,8,0:0:0:0:
256,192,105415,1,8,0:0:0:0:
256,192,105462,5,4,0:0:0:0:
256,192,105748,1,4,0:0:0:0:
256,192,106034,1,4,0:0:0:0:
256,192,106319,1,4,0:0:0:0:
256,192,106462,1,8,0:0:0:0:
256,192,106605,1,12,0:0:0:0:
256,192,106891,1,12,0:0:0:0:
256,192,107177,1,12,0:0:0:0:
256,192,107462,1,12,0:0:0:0:
256,192,107605,1,0,0:0:0:0:
256,192,107748,1,4,0:0:0:0:
256,192,108034,1,4,0:0:0:0:
256,192,108319,1,4,0:0:0:0:
256,192,108605,1,4,0:0:0:0:
256,192,108748,1,8,0:0:0:0:
256,192,108891,1,12,0:0:0:0:
256,192,109034,1,0,0:0:0:0:
256,192,109177,1,12,0:0:0:0:
256,192,109319,1,0,0:0:0:0:
256,192,109462,1,12,0:0:0:0:
256,192,109605,1,0,0:0:0:0:
256,192,109748,1,12,0:0:0:0:
256,192,109891,1,8,0:0:0:0:
256,192,109938,1,8,0:0:0:0:
256,192,109986,1,8,0:0:0:0:
256,192,110034,1,4,0:0:0:0:
256,192,110177,1,8,0:0:0:0:
256,192,110319,1,4,0:0:0:0:
256,192,110462,1,8,0:0:0:0:
256,192,110605,1,4,0:0:0:0:
256,192,110891,1,4,0:0:0:0:
256,192,111034,1,8,0:0:0:0:
256,192,111177,1,12,0:0:0:0:
256,192,111319,1,0,0:0:0:0:
256,192,111462,1,12,0:0:0:0:
256,192,111748,1,12,0:0:0:0:
256,192,112034,1,12,0:0:0:0:
256,192,112177,1,8,0:0:0:0:
256,192,112319,1,4,0:0:0:0:
256,192,112462,1,8,0:0:0:0:
256,192,112605,1,4,0:0:0:0:
256,192,112891,1,4,0:0:0:0:
256,192,113177,1,4,0:0:0:0:
256,192,113319,1,0,0:0:0:0:
256,192,113462,1,8,0:0:0:0:
256,192,113534,1,8,0:0:0:0:
256,192,113605,1,8,0:0:0:0:
256,192,113677,1,8,0:0:0:0:
256,192,113748,1,0,0:0:0:0:
256,192,113819,1,0,0:0:0:0:
256,192,113891,1,0,0:0:0:0:
256,192,113962,1,0,0:0:0:0:
256,192,114034,1,8,0:0:0:0:
256,192,114105,1,0,0:0:0:0:
256,192,114177,1,8,0:0:0:0:
256,192,114248,1,0,0:0:0:0:
256,192,114319,1,8,0:0:0:0:
256,192,114391,1,8,0:0:0:0:
256,192,114462,1,8,0:0:0:0:
256,192,114534,1,8,0:0:0:0:
256,192,114605,5,0,0:0:0:0:
256,192,114891,1,8,0:0:0:0:
256,192,115319,1,8,0:0:0:0:
256,192,115462,1,8,0:0:0:0:
256,192,115605,1,0,0:0:0:0:
256,192,115891,1,0,0:0:0:0:
256,192,115962,1,0,0:0:0:0:
256,192,116034,1,8,0:0:0:0:
256,192,116319,1,8,0:0:0:0:
256,192,116462,1,8,0:0:0:0:
256,192,116605,1,0,0:0:0:0:
256,192,116891,1,4,0:0:0:0:
256,192,117177,1,8,0:0:0:0:
256,192,117605,1,0,0:0:0:0:
256,192,117748,1,0,0:0:0:0:
256,192,117891,1,8,0:0:0:0:
256,192,118034,1,0,0:0:0:0:
256,192,118129,1,0,0:0:0:0:
256,192,118224,1,0,0:0:0:0:
256,192,118319,1,8,0:0:0:0:
256,192,118415,1,8,0:0:0:0:
256,192,118510,1,8,0:0:0:0:
256,192,118605,1,0,0:0:0:0:
256,192,118700,1,0,0:0:0:0:
256,192,118796,1,0,0:0:0:0:
256,192,118891,1,8,0:0:0:0:
256,192,119177,1,4,0:0:0:0:
256,192,119462,1,8,0:0:0:0:
256,192,119891,1,8,0:0:0:0:
256,192,120034,1,8,0:0:0:0:
256,192,120177,1,0,0:0:0:0:
256,192,120462,1,0,0:0:0:0:
256,192,120534,1,0,0:0:0:0:
256,192,120605,1,8,0:0:0:0:
256,192,120891,1,8,0:0:0:0:
256,192,121034,1,8,0:0:0:0:
256,192,121177,1,0,0:0:0:0:
256,192,121462,1,4,0:0:0:0:
256,192,121748,1,8,0:0:0:0:
256,192,121891,1,0,0:0:0:0:
256,192,122034,1,8,0:0:0:0:
256,192,122105,1,8,0:0:0:0:
256,192,122177,1,0,0:0:0:0:
256,192,122319,1,8,0:0:0:0:
256,192,122462,1,8,0:0:0:0:
256,192,122605,1,4,0:0:0:0:
256,192,122748,1,0,0:0:0:0:
256,192,122819,1,0,0:0:0:0:
256,192,122891,1,8,0:0:0:0:
256,192,123034,1,8,0:0:0:0:
256,192,123177,1,0,0:0:0:0:
256,192,123319,1,0,0:0:0:0:
256,192,123462,1,8,0:0:0:0:
256,192,123605,1,0,0:0:0:0:
256,192,123677,1,0,0:0:0:0:
256,192,123748,5,0,0:0:0:0:
