osu file format v14

[General]
AudioFilename: audio.mp3
AudioLeadIn: 0
PreviewTime: 32086
Countdown: 0
SampleSet: Soft
StackLeniency: 0.7
Mode: 0
LetterboxInBreaks: 0
WidescreenStoryboard: 0

[Editor]
Bookmarks: 61256
DistanceSpacing: 0.3
BeatDivisor: 6
GridSize: 16
TimelineZoom: 2.2

[Metadata]
Title:"Ano Hero to" Bokura ni Tsuite -noitamina ver.-
TitleUnicode:”あのヒーローと” 僕らについて -noitamina ver.-
Artist:Merengue
ArtistUnicode:メレンゲ
Creator:Rizen
Version:Rebound
Source:ピンポン
Tags:Ping Pong The Animation ppta ed ending tv size CAMPFIRE クボケンジ
BeatmapID:1262252
BeatmapSetID:597018

[Difficulty]
HPDrainRate:6
CircleSize:4.2
OverallDifficulty:7
ApproachRate:8
SliderMultiplier:1.6
SliderTickRate:1

[Events]
//Background and Video events
0,0,"grainybridge.jpg",0,0
Video,247,"pongping.avi"
//Break Periods
//Storyboard Layer 0 (Background)
//Storyboard Layer 1 (Fail)
//Storyboard Layer 2 (Pass)
//Storyboard Layer 3 (Foreground)
//Storyboard Sound Samples

[TimingPoints]
224,448.765893792072,4,2,2,60,1,0
3290,-66.6666666666667,4,2,2,30,0,0
3814,448.765893792072,4,2,2,60,1,0
32535,-66.6666666666667,4,2,1,80,0,1
33432,-125,4,2,1,80,0,1
33881,-66.6666666666667,4,2,1,80,0,1
34778,-125,4,2,1,80,0,1
35227,-66.6666666666667,4,2,1,80,0,1
36125,-125,4,2,1,80,0,1
36574,-66.6666666666667,4,2,1,80,0,1
37471,-125,4,2,1,80,0,1
37920,-66.6666666666667,4,2,1,80,0,1
39715,-125,4,2,1,80,0,1
40164,-66.6666666666667,4,2,1,80,0,1
61256,-66.6666666666667,4,2,1,70,0,0
75616,-66.6666666666667,4,2,1,80,0,1
88181,-66.6666666666667,4,2,1,80,0,0

[Colours]
Combo1 : 255,223,128
Combo2 : 115,255,115
Combo3 : 38,190,234
Combo4 : 177,177,177

[HitObjects]
156,46,224,6,0,B|180:87|180:87|167:198,1,160,2|10,0:0|0:0,0:0:0:0:
131,367,1121,2,0,P|120:328|125:289,1,80,2|2,0:0|0:0,0:0:0:0:
168,199,1570,2,0,P|195:170|232:155,1,80,10|2,0:0|0:0,0:0:0:0:
423,187,2019,6,0,P|434:149|429:110,1,80,2|2,0:0|0:3,0:0:0:0:
319,60,2467,2,0,P|313:99|324:137,1,80,8|2,0:0|0:3,0:0:0:0:
333,147,2804,1,2,0:3:0:0:
339,155,2916,2,0,P|343:221|310:278,1,133.333333333333,2|0,0:0|0:0,0:0:0:0:
169,128,3814,6,0,B|185:166|171:208|171:208|157:245|170:284,2,160,2|8|2,0:0|0:0|0:0,0:0:0:0:
80,170,4936,1,0,0:0:0:0:
46,262,5160,2,0,L|51:341,1,80,10|0,0:0|0:0,0:0:0:0:
170,284,5609,6,0,B|276:269|276:269|250:283|237:303,2,160,2|8|2,0:0|0:0|0:0,0:0:0:0:
317,354,6731,1,0,0:0:0:0:
155,381,6955,1,10,0:0:0:0:
276,269,7179,1,0,0:0:0:0:
284,261,7292,1,0,0:0:0:0:
292,254,7404,6,0,P|297:214|290:175,1,80,2|0,0:0|0:0,0:0:0:0:
213,48,7853,1,8,0:0:0:0:
207,137,8077,1,0,0:0:0:0:
343,104,8301,2,0,L|423:99,1,80,2|0,0:0|0:0,0:0:0:0:
381,23,8750,2,0,L|301:28,1,80,10|0,0:0|0:0,0:0:0:0:
207,137,9199,5,2,0:0:0:0:
101,94,9423,2,0,L|61:91,2,40,2|2|8,0:3|0:3|0:0,0:0:0:0:
227,146,9872,2,0,L|266:143,2,40,2|2|2,0:3|0:3|0:3,0:0:0:0:
76,177,10321,2,0,L|36:174,2,40,2|2|8,0:3|0:3|0:0,0:0:0:0:
217,230,10769,1,0,0:0:0:0:
135,360,10994,6,0,B|121:322|139:284|139:284|156:248|142:204,2,160,2|8|2,0:0|0:0|0:0,0:0:0:0:
229,327,12116,1,0,0:0:0:0:
322,360,12340,2,0,P|361:364|399:353,1,80,10|0,0:0|0:0,0:0:0:0:
341,164,12789,6,0,B|371:231|353:282|353:282|372:247,2,160,2|8|2,0:0|0:0|0:0,0:0:0:0:
252,235,13911,1,0,0:0:0:0:
441,209,14135,2,0,P|452:246|444:285,1,80,10|0,0:0|0:0,0:0:0:0:
229,226,14584,6,0,P|189:225|151:238,1,80,2|0,0:0|0:0,0:0:0:0:
62,308,15033,1,8,0:0:0:0:
39,178,15257,1,0,0:0:0:0:
139,252,15482,2,0,L|133:331,1,80,2|0,0:0|0:0,0:0:0:0:
237,298,15930,2,0,L|242:377,1,80,10|0,0:0|0:0,0:0:0:0:
319,235,16379,5,2,0:0:0:0:
370,96,16603,2,0,L|397:67,2,40,2|2|8,0:3|0:3|0:0,0:0:0:0:
227,142,17052,2,0,L|188:132,2,40,2|2|2,0:3|0:3|0:3,0:0:0:0:
336,244,17501,2,0,L|346:282,2,40,2|2|8,0:3|0:3|0:0,0:0:0:0:
286,78,17950,1,0,0:0:0:0:
250,226,18174,6,0,B|173:244|173:244|95:225,2,160,2|8|2,0:0|0:0|0:0,0:0:0:0:
175,162,19296,1,0,0:0:0:0:
174,273,19520,2,0,L|174:353,1,80,10|0,0:0|0:0,0:0:0:0:
31,296,19969,6,0,P|1:223|33:152,2,160,2|8|2,0:0|0:0|0:0,0:0:0:0:
174,353,21091,1,0,0:0:0:0:
94,225,21316,1,10,0:0:0:0:
78,373,21540,1,0,0:0:0:0:
179,259,21764,5,2,0:0:0:0:
179,259,21989,1,0,0:0:0:0:
350,177,22213,1,8,0:0:0:0:
249,312,22437,1,0,0:0:0:0:
278,145,22662,2,0,P|304:115|340:99,1,80,2|0,0:0|0:0,0:0:0:0:
384,246,23111,2,0,P|374:207|349:176,1,80,10|0,0:0|0:0,0:0:0:0:
193,173,23559,5,2,0:0:0:0:
67,110,23784,1,2,0:3:0:0:
83,107,23896,1,2,0:3:0:0:
98,104,24008,1,8,0:0:0:0:
179,259,24232,1,2,0:3:0:0:
163,256,24344,1,2,0:3:0:0:
148,253,24456,1,2,0:3:0:0:
66,375,24681,1,2,0:3:0:0:
63,359,24793,1,2,0:3:0:0:
60,344,24905,1,8,0:0:0:0:
29,221,25130,1,0,0:0:0:0:
151,348,25354,6,0,B|207:381|266:356|266:356|246:320,2,160,2|8|2,0:0|0:0|0:0,0:0:0:0:
212,250,26476,1,0,0:0:0:0:
266,355,26701,2,0,P|298:333|320:300,1,80,10|0,0:0|0:0,0:0:0:0:
441,295,27149,6,0,P|437:255|419:219,1,80,2|0,0:0|0:0,0:0:0:0:
484,110,27598,2,0,P|448:92|408:90,1,80,8|0,0:0|0:0,0:0:0:0:
313,177,28047,2,0,P|273:175|236:159,1,80,2|0,0:0|0:0,0:0:0:0:
130,228,28496,2,0,P|111:193|106:153,1,80,10|0,0:0|0:0,0:0:0:0:
185,44,28945,5,2,0:0:0:0:
236,159,29169,1,0,0:0:0:0:
92,197,29393,2,0,B|106:154|106:154|120:268,1,160,8|2,0:0|0:0,0:0:0:0:
215,326,30066,1,0,0:0:0:0:
329,320,30291,1,10,0:0:0:0:
425,261,30515,1,0,0:0:0:0:
262,151,30740,5,0,0:0:0:0:
256,192,30852,12,0,31637,0:0:0:0:
85,121,32086,5,2,3:0:0:0:
89,176,32198,1,2,3:0:0:0:
94,231,32310,1,2,3:0:0:0:
262,151,32535,6,0,P|320:138|379:147,1,120.000004577637,4|2,1:0|0:0,0:0:0:0:
385,302,32983,2,0,P|326:314|267:305,1,120.000004577637,8|2,1:2|0:0,0:0:0:0:
275,124,33432,6,0,P|322:116|369:123,1,96,0|0,1:0|0:0,0:0:0:0:
424,172,33881,2,0,B|479:153|479:153|441:105,1,120.000004577637,8|2,1:2|0:0,0:0:0:0:
326,225,34330,1,4,1:2:0:0:
178,190,34554,1,2,0:0:0:0:
28,226,34778,6,0,L|31:321,1,96,8|0,1:2|0:0,0:0:0:0:
87,366,35227,1,0,1:0:0:0:
219,323,35452,1,2,0:3:0:0:
178,190,35676,1,8,1:2:0:0:
45,232,35900,1,2,0:0:0:0:
234,328,36125,6,0,B|296:319|296:319|328:325,1,96,4|0,1:2|0:0,0:0:0:0:
397,344,36574,1,8,1:2:0:0:
426,154,36798,1,2,0:0:0:0:
231,128,37022,1,4,1:2:0:0:
202,318,37247,1,2,0:3:0:0:
443,147,37471,6,0,P|446:100|433:54,1,96,10|0,1:2|0:0,0:0:0:0:
376,10,37920,1,4,1:2:0:0:
324,187,38144,1,2,0:0:0:0:
164,88,38369,2,0,L|44:79,1,120.000004577637,8|2,1:2|0:0,0:0:0:0:
204,195,38817,2,0,L|323:186,1,120.000004577637,0|2,1:0|0:3,0:0:0:0:
479,299,39266,2,0,L|359:290,1,120.000004577637,8|2,1:2|0:0,0:0:0:0:
183,311,39715,6,0,P|200:352|245:354,1,96,6|0,1:2|0:0,0:0:0:0:
183,311,40164,2,0,L|63:302,1,120.000004577637,8|2,1:2|0:0,0:0:0:0:
19,131,40612,1,0,1:0:0:0:
130,197,40837,1,2,0:3:0:0:
174,26,41061,1,8,1:2:0:0:
99,125,41286,1,2,0:0:0:0:
92,135,41398,1,2,0:0:0:0:
85,145,41510,5,4,1:2:0:0:
241,160,41734,1,2,0:0:0:0:
383,25,41959,2,0,P|323:24|271:53,1,120.000004577637,8|2,1:2|0:0,0:0:0:0:
209,269,42407,1,0,1:0:0:0:
319,245,42632,1,2,0:3:0:0:
198,278,42856,1,8,1:2:0:0:
352,136,43081,1,2,0:0:0:0:
398,349,43305,5,4,1:2:0:0:
319,245,43529,1,2,0:0:0:0:
187,285,43754,2,0,B|180:259|190:236|190:236|205:205|194:168,1,120.000004577637,8|2,1:2|0:0,0:0:0:0:
83,61,44203,5,0,1:0:0:0:
317,82,44427,1,2,0:3:0:0:
109,194,44651,1,8,1:2:0:0:
209,0,44876,1,2,0:0:0:0:
319,245,45100,5,4,1:2:0:0:
285,11,45324,1,2,0:0:0:0:
109,73,45549,2,0,P|168:78|228:72,1,120.000004577637,8|2,1:2|0:0,0:0:0:0:
109,73,45998,5,2,1:2:0:0:
65,130,46222,1,2,0:0:0:0:
56,215,46446,1,10,1:2:0:0:
108,308,46671,1,2,0:0:0:0:
225,356,46895,6,0,P|269:336|227:313,1,120.000004577637,4|2,1:0|0:0,0:0:0:0:
373,328,47344,2,0,B|366:277|339:248|339:248|366:267,1,120.000004577637,8|2,1:2|0:0,0:0:0:0:
367,155,47793,5,0,1:0:0:0:
339,248,48017,1,2,0:3:0:0:
227,313,48241,1,8,1:2:0:0:
80,280,48466,1,2,0:0:0:0:
5,132,48690,6,0,B|64:110|64:110|119:121,1,120.000004577637,4|2,1:2|0:0,0:0:0:0:
367,155,49139,2,0,B|308:177|308:177|252:165,1,120.000004577637,8|2,1:2|0:0,0:0:0:0:
58,37,49588,5,0,1:0:0:0:
71,194,49812,1,2,0:3:0:0:
252,165,50037,1,8,1:2:0:0:
5,132,50261,1,2,0:0:0:0:
150,323,50485,6,0,B|245:314|245:314|229:333,1,120.000004577637,4|2,1:2|0:0,0:0:0:0:
413,367,50934,2,0,B|318:376|318:376|333:356,1,120.000004577637,8|2,1:2|0:0,0:0:0:0:
252,165,51383,5,0,1:0:0:0:
150,323,51607,1,2,0:3:0:0:
119,121,51832,1,8,1:2:0:0:
245,314,52056,1,2,0:0:0:0:
376,202,52280,6,0,B|365:296|365:296|353:273,1,120.000004577637,4|2,1:2|0:0,0:0:0:0:
251,164,52729,2,0,B|262:70|262:70|273:92,1,120.000004577637,8|2,1:2|0:0,0:0:0:0:
183,273,53178,5,0,1:0:0:0:
375,333,53402,1,2,0:3:0:0:
251,164,53627,1,8,1:2:0:0:
265,374,53851,1,2,0:0:0:0:
376,202,54075,6,0,B|466:191|466:191|443:209,1,120.000004577637,0|2,1:0|0:0,0:0:0:0:
271,282,54524,2,0,B|181:271|181:271|203:289,1,120.000004577637,8|2,1:2|0:0,0:0:0:0:
77,341,54973,2,0,P|53:286|61:227,1,120.000004577637,0|2,1:0|0:3,0:0:0:0:
182,271,55422,2,0,P|205:325|197:384,1,120.000004577637,8|2,1:2|0:0,0:0:0:0:
1,325,55870,6,0,P|17:268|61:228,1,120.000004577637,0|2,1:0|0:0,0:0:0:0:
182,271,56319,2,0,P|165:327|121:367,1,120.000004577637,8|2,1:2|0:0,0:0:0:0:
61,228,56768,1,0,1:0:0:0:
274,307,56992,1,2,0:3:0:0:
138,125,57217,1,8,1:2:0:0:
271,174,57441,1,2,0:0:0:0:
376,60,57666,6,0,P|317:50|261:69,1,120.000004577637,0|2,1:0|0:0,0:0:0:0:
479,193,58114,2,0,B|491:148|469:112|469:112|504:106,1,120.000004577637,8|2,1:2|0:0,0:0:0:0:
271,174,58563,2,0,P|329:182|385:163,1,120.000004577637,0|2,1:0|0:3,0:0:0:0:
176,42,59011,2,0,B|164:87|186:123|186:123|150:128,1,120.000004577637,8|2,1:2|0:0,0:0:0:0:
52,89,59461,5,2,1:2:0:0:
36,162,59685,1,2,0:0:0:0:
62,269,59909,1,10,1:2:0:0:
156,358,60134,1,2,0:0:0:0:
309,94,60358,5,2,1:2:0:0:
239,124,60583,1,2,0:0:0:0:
187,218,60807,1,2,1:2:0:0:
190,342,61031,1,2,0:0:0:0:
302,168,61256,5,4,1:0:0:0:
388,261,61480,1,2,0:0:0:0:
187,218,61704,2,0,L|67:203,1,120.000004577637,8|2,1:2|0:0,0:0:0:0:
37,77,62153,1,0,1:0:0:0:
0,266,62378,1,2,0:3:0:0:
132,141,62602,1,8,1:2:0:0:
39,198,62826,1,10,0:2:0:0:
68,361,63051,5,0,1:0:0:0:
232,309,63275,1,2,0:0:0:0:
95,323,63499,1,8,1:2:0:0:
264,341,63724,2,0,L|272:221,1,120.000004577637,2|0,0:0|1:0,0:0:0:0:
434,233,64173,1,2,0:3:0:0:
308,129,64397,1,8,1:2:0:0:
354,289,64621,1,10,0:0:0:0:
410,137,64846,5,0,1:0:0:0:
355,268,65070,1,2,0:0:0:0:
296,100,65295,2,0,P|322:46|373:18,1,120.000004577637,8|2,1:2|0:0,0:0:0:0:
512,77,65743,1,0,1:0:0:0:
356,248,65968,1,2,0:3:0:0:
410,137,66192,1,8,1:2:0:0:
510,210,66416,1,10,0:2:0:0:
319,166,66641,5,0,1:0:0:0:
214,285,66865,1,2,0:0:0:0:
327,189,67090,1,8,1:2:0:0:
194,270,67314,2,0,L|185:150,1,120.000004577637,2|0,0:0|1:0,0:0:0:0:
56,209,67763,1,2,0:3:0:0:
129,13,67987,1,8,1:2:0:0:
1,98,68212,1,10,0:0:0:0:
182,125,68436,5,0,1:0:0:0:
195,290,68660,1,2,0:0:0:0:
375,222,68885,2,0,P|381:164|346:117,1,120.000004577637,8|2,1:2|0:0,0:0:0:0:
289,258,69333,2,0,L|309:376,1,120.000004577637,0|2,1:0|0:3,0:0:0:0:
459,258,69782,1,8,1:2:0:0:
439,376,70007,1,10,0:0:0:0:
375,222,70231,5,0,1:0:0:0:
309,376,70455,1,2,0:0:0:0:
459,258,70680,1,8,1:2:0:0:
259,243,70904,2,0,P|207:214|176:164,1,120.000004577637,2|0,0:0|1:0,0:0:0:0:
220,56,71353,1,2,0:3:0:0:
94,233,71577,2,0,L|108:352,1,120.000004577637,8|10,1:2|0:0,0:0:0:0:
175,163,72026,5,0,1:0:0:0:
51,144,72250,1,2,0:0:0:0:
220,56,72475,2,0,L|339:41,1,120.000004577637,8|2,1:2|0:0,0:0:0:0:
512,164,72924,2,0,L|392:149,1,120.000004577637,0|2,1:0|0:3,0:0:0:0:
467,60,73372,1,8,1:2:0:0:
442,260,73597,1,10,0:0:0:0:
339,41,73821,5,0,1:0:0:0:
314,241,74045,1,2,0:0:0:0:
213,22,74270,1,8,1:2:0:0:
188,222,74494,1,2,0:0:0:0:
339,41,74719,5,2,1:2:0:0:
213,22,74943,1,2,0:0:0:0:
111,58,75167,1,2,1:2:0:0:
54,126,75392,1,2,0:0:0:0:
64,245,75616,6,0,L|53:125,1,120.000004577637,4|2,1:0|0:0,0:0:0:0:
294,50,76065,1,8,1:2:0:0:
282,215,76289,2,0,L|271:335,1,120.000004577637,2|0,0:0|1:0,0:0:0:0:
90,363,76738,1,2,0:0:0:0:
53,125,76962,1,8,1:2:0:0:
198,158,77186,1,2,0:0:0:0:
411,50,77411,6,0,P|353:40|296:59,1,120.000004577637,0|2,1:0|0:0,0:0:0:0:
53,124,77860,2,0,P|111:114|168:133,1,120.000004577637,8|2,1:2|0:0,0:0:0:0:
56,349,78309,2,0,P|65:291|100:242,1,120.000004577637,0|2,1:0|0:0,0:0:0:0:
304,331,78758,2,0,B|246:305|187:331,1,120.000004577637,8|2,1:2|0:0,0:0:0:0:
434,347,79206,6,0,L|443:227,1,120.000004577637,0|2,1:0|0:0,0:0:0:0:
254,68,79655,1,8,1:2:0:0:
196,191,79879,2,0,B|254:217|313:191,1,120.000004577637,2|0,0:0|1:0,0:0:0:0:
404,96,80328,1,2,0:0:0:0:
434,347,80553,1,8,1:2:0:0:
312,191,80777,1,2,0:0:0:0:
492,252,81001,5,0,1:0:0:0:
290,302,81226,1,2,0:0:0:0:
290,302,81450,1,8,1:2:0:0:
141,192,81675,1,2,0:0:0:0:
213,369,81899,2,0,B|302:377|302:377|331:368,1,120.000004577637,0|2,1:0|0:0,0:0:0:0:
274,189,82348,2,0,P|259:245|286:298,1,120.000004577637,8|2,1:2|0:0,0:0:0:0:
355,118,82796,6,0,B|266:110|266:110|237:119,1,120.000004577637,0|2,1:0|0:0,0:0:0:0:
13,161,83245,2,0,B|102:169|102:169|131:160,1,120.000004577637,8|2,1:2|0:0,0:0:0:0:
361,199,83694,2,0,B|272:191|272:191|243:200,1,120.000004577637,0|2,1:0|0:0,0:0:0:0:
19,242,84143,2,0,B|108:250|108:250|137:241,1,120.000004577637,8|2,1:2|0:0,0:0:0:0:
369,279,84591,5,0,1:0:0:0:
229,316,84816,1,2,0:0:0:0:
455,377,85040,2,0,L|447:257,1,120.000004577637,8|2,1:2|0:0,0:0:0:0:
355,118,85489,1,0,1:0:0:0:
243,201,85713,1,2,0:0:0:0:
266,0,85938,1,8,1:2:0:0:
355,118,86162,1,2,0:0:0:0:
146,93,86387,6,0,B|54:104|54:104|78:115,1,120.000004577637,0|2,1:0|0:0,0:0:0:0:
242,196,86835,1,8,1:2:0:0:
107,261,87060,1,2,0:0:0:0:
55,104,87284,1,0,1:0:0:0:
192,147,87508,1,2,0:0:0:0:
353,32,87733,2,0,B|445:43|445:43|420:54,1,120.000004577637,8|2,1:2|0:0,0:0:0:0:
192,147,88182,5,0,1:0:0:0:
