osu file format v14

[General]
AudioFilename: audio.mp3
AudioLeadIn: 0
PreviewTime: 32086
Countdown: 0
SampleSet: Soft
StackLeniency: 0.7
Mode: 0
LetterboxInBreaks: 0
WidescreenStoryboard: 0

[Editor]
Bookmarks: 61256
DistanceSpacing: 1.2
BeatDivisor: 4
GridSize: 16
TimelineZoom: 1.5

[Metadata]
Title:"Ano Hero to" Bokura ni Tsuite -noitamina ver.-
TitleUnicode:”あのヒーローと” 僕らについて -noitamina ver.-
Artist:Merengue
ArtistUnicode:メレンゲ
Creator:Rizen
Version:Hard
Source:ピンポン
Tags:Ping Pong The Animation ppta ed ending tv size CAMPFIRE クボケンジ
BeatmapID:1262300
BeatmapSetID:597018

[Difficulty]
HPDrainRate:5
CircleSize:3.6
OverallDifficulty:6
ApproachRate:7
SliderMultiplier:1.4
SliderTickRate:1

[Events]
//Background and Video events
0,0,"grainybridge.jpg",0,0
Video,247,"pongping.avi"
//Break Periods
//Storyboard Layer 0 (Background)
//Storyboard Layer 1 (Fail)
//Storyboard Layer 2 (Pass)
//Storyboard Layer 3 (Foreground)
//Storyboard Sound Samples

[TimingPoints]
224,448.765893792072,4,2,2,60,1,0
3290,-100,4,2,2,30,0,0
3814,448.765893792072,4,2,2,60,1,0
32535,-83.3333333333333,4,2,1,80,0,1
61256,-100,4,2,1,70,0,0
75616,-83.3333333333333,4,2,1,80,0,1
88181,-83.3333333333333,4,2,1,80,0,0

[Colours]
Combo1 : 255,223,128
Combo2 : 115,255,115
Combo3 : 38,190,234
Combo4 : 177,177,177

[HitObjects]
21,121,224,6,0,B|92:108|92:108|158:121,1,140,2|10,0:0|0:0,0:0:0:0:
311,190,1121,2,0,P|310:155|298:122,1,70,2|2,0:0|0:0,0:0:0:0:
263,45,1570,2,0,P|228:38|194:45,1,70,10|2,0:0|0:0,0:0:0:0:
158,121,2018,6,0,P|147:153|146:189,1,70,2|2,0:0|0:3,0:0:0:0:
88,250,2467,2,0,P|117:267|152:274,1,70,8|2,0:0|0:3,0:0:0:0:
221,322,2916,2,0,P|273:298|331:302,1,116.666666666667,2|0,0:0|0:0,0:0:0:0:
486,184,3814,6,0,P|491:116|444:67,2,140,2|8|2,0:0|0:0|0:0,0:0:0:0:
412,144,4935,1,0,0:0:0:0:
347,199,5160,2,0,P|313:203|278:197,1,70,10|0,0:0|0:0,0:0:0:0:
225,131,5609,6,0,L|229:270,2,140,2|8|2,0:0|0:0|0:0,0:0:0:0:
155,84,6730,1,0,0:0:0:0:
71,76,6955,2,0,P|74:111|92:141,1,70,10|0,0:0|0:0,0:0:0:0:
142,210,7404,6,0,L|131:302,1,70,2|0,0:0|0:0,0:0:0:0:
68,332,7852,1,8,0:0:0:0:
146,302,8077,1,0,0:0:0:0:
217,345,8301,2,0,L|286:350,1,70,2|0,0:0|0:0,0:0:0:0:
364,318,8750,2,0,L|433:323,1,70,10|0,0:0|0:0,0:0:0:0:
482,254,9199,5,2,0:0:0:0:
449,176,9423,2,0,L|453:141,2,35,2|2|8,0:3|0:3|0:0,0:0:0:0:
366,194,9872,2,0,L|370:159,2,35,2|2|2,0:3|0:3|0:3,0:0:0:0:
284,213,10321,2,0,L|288:178,2,35,2|2|8,0:3|0:3|0:0,0:0:0:0:
252,290,10769,1,0,0:0:0:0:
187,344,10994,6,0,B|138:357|138:357|49:350,2,140,2|8|2,0:0|0:0|0:0,0:0:0:0:
143,272,12116,1,0,0:0:0:0:
167,191,12340,2,0,P|166:156|154:123,1,70,10|0,0:0|0:0,0:0:0:0:
89,71,12789,6,0,P|152:95|215:68,2,140,2|8|2,0:0|0:0|0:0,0:0:0:0:
152,16,13911,1,0,0:0:0:0:
215,68,14135,2,0,L|284:63,1,70,10|0,0:0|0:0,0:0:0:0:
365,38,14584,6,0,B|378:75|357:108|357:108|351:174,1,140,2|8,0:0|0:0,0:0:0:0:
382,252,15257,1,0,0:0:0:0:
465,246,15481,2,0,P|455:213|434:186,1,70,2|0,0:0|0:0,0:0:0:0:
351,174,15930,2,0,P|321:193|300:221,1,70,10|0,0:0|0:0,0:0:0:0:
290,302,16379,5,2,0:0:0:0:
224,354,16603,2,0,L|189:351,2,35,2|2|8,0:3|0:3|0:0,0:0:0:0:
209,271,17052,2,0,L|174:268,2,35,2|2|2,0:3|0:3|0:3,0:0:0:0:
192,188,17501,2,0,L|157:185,2,35,2|2|8,0:3|0:3|0:0,0:0:0:0:
251,128,17950,1,0,0:0:0:0:
221,49,18174,6,0,P|157:23|95:50,2,140,2|8|2,0:0|0:0|0:0,0:0:0:0:
158,105,19296,1,0,0:0:0:0:
94,159,19520,2,0,P|61:146|26:149,1,70,10|0,0:0|0:0,0:0:0:0:
51,230,19969,6,0,L|34:368,2,140,2|8|2,0:0|0:0|0:0,0:0:0:0:
125,269,21091,1,0,0:0:0:0:
188,213,21315,2,0,P|221:205|256:207,1,70,10|0,0:0|0:0,0:0:0:0:
325,255,21764,6,0,L|394:260,1,70,2|0,0:0|0:0,0:0:0:0:
460,312,22213,1,8,0:0:0:0:
417,240,22437,1,0,0:0:0:0:
451,162,22662,2,0,L|461:92,1,70,2|0,0:0|0:0,0:0:0:0:
380,115,23110,2,0,L|369:45,1,70,10|0,0:0|0:0,0:0:0:0:
298,89,23559,5,2,0:0:0:0:
215,105,23784,2,0,L|201:63,2,35,2|2|8,0:3|0:3|0:0,0:0:0:0:
142,146,24232,2,0,L|112:113,2,35,2|2|2,0:3|0:3|0:3,0:0:0:0:
90,212,24681,2,0,L|55:198,2,35,2|2|8,0:3|0:3|0:0,0:0:0:0:
73,294,25130,1,0,0:0:0:0:
91,375,25354,6,0,L|230:362,2,140,2|8|2,0:0|0:0|0:0,0:0:0:0:
55,298,26476,1,0,0:0:0:0:
20,220,26701,2,0,P|28:187|27:152,1,70,10|0,0:0|0:0,0:0:0:0:
109,173,27149,6,0,P|108:207|116:241,1,70,2|0,0:0|0:0,0:0:0:0:
200,231,27598,2,0,P|200:196|192:162,1,70,8|0,0:0|0:0,0:0:0:0:
260,112,28047,2,0,P|268:145|285:176,1,70,2|0,0:0|0:0,0:0:0:0:
346,118,28496,2,0,P|378:130|407:150,1,70,10|0,0:0|0:0,0:0:0:0:
441,226,28944,5,2,0:0:0:0:
358,216,29169,1,0,0:0:0:0:
285,176,29393,2,0,P|254:192|220:201,1,70,8|0,0:0|0:0,0:0:0:0:
196,282,29842,2,0,P|169:258|138:242,1,70,2|0,0:0|0:0,0:0:0:0:
59,269,30291,2,0,P|56:233|64:199,1,70,10|0,0:0|0:0,0:0:0:0:
131,149,30739,6,0,B|76:121|118:48|168:65|168:65|239:89|305:58,1,280,0|0,0:0|0:0,0:0:0:0:
380,210,32086,5,2,3:0:0:0:
338,216,32198,1,2,3:0:0:0:
296,222,32310,1,2,3:0:0:0:
213,164,32535,6,0,P|171:164|132:150,1,83.9999974365235,4|2,1:0|0:0,0:0:0:0:
60,220,32983,2,0,P|38:184|31:143,1,83.9999974365235,8|2,1:2|0:0,0:0:0:0:
131,149,33432,2,0,P|159:205|151:267,1,125.999996154785,0|0,1:0|0:0,0:0:0:0:
190,232,33881,2,0,P|182:273|164:310,1,83.9999974365235,8|2,1:2|0:0,0:0:0:0:
241,377,34330,5,4,1:2:0:0:
337,346,34554,1,2,0:0:0:0:
433,316,34778,2,0,P|396:265|337:246,1,125.999996154785,8|0,1:2|0:0,0:0:0:0:
382,221,35227,2,0,P|341:209|300:212,1,83.9999974365235,0|2,1:0|0:3,0:0:0:0:
261,306,35676,1,8,1:2:0:0:
273,206,35900,1,2,0:0:0:0:
282,104,36125,6,0,P|343:115|401:93,1,125.999996154785,4|0,1:2|0:0,0:0:0:0:
374,135,36573,2,0,P|414:124|445:96,1,83.9999974365235,8|2,1:2|0:0,0:0:0:0:
387,13,37022,1,4,1:2:0:0:
286,21,37247,1,2,0:3:0:0:
185,30,37471,2,0,B|170:92|170:92|145:34,1,125.999996154785,10|0,1:2|0:0,0:0:0:0:
96,22,37920,5,4,1:2:0:0:
21,89,38144,1,2,0:0:0:0:
9,188,38368,1,8,1:2:0:0:
47,281,38593,1,2,0:0:0:0:
55,291,38817,5,0,1:0:0:0:
17,198,39042,1,2,0:3:0:0:
29,99,39266,1,8,1:2:0:0:
104,32,39490,1,2,0:0:0:0:
201,62,39715,6,0,P|236:100|252:50,1,125.999996154785,6|0,1:2|0:0,0:0:0:0:
202,61,40164,2,0,L|192:144,1,83.9999974365235,8|2,1:2|0:0,0:0:0:0:
223,302,40612,1,0,1:0:0:0:
294,154,40837,1,2,0:3:0:0:
148,235,41061,1,8,1:2:0:0:
311,254,41285,1,2,0:0:0:0:
148,235,41510,6,0,L|64:240,1,83.9999974365235,4|2,1:2|0:0,0:0:0:0:
49,340,41959,2,0,L|132:345,1,83.9999974365235,8|2,1:2|0:0,0:0:0:0:
223,302,42407,1,0,1:0:0:0:
294,230,42632,1,2,0:3:0:0:
305,130,42856,1,8,1:2:0:0:
277,32,43081,1,2,0:0:0:0:
328,118,43305,6,0,P|369:121|410:111,1,83.9999974365235,4|2,1:2|0:0,0:0:0:0:
377,207,43754,2,0,P|417:197|459:200,1,83.9999974365235,8|2,1:2|0:0,0:0:0:0:
425,295,44202,2,0,P|384:304|342:301,1,83.9999974365235,0|2,1:0|0:3,0:0:0:0:
253,348,44651,2,0,P|211:344|170:354,1,83.9999974365235,8|2,1:2|0:0,0:0:0:0:
71,334,45100,5,4,1:2:0:0:
38,238,45324,1,2,0:0:0:0:
6,143,45549,2,0,L|18:59,1,83.9999974365235,8|2,1:2|0:0,0:0:0:0:
112,25,45997,5,2,1:2:0:0:
211,41,46222,1,2,0:0:0:0:
289,104,46446,1,10,1:2:0:0:
325,198,46671,1,2,0:0:0:0:
308,296,46895,6,0,P|269:284|240:254,1,83.9999974365235,4|2,1:0|0:0,0:0:0:0:
68,294,47344,2,0,P|108:282|138:252,1,83.9999974365235,8|2,1:2|0:0,0:0:0:0:
53,198,47792,1,0,1:0:0:0:
139,145,48017,1,2,0:3:0:0:
239,145,48241,1,8,1:2:0:0:
325,198,48466,1,2,0:0:0:0:
385,274,48690,6,0,P|348:294|307:295,1,83.9999974365235,4|2,1:2|0:0,0:0:0:0:
487,258,49139,2,0,P|485:300|466:337,1,83.9999974365235,8|2,1:2|0:0,0:0:0:0:
423,181,49588,1,0,1:0:0:0:
391,15,49812,1,2,0:3:0:0:
323,167,50036,1,8,1:2:0:0:
461,88,50261,1,2,0:0:0:0:
305,69,50485,6,0,L|221:75,1,83.9999974365235,4|2,1:2|0:0,0:0:0:0:
51,135,50934,2,0,L|135:129,1,83.9999974365235,8|2,1:2|0:0,0:0:0:0:
5,225,51383,1,0,1:0:0:0:
117,343,51607,1,2,0:3:0:0:
106,177,51831,1,8,1:2:0:0:
17,319,52056,1,2,0:0:0:0:
168,260,52280,6,0,P|209:259|249:272,1,83.9999974365235,4|2,1:2|0:0,0:0:0:0:
344,240,52729,2,0,P|383:252|425:251,1,83.9999974365235,8|2,1:2|0:0,0:0:0:0:
507,191,53178,1,0,1:0:0:0:
493,91,53402,1,2,0:3:0:0:
403,43,53627,1,8,1:2:0:0:
318,97,53851,1,2,0:0:0:0:
313,197,54075,6,0,P|272:201|231:190,1,83.9999974365235,0|2,1:0|0:0,0:0:0:0:
71,248,54524,2,0,P|112:259|154:255,1,83.9999974365235,8|2,1:2|0:0,0:0:0:0:
329,298,54973,2,0,P|288:287|247:292,1,83.9999974365235,0|2,1:0|0:3,0:0:0:0:
86,350,55422,2,0,P|128:346|169:357,1,83.9999974365235,8|2,1:2|0:0,0:0:0:0:
247,292,55870,5,0,1:0:0:0:
231,190,56095,1,2,0:0:0:0:
153,255,56319,1,8,1:2:0:0:
136,154,56543,1,2,0:0:0:0:
199,75,56768,2,0,P|235:54|276:46,1,83.9999974365235,0|2,1:0|0:3,0:0:0:0:
376,63,57217,2,0,P|411:84|439:116,1,83.9999974365235,8|2,1:2|0:0,0:0:0:0:
492,202,57665,6,0,L|481:285,1,83.9999974365235,0|2,1:0|0:0,0:0:0:0:
401,347,58114,2,0,L|390:263,1,83.9999974365235,8|2,1:2|0:0,0:0:0:0:
311,200,58563,2,0,L|300:283,1,83.9999974365235,0|2,1:0|0:3,0:0:0:0:
220,345,59012,2,0,L|209:261,1,83.9999974365235,8|2,1:2|0:0,0:0:0:0:
229,163,59460,5,2,1:2:0:0:
173,78,59685,1,2,0:0:0:0:
72,73,59909,1,10,1:2:0:0:
9,152,60134,1,2,0:0:0:0:
31,249,60358,5,2,1:2:0:0:
25,162,60582,1,2,0:0:0:0:
79,93,60807,1,2,1:2:0:0:
166,100,61031,1,2,0:0:0:0:
209,172,61256,6,0,P|211:206|200:239,1,70,4|2,1:0|0:0,0:0:0:0:
131,287,61704,2,0,B|200:273|200:273|268:286,1,140,8|0,1:2|1:0,0:0:0:0:
350,305,62377,1,2,0:3:0:0:
432,286,62602,2,0,P|440:253|439:218,1,70,8|10,1:2|0:2,0:0:0:0:
373,165,63051,6,0,P|364:131|365:96,1,70,0|2,1:0|0:0,0:0:0:0:
431,44,63499,1,8,1:2:0:0:
431,44,63724,2,0,B|362:58|362:58|294:45,1,140,2|2,0:0|0:3,0:0:0:0:
224,92,64397,1,8,1:2:0:0:
156,42,64621,1,10,0:0:0:0:
82,82,64846,6,0,L|86:151,1,70,0|2,1:0|0:0,0:0:0:0:
164,181,65294,2,0,L|155:41,1,140,8|0,1:2|1:0,0:0:0:0:
82,82,65968,1,2,0:3:0:0:
30,148,66192,2,0,P|24:182|28:216,1,70,8|10,1:2|0:2,0:0:0:0:
99,263,66641,6,0,P|104:297|100:331,1,70,0|2,1:0|0:0,0:0:0:0:
21,302,67089,1,8,1:2:0:0:
21,302,67314,2,0,L|160:294,1,140,2|2,0:0|0:3,0:0:0:0:
229,342,67987,1,8,1:2:0:0:
259,263,68211,1,10,0:0:0:0:
287,183,68436,6,0,P|277:150|277:115,1,70,0|2,1:0|0:0,0:0:0:0:
347,68,68885,2,0,B|279:82|279:82|209:67,1,140,8|0,1:2|1:0,0:0:0:0:
126,77,69558,1,2,0:3:0:0:
64,133,69782,2,0,P|93:154|127:158,1,70,8|10,1:2|0:0,0:0:0:0:
187,216,70231,6,0,P|158:236|124:240,1,70,0|2,1:0|0:0,0:0:0:0:
51,283,70680,1,8,1:2:0:0:
51,283,70904,2,0,P|119:275|178:310,1,140,2|2,0:0|0:3,0:0:0:0:
231,375,71577,1,8,1:2:0:0:
314,364,71802,1,10,0:0:0:0:
349,287,72026,6,0,P|381:275|416:274,1,70,0|2,1:0|0:0,0:0:0:0:
471,338,72475,2,0,L|455:198,1,140,8|0,1:2|1:0,0:0:0:0:
412,126,73148,1,2,0:3:0:0:
344,76,73372,2,0,P|311:63|276:62,1,70,8|10,1:2|0:0,0:0:0:0:
212,117,73821,6,0,P|179:129|144:130,1,70,0|2,1:0|0:0,0:0:0:0:
128,47,74270,2,0,P|160:34|195:33,1,70,8|2,1:2|0:0,0:0:0:0:
276,62,74719,1,2,1:2:0:0:
291,144,74943,1,2,0:0:0:0:
212,117,75167,1,2,1:2:0:0:
225,200,75392,1,2,0:0:0:0:
144,173,75616,6,0,P|157:252|231:284,1,167.999994873047,4|8,1:0|1:2,0:0:0:0:
326,249,76289,1,2,0:0:0:0:
417,292,76514,2,0,P|428:251|420:211,1,83.9999974365235,0|2,1:0|0:0,0:0:0:0:
326,249,76962,2,0,P|318:208|328:167,1,83.9999974365235,8|2,1:2|0:0,0:0:0:0:
403,100,77411,5,0,1:0:0:0:
363,6,77636,1,2,0:0:0:0:
263,18,77860,1,8,1:2:0:0:
244,117,78084,1,2,0:0:0:0:
162,169,78309,2,0,B|142:172|124:179|124:179|87:122|12:138,1,167.999994873047,0|8,1:0|1:2,0:0:0:0:
44,234,78982,1,2,0:0:0:0:
9,329,79206,6,0,B|62:343|108:311|108:311|115:346|141:365,1,167.999994873047,0|8,1:0|1:2,0:0:0:0:
240,384,79879,1,2,0:0:0:0:
287,296,80104,2,0,P|247:284|206:288,1,83.9999974365235,0|2,1:0|0:0,0:0:0:0:
139,214,80552,2,0,P|175:193|216:188,1,83.9999974365235,8|2,1:2|0:0,0:0:0:0:
301,132,81001,5,0,1:0:0:0:
346,222,81226,1,2,0:0:0:0:
446,222,81450,1,8,1:2:0:0:
495,134,81674,1,2,0:0:0:0:
447,44,81899,2,0,B|434:13|396:-2|396:-2|298:5,1,167.999994873047,0|8,1:0|1:2,0:0:0:0:
214,60,82572,1,2,0:0:0:0:
117,30,82796,6,0,P|109:70|123:110,1,83.9999974365235,0|2,1:0|0:0,0:0:0:0:
44,173,83245,2,0,P|75:199|116:207,1,83.9999974365235,8|2,1:2|0:0,0:0:0:0:
79,301,83694,2,0,P|141:305|192:270,1,125.999996154785,0|0,1:0|0:0,0:0:0:0:
196,320,84143,2,0,P|222:288|230:247,1,83.9999974365235,8|2,1:2|0:0,0:0:0:0:
211,148,84591,5,0,1:0:0:0:
310,163,84816,1,2,0:0:0:0:
409,178,85040,2,0,P|397:117|354:73,1,125.999996154785,8|0,1:2|0:0,0:0:0:0:
404,67,85489,2,0,P|370:42|329:33,1,83.9999974365235,0|2,1:0|0:0,0:0:0:0:
231,55,85938,1,8,1:2:0:0:
135,24,86162,1,2,0:0:0:0:
39,57,86386,6,0,P|55:118|41:179,1,125.999996154785,0|0,1:0|0:0,0:0:0:0:
78,144,86835,2,0,P|73:185|54:222,1,83.9999974365235,8|2,1:2|0:0,0:0:0:0:
45,323,87284,1,0,1:0:0:0:
144,310,87508,1,2,0:0:0:0:
244,297,87733,2,0,L|254:213,1,83.9999974365235,8|2,1:2|0:0,0:0:0:0:
269,114,88181,5,0,1:0:0:0:
