osu file format v14

[General]
AudioFilename: audio.mp3
AudioLeadIn: 0
PreviewTime: 32086
Countdown: 0
SampleSet: Soft
StackLeniency: 0.7
Mode: 0
LetterboxInBreaks: 0
WidescreenStoryboard: 0

[Editor]
Bookmarks: 61256
DistanceSpacing: 1.3
BeatDivisor: 4
GridSize: 16
TimelineZoom: 1

[Metadata]
Title:"Ano Hero to" Bokura ni Tsuite -noitamina ver.-
TitleUnicode:”あのヒーローと” 僕らについて -noitamina ver.-
Artist:Merengue
ArtistUnicode:メレンゲ
Creator:Rizen
Version:Normal
Source:ピンポン
Tags:Ping Pong The Animation ppta ed ending tv size CAMPFIRE クボケンジ
BeatmapID:1262611
BeatmapSetID:597018

[Difficulty]
HPDrainRate:3.5
CircleSize:2.8
OverallDifficulty:3.5
ApproachRate:4.5
SliderMultiplier:1.3
SliderTickRate:1

[Events]
//Background and Video events
0,0,"grainybridge.jpg",0,0
Video,247,"pongping.avi"
//Break Periods
//Storyboard Layer 0 (Background)
//Storyboard Layer 1 (Fail)
//Storyboard Layer 2 (Pass)
//Storyboard Layer 3 (Foreground)
//Storyboard Sound Samples

[TimingPoints]
224,448.765893792072,4,2,2,60,1,0
3290,-100,4,2,2,30,0,0
3814,448.765893792072,4,2,2,60,1,0
32535,-100,4,2,1,80,0,1
61256,-100,4,2,1,70,0,0
75616,-100,4,2,1,80,0,1
88181,-100,4,2,1,80,0,0

[Colours]
Combo1 : 255,223,128
Combo2 : 115,255,115
Combo3 : 38,190,234
Combo4 : 177,177,177

[HitObjects]
394,97,223,6,0,L|403:227,1,130,2|2,0:0|0:0,0:0:0:0:
252,306,1121,2,0,L|244:370,2,65,2|2|10,0:0|0:0|0:0,0:0:0:0:
277,225,1794,1,2,0:0:0:0:
249,145,2018,6,0,P|191:118|128:132,1,130,2|8,0:0|0:0,0:0:0:0:
81,202,2692,1,2,0:3:0:0:
1,173,2916,2,0,L|14:65,1,108.333333333333,2|0,0:0|0:0,0:0:0:0:
208,31,3814,6,0,P|270:45|328:18,1,130,2|8,0:0|0:0,0:0:0:0:
449,135,4711,2,0,P|391:108|328:122,1,130,2|10,0:0|0:0,0:0:0:0:
267,180,5384,1,0,0:0:0:0:
284,262,5609,6,0,B|317:258|337:226|337:226|354:257|385:262,1,130,2|8,0:0|0:0,0:0:0:0:
250,362,6506,2,0,B|216:358|196:326|196:326|179:357|148:362,1,130,2|10,0:0|0:0,0:0:0:0:
120,282,7179,1,0,0:0:0:0:
38,259,7404,6,0,P|20:231|16:199,2,65,2|0|8,0:0|0:0|0:0,0:0:0:0:
100,201,8077,1,0,0:0:0:0:
181,222,8301,2,0,B|273:207|273:207|307:220,1,130,2|10,0:0|0:0,0:0:0:0:
477,195,9199,6,0,L|471:130,1,65,2|2,0:0|0:3,0:0:0:0:
388,152,9647,2,0,L|393:87,1,65,8|2,0:0|0:3,0:0:0:0:
309,100,10096,2,0,L|320:35,2,65,2|2|8,0:3|0:3|0:0,0:0:0:0:
231,135,10769,1,0,0:0:0:0:
154,170,10994,6,0,B|62:164|62:164|30:142,1,130,2|8,0:0|0:0,0:0:0:0:
107,293,11891,2,0,B|199:299|199:299|230:320,1,130,2|10,0:0|0:0,0:0:0:0:
299,369,12564,1,0,0:0:0:0:
381,347,12789,6,0,P|407:289|395:227,1,130,2|8,0:0|0:0,0:0:0:0:
332,70,13686,2,0,P|305:128|317:190,1,130,2|10,0:0|0:0,0:0:0:0:
395,226,14359,1,0,0:0:0:0:
479,216,14584,6,0,P|448:160|388:141,1,130,2|8,0:0|0:0,0:0:0:0:
317,190,15257,1,0,0:0:0:0:
248,238,15481,2,0,B|186:223|186:223|121:238,1,130,2|10,0:0|0:0,0:0:0:0:
18,103,16379,6,0,P|50:101|81:109,1,65,2|2,0:0|0:3,0:0:0:0:
122,35,16828,2,0,P|146:55|162:83,1,65,8|2,0:0|0:3,0:0:0:0:
243,60,17276,2,0,P|245:92|237:123,2,65,2|2|8,0:3|0:3|0:0,0:0:0:0:
323,32,17950,1,0,0:0:0:0:
400,64,18174,6,0,B|394:176|394:176|407:164,1,130,2|8,0:0|0:0,0:0:0:0:
487,314,19072,2,0,B|493:202|493:202|479:213,1,130,2|10,0:0|0:0,0:0:0:0:
407,164,19745,1,0,0:0:0:0:
338,213,19969,6,0,P|274:223|212:204,1,130,2|8,0:0|0:0,0:0:0:0:
59,277,20867,2,0,P|122:266|184:285,1,130,2|10,0:0|0:0,0:0:0:0:
254,332,21540,1,0,0:0:0:0:
335,311,21764,6,0,P|366:317|398:310,2,65,2|0|8,0:0|0:0|0:0,0:0:0:0:
368,233,22437,1,0,0:0:0:0:
307,174,22662,2,0,P|366:151|426:171,1,130,2|10,0:0|0:0,0:0:0:0:
276,92,23559,6,0,P|277:60|268:29,1,65,2|2,0:0|0:3,0:0:0:0:
195,72,24008,2,0,P|162:70|131:79,1,65,8|2,0:0|0:3,0:0:0:0:
173,153,24457,2,0,P|171:185|180:216,2,65,2|2|8,0:3|0:3|0:0,0:0:0:0:
255,173,25130,1,0,0:0:0:0:
324,221,25354,6,0,B|309:314|309:314|292:345,1,130,2|8,0:0|0:0,0:0:0:0:
181,218,26252,2,0,B|147:207|147:207|52:212,1,130,2|10,0:0|0:0,0:0:0:0:
49,297,26925,1,0,0:0:0:0:
53,382,27149,6,0,P|110:354|133:295,1,130,2|8,0:0|0:0,0:0:0:0:
70,137,28047,2,0,B|132:155|132:155|195:138,1,130,2|10,0:0|0:0,0:0:0:0:
261,84,28720,1,0,0:0:0:0:
343,99,28944,6,0,L|353:163,1,65,2|0,0:0|0:0,0:0:0:0:
417,218,29393,2,0,L|399:346,2,130,8|2|10,0:0|0:0|0:0,0:0:0:0:
247,213,30739,6,0,B|179:221|108:258|108:359|215:393|293:321|261:232|180:221|114:232,1,390,0|2,0:0|3:0,0:0:0:0:
9,105,32535,6,0,P|15:73|28:43,1,65,4|2,1:0|0:0,0:0:0:0:
96,96,32983,2,0,P|125:82|157:76,1,65,8|2,1:2|0:0,0:0:0:0:
238,100,33432,2,0,B|302:116|302:116|363:99,1,130,0|8,1:0|1:2,0:0:0:0:
494,207,34330,6,0,P|465:193|433:187,1,65,4|2,1:2|0:0,0:0:0:0:
368,241,34778,2,0,B|307:258|307:258|243:242,1,130,8|0,1:2|1:0,0:0:0:0:
176,188,35451,1,2,0:3:0:0:
99,224,35676,2,0,L|104:288,1,65,8|2,1:2|0:0,0:0:0:0:
28,326,36125,6,0,L|17:196,1,130,4|8,1:2|1:2,0:0:0:0:
42,115,36798,1,2,0:0:0:0:
105,58,37022,2,0,P|136:64|169:64,1,65,4|2,1:2|0:3,0:0:0:0:
249,38,37471,1,10,1:2:0:0:
414,71,37920,6,0,L|423:135,1,65,4|2,1:2|0:0,0:0:0:0:
361,193,38368,2,0,L|352:257,1,65,8|2,1:2|0:0,0:0:0:0:
294,320,38817,2,0,L|303:384,2,65,0|2|8,1:0|0:3|1:2,0:0:0:0:
221,276,39490,1,2,0:0:0:0:
166,341,39715,6,0,B|81:355|81:355|39:340,1,130,6|8,1:2|1:2,0:0:0:0:
80,176,40612,2,0,L|88:240,2,65,0|2|8,1:0|0:3|1:2,0:0:0:0:
14,122,41285,1,2,0:0:0:0:
38,40,41510,6,0,P|69:31|101:34,1,65,4|2,1:2|0:0,0:0:0:0:
176,72,41959,1,8,1:2:0:0:
341,37,42407,2,0,P|373:33|404:42,2,65,0|2|8,1:0|0:3|1:2,0:0:0:0:
263,72,43081,1,2,0:0:0:0:
220,145,43305,6,0,L|227:209,1,65,4|2,1:2|0:0,0:0:0:0:
236,294,43754,1,8,1:2:0:0:
104,182,44202,2,0,P|71:177|39:179,1,65,0|2,1:0|0:3,0:0:0:0:
3,256,44651,2,0,P|35:260|67:258,1,65,8|2,1:2|0:0,0:0:0:0:
99,337,45100,6,0,P|131:334|163:339,1,65,4|2,1:2|0:0,0:0:0:0:
236,294,45549,1,8,1:2:0:0:
389,357,45997,2,0,L|395:292,1,65,2|2,1:2|0:0,0:0:0:0:
456,233,46446,2,0,P|450:202|450:169,1,65,10|2,1:2|0:0,0:0:0:0:
379,121,46895,6,0,P|388:90|385:58,1,65,4|2,1:0|0:0,0:0:0:0:
310,17,47344,1,8,1:2:0:0:
143,43,47793,2,0,L|78:52,2,65,0|2|8,1:0|0:3|1:2,0:0:0:0:
187,116,48466,1,2,0:0:0:0:
188,200,48690,6,0,P|195:231|211:259,1,65,4|2,1:2|0:0,0:0:0:0:
280,308,49139,1,8,1:2:0:0:
374,167,49588,2,0,L|439:176,2,65,0|2|8,1:0|0:3|1:2,0:0:0:0:
306,115,50261,1,2,0:0:0:0:
238,64,50485,6,0,L|173:73,1,65,4|2,1:2|0:0,0:0:0:0:
89,86,50934,1,8,1:2:0:0:
188,223,51383,2,0,P|196:254|197:286,2,65,0|2|8,1:0|0:3|1:2,0:0:0:0:
105,202,52056,1,2,0:0:0:0:
32,246,52280,6,0,P|32:278|41:309,1,65,4|2,1:2|0:0,0:0:0:0:
92,376,52729,1,8,1:2:0:0:
258,345,53178,2,0,P|290:345|321:353,2,65,0|2|8,1:0|0:3|1:2,0:0:0:0:
196,286,53851,1,2,0:0:0:0:
232,209,54075,6,0,P|237:177|232:145,1,65,0|2,1:0|0:0,0:0:0:0:
171,86,54524,2,0,B|235:101|235:101|297:85,2,130,8|0|8,1:2|1:0|1:2,0:0:0:0:
2,94,55870,6,0,B|-3:128|13:157|13:157|28:185|27:219,1,130,0|8,1:0|1:2,0:0:0:0:
85,280,56543,1,2,0:0:0:0:
168,292,56768,2,0,L|171:356,2,65,0|2|8,1:0|0:3|1:2,0:0:0:0:
247,264,57441,1,2,0:0:0:0:
306,203,57665,6,0,B|294:169|274:145|274:145|300:130|318:100,1,130,0|8,1:0|1:2,0:0:0:0:
461,189,58563,2,0,L|466:124,2,65,0|2|8,1:0|0:3|1:2,0:0:0:0:
430,269,59236,1,2,0:0:0:0:
357,314,59460,6,0,P|295:326|235:302,1,130,2|10,1:2|1:2,0:0:0:0:
85,221,60358,2,0,P|75:252|76:284,1,65,2|2,1:2|0:0,0:0:0:0:
158,260,60807,2,0,P|167:228|166:196,1,65,2|2,1:2|0:0,0:0:0:0:
123,123,61256,6,0,L|58:117,2,65,4|2|8,1:0|0:0|1:2,0:0:0:0:
275,50,62153,1,0,1:0:0:0:
356,73,62377,1,2,0:3:0:0:
412,136,62602,2,0,P|423:166|422:198,1,65,8|10,1:2|0:2,0:0:0:0:
363,260,63051,6,0,P|350:289|351:322,2,65,0|2|8,1:0|0:0|1:2,0:0:0:0:
334,180,63724,1,2,0:0:0:0:
166,195,64173,1,2,0:3:0:0:
84,171,64397,2,0,P|80:203|88:234,1,65,8|10,1:2|0:0,0:0:0:0:
161,278,64846,6,0,L|155:343,2,65,0|2|8,1:0|0:0|1:2,0:0:0:0:
301,184,65743,1,0,1:0:0:0:
243,121,65968,1,2,0:3:0:0:
160,104,66192,2,0,P|127:105|97:117,1,65,8|10,1:2|0:2,0:0:0:0:
62,194,66641,6,0,P|29:192|-1:180,2,65,0|2|8,1:0|0:0|1:2,0:0:0:0:
146,186,67314,1,2,0:0:0:0:
130,354,67763,1,2,0:3:0:0:
212,336,67987,2,0,L|218:271,1,65,8|10,1:2|0:0,0:0:0:0:
301,256,68436,6,0,L|294:320,2,65,0|2|8,1:0|0:0|1:2,0:0:0:0:
227,103,69333,1,0,1:0:0:0:
149,136,69557,1,2,0:3:0:0:
90,196,69782,2,0,P|80:227|80:259,1,65,8|10,1:2|0:0,0:0:0:0:
162,279,70231,6,0,P|171:247|171:215,2,65,0|2|8,1:0|0:0|1:2,0:0:0:0:
105,342,70904,1,2,0:0:0:0:
272,322,71353,1,2,0:3:0:0:
338,270,71577,2,0,B|371:264|371:264|401:269,1,65,8|10,1:2|0:0,0:0:0:0:
474,224,72026,6,0,L|484:160,2,65,0|2|8,1:0|0:0|1:2,0:0:0:0:
313,170,72923,1,0,1:0:0:0:
265,100,73148,1,2,0:3:0:0:
304,24,73372,2,0,P|334:12|366:11,1,65,8|10,1:2|0:0,0:0:0:0:
430,65,73821,6,0,P|460:76|492:77,2,65,0|2|8,1:0|0:0|1:2,0:0:0:0:
350,95,74494,1,2,0:0:0:0:
313,170,74719,2,0,P|282:181|250:182,1,65,2|2,1:2|0:0,0:0:0:0:
172,148,75167,1,2,1:2:0:0:
6,182,75616,6,0,B|15:275|15:275|9:312,1,130,4|8,1:0|1:2,0:0:0:0:
78,359,76289,1,2,0:0:0:0:
136,296,76514,2,0,P|166:285|199:286,1,65,0|2,1:0|0:0,0:0:0:0:
260,344,76962,2,0,P|290:354|323:353,1,65,8|2,1:2|0:0,0:0:0:0:
391,303,77411,6,0,B|370:280|364:245|364:245|340:266|305:269,1,130,0|8,1:0|1:2,0:0:0:0:
288,101,78309,2,0,P|350:111|385:164,1,130,0|8,1:0|1:2,0:0:0:0:
221,202,79206,6,0,B|169:219|122:206|122:206|126:225|123:236,1,130,0|8,1:0|1:2,0:0:0:0:
86,313,79879,1,2,0:0:0:0:
24,254,80104,2,0,P|14:223|16:190,1,65,0|2,1:0|0:0,0:0:0:0:
78,134,80552,2,0,P|79:101|70:70,1,65,8|2,1:2|0:0,0:0:0:0:
137,17,81001,6,0,B|181:30|181:30|263:16,1,130,0|8,1:0|1:2,0:0:0:0:
360,155,81899,1,0,1:0:0:0:
196,119,82348,1,8,1:2:0:0:
355,65,82796,6,0,P|386:68|414:84,1,65,0|2,1:0|0:0,0:0:0:0:
449,161,83244,2,0,P|441:192|423:218,1,65,8|2,1:2|0:0,0:0:0:0:
348,259,83694,2,0,P|411:256|462:295,1,130,0|8,1:0|1:2,0:0:0:0:
295,325,84591,6,0,L|230:316,1,65,0|2,1:0|0:0,0:0:0:0:
180,383,85040,2,0,B|166:253,1,130,8|0,1:2|1:0,0:0:0:0:
107,192,85712,1,2,0:0:0:0:
33,233,85937,2,0,P|52:259|82:273,1,65,8|2,1:2|0:0,0:0:0:0:
166,253,86386,6,0,P|192:196|171:136,1,130,0|8,1:0|1:2,0:0:0:0:
300,24,87284,2,0,P|287:53|286:86,1,65,0|2,1:0|0:0,0:0:0:0:
312,166,87733,1,8,1:2:0:0:
465,96,88181,5,0,1:0:0:0:
