osu file format v14

[General]
AudioFilename: audio.mp3
AudioLeadIn: 0
PreviewTime: 38350
Countdown: 0
SampleSet: Soft
StackLeniency: 0.7
Mode: 0
LetterboxInBreaks: 0
WidescreenStoryboard: 0

[Editor]
DistanceSpacing: 1
BeatDivisor: 4
GridSize: 8
TimelineZoom: 1.8

[Metadata]
Title:Caught Fire (feat. Ashley Lawless)(Cut Ver.)
TitleUnicode:Caught Fire (feat. Ashley Lawless)(Cut Ver.)
Artist:Mercy X
ArtistUnicode:Mercy X
Creator:chopie
Version:Higher than Before
Source:
Tags:dubstep edm trap bass MercyX Caught Fire
BeatmapID:2804555
BeatmapSetID:1354992

[Difficulty]
HPDrainRate:2.7
CircleSize:4
OverallDifficulty:9
ApproachRate:9
SliderMultiplier:2.3
SliderTickRate:1

[Events]
//Background and Video events
0,0,"pog.jpg",0,0
//Break Periods
//Storyboard Layer 0 (Background)
//Storyboard Layer 1 (Fail)
//Storyboard Layer 2 (Pass)
//Storyboard Layer 3 (Foreground)
//Storyboard Layer 4 (Overlay)
//Storyboard Sound Samples

[TimingPoints]
750,400,4,2,1,100,1,0
13550,-100,4,2,1,64,0,0
14150,-100,4,2,1,64,0,0
19950,-100,4,2,1,64,0,0
20350,-100,4,2,1,64,0,0
26350,-100,4,2,1,35,0,0
27550,-100,4,2,1,35,0,0
27850,-100,4,2,1,5,0,0
27950,-100,4,2,1,35,0,0
28250,-100,4,2,1,5,0,0
28350,-100,4,2,1,35,0,0
28650,-100,4,2,1,5,0,0
28750,-100,4,2,1,35,0,0
29050,-100,4,2,1,5,0,0
29150,-100,4,2,1,35,0,0
29550,-100,4,2,1,35,0,0
29850,-100,4,2,1,5,0,0
29950,-100,4,2,1,35,0,0
30150,-100,4,2,1,35,0,0
30350,-100,4,2,1,5,0,0
30550,-100,4,2,1,35,0,0
30750,-100,4,2,1,35,0,0
31050,-100,4,2,1,5,0,0
31150,-100,4,2,1,35,0,0
31450,-100,4,2,1,5,0,0
31550,-100,4,2,1,35,0,0
31850,-100,4,2,1,5,0,0
31950,-100,4,2,1,35,0,0
32250,-100,4,2,1,5,0,0
32350,-100,4,2,1,35,0,0
35950,-76.9230769230769,4,2,1,50,0,0
38350,-133.333333333333,4,2,1,100,0,0
38950,-133.333333333333,4,2,1,5,0,0
39150,-133.333333333333,4,2,1,100,0,0
39350,-133.333333333333,4,2,1,5,0,0
39550,-181.818181818181,4,2,1,100,0,0
39850,-181.818181818181,4,2,1,5,0,0
39950,-50,4,2,1,100,0,1
40050,-50,4,2,1,5,0,1
40350,-50,4,2,1,100,0,1
40650,-50,4,2,1,5,0,1
40750,-66.6666666666667,4,2,1,100,0,1
40847,-66.6666666666667,4,2,1,5,0,1
40950,-66.6666666666667,4,2,1,100,0,1
41050,-66.6666666666667,4,2,1,5,0,1
41150,-50,4,2,1,100,0,1
41450,-50,4,2,1,5,0,1
41550,-181.818181818181,4,2,1,100,0,1
41850,-181.818181818181,4,2,1,5,0,1
41950,-66.6666666666667,4,2,1,100,0,1
42350,-66.6666666666667,4,2,1,100,0,1
42450,-66.6666666666667,4,2,1,5,0,1
42550,-62.5,4,2,1,100,0,1
42650,-62.5,4,2,1,5,0,1
42750,-58.8235294117647,4,2,1,100,0,1
42850,-58.8235294117647,4,2,1,5,0,1
42950,-55.5555555555556,4,2,1,100,0,1
43050,-55.5555555555556,4,2,1,10,0,1
43150,-181.818181818181,4,2,1,100,0,1
43450,-181.818181818181,4,2,1,5,0,1
43550,-66.6666666666667,4,2,1,100,0,1
43850,-66.6666666666667,4,2,1,5,0,1
43950,-66.6666666666667,4,2,1,100,0,1
44250,-66.6666666666667,4,2,1,5,0,1
44350,-50,4,2,1,100,0,1
44650,-50,4,2,1,5,0,1
44750,-50,4,2,1,100,0,1
45050,-50,4,2,1,5,0,1
45150,-50,4,2,1,100,0,1
45450,-50,4,2,1,5,0,1
45550,-66.6666666666667,4,2,1,100,0,1
45650,-66.6666666666667,4,2,1,5,0,1
45750,-62.5,4,2,1,100,0,1
45850,-62.5,4,2,1,5,0,1
45950,-58.8235294117647,4,2,1,100,0,1
46050,-58.8235294117647,4,2,1,5,0,1
46150,-55.5555555555556,4,2,1,100,0,1
46250,-55.5555555555556,4,2,1,5,0,1
46350,-181.818181818181,4,2,1,100,0,1
46650,-181.818181818181,4,2,1,10,0,1
46750,-66.6666666666667,4,2,1,100,0,1
47050,-66.6666666666667,4,2,1,5,0,1
47150,-50,4,2,1,100,0,1
47450,-50,4,2,1,5,0,1
47550,-50,4,2,1,100,0,1
47850,-50,4,2,1,5,0,1
47950,-181.818181818181,4,2,1,100,0,1
48150,-181.818181818181,4,2,1,100,0,0
48650,-181.818181818181,4,2,1,5,0,0
48750,-66.6666666666667,4,2,1,100,0,1
48850,-66.6666666666667,4,2,1,5,0,1
48950,-62.5,4,2,1,100,0,1
49050,-62.5,4,2,1,5,0,1
49150,-58.8235294117647,4,2,1,100,0,1
49250,-58.8235294117647,4,2,1,5,0,1
49350,-55.5555555555556,4,2,1,100,0,1
49450,-55.5555555555556,4,2,1,5,0,1
49550,-181.818181818181,4,2,1,100,0,1
49850,-181.818181818181,4,2,1,5,0,1
49950,-66.6666666666667,4,2,1,100,0,1
50250,-66.6666666666667,4,2,1,5,0,1
50350,-50,4,2,1,100,0,1
50650,-50,4,2,1,5,0,1
50750,-50,4,2,1,100,0,1
51050,-50,4,2,1,5,0,1
51150,-50,4,2,1,100,0,1
51450,-50,4,2,1,5,0,1
51550,-50,4,2,1,100,0,1
51850,-50,4,2,1,5,0,1
51950,-50,4,2,1,100,0,1
52050,-50,4,2,1,5,0,1
52150,-47.6190476190476,4,2,1,100,0,1
52250,-47.6190476190476,4,2,1,5,0,1
52350,-45.4545454545455,4,2,1,100,0,1
52450,-45.4545454545455,4,2,1,5,0,1
52550,-43.4782608695652,4,2,1,100,0,1
52650,-43.4782608695652,4,2,1,5,0,1
52750,-181.818181818181,4,2,1,100,0,1
53050,-181.818181818181,4,2,1,5,0,1
53150,-50,4,2,1,100,0,1
53450,-50,4,2,1,5,0,1
53550,-50,4,2,1,100,0,1
53650,-50,4,2,1,5,0,1
53750,-50,4,2,1,100,0,1
53850,-50,4,2,1,5,0,1
53950,-50,4,2,1,100,0,1
54250,-50,4,2,1,5,0,1
54350,-181.818181818181,4,2,1,100,0,1
54650,-181.818181818181,4,2,1,5,0,1
54750,-181.818181818181,4,2,1,100,0,1
54950,-50,4,2,1,100,0,1
55150,-66.6666666666667,4,2,1,100,0,1
55250,-66.6666666666667,4,2,1,5,0,1
55350,-58.8235294117647,4,2,1,100,0,1
55450,-58.8235294117647,4,2,1,5,0,1
55550,-52.6315789473684,4,2,1,100,0,1
55650,-52.6315789473684,4,2,1,5,0,1
55750,-47.6190476190476,4,2,1,100,0,1
55850,-47.6190476190476,4,2,1,5,0,1
55950,-181.818181818181,4,2,1,100,0,1
56250,-181.818181818181,4,2,1,5,0,1
56350,-50,4,2,1,100,0,1
56650,-50,4,2,1,5,0,1
56750,-50,4,2,1,100,0,1
57050,-50,4,2,1,5,0,1
57150,-43.4782608695652,4,2,1,100,0,1
57450,-43.4782608695652,4,2,1,5,0,1
57550,-50,4,2,1,100,0,1
57850,-50,4,2,1,5,0,1
57950,-66.6666666666667,4,2,1,100,0,1
58250,-66.6666666666667,4,2,1,5,0,1
58350,-66.6666666666667,4,2,1,100,0,1
58450,-66.6666666666667,4,2,1,5,0,1
58550,-58.8235294117647,4,2,1,100,0,1
58650,-58.8235294117647,4,2,1,5,0,1
58750,-52.6315789473684,4,2,1,100,0,1
58850,-52.6315789473684,4,2,1,5,0,1
58950,-47.6190476190476,4,2,1,100,0,1
59050,-47.6190476190476,4,2,1,5,0,1
59150,-181.818181818181,4,2,1,100,0,1
59450,-181.818181818181,4,2,1,5,0,1
59550,-50,4,2,1,100,0,1
59850,-50,4,2,1,5,0,1
59950,-50,4,2,1,100,0,1
60250,-50,4,2,1,5,0,1
60350,-66.6666666666667,4,2,1,100,0,1
60650,-66.6666666666667,4,2,1,5,0,1
60750,-66.6666666666667,4,2,1,100,0,1
61550,-66.6666666666667,4,2,1,100,0,1
61650,-66.6666666666667,4,2,1,5,0,1
61750,-58.8235294117647,4,2,1,100,0,1
61850,-58.8235294117647,4,2,1,5,0,1
61950,-52.6315789473684,4,2,1,100,0,1
62050,-52.6315789473684,4,2,1,5,0,1
62150,-47.6190476190476,4,2,1,100,0,1
62250,-47.6190476190476,4,2,1,5,0,1
62350,-181.818181818181,4,2,1,100,0,1
62650,-181.818181818181,4,2,1,5,0,1
62750,-50,4,2,1,100,0,1
63050,-50,4,2,1,5,0,1
63150,-50,4,2,1,100,0,1
63450,-50,4,2,1,5,0,1
63550,-50,4,2,1,100,0,1
63850,-50,4,2,1,5,0,1
63950,-50,4,2,1,100,0,1
64250,-50,4,2,1,5,0,1
64350,-50,4,2,1,100,0,1
64650,-50,4,2,1,5,0,1
64750,-133.333333333333,4,2,1,100,0,1
65450,-133.333333333333,4,2,1,5,0,1
65550,-133.333333333333,4,2,1,100,0,0
67150,-181.818181818181,4,2,1,100,0,1
67350,-181.818181818181,4,2,1,100,0,0
67850,-181.818181818181,4,2,1,5,0,0
67950,-76.9230769230769,4,2,1,100,0,1
68650,-76.9230769230769,4,2,1,5,0,1
68750,-76.9230769230769,4,2,1,100,0,1
69150,-76.9230769230769,4,2,1,100,0,1
69850,-76.9230769230769,4,2,1,5,0,1
69950,-76.9230769230769,4,2,1,100,0,1
70250,-76.9230769230769,4,2,1,5,0,1
70350,-76.9230769230769,4,2,1,100,0,1
70650,-76.9230769230769,4,2,1,5,0,1
70750,-76.9230769230769,4,2,1,100,0,1
71050,-76.9230769230769,4,2,1,5,0,1
71150,-76.9230769230769,4,2,1,100,0,1
71850,-76.9230769230769,4,2,1,5,0,1
71950,-76.9230769230769,4,2,1,100,0,1
72350,-133.333333333333,4,2,1,100,0,0
73750,-66.6666666666667,4,2,1,100,0,1
74350,-133.333333333333,4,2,1,100,0,1
75050,-133.333333333333,4,2,1,5,0,1
75150,-133.333333333333,4,2,1,100,0,1
75950,-76.9230769230769,4,2,1,100,0,0

[Colours]
Combo1 : 121,2,253
Combo2 : 72,238,247
Combo3 : 244,151,244
Combo4 : 41,224,83

[HitObjects]
430,284,13550,6,0,B|483:280|483:280|417:267|418:209|360:330|275:252,1,230
393,114,14150,2,0,B|372:112|350:153|378:210|327:217|296:209,2,115,0|8|0,0:0|0:0|0:0,0:0:0:0:
241,204,14750,6,0,B|216:198|198:170|198:170|205:207|192:231|192:231|236:279|245:341,1,230
263,137,15350,1,0,0:0:0:0:
419,175,15550,1,0,0:0:0:0:
261,206,15750,1,0,0:0:0:0:
226,211,15850,1,0,0:0:0:0:
199,233,15950,2,0,P|228:281|228:352,1,115,8|0,0:0|0:0,0:0:0:0:
71,315,16350,1,0,0:0:0:0:
205,226,16550,1,0,0:0:0:0:
39,190,16750,6,0,B|21:176|-11:171|-11:171|88:150|175:167,1,230
334,162,17350,2,0,B|313:160|291:201|319:258|268:265|237:257,2,115,0|8|0,0:0|0:0|0:0,0:0:0:0:
471,57,17950,1,0,0:0:0:0:
471,57,18150,2,0,L|469:194,1,115
464,344,18550,5,0,0:0:0:0:
340,223,18750,2,0,P|260:217|218:245,1,115
344,102,19150,1,8,0:0:0:0:
400,265,19350,2,0,L|539:302,1,115
384,146,19750,1,0,0:0:0:0:
257,263,19950,6,0,B|218:288|177:273|179:258|139:243|84:271,1,172.5
144,342,20350,1,0,0:0:0:0:
215,172,20550,1,0,0:0:0:0:
311,328,20750,2,0,P|380:328|426:293,1,115,8|0,0:0|0:0,0:0:0:0:
334,138,21150,1,0,0:0:0:0:
306,319,21350,1,0,0:0:0:0:
451,206,21550,5,0,0:0:0:0:
393,114,21750,2,0,B|372:112|350:153|378:210|327:217|296:209,2,115
209,105,22350,2,0,P|137:134|115:176,1,115,8|0,0:0|0:0,0:0:0:0:
266,272,22750,2,0,P|337:272|384:308,1,115
209,105,23150,6,0,P|137:134|115:176,1,115
80,343,23550,1,0,0:0:0:0:
235,244,23750,1,0,0:0:0:0:
58,190,23950,2,0,L|25:77,1,115,8|0,0:0|0:0,0:0:0:0:
235,244,24350,1,0,0:0:0:0:
58,190,24550,2,0,L|26:75,1,115
207,118,24950,6,0,B|244:173|238:224|238:224|235:304|296:329,1,230
410,189,25550,2,0,L|413:121,1,57.5
412,131,25950,2,0,L|415:351,1,172.5
322,295,26350,5,8,0:0:0:0:
52,44,26750,1,8,0:0:0:0:
322,295,27150,1,8,0:0:0:0:
52,44,27550,2,8,B|-16:36|-16:36|108:27,1,172.5
142,102,27950,6,8,P|199:155|220:86,1,172.5
301,43,28350,2,8,B|369:35|369:35|245:26,1,172.5
209,101,28750,2,8,P|230:174|343:202,1,172.5
393,161,29150,1,8,0:0:0:0:
221,95,29350,1,8,0:0:0:0:
234,278,29550,6,8,B|231:320|181:336|109:278|175:163,1,172.5
228,160,29950,1,8,0:0:0:0:
311,270,30150,2,8,P|356:212|416:208,1,115
486,364,30550,1,8,0:0:0:0:
387,208,30750,2,8,B|356:245|356:245|204:239,1,172.5
140,227,31150,6,8,P|162:151|248:197,1,172.5
306,229,31550,2,8,B|341:279|341:279|337:140,1,172.5
370,81,31950,2,8,B|335:31|335:31|339:170,1,172.5
350,290,32350,1,8,0:0:0:0:
350,290,32750,1,8,0:0:0:0:
350,290,33150,1,8,0:0:0:0:
350,290,33550,1,8,0:0:0:0:
350,290,33950,1,8,0:0:0:0:
350,290,34350,5,8,0:0:0:0:
350,290,34750,1,8,0:0:0:0:
350,290,35150,1,8,0:0:0:0:
350,290,35550,1,8,0:0:0:0:
346,257,35950,5,8,1:0:0:0:
241,58,36150,1,8,1:0:0:0:
465,61,36350,5,8,1:0:0:0:
268,168,36550,1,8,1:0:0:0:
435,316,36750,1,8,1:0:0:0:
457,92,36950,1,8,1:0:0:0:
309,260,37150,1,8,1:0:0:0:
337,37,37350,1,8,1:0:0:0:
428,241,37550,5,8,1:0:0:0:
421,311,37650,1,8,1:0:0:0:
354,330,37750,1,8,1:0:0:0:
311,274,37850,1,8,1:0:0:0:
309,260,37950,1,8,1:0:0:0:
309,189,38050,1,8,1:0:0:0:
243,166,38150,1,8,1:0:0:0:
199,220,38250,1,8,1:0:0:0:
213,239,38350,6,0,P|284:256|208:210,1,258.75000987053,0|0,1:0|1:0,1:0:0:0:
211,196,39150,2,0,P|257:166|292:179,1,86.2500032901765,0|0,1:0|1:0,1:0:0:0:
280,157,39550,2,0,P|238:152|196:186,1,94.8750028953553,0|0,1:0|1:0,1:0:0:0:
137,0,39950,6,0,L|130:221,1,115,8|0,1:0|1:0,1:0:0:0:
134,218,40350,2,0,B|149:178|223:140|284:241|337:249|404:188|358:68|237:139,1,345,0|0,1:0|1:0,1:0:0:0:
194,278,40750,6,0,P|195:316|173:368,1,86.2500032901765,0|0,1:0|1:0,1:0:0:0:
194,363,40950,2,0,P|210:323|212:281,1,86.2500032901765,0|0,1:0|1:0,1:0:0:0:
154,42,41150,2,0,B|182:12|224:12|260:46|269:86|214:144|114:188|88:230|109:274,1,345,0|0,1:0|1:0,1:0:0:0:
191,363,41550,6,0,B|219:363|219:363|245:348|245:348|298:346,1,94.8750028953553,8|0,1:0|1:0,1:0:0:0:
403,221,41950,1,4,3:0:0:0:
225,33,42150,1,4,3:0:0:0:
50,223,42350,6,0,L|28:317,1,86.2500032901765,0|0,1:0|1:0,1:0:0:0:
43,320,42550,2,0,L|66:219,1,92,0|0,1:0|1:0,1:0:0:0:
56,333,42750,2,0,L|81:228,1,97.7500018644333,0|0,1:0|1:0,1:0:0:0:
70,345,42950,2,0,L|97:237,1,103.499996841431,0|0,1:0|1:0,1:0:0:0:
165,103,43150,2,0,B|193:103|193:103|219:88|219:88|272:86,1,94.8750028953553,8|0,1:0|1:0,1:0:0:0:
351,178,43550,2,0,B|380:201|469:173|469:173|436:218|393:247|326:214,1,258.75000987053,0|0,1:0|1:0,1:0:0:0:
240,159,43950,6,0,B|323:106|323:106|424:122|453:108|426:57|364:93,1,258.75000987053,0|0,1:0|1:0,1:0:0:0:
254,60,44350,2,0,B|164:126|164:126|116:103|65:126|65:126|134:95|190:31,1,345,0|0,1:0|1:0,1:0:0:0:
101,206,44750,2,0,B|81:184|114:178|151:179|164:239|236:238|236:238|171:299|27:266,1,345,8|0,1:0|1:0,1:0:0:0:
95,101,45150,2,0,B|118:79|165:94|230:182|299:223|336:205|361:162|351:121|316:101,1,345,0|0,1:0|1:0,1:0:0:0:
233,199,45550,6,0,P|232:237|254:289,1,86.2500032901765,0|0,1:0|1:0,1:0:0:0:
233,284,45750,2,0,P|217:244|214:193,1,92,0|0,1:0|1:0,1:0:0:0:
222,288,45950,2,0,P|206:248|203:187,1,97.7500018644333,0|0,1:0|1:0,1:0:0:0:
210,290,46150,2,0,P|194:250|189:186,1,103.499996841431,0|0,1:0|1:0,1:0:0:0:
251,91,46350,6,0,B|279:91|279:91|305:76|305:76|358:74,1,94.8750028953553,8|0,1:0|1:0,1:0:0:0:
404,191,46750,2,0,B|331:191|331:191|302:215|302:215|235:214|235:214|161:221|161:315,1,258.75000987053,0|0,1:0|1:0,1:0:0:0:
340,274,47150,6,0,B|471:273|471:273|407:242|390:194|390:194|336:194|336:194|314:214|314:214|288:214,1,345,0|0,1:0|1:0,1:0:0:0:
128,234,47550,2,0,B|115:266|72:288|72:288|142:288|142:288|170:294|170:294|199:286|199:286|270:287|270:287|295:212,1,345,0|0,1:0|1:0,1:0:0:0:
293,207,47950,1,8,1:0:0:0:
230,91,48150,6,0,B|279:91|279:91|341:75|341:75|395:75,1,158.125004825592,0|0,1:0|1:0,1:0:0:0:
475,170,48750,6,0,L|491:270,1,86.2500032901765,0|0,1:0|1:0,1:0:0:0:
475,273,48950,2,0,L|458:167,1,92,0|0,1:0|1:0,1:0:0:0:
463,284,49150,2,0,L|443:172,1,97.7500018644333,0|0,1:0|1:0,1:0:0:0:
447,298,49350,2,0,L|428:178,1,103.499996841431,0|0,1:0|1:0,1:0:0:0:
341,74,49550,6,0,B|305:76|305:76|279:91|279:91|251:91,1,94.8750028953553,8|0,1:0|1:0,1:0:0:0:
142,163,49950,2,0,B|107:223|39:226|39:226|111:230|158:284,1,258.75000987053,0|0,1:0|1:0,1:0:0:0:
328,296,50350,6,0,B|373:232|483:217|483:217|377:203|301:76,1,345,0|0,1:0|1:0,1:0:0:0:
226,6,50750,2,0,B|226:137|226:137|291:199|291:199|231:259|231:259|231:172,1,345,0|0,1:0|1:0,1:0:0:0:
244,27,51150,2,0,B|244:158|244:158|309:220|309:220|249:280|249:280|249:193,1,345,0|0,1:0|1:0,1:0:0:0:
261,53,51550,2,0,B|261:184|261:184|326:246|326:246|266:306|266:306|266:219,1,345,0|0,1:0|1:0,1:0:0:0:
159,131,51950,6,0,P|162:187|201:245,1,115,0|0,1:0|1:0,1:0:0:0:
209,227,52150,2,0,P|180:178|187:114,1,120.749996315003,0|0,1:0|1:0,1:0:0:0:
234,221,52350,2,0,P|204:172|227:108,1,126.500003860474,0|0,1:0|1:0,1:0:0:0:
256,211,52550,2,0,P|226:162|277:113,1,132.250002522469,0|0,1:0|1:0,1:0:0:0:
402,156,52750,6,0,B|430:156|430:156|456:141|456:141|509:139,1,94.8750028953553,8|0,1:0|1:0,1:0:0:0:
341,225,53150,2,0,B|300:163|317:108|317:108|236:84|236:84|238:162|238:162|321:185,1,345,0|0,1:0|1:0,1:0:0:0:
398,317,53550,6,0,L|527:339,1,115,0|0,1:0|1:0,1:0:0:0:
510,304,53750,2,0,L|391:282,1,115,0|0,1:0|1:0,1:0:0:0:
470,134,53950,2,0,B|503:89|485:57|485:57|448:-23|448:-23|399:60|399:60|380:89|437:200,1,345,0|0,1:0|1:0,1:0:0:0:
506,279,54350,6,0,L|516:384,1,94.8750028953553,8|0,1:0|1:0,1:0:0:0:
511,381,54750,1,4,3:0:0:0:
298,109,54950,1,4,3:0:0:0:
298,109,55150,6,0,L|298:207,1,86.2500032901765,0|0,1:0|1:0,1:0:0:0:
311,195,55350,2,0,L|311:84,1,97.7500018644333,0|0,1:0|1:0,1:0:0:0:
324,196,55550,2,0,L|325:74,1,109.24999708271,0|0,1:0|1:0,1:0:0:0:
341,198,55750,2,0,L|341:68,1,120.749996315003,0|0,1:0|1:0,1:0:0:0:
247,189,55950,6,0,L|357:198,1,94.8750028953553,0|0,1:0|1:0,1:0:0:0:
488,288,56350,2,0,B|371:276|371:276|361:305|280:350|280:350|420:367,1,345,0|0,1:0|1:0,1:0:0:0:
414,192,56750,6,0,B|377:141|327:150|327:150|298:208|230:279|230:279|356:206,1,345,0|0,1:0|1:0,1:0:0:0:
436,94,57150,2,0,B|345:52|271:79|271:79|257:162|128:267,1,396.750007567406,0|0,1:0|1:0,1:0:0:0:
7,146,57550,6,0,B|44:197|94:188|94:188|159:143|191:59|191:59|65:132,1,345,8|0,1:0|1:0,1:0:0:0:
179,216,57950,2,0,B|278:212|278:212|231:107|231:107|116:123,1,258.75000987053,0|0,1:0|1:0,1:0:0:0:
56,113,58350,6,0,L|41:18,1,86.2500032901765,0|0,1:0|1:0,1:0:0:0:
61,30,58550,2,0,L|78:137,1,97.7500018644333,0|0,1:0|1:0,1:0:0:0:
82,34,58750,2,0,L|97:147,1,109.24999708271,0|0,1:0|1:0,1:0:0:0:
100,38,58950,2,0,L|117:174,1,120.749996315003,0|0,1:0|1:0,1:0:0:0:
291,226,59150,6,0,B|319:226|319:226|345:211|345:211|398:209,1,94.8750028953553,8|0,1:0|1:0,1:0:0:0:
465,79,59550,2,0,B|429:89|429:89|424:191|424:191|438:209|438:209|421:230|421:230|416:348|416:348|327:364,1,345,0|0,1:0|1:0,1:0:0:0:
204,345,59950,6,0,P|247:219|285:347,1,345,0|0,1:0|1:0,1:0:0:0:
160,351,60350,2,0,B|115:363|115:363|71:229|173:162,1,258.75000987053,0|0,1:0|1:0,1:0:0:0:
160,171,60750,1,8,1:0:0:0:
312,250,60950,5,8,3:0:0:0:
278,80,61150,1,8,3:0:0:0:
205,236,61350,1,8,3:0:0:0:
337,290,61550,6,0,L|351:392,1,86.2500032901765,0|0,1:0|1:0,1:0:0:0:
362,368,61750,2,0,L|343:256,1,97.7500018644333,0|0,1:0|1:0,1:0:0:0:
373,362,61950,2,0,L|351:240,1,109.24999708271,0|0,1:0|1:0,1:0:0:0:
382,355,62150,2,0,L|360:226,1,120.749996315003,0|0,1:0|1:0,1:0:0:0:
407,101,62350,6,0,B|444:99|444:99|470:84|470:84|523:82,1,94.8750028953553,8|0,1:0|1:0,1:0:0:0:
462,261,62750,2,0,B|454:310|454:310|343:323|343:323|327:300|327:300|216:307|216:307|189:373,1,345,0|0,1:0|1:0,1:0:0:0:
322,227,63150,6,0,B|314:160|314:160|174:183|174:183|196:342,1,345,0|0,1:0|1:0,1:0:0:0:
332,216,63550,6,0,B|398:206|398:206|412:347|412:347|253:367,1,345,0|0,1:0|1:0,1:0:0:0:
177,224,63950,2,0,B|269:237|269:237|312:366|312:366|223:369|223:369|184:296,1,345,8|0,1:0|1:0,1:0:0:0:
151,181,64350,2,0,B|59:168|59:168|16:39|16:39|105:36|105:36|144:109,1,345,0|0,1:0|1:0,1:0:0:0:
201,104,64750,6,0,B|207:107|244:74|244:74|287:127|390:138|436:113|415:47|373:21|321:53,1,301.875011515618,0|0,1:0|1:0,1:0:0:0:
346,42,65550,1,8,1:0:0:0:
261,286,65950,2,0,L|313:333,3,43.1250016450883,0|0|0|0,1:0|1:0|1:0|1:0,1:0:0:0:
172,178,66350,6,0,L|158:297,3,86.2500032901765,0|0|0|0,1:0|1:0|1:0|1:0,1:0:0:0:
191,173,67150,1,8,1:0:0:0:
222,148,67350,6,0,B|271:148|271:148|333:132|333:132|387:132,1,158.125004825592,0|0,1:0|1:0,1:0:0:0:
417,209,67950,2,0,B|479:211|505:232|505:232|461:268|369:238|369:238|335:283|222:334|201:215|281:192|361:349,1,523.249976047517,0|0,1:0|1:0,1:0:0:0:
365,344,68750,1,8,1:0:0:0:
6,74,69150,6,0,B|38:98|38:98|146:102|146:102|246:69|209:-22|81:0|146:102|146:102|159:179|259:163,1,523.249976047517,0|0,1:0|1:0,1:0:0:0:
344,104,69950,2,0,B|336:66|410:51|468:84|384:237|374:293,1,224.24998973465,0|0,1:0|1:0,1:0:0:0:
328,319,70350,2,0,B|281:338|234:313|234:313|214:331|214:331|166:306|100:333,1,224.24998973465,8|0,1:0|1:0,1:0:0:0:
191,240,70750,2,0,B|172:218|172:218|197:185|211:142|211:142|229:185|259:220|259:220|226:260,1,224.24998973465,0|0,1:0|1:0,1:0:0:0:
136,273,71150,2,0,B|91:222|91:222|158:158|205:73|205:73|258:160|333:227|333:227|268:287,1,523.249976047517,0|0,1:0|1:0,1:0:0:0:
265,290,71950,1,0,1:0:0:0:
261,286,72350,2,0,L|313:333,3,43.1250016450883,0|0|0|0,1:0|1:0|1:0|1:0,1:0:0:0:
172,178,72750,6,0,L|158:297,3,86.2500032901765,0|0|0|0,1:0|1:0|1:0|1:0,1:0:0:0:
223,149,73550,1,8,1:0:0:0:
223,149,73750,1,8,3:0:0:0:
380,354,73950,1,8,3:0:0:0:
368,15,74150,1,8,3:0:0:0:
226,263,74350,6,0,B|172:242|256:212|296:253|296:253|327:219|327:219|408:253|468:199|374:185|368:247,1,301.875011515618,0|0,1:0|1:0,1:0:0:0:
378,196,75150,1,8,1:0:0:0:
256,192,75550,1,0,1:0:0:0:
256,192,75650,12,0,77550,1:0:0:0:
