osu file format v14

[General]
AudioFilename: audio.mp3
AudioLeadIn: 0
PreviewTime: 38350
Countdown: 0
SampleSet: Normal
StackLeniency: 0.3
Mode: 0
LetterboxInBreaks: 0
WidescreenStoryboard: 0

[Editor]
Bookmarks: 13555,26355,35955,39955,47955,48755,64755,75549
DistanceSpacing: 4.8
BeatDivisor: 4
GridSize: 8
TimelineZoom: 1.6

[Metadata]
Title:Caught Fire (feat. Ashley Lawless)
TitleUnicode:Caught Fire (feat. Ashley Lawless)
Artist:Mercy X
ArtistUnicode:Mercy X
Creator:[ IWeenox ]
Version:Not Safe Anymore
Source:
Tags:Dance EDM Trap Nation Imakuri Owens
BeatmapID:1346121
BeatmapSetID:631944

[Difficulty]
HPDrainRate:6
CircleSize:4
OverallDifficulty:7.5
ApproachRate:9
SliderMultiplier:2
SliderTickRate:1

[Events]
//Background and Video events
0,0,"59088_anime_scenery_summer_anime_scenery.jpg",0,0
//Break Periods
//Storyboard Layer 0 (Background)
//Storyboard Layer 1 (Fail)
//Storyboard Layer 2 (Pass)
//Storyboard Layer 3 (Foreground)
//Storyboard Sound Samples

[TimingPoints]
750,400,4,2,3,30,1,0
13550,-111.111111111111,4,2,3,30,0,0
18550,-117.647058823529,4,2,3,30,0,0
22350,-111.111111111111,4,2,3,30,0,0
22750,-100,4,2,3,30,0,0
23550,-111.111111111111,4,2,3,30,0,0
25550,-133.333333333333,4,2,3,30,0,0
25850,-133.333333333333,4,2,3,5,0,0
25950,-66.6666666666667,4,2,3,30,0,0
26350,-100,4,1,2,40,0,0
37950,-83.3333333333333,4,1,2,40,0,0
38350,-200,4,1,2,40,0,0
39950,-50,4,1,0,85,0,0
40350,-90.9090909090909,4,1,3,85,0,1
40650,-90.9090909090909,4,1,3,5,0,1
40750,-66.6666666666667,4,1,3,85,0,1
40850,-66.6666666666667,4,1,3,5,0,1
40950,-66.6666666666667,4,1,3,85,0,1
41050,-66.6666666666667,4,1,3,5,0,1
41150,-133.333333333333,4,1,3,85,0,1
41450,-133.333333333333,4,1,3,5,0,1
41550,-90.9090909090909,4,1,4,85,0,1
41950,-100,4,3,2,85,0,1
42350,-66.6666666666667,4,1,3,85,0,1
42450,-66.6666666666667,4,1,3,5,0,1
42550,-66.6666666666667,4,1,3,85,0,1
42650,-66.6666666666667,4,1,3,5,0,1
42750,-66.6666666666667,4,1,3,85,0,1
42850,-66.6666666666667,4,1,3,5,0,1
42950,-117.647058823529,4,1,3,85,0,1
43150,-117.647058823529,4,1,4,85,0,1
43550,-117.647058823529,4,1,3,70,0,1
43850,-117.647058823529,4,1,3,5,0,1
43950,-95.238095238095,4,1,3,70,0,1
44250,-95.238095238095,4,1,3,5,0,1
44350,-80,4,1,3,70,0,1
44650,-80,4,1,3,5,0,1
44750,-68.9655172413793,4,1,4,70,0,1
45050,-68.9655172413793,4,1,4,5,0,1
45150,-64.5161290322581,4,1,3,70,0,1
45450,-64.5161290322581,4,1,3,5,0,1
45550,-66.6666666666667,4,1,3,85,0,1
45650,-66.6666666666667,4,1,3,5,0,1
45750,-66.6666666666667,4,1,3,85,0,1
45850,-66.6666666666667,4,1,3,5,0,1
45950,-66.6666666666667,4,1,3,85,0,1
46050,-66.6666666666667,4,1,3,5,0,1
46150,-125,4,1,4,85,0,1
46250,-125,4,1,4,5,0,1
46350,-125,4,1,4,95,0,1
46750,-111.111111111111,4,1,3,70,0,1
47050,-111.111111111111,4,1,3,5,0,1
47150,-90.9090909090909,4,1,3,70,0,1
47450,-90.9090909090909,4,1,3,5,0,1
47550,-111.111111111111,4,1,3,70,0,1
47850,-111.111111111111,4,1,3,5,0,1
47950,-76.9230769230769,4,2,2,95,0,0
48750,-66.6666666666667,4,1,3,85,0,1
48850,-66.6666666666667,4,1,3,5,0,1
48950,-66.6666666666667,4,1,3,85,0,1
49050,-66.6666666666667,4,1,3,5,0,1
49150,-66.6666666666667,4,1,3,85,0,1
49250,-66.6666666666667,4,1,3,5,0,1
49350,-111.111111111111,4,1,3,85,0,1
49550,-111.111111111111,4,1,4,85,0,1
49950,-125,4,1,3,70,0,1
50250,-125,4,1,3,5,0,1
50350,-99.9999999999999,4,1,3,70,0,1
50650,-99.9999999999999,4,1,3,5,0,1
50750,-83.3333333333333,4,1,3,70,0,1
51050,-83.3333333333333,4,1,3,5,0,1
51150,-71.4285714285714,4,1,4,70,0,1
51450,-71.4285714285714,4,1,4,5,0,1
51550,-62.5,4,1,3,70,0,1
51850,-62.5,4,1,3,5,0,1
51950,-66.6666666666667,4,1,3,85,0,1
52050,-66.6666666666667,4,1,3,5,0,1
52150,-66.6666666666667,4,1,3,85,0,1
52250,-66.6666666666667,4,1,3,5,0,1
52350,-66.6666666666667,4,1,3,85,0,1
52450,-66.6666666666667,4,1,3,5,0,1
52550,-125,4,1,4,85,0,1
52650,-125,4,1,4,5,0,1
52750,-125,4,1,4,95,0,1
53150,-62.5,4,1,3,85,0,1
53550,-66.6666666666667,4,1,3,85,0,1
53650,-66.6666666666667,4,1,3,5,0,1
53750,-66.6666666666667,4,1,3,85,0,1
53850,-66.6666666666667,4,1,3,5,0,1
53950,-125,4,1,3,85,0,1
54250,-125,4,1,3,5,0,1
54350,-90.9090909090909,4,1,4,85,0,1
54750,-100,4,3,2,85,0,1
55150,-66.6666666666667,4,1,3,85,0,1
55250,-66.6666666666667,4,1,3,5,0,1
55350,-66.6666666666667,4,1,3,85,0,1
55450,-66.6666666666667,4,1,3,5,0,1
55550,-66.6666666666667,4,1,3,85,0,1
55650,-66.6666666666667,4,1,3,5,0,1
55750,-66.6666666666667,4,1,3,85,0,1
55950,-125,4,1,4,85,0,1
56350,-111.111111111111,4,1,3,70,0,1
56650,-111.111111111111,4,1,3,5,0,1
56750,-90.9090909090909,4,1,3,70,0,1
57050,-90.9090909090909,4,1,3,5,0,1
57150,-76.9230769230769,4,1,3,70,0,1
57450,-76.9230769230769,4,1,3,5,0,1
57550,-66.6666666666667,4,1,4,70,0,1
57850,-66.6666666666667,4,1,4,5,0,1
57950,-58.8235294117647,4,1,3,70,0,1
58250,-58.8235294117647,4,1,3,5,0,1
58350,-66.6666666666667,4,1,3,85,0,1
58450,-66.6666666666667,4,1,3,5,0,1
58550,-66.6666666666667,4,1,3,85,0,1
58650,-66.6666666666667,4,1,3,5,0,1
58750,-66.6666666666667,4,1,3,85,0,1
58850,-66.6666666666667,4,1,3,5,0,1
58950,-133.333333333333,4,1,4,85,0,1
59050,-133.333333333333,4,1,4,5,0,1
59150,-133.333333333333,4,1,4,95,0,1
59550,-111.111111111111,4,1,3,70,0,1
59850,-111.111111111111,4,1,3,5,0,1
59950,-90.9090909090909,4,1,3,70,0,1
60250,-90.9090909090909,4,1,3,5,0,1
60350,-76.9230769230769,4,1,3,70,0,1
60650,-76.9230769230769,4,1,3,5,0,1
60750,-76.9230769230769,4,1,4,70,0,1
60950,-76.9230769230769,4,3,3,100,0,0
61550,-66.6666666666667,4,1,3,85,0,1
61650,-66.6666666666667,4,1,3,5,0,1
61750,-66.6666666666667,4,1,3,85,0,1
61850,-66.6666666666667,4,1,3,5,0,1
61950,-66.6666666666667,4,1,3,85,0,1
62050,-66.6666666666667,4,1,3,5,0,1
62150,-66.6666666666667,4,1,3,85,0,1
62350,-125,4,1,4,85,0,1
62750,-111.111111111111,4,1,3,70,0,1
63050,-111.111111111111,4,1,3,5,0,1
63150,-90.9090909090909,4,1,3,70,0,1
63450,-90.9090909090909,4,1,3,5,0,1
63550,-76.9230769230769,4,1,3,70,0,1
63850,-76.9230769230769,4,1,3,5,0,1
63950,-66.6666666666667,4,1,4,70,0,1
64250,-66.6666666666667,4,1,4,5,0,1
64350,-58.8235294117647,4,1,3,70,0,1
64650,-58.8235294117647,4,1,3,5,0,1
64750,-200,4,1,3,70,0,0
65450,-200,4,1,4,5,0,0
65550,-200,4,1,4,95,0,0
65950,-66.6666666666667,4,1,3,60,0,0
66350,-76.9230769230769,4,1,3,50,0,0
66750,-111.111111111111,4,1,3,40,0,0
67150,-111.111111111111,4,2,2,95,0,0
67950,-111.111111111111,4,1,3,70,0,0
68650,-111.111111111111,4,1,3,5,0,0
68750,-111.111111111111,4,1,4,95,0,0
69150,-142.857142857143,4,1,3,70,0,0
69850,-142.857142857143,4,1,3,5,0,0
69950,-111.111111111111,4,1,3,70,0,0
70250,-111.111111111111,4,1,3,5,0,0
70350,-90.9090909090909,4,1,4,70,0,0
70650,-90.9090909090909,4,1,4,5,0,0
70750,-76.9230769230769,4,1,3,70,0,0
71050,-76.9230769230769,4,1,3,5,0,0
71150,-83.3333333333333,4,1,3,70,0,0
71850,-83.3333333333333,4,1,3,5,0,0
71950,-83.3333333333333,4,1,4,95,0,0
72350,-66.6666666666667,4,1,3,60,0,0
72750,-76.9230769230769,4,1,3,50,0,0
73150,-111.111111111111,4,1,3,40,0,0
73550,-111.111111111111,4,1,4,95,0,0
73750,-111.111111111111,4,1,4,100,0,0
74350,-142.857142857143,4,1,3,70,0,0
75050,-142.857142857143,4,1,3,5,0,0
75150,-142.857142857143,4,1,4,95,0,0
75550,-142.857142857143,4,1,5,100,0,0
77550,-142.857142857143,4,1,3,50,0,0

[Colours]
Combo1 : 157,0,0
Combo2 : 255,91,91
Combo3 : 230,230,230

[HitObjects]
104,144,13550,6,0,B|72:136|72:104|112:80|144:112|136:144|192:160|256:113,1,179.999994506836,2|0,0:0|0:0,0:0:0:0:
190,60,14150,1,0,0:0:0:0:
222,209,14350,2,0,P|286:177|294:129,1,89.9999972534181,4|0,0:0|0:0,0:0:0:0:
146,213,14750,6,0,B|104:272|144:336|144:336|192:272,1,179.999994506836,2|0,0:0|0:0,0:0:0:0:
220,132,15350,1,0,0:0:0:0:
250,284,15550,1,8,0:0:0:0:
130,132,15750,5,0,0:0:0:0:
130,132,15850,1,0,0:0:0:0:
130,132,15950,2,0,L|226:132,1,89.9999972534181,4|0,0:0|0:0,0:0:0:0:
320,176,16350,2,0,P|333:141|317:149,1,89.9999972534181
250,284,16750,2,0,B|330:316|378:252|378:252|350:264|304:264,1,179.999994506836,10|0,0:0|0:0,0:0:0:0:
224,208,17350,1,0,0:0:0:0:
398,176,17550,6,0,P|446:208|459:251,1,89.9999972534181,4|0,0:0|0:0,0:0:0:0:
376,344,17950,1,2,0:0:0:0:
288,252,18150,2,0,L|392:252,1,89.9999972534181,0|0,0:0|0:0,0:0:0:0:
280,328,18550,1,0,0:0:0:0:
280,328,18750,6,0,P|228:300|213:267,1,85.0000016212464,8|0,0:0|0:0,0:0:0:0:
216,112,19150,2,0,L|216:208,1,85.0000016212464,4|8,0:0|0:0,0:0:0:0:
358,144,19550,1,0,0:0:0:0:
298,202,19750,1,8,0:0:0:0:
328,66,19950,6,0,P|384:64|424:91,1,85.0000016212464,10|0,0:0|0:0,0:0:0:0:
472,144,20350,1,0,0:0:0:0:
379,238,20550,1,0,0:0:0:0:
464,309,20750,2,0,L|464:217,1,85.0000016212464,4|0,0:0|0:0,0:0:0:0:
392,120,21150,1,10,0:0:0:0:
464,224,21350,1,0,0:0:0:0:
199,235,21550,6,0,L|282:250,1,85.0000016212464
313,143,21850,1,0,0:0:0:0:
313,143,21950,2,0,P|273:188|296:264,1,127.50000243187,8|0,0:0|0:0,0:0:0:0:
341,208,22350,6,0,L|461:215,1,89.9999972534181,4|0,0:0|0:0,0:0:0:0:
342,40,22750,2,0,B|271:1|271:1|295:77,1,150
313,143,23150,1,10,0:0:0:0:
160,288,23550,5,0,0:0:0:0:
232,192,23750,1,0,0:0:0:0:
288,349,23950,2,0,L|184:349,1,89.9999972534181,4|0,0:0|0:0,0:0:0:0:
184,112,24350,5,2,0:0:0:0:
288,272,24550,1,0,0:0:0:0:
312,142,24750,1,0,0:0:0:0:
184,248,24950,2,0,B|120:280|56:240|56:240|88:216|128:224,1,179.999994506836,0|0,0:2|0:2,0:2:0:0:
184,248,25550,6,0,P|192:308|144:360,1,112.500004291535,4|0,0:0|0:0,0:0:0:0:
152,174,25950,6,0,P|122:127|160:38,1,150.000005722046
392,104,26350,5,14,0:0:0:0:
200,110,26750,1,8,0:0:0:0:
392,104,27150,1,10,0:0:0:0:
200,110,27550,6,0,L|312:110,1,100,10|0,0:0|0:0,0:0:0:0:
344,28,27950,2,0,P|304:68|304:124,1,100,8|0,0:0|0:0,0:0:0:0:
432,122,28350,2,0,B|459:104|459:104|371:104,1,100,10|0,0:0|0:0,0:0:0:0:
247,198,28750,2,0,L|351:197,1,100,8|0,0:0|0:0,0:0:0:0:
432,192,29150,5,10,0:0:0:0:
391,104,29350,1,0,0:0:0:0:
424,272,29550,2,0,P|487:253|512:198,1,100,10|0,0:0|0:0,0:0:0:0:
346,197,29950,5,8,0:0:0:0:
247,198,30150,1,2,0:0:0:0:
147,198,30350,2,0,L|259:198,1,100,10|0,0:0|0:0,0:0:0:0:
200,368,30750,5,10,0:0:0:0:
247,198,30950,1,0,0:0:0:0:
390,328,31150,5,8,0:0:0:0:
224,280,31350,1,0,0:0:0:0:
390,192,31550,2,0,L|390:304,1,100,10|0,0:0|0:0,0:0:0:0:
358,122,31950,2,0,P|417:120|465:176,1,100,8|0,0:0|0:0,0:0:0:0:
472,216,32350,1,10,0:0:0:0:
285,216,32550,5,2,0:0:0:0:
285,216,32750,2,0,B|269:232|269:232|389:192,1,150,10|0,0:0|0:0,0:0:0:0:
224,176,33150,2,0,P|197:220|225:291,1,100,8|0,0:0|0:0,0:0:0:0:
270,328,33550,2,0,B|419:333|419:333|390:292,1,200,8|8,0:0|0:0,0:0:0:0:
336,128,34150,5,0,0:0:0:0:
436,128,34350,2,0,L|336:128,1,100,8|0,0:0|0:0,0:0:0:0:
285,216,34750,1,8,0:0:0:0:
288,48,34950,1,0,0:0:0:0:
284,215,35150,2,0,P|208:189|236:265,1,200,8|8,0:0|0:0,0:0:0:0:
389,291,35950,5,10,0:0:0:0:
240,360,36150,1,0,0:0:0:0:
400,168,36350,5,10,0:0:0:0:
294,293,36550,1,0,0:0:0:0:
360,56,36750,5,10,0:0:0:0:
316,214,36950,1,8,0:0:0:0:
128,152,37150,5,10,0:0:0:0:
280,96,37350,1,8,0:0:0:0:
112,280,37550,5,10,0:0:0:0:
150,310,37650,1,8,0:0:0:0:
199,306,37750,1,10,0:0:0:0:
233,271,37850,1,8,0:0:0:0:
226,220,37950,5,10,0:0:0:0:
275,194,38050,1,10,0:0:0:0:
314,233,38150,1,10,0:0:0:0:
287,282,38250,1,10,0:0:0:0:
233,271,38350,6,0,L|216:160,1,100,14|0,0:0|0:0,0:0:0:0:
208,96,39950,6,0,L|219:174,1,50,8|0,0:0|0:0,0:0:0:0:
376,240,40350,6,0,B|336:224|336:224|472:224,1,165.000005035401,8|0,0:0|0:0,0:0:0:0:
481,334,40750,2,0,L|408:320,1,75.0000028610231
432,136,40950,2,0,L|506:142,1,75.0000028610231,0|0,0:0|0:0,0:0:0:0:
280,280,41150,6,0,P|254:213|278:166,1,112.500004291535,8|0,0:0|0:0,0:0:0:0:
340,329,41550,2,0,L|195:329,1,110.000003356934,10|0,0:0|0:0,0:0:0:0:
140,156,41950,5,8,0:0:0:0:
96,256,42150,1,8,0:0:0:0:
104,80,42350,6,0,P|144:72|216:120,1,75.0000028610231,12|0,0:0|0:0,0:0:0:0:
340,179,42550,2,0,P|303:186|267:178,1,75.0000028610231
410,72,42750,2,0,P|448:63|483:73,1,75.0000028610231
444,231,42950,1,0,0:0:0:0:
444,231,43150,6,0,P|435:189|445:148,1,85.0000016212464,10|0,0:0|0:0,0:0:0:0:
434,313,43550,6,0,P|378:345|298:321,1,127.50000243187,8|0,0:0|0:0,0:0:0:0:
288,224,43950,2,0,B|248:240|264:272|264:272|304:240|360:248|377:288,1,157.499995193482
368,188,44350,2,0,P|294:138|208:180,1,187.5,8|0,0:0|0:0,0:0:0:0:
123,237,44750,2,0,B|99:252|83:211|134:157|134:157|126:219|183:250,1,217.500006637573,8|0,0:0|0:0,0:0:0:0:
211,174,45150,2,0,P|177:89|51:151,1,232.500001773834
40,272,45550,6,0,P|25:237|25:200,1,75.0000028610231,12|0,0:0|0:0,0:0:0:0:
134,157,45750,2,0,L|146:230,1,75.0000028610231
120,384,45950,2,0,L|104:272,1,75.0000028610231
277,289,46150,6,0,B|208:312,1,40,0|0,0:0|0:0,0:0:0:0:
203,314,46350,1,8,0:0:0:0:
240,168,46750,6,0,L|392:184,1,134.999995880127,8|0,0:0|0:0,0:0:0:0:
498,170,47150,2,0,L|334:152,1,165.000005035401
168,160,47550,6,0,L|302:174,1,134.999995880127
302,174,47950,1,2,0:0:0:0:
293,245,48750,6,0,P|307:196|283:148,1,75.0000028610231,12|0,0:0|0:0,0:0:0:0:
152,199,48950,2,0,L|232:199,1,75.0000028610231
152,48,49150,2,0,L|152:128,1,75.0000028610231
227,289,49350,1,0,0:0:0:0:
227,289,49550,6,0,L|227:177,1,89.9999972534181,10|0,0:0|0:0,0:0:0:0:
328,91,49950,6,0,P|376:67|466:95,1,120,8|0,0:0|0:0,0:0:0:0:
416,192,50350,2,0,P|392:200|424:168,1,150,0|0,0:0|0:0,0:0:0:0:
417,280,50750,2,0,B|363:288|323:256|323:256|347:312|373:313,1,179.999994506836
484,341,51150,2,0,P|508:285|392:196,1,209.999993591309,8|0,0:0|0:0,0:0:0:0:
255,226,51550,2,0,B|174:265|174:265|327:256,1,240
416,192,51950,6,0,B|416:117,1,75.0000028610231,12|0,0:0|0:0,0:0:0:0:
312,0,52150,2,0,B|312:75,1,75.0000028610231,0|0,0:0|0:0,0:0:0:0:
267,144,52350,2,0,P|311:156|380:125,1,75.0000028610231
448,80,52550,6,0,L|448:40,1,40
448,8,52750,1,8,0:0:0:0:
267,144,53150,6,0,L|132:144,1,80,8|0,0:0|0:0,0:0:0:0:
80,256,53550,6,0,B|139:273|139:273|120:216,1,75.0000028610231,0|0,0:0|0:0,0:0:0:0:
72,112,53750,2,0,B|13:95|13:95|32:152,1,75.0000028610231,0|0,0:0|0:0,0:0:0:0:
9,266,53950,6,0,P|81:266|65:234,1,120,0|0,0:0|0:0,0:0:0:0:
152,72,54350,2,0,P|160:148|112:196,1,110.000003356934,10|0,0:0|0:0,0:0:0:0:
311,272,54750,5,8,0:0:0:0:
216,216,54950,1,8,0:0:0:0:
387,242,55150,6,0,P|395:274|347:346,1,75.0000028610231,12|0,0:0|0:0,0:0:0:0:
281,179,55350,2,0,P|273:147|321:75,1,75.0000028610231
437,154,55550,2,0,L|325:146,1,75.0000028610231
472,0,55750,1,0,0:0:0:0:
472,0,55950,6,0,L|464:80,1,80,10|0,0:0|0:0,0:0:0:0:
332,70,56350,6,0,P|283:112|280:178,1,134.999995880127,8|0,0:0|0:0,0:0:0:0:
433,188,56750,2,0,B|473:157|473:157|437:140|397:172|361:148,1,165.000005035401
508,232,57150,2,0,P|427:275|352:220,1,194.999991073609,8|0,0:0|0:0,0:0:0:0:
443,66,57550,2,0,B|474:22|474:22|427:208,1,225.000008583069,8|0,0:0|0:0,0:0:0:0:
279,175,57950,2,0,B|254:189|254:189|290:83|290:83|346:59|346:59|330:123,1,255.000004863739
265,267,58350,6,0,P|226:267|193:243,1,75.0000028610231,12|0,0:0|0:0,0:0:0:0:
99,158,58550,2,0,L|187:166,1,75.0000028610231,0|0,0:0|0:0,0:0:0:0:
120,317,58750,2,0,L|128:229,1,75.0000028610231
179,86,58950,6,0,L|234:92,1,37.5000014305115
251,94,59150,1,8,0:0:0:0:
345,287,59550,6,0,P|331:331|299:275,1,134.999995880127,8|0,0:0|0:0,0:0:0:0:
329,203,59950,2,0,P|385:211|433:299,1,165.000005035401,0|0,0:0|0:0,0:0:0:0:
274,319,60350,2,0,B|216:286|216:286|356:287,1,194.999991073609
345,287,60750,1,0,0:0:0:0:
136,384,60950,5,8,0:0:0:0:
173,164,61150,1,8,0:0:0:0:
274,319,61350,1,8,0:0:0:0:
48,192,61550,6,0,L|120:211,1,75.0000028610231,12|0,0:0|0:0,0:0:0:0:
112,128,61750,2,0,L|39:107,1,75.0000028610231
40,25,61950,2,0,L|113:46,1,75.0000028610231
277,147,62150,5,0,0:0:0:0:
277,147,62350,2,0,P|247:172|208:176,1,80,10|0,0:0|0:0,0:0:0:0:
256,304,62750,6,0,B|234:332|260:369|260:369|297:343|287:309,1,134.999995880127,8|0,0:0|0:0,0:0:0:0:
203,258,63150,2,0,P|199:331|235:260,1,165.000005035401
353,245,63550,2,0,P|400:307|421:232,1,194.999991073609
320,146,63950,2,0,B|240:154|240:154|360:250,1,225.000008583069,8|0,0:0|0:0,0:0:0:0:
473,175,64350,2,0,B|515:134|515:134|310:146,1,255.000004863739
192,40,64750,6,0,P|280:72|360:32,1,175
274,148,65550,1,8,0:0:0:0:
176,192,65950,6,0,L|104:192,4,50.0000019073487
56,232,66350,6,0,L|56:145,2,86.6666626993817
256,192,66750,2,0,B|280:144|232:96|232:96|227:128|227:128,1,134.999995880127
208,264,67150,5,2,0:0:0:0:
200,264,67950,6,0,B|176:264|160:240|160:240|200:224|248:248|248:248|240:216|264:160|344:160|360:240|320:240,1,314.999990386963,8|0,0:0|0:0,0:0:0:0:
240,344,68750,1,8,0:0:0:0:
84,263,69150,6,0,B|72:200|129:166|129:166|112:152|96:112|96:112|64:136|72:184,1,244.999992523194,8|0,0:0|0:0,0:0:0:0:
160,240,69950,2,0,P|216:216|296:272,1,134.999995880127,8|0,0:0|0:0,0:0:0:0:
210,347,70350,2,0,B|146:363|146:363|218:291,1,165.000005035401,8|0,0:0|0:2,0:2:0:0:
322,176,70750,2,0,P|363:257|300:324,1,194.999991073609,8|0,0:0|0:0,0:0:0:0:
311,79,71150,6,0,B|415:95|519:79|519:79|447:119|423:175|423:175|407:135|367:111,1,419.999987182618,8|0,0:0|0:0,0:0:0:0:
379,119,71950,1,8,0:0:0:0:
152,128,72350,6,0,L|152:72,4,50.0000019073487,8|0|0|0|0,0:0|0:0|0:0|0:0|0:0,0:0:0:0:
98,216,72750,6,0,L|218:216,2,86.6666626993817
168,296,73150,2,0,P|224:288|264:200,1,134.999995880127
240,40,73550,5,8,0:0:0:0:
184,216,73750,1,0,0:0:0:0:
384,112,73950,1,0,0:0:0:0:
125,94,74150,1,0,0:0:0:0:
365,209,74350,6,0,B|474:256|474:256|429:280|411:310|411:310|413:275|394:260,1,244.999992523194,8|0,0:0|0:0,0:0:0:0:
329,305,75150,1,8,0:0:0:0:
329,305,75550,1,12,0:0:0:0:
256,192,75650,12,0,77550,0:0:0:0:
