osu file format v14

[General]
AudioFilename: audio.mp3
AudioLeadIn: 0
PreviewTime: 38350
Countdown: 0
SampleSet: Normal
StackLeniency: 0.4
Mode: 0
LetterboxInBreaks: 0
WidescreenStoryboard: 1

[Editor]
Bookmarks: 13549,26349,35949,39949,47955,48750,64749,75549
DistanceSpacing: 1.3
BeatDivisor: 2
GridSize: 8
TimelineZoom: 0.9

[Metadata]
Title:Caught Fire (feat. Ashley Lawless)
TitleUnicode:Caught Fire (feat. Ashley Lawless)
Artist:Mercy X
ArtistUnicode:Mercy X
Creator:[ IWeenox ]
Version:Imakuri's Normal
Source:
Tags:Dance EDM Trap Nation Imakuri Owens
BeatmapID:1365653
BeatmapSetID:631944

[Difficulty]
HPDrainRate:4
CircleSize:3
OverallDifficulty:5
ApproachRate:5
SliderMultiplier:1.1
SliderTickRate:1

[Events]
//Background and Video events
0,0,"59088_anime_scenery_summer_anime_scenery.jpg",0,0
//Break Periods
//Storyboard Layer 0 (Background)
//Storyboard Layer 1 (Fail)
//Storyboard Layer 2 (Pass)
//Storyboard Layer 3 (Foreground)
//Storyboard Sound Samples

[TimingPoints]
750,400,4,2,3,30,1,0
13550,-111.111111111111,4,2,3,30,0,0
26350,-100,4,1,2,40,0,0
39950,-100,4,1,0,85,0,0
40350,-100,4,1,3,85,0,1
41550,-100,4,1,4,85,0,1
41950,-100,4,3,2,85,0,1
42350,-100,4,1,3,85,0,1
43150,-100,4,1,4,70,0,1
43550,-100,4,1,3,70,0,1
44750,-100,4,1,4,70,0,1
45150,-100,4,1,3,70,0,1
45550,-100,4,1,3,85,0,1
46150,-100,4,1,3,85,0,1
46350,-100,4,1,4,85,0,1
46750,-100,4,1,3,70,0,1
47550,-100,4,1,3,70,0,1
47950,-100,4,2,2,95,0,0
48750,-100,4,1,3,85,0,1
49550,-100,4,1,4,70,0,1
49950,-100,4,1,3,70,0,1
51150,-100,4,1,4,70,0,1
51550,-100,4,1,3,70,0,1
51950,-100,4,1,3,85,0,1
52550,-100,4,1,3,85,0,1
52750,-100,4,1,4,85,0,1
53150,-100,4,1,3,85,0,1
54350,-100,4,1,4,85,0,1
54750,-100,4,3,2,85,0,1
55150,-100,4,1,3,85,0,1
55950,-100,4,1,4,70,0,1
56350,-100,4,1,3,70,0,1
57550,-100,4,1,4,70,0,1
57950,-100,4,1,3,70,0,1
58350,-100,4,1,3,85,0,1
59150,-100,4,1,4,95,0,1
59550,-100,4,1,3,70,0,1
60350,-100,4,1,4,70,0,1
60750,-100,4,1,4,95,0,0
61550,-100,4,1,3,85,0,1
62350,-100,4,1,4,70,0,1
62750,-100,4,1,3,70,0,1
63950,-100,4,1,4,70,0,1
64350,-100,4,1,3,70,0,1
64750,-100,4,1,4,80,0,0
65550,-100,4,1,4,95,0,0
65950,-100,4,1,3,60,0,0
67150,-100,4,2,2,95,0,0
67950,-100,4,1,3,70,0,0
68750,-100,4,1,4,95,0,0
69150,-100,4,1,3,70,0,0
70350,-100,4,1,4,70,0,0
70750,-100,4,1,3,70,0,0
71950,-100,4,1,4,95,0,0
72350,-100,4,1,3,60,0,0
73550,-100,4,1,4,95,0,0
73950,-100,4,1,4,95,0,0
74350,-100,4,1,3,70,0,0
75150,-100,4,1,4,95,0,0
75550,-100,4,1,5,100,0,0
77550,-100,4,1,3,50,0,0

[Colours]
Combo1 : 155,0,0
Combo2 : 255,91,91
Combo3 : 229,229,229

[HitObjects]
64,56,13550,6,0,P|104:112|232:128,1,197.99999395752,2|4,0:0|0:0,0:0:0:0:
281,26,14750,2,0,B|263:122|263:122|288:221,1,197.99999395752,2|8,0:0|0:0,0:0:0:0:
329,331,15950,1,4,0:0:0:0:
329,331,16750,6,0,P|236:357|129:322,1,197.99999395752,10|4,0:0|0:0,0:0:0:0:
49,255,17950,1,2,0:0:0:0:
197,68,18750,2,0,B|250:58|250:58|300:69,1,98.9999969787599,8|4,0:0|0:0,0:0:0:0:
353,80,19350,1,8,0:0:0:0:
421,178,19750,1,8,0:0:0:0:
437,235,19950,6,0,B|459:296|418:348|418:348|377:337|337:350,1,197.99999395752,10|4,0:0|0:0,0:0:0:0:
222,349,21150,2,0,P|247:258|224:140,1,197.99999395752,10|8,0:0|0:0,0:0:0:0:
177,51,22350,1,4,0:0:0:0:
177,51,23150,6,0,B|127:71|79:58|79:58|96:109|80:165,1,197.99999395752,10|4,0:0|0:0,0:0:0:0:
56,270,24350,1,2,0:0:0:0:
286,327,25150,2,0,L|397:315,1,98.9999969787599,8|4,0:0|0:0,0:0:0:0:
464,228,25950,1,0,0:0:0:0:
464,228,26350,6,0,P|451:166|458:114,1,110,12|8,0:0|0:0,0:0:0:0:
369,21,27150,2,0,L|246:32,1,110,8|8,0:0|0:0,0:0:0:0:
128,48,27950,1,8,0:0:0:0:
208,152,28350,1,10,0:0:0:0:
136,264,28750,2,0,P|186:287|252:281,1,110,8|10,0:0|0:0,0:0:0:0:
298,258,29350,1,0,0:0:0:0:
341,207,29550,6,0,L|350:71,1,110,10|8,0:0|0:0,0:0:0:0:
478,71,30350,2,0,L|469:196,1,110,10|10,0:0|0:0,0:0:0:0:
340,207,31150,2,0,P|277:194|206:217,1,110,8|10,0:0|0:0,0:0:0:0:
111,253,31950,2,0,L|96:101,1,110,8|10,0:0|0:0,0:0:0:0:
119,80,32550,1,0,0:0:0:0:
174,44,32750,6,0,P|235:32|287:43,1,110,10|8,0:0|0:0,0:0:0:0:
400,100,33550,1,8,0:0:0:0:
453,221,33950,1,10,0:0:0:0:
402,343,34350,2,0,L|286:357,1,110,8|8,0:0|0:0,0:0:0:0:
202,260,35150,2,0,L|79:250,1,110,10|8,0:0|0:0,0:0:0:0:
4,153,35950,6,0,P|-6:95|11:40,1,110,10|10,0:0|0:0,0:0:0:0:
134,26,36750,2,0,L|266:41,1,110,10|10,0:0|0:0,0:0:0:0:
374,61,37550,2,2,L|436:53,2,55,10|2|10,0:0|0:0|0:0,0:0:0:0:
288,161,38350,2,0,L|161:172,1,110,14|0,0:0|0:0,0:0:0:0:
65,238,39150,6,0,L|290:261,1,220,0|8,0:0|0:0,0:0:0:0:
415,276,40350,1,8,0:0:0:0:
390,146,40750,1,0,0:0:0:0:
376,82,40950,1,0,0:0:0:0:
362,17,41150,2,0,L|242:24,1,110,8|8,0:0|0:0,0:0:0:0:
120,40,41950,2,0,P|113:72|122:110,1,55,8|0,0:0|0:0,0:0:0:0:
152,152,42350,6,0,P|158:188|148:225,1,55,12|0,0:0|0:0,0:0:0:0:
104,248,42750,2,0,P|100:278|104:304,1,55
144,352,43150,1,0,0:0:0:0:
272,352,43550,1,8,0:0:0:0:
376,272,43950,1,0,0:0:0:0:
376,144,44350,1,8,0:0:0:0:
272,64,44750,2,0,P|213:52|160:64,1,110,8|0,0:0|0:0,0:0:0:0:
56,136,45550,6,0,L|128:136,1,55
168,176,45950,2,0,P|173:208|168:242,1,55
128,280,46350,1,8,0:0:0:0:
224,368,46750,2,0,L|354:361,1,110,8|0,0:0|0:0,0:0:0:0:
448,304,47550,2,0,P|474:244|464:180,1,110,0|2,0:0|0:0,0:0:0:0:
224,104,48750,6,0,P|188:109|136:88,1,55,12|0,0:0|0:0,0:0:0:0:
112,80,49150,2,0,P|76:75|32:96,1,55
24,136,49550,1,0,0:0:0:0:
48,264,49950,1,0,0:0:0:0:
154,345,50350,2,0,P|223:354|273:341,1,110
386,301,51150,1,8,0:0:0:0:
283,217,51550,1,0,0:0:0:0:
400,160,51950,6,0,P|405:136|400:104,1,55,12|0,0:0|0:0,0:0:0:0:
384,40,52350,2,0,L|320:40,1,55
264,40,52750,1,8,0:0:0:0:
144,8,53150,1,0,0:0:0:0:
72,120,53550,2,0,P|68:154|72:180,1,55
96,232,53950,2,0,P|140:284|191:302,1,110,0|10,0:0|0:0,0:0:0:0:
316,296,54750,1,8,0:0:0:0:
443,259,55150,6,0,P|447:203|445:190,1,55,12|0,0:0|0:0,0:0:0:0:
426,142,55550,2,0,P|419:98|421:78,1,55,0|0,0:0|0:0,0:0:0:0:
426,22,55950,1,10,0:0:0:0:
298,53,56350,1,8,0:0:0:0:
171,17,56750,2,0,P|124:47|58:52,1,110,0|8,0:0|0:0,0:0:0:0:
2,166,57550,2,0,L|9:279,1,110,8|0,0:0|0:0,0:0:0:0:
122,344,58350,6,0,P|152:347|183:346,1,55,12|0,0:0|0:0,0:0:0:0:
238,322,58750,2,0,P|271:318|306:323,1,55,0|0,0:0|0:0,0:0:0:0:
357,335,59150,1,8,0:0:0:0:
456,248,59550,1,8,0:0:0:0:
498,123,59950,2,0,L|377:134,1,110
273,70,60750,2,0,L|152:66,1,110
99,83,61350,1,0,0:0:0:0:
88,152,61550,6,0,L|80:240,1,55,12|0,0:0|0:0,0:0:0:0:
104,272,61950,2,0,L|120:360,1,55
151,383,62350,1,10,0:0:0:0:
280,320,62750,1,8,0:0:0:0:
424,320,63150,2,0,P|463:278|483:226,1,110
464,88,63950,1,8,0:0:0:0:
328,32,64350,1,0,0:0:0:0:
328,32,64750,6,0,B|278:70|280:135|280:135|236:114|236:114|233:103|186:140,1,220,0|8,0:0|0:0,0:0:0:0:
64,208,65950,2,0,P|12:230|130:264,1,330,0|2,0:0|0:0,0:0:0:0:
416,304,67950,2,0,B|436:253|436:253|412:197|444:141|444:141|419:94,1,220,8|8,0:0|0:0,0:0:0:0:
304,24,69150,2,0,P|196:29|93:90,1,220,8|8,0:0|0:0,0:0:0:0:
62,209,70350,1,8,0:0:0:0:
122,326,70750,1,8,0:0:0:0:
248,288,71150,6,0,B|306:286|353:315|353:315|390:282|393:212,1,220,8|8,0:0|0:0,0:0:0:0:
338,95,72350,2,0,P|277:31|290:167,1,330,8|8,0:0|0:0,0:0:0:0:
398,215,73950,1,0,0:0:0:0:
378,278,74150,1,0,0:0:0:0:
351,338,74350,6,0,B|275:332|275:332|208:355|208:355|124:351,1,220,8|8,0:0|0:0,0:0:0:0:
3,345,75550,1,12,0:0:0:0:
256,192,75950,12,0,77550,0:0:0:0:
