osu file format v14

[General]
AudioFilename: audio.mp3
AudioLeadIn: 0
PreviewTime: 38350
Countdown: 0
SampleSet: Soft
StackLeniency: 0.3
Mode: 0
LetterboxInBreaks: 0
WidescreenStoryboard: 1

[Editor]
DistanceSpacing: 1.4
BeatDivisor: 4
GridSize: 8
TimelineZoom: 1.6

[Metadata]
Title:Caught Fire (feat. Ashley Lawless)
TitleUnicode:Caught Fire (feat. Ashley Lawless)
Artist:Mercy X
ArtistUnicode:Mercy X
Creator:[ IWeenox ]
Version:Hard
Source:
Tags:Dance EDM Trap Nation Imakuri Owens
BeatmapID:1375822
BeatmapSetID:631944

[Difficulty]
HPDrainRate:5
CircleSize:4
OverallDifficulty:6
ApproachRate:7
SliderMultiplier:1.4
SliderTickRate:1

[Events]
//Background and Video events
0,0,"59088_anime_scenery_summer_anime_scenery.jpg",0,0
//Break Periods
//Storyboard Layer 0 (Background)
//Storyboard Layer 1 (Fail)
//Storyboard Layer 2 (Pass)
//Storyboard Layer 3 (Foreground)
//Storyboard Sound Samples

[TimingPoints]
750,400,4,2,3,30,1,0
13550,-111.111111111111,4,2,3,30,0,0
22350,-125,4,2,3,30,0,0
22750,-111.111111111111,4,2,3,30,0,0
23150,-111.111111111111,4,2,3,30,0,0
25550,-125,4,2,3,30,0,0
25850,-125,4,2,3,5,0,0
25950,-111.111111111111,4,2,3,30,0,0
26250,-111.111111111111,4,2,3,5,0,0
26350,-100,4,1,2,40,0,0
37950,-83.3333333333333,4,1,2,40,0,0
38350,-125,4,1,2,40,0,0
39950,-83.3333333333333,4,1,0,85,0,0
40350,-83.3333333333333,4,1,3,85,0,1
40650,-83.3333333333333,4,1,3,5,0,1
40750,-83.3333333333333,4,1,3,85,0,1
41550,-83.3333333333333,4,1,4,85,0,1
41950,-83.3333333333333,4,3,2,85,0,1
42350,-83.3333333333333,4,1,3,85,0,1
43150,-83.3333333333333,4,1,4,85,0,1
43550,-83.3333333333333,4,1,3,85,0,1
43850,-83.3333333333333,4,1,3,5,0,1
43950,-83.3333333333333,4,1,3,85,0,1
44250,-83.3333333333333,4,1,3,5,0,1
44350,-83.3333333333333,4,1,3,85,0,1
44650,-83.3333333333333,4,1,3,5,0,1
44750,-83.3333333333333,4,1,4,85,0,1
45050,-83.3333333333333,4,1,4,5,0,1
45150,-83.3333333333333,4,1,3,85,0,1
45450,-83.3333333333333,4,1,3,5,0,1
45550,-83.3333333333333,4,1,3,85,0,1
46150,-83.3333333333333,4,1,4,85,0,1
46350,-83.3333333333333,4,1,4,85,0,1
46750,-83.3333333333333,4,1,3,85,0,1
47050,-83.3333333333333,4,1,3,5,0,1
47150,-83.3333333333333,4,1,3,85,0,1
47450,-83.3333333333333,4,1,3,5,0,1
47550,-83.3333333333333,4,1,3,85,0,1
47850,-83.3333333333333,4,1,3,5,0,1
47950,-83.3333333333333,4,2,2,100,0,0
48750,-83.3333333333333,4,1,3,85,0,1
49550,-83.3333333333333,4,1,4,95,0,1
49950,-83.3333333333333,4,1,3,95,0,1
50250,-83.3333333333333,4,1,3,5,0,1
50350,-83.3333333333333,4,1,3,95,0,1
50650,-83.3333333333333,4,1,3,5,0,1
50750,-83.3333333333333,4,1,3,95,0,1
51050,-83.3333333333333,4,1,3,5,0,1
51150,-83.3333333333333,4,1,4,95,0,1
51450,-83.3333333333333,4,1,4,5,0,1
51550,-83.3333333333333,4,1,3,95,0,1
51850,-83.3333333333333,4,1,3,5,0,1
51950,-83.3333333333333,4,1,3,95,0,1
52550,-83.3333333333333,4,1,4,95,0,1
53150,-83.3333333333333,4,1,3,95,0,1
53450,-83.3333333333333,4,1,3,5,0,1
53550,-83.3333333333333,4,1,3,95,0,1
54250,-83.3333333333333,4,1,3,5,0,1
54350,-83.3333333333333,4,1,4,95,0,1
54750,-83.3333333333333,4,3,2,95,0,1
55150,-83.3333333333333,4,1,3,95,0,1
55950,-83.3333333333333,4,1,4,95,0,1
56350,-83.3333333333333,4,1,3,85,0,1
56650,-83.3333333333333,4,1,3,5,0,1
56750,-83.3333333333333,4,1,3,85,0,1
57050,-83.3333333333333,4,1,3,5,0,1
57150,-83.3333333333333,4,1,3,85,0,1
57450,-83.3333333333333,4,1,3,5,0,1
57550,-83.3333333333333,4,1,4,85,0,1
57850,-83.3333333333333,4,1,4,5,0,1
57950,-83.3333333333333,4,1,3,85,0,1
58250,-83.3333333333333,4,1,3,5,0,1
58350,-83.3333333333333,4,1,3,85,0,1
59150,-83.3333333333333,4,1,4,85,0,1
59550,-83.3333333333333,4,1,3,85,0,1
59850,-83.3333333333333,4,1,3,5,0,1
59950,-83.3333333333333,4,1,3,85,0,1
60250,-83.3333333333333,4,1,3,5,0,1
60350,-83.3333333333333,4,1,3,85,0,1
60650,-83.3333333333333,4,1,3,5,0,1
60750,-83.3333333333333,4,1,4,95,0,1
60950,-83.3333333333333,4,3,3,100,0,0
61550,-83.3333333333333,4,1,3,85,0,1
62350,-83.3333333333333,4,1,4,95,0,1
62750,-83.3333333333333,4,1,3,85,0,1
63050,-83.3333333333333,4,1,3,5,0,1
63150,-86.9565217391304,4,1,3,85,0,1
63450,-86.9565217391304,4,1,3,5,0,1
63550,-90.9090909090909,4,1,3,85,0,1
63850,-90.9090909090909,4,1,3,5,0,1
63950,-95.2380952380952,4,1,4,85,0,1
64250,-95.2380952380952,4,1,4,5,0,1
64350,-111.111111111111,4,1,3,85,0,1
64550,-111.111111111111,4,1,3,5,0,1
64750,-125,4,1,4,85,0,0
65550,-133.333333333333,4,1,4,85,0,0
65950,-100,4,1,3,60,0,0
66350,-100,4,1,3,50,0,0
66750,-100,4,1,3,40,0,0
67150,-100,4,2,2,95,0,0
67950,-100,4,1,3,70,0,0
68650,-100,4,1,3,5,0,0
68750,-90.9090909090909,4,1,4,70,0,0
69150,-90.9090909090909,4,1,3,70,0,0
70250,-90.9090909090909,4,1,3,5,0,0
70350,-90.9090909090909,4,1,4,70,0,0
70650,-90.9090909090909,4,1,4,5,0,0
70750,-90.9090909090909,4,1,3,70,0,0
71050,-90.9090909090909,4,1,3,5,0,0
71150,-100,4,1,3,70,0,0
71950,-100,4,1,4,95,0,0
72350,-100,4,1,3,60,0,0
72750,-100,4,1,3,50,0,0
73150,-100,4,1,3,40,0,0
73450,-100,4,1,3,5,0,0
73550,-133.333333333333,4,1,4,95,0,0
73750,-133.333333333333,4,1,4,100,0,0
74350,-111.111111111111,4,1,3,70,0,0
75150,-111.111111111111,4,1,4,95,0,0
75550,-133.333333333333,4,1,5,100,0,0
77550,-133.333333333333,4,1,3,50,0,0

[Colours]
Combo1 : 157,0,0
Combo2 : 255,91,91
Combo3 : 229,229,229

[HitObjects]
199,111,13550,6,0,P|286:77|347:165,1,188.999994232178,2|0,0:0|0:0,0:0:0:0:
267,155,14350,1,4,0:0:0:0:
160,32,14750,2,0,L|170:220,1,188.999994232178,2|0,0:0|0:0,0:0:0:0:
176,304,15550,1,8,0:0:0:0:
176,304,15950,1,4,0:0:0:0:
280,256,16750,6,0,B|328:224|376:256|376:256|424:288|472:256,1,188.999994232178,10|0,0:0|0:0,0:0:0:0:
424,192,17550,1,4,0:0:0:0:
325,321,17950,2,0,P|235:319|205:235,1,188.999994232178,2|0,0:0|0:0,0:0:0:0:
232,152,18750,1,8,0:0:0:0:
368,64,19150,5,4,0:0:0:0:
326,143,19350,1,8,0:0:0:0:
158,162,19750,5,8,0:0:0:0:
158,162,19950,2,0,B|152:24|152:24|112:80,1,188.999994232178,10|0,0:0|0:0,0:0:0:0:
64,120,20750,1,4,0:0:0:0:
112,228,21150,2,0,P|218:216|231:131,1,188.999994232178,10|0,0:0|0:0,0:0:0:0:
158,162,21950,1,8,0:0:0:0:
288,248,22350,6,0,L|376:248,1,84,4|0,0:0|0:0,0:0:0:0:
392,200,22750,2,0,B|408:176|408:176|328:176,1,94.499997116089
304,160,23150,6,0,P|239:98|277:11,1,188.999994232178,10|0,0:0|0:0,0:0:0:0:
317,80,23950,1,4,0:0:0:0:
213,214,24350,2,0,B|149:262|77:214|77:214|133:182,1,188.999994232178,2|0,0:0|0:0,0:0:0:0:
180,139,25150,1,8,0:0:0:0:
248,280,25550,6,0,L|336:280,1,84,4|0,0:0|0:0,0:0:0:0:
368,256,25950,2,0,P|336:208|352:160,1,94.499997116089
376,144,26350,6,0,L|446:144,1,70,14|0,0:0|0:0,0:0:0:0:
392,64,26750,2,0,L|304:64,1,70,8|0,0:0|0:0,0:0:0:0:
232,112,27150,2,0,P|240:72|224:32,1,70,10|0,0:0|0:0,0:0:0:0:
145,90,27550,2,0,P|134:130|145:170,1,70,10|0,0:0|0:0,0:0:0:0:
207,219,27950,6,0,L|295:227,1,70,8|0,0:0|0:0,0:0:0:0:
225,302,28350,2,0,L|129:310,1,70,10|0,0:0|0:0,0:0:0:0:
122,237,28750,2,0,L|120:153,1,70,8|0,0:0|0:0,0:0:0:0:
192,104,29150,2,0,L|194:179,1,70,10|0,0:0|0:0,0:0:0:0:
266,216,29550,6,0,P|306:232|359:214,1,70,10|0,0:0|0:0,0:0:0:0:
368,88,29950,1,8,0:0:0:0:
314,153,30150,1,2,0:0:0:0:
407,216,30350,2,0,L|400:285,1,70,10|0,0:0|0:0,0:0:0:0:
488,320,30750,2,0,L|484:244,1,70,10|0,0:0|0:0,0:0:0:0:
443,151,31150,6,0,P|392:143|355:165,1,70,8|0,0:0|0:0,0:0:0:0:
328,232,31550,2,0,P|294:240|261:231,1,70,10|0,0:0|0:0,0:0:0:0:
195,156,31950,2,0,L|275:156,1,70,8|0,0:0|0:0,0:0:0:0:
314,80,32350,2,0,L|234:80,1,70,10|2,0:0|0:0,0:0:0:0:
150,96,32750,6,0,P|120:134|118:160,1,70,10|0,0:0|0:0,0:0:0:0:
41,141,33150,2,0,P|40:175|56:206,1,70,8|0,0:0|0:0,0:0:0:0:
127,239,33550,2,0,P|159:231|199:239,1,70,8|0,0:0|0:0,0:0:0:0:
234,306,33950,2,0,P|200:314|165:307,1,70,8|0,0:0|0:0,0:0:0:0:
57,274,34350,6,0,P|48:236|67:191,1,70,8|0,0:0|0:0,0:0:0:0:
117,154,34750,2,0,L|187:154,1,70,8|0,0:0|0:0,0:0:0:0:
268,198,35150,2,0,L|268:128,1,70,8|0,0:0|0:0,0:0:0:0:
348,207,35550,2,0,P|341:236|312:266,1,70,8|0,0:0|0:0,0:0:0:0:
208,272,35950,5,10,0:0:0:0:
128,240,36150,1,0,0:0:0:0:
218,132,36350,1,10,0:0:0:0:
272,200,36550,1,0,0:0:0:0:
117,154,36750,2,8,L|47:154,1,70,10|8,0:0|0:0,0:0:0:0:
104,72,37150,2,8,L|192:64,1,70,10|8,0:0|0:0,0:0:0:0:
264,112,37550,6,10,L|256:176,3,35,10|8|10|8,0:0|0:0|0:0|0:0,0:0:0:0:
264,208,37950,2,10,L|272:264,3,41.9999987182618,10|10|10|10,0:0|0:0|0:0|0:0,0:0:0:0:
310,265,38350,6,0,B|454:217|454:217|382:209,1,224,14|0,0:0|0:0,0:0:0:0:
232,296,39950,5,8,0:0:0:0:
232,296,40350,2,0,P|168:320|104:288,1,125.999996154785,8|0,0:0|0:0,0:0:0:0:
112,248,40750,2,0,P|128:184|112:160,1,83.9999974365235
80,96,41150,2,0,L|200:96,1,83.9999974365235,8|0,0:0|0:0,0:0:0:0:
280,96,41550,1,8,0:0:0:0:
232,296,41950,5,8,0:0:0:0:
304,221,42150,1,0,0:0:0:0:
392,296,42350,6,0,L|288:296,1,83.9999974365235,12|0,0:0|0:0,0:0:0:0:
376,136,42750,2,0,L|376:224,1,83.9999974365235
464,176,43150,1,10,0:0:0:0:
416,360,43550,6,0,B|360:376|360:376|284:344,1,125.999996154785,8|0,0:0|0:0,0:0:0:0:
292,296,43950,2,0,P|324:272|260:240,1,125.999996154785
228,248,44350,2,0,P|156:272|100:232,1,125.999996154785,8|0,0:0|0:0,0:0:0:0:
76,224,44750,2,0,P|60:168|116:168,1,125.999996154785,8|0,0:0|0:0,0:0:0:0:
148,160,45150,2,0,P|196:128|172:176,1,125.999996154785,0|0,0:0|0:0,0:0:0:0:
268,198,45550,6,0,P|316:206|372:166,1,83.9999974365235,12|0,0:0|0:0,0:0:0:0:
313,44,45950,2,0,L|305:132,1,83.9999974365235
388,102,46350,1,8,0:0:0:0:
320,244,46750,6,0,B|326:294|326:294|400:236,1,125.999996154785,8|0,0:0|0:0,0:0:0:0:
384,200,47150,2,0,P|336:168|256:200,1,125.999996154785,0|0,0:0|0:0,0:0:0:0:
240,224,47550,2,0,P|168:248|176:208,1,125.999996154785,0|0,0:0|0:0,0:0:0:0:
168,184,47950,1,2,0:0:0:0:
152,24,48750,6,0,L|160:120,1,83.9999974365235,12|0,0:0|0:0,0:0:0:0:
72,184,49150,2,0,L|80:96,1,83.9999974365235,0|0,0:0|0:0,0:0:0:0:
168,184,49550,1,10,0:0:0:0:
296,88,49950,6,0,B|344:88|344:88|360:96|360:96|376:88|376:88|448:88,1,125.999996154785,8|0,0:0|0:0,0:0:0:0:
472,96,50350,2,0,P|497:135|441:183,1,125.999996154785,0|0,0:0|0:0,0:0:0:0:
408,200,50750,2,0,P|368:232|416:288,1,125.999996154785
408,336,51150,2,0,L|248:312,1,125.999996154785,8|0,0:0|0:0,0:0:0:0:
232,304,51550,2,0,P|192:272|240:280,1,125.999996154785
288,217,51950,6,0,P|246:189|191:189,1,83.9999974365235,12|0,0:0|0:0,0:0:0:0:
185,38,52350,2,0,P|169:86|193:142,1,83.9999974365235
247,85,52750,1,8,0:0:0:0:
216,184,53150,6,0,B|192:200|160:200|136:184|136:184|72:184,1,125.999996154785,8|0,0:0|0:0,0:0:0:0:
19,177,53550,1,0,0:0:0:0:
112,104,53750,1,0,0:0:0:0:
94,258,53950,2,0,P|25:218|32:147,1,125.999996154785
32,88,54350,1,10,0:0:0:0:
189,273,54750,5,8,0:0:0:0:
256,184,54950,1,8,0:0:0:0:
354,269,55150,6,0,L|242:269,1,83.9999974365235,12|0,0:0|0:0,0:0:0:0:
344,193,55550,2,0,P|398:206|430:254,1,83.9999974365235
416,328,55950,1,10,0:0:0:0:
264,192,56350,6,0,B|232:64,1,125.999996154785,8|0,0:0|0:0,0:0:0:0:
264,32,56750,2,0,P|304:64|384:16,1,125.999996154785
416,24,57150,2,0,P|464:48|424:120,1,125.999996154785,8|0,0:0|0:0,0:0:0:0:
413,136,57550,2,0,P|381:211|421:272,1,125.999996154785,8|0,0:0|0:0,0:0:0:0:
424,288,57950,2,0,B|360:272|360:272|272:296,1,125.999996154785,0|0,0:0|0:0,0:0:0:0:
233,320,58350,6,0,P|258:352|308:364,1,83.9999974365235,12|0,0:0|0:0,0:0:0:0:
232,160,58750,2,0,L|232:264,1,83.9999974365235
152,208,59150,1,8,0:0:0:0:
344,48,59550,6,0,L|356:200,1,125.999996154785,8|0,0:0|0:0,0:0:0:0:
360,224,59950,2,0,P|418:186|488:216,1,125.999996154785
505,242,60350,2,0,B|521:282|489:330|489:330|449:282,1,125.999996154785,0|0,0:0|0:0,0:0:0:0:
427,262,60750,1,0,0:0:0:0:
298,345,60950,5,8,0:0:0:0:
365,302,61150,1,8,0:0:0:0:
369,378,61350,1,8,0:0:0:0:
298,345,61550,6,0,P|283:303|295:261,1,83.9999974365235,12|0,0:0|0:0,0:0:0:0:
272,128,61950,2,0,P|296:176|264:184,1,83.9999974365235
176,176,62350,1,10,0:0:0:0:
64,312,62750,6,0,B|160:312|160:312|120:272,1,125.999996154785,8|0,0:0|0:0,0:0:0:0:
120,240,63150,2,0,P|88:184|128:112,1,120.750002303124,0|0,0:0|0:0,0:0:0:0:
128,88,63550,2,0,P|192:96|240:64,1,115.50000352478,0|0,0:0|0:0,0:0:0:0:
280,56,63950,2,0,P|328:72|312:120,1,110.249996635437,8|0,0:0|0:0,0:0:0:0:
328,160,64350,2,0,L|400:160,1,62.9999980773926
440,104,64750,6,0,B|480:128|480:184|451:214|451:214|424:240|448:264|448:264|472:240,1,196,0|0,0:0|0:0,0:0:0:0:
456,255,65550,1,8,0:0:0:0:
299,334,65950,6,0,L|259:334,4,23.3333333333333
384,312,66350,6,0,L|384:358,2,46.6666666666667
235,265,66750,2,0,P|200:303|198:358,1,105
275,334,67150,1,2,0:0:0:0:
256,192,67950,6,0,B|312:128|312:128|275:128|275:128|258:120|258:120|240:128|240:128|200:128|200:128|248:144,1,245,8|0,0:0|0:0,0:0:0:0:
216,48,68750,1,8,0:0:0:0:
372,182,69150,6,0,B|397:305|397:305|445:201,1,231.000007049561,8|0,0:0|0:0,0:0:0:0:
414,110,69950,2,0,P|350:102|297:146,1,115.50000352478,8|0,0:0|0:0,0:0:0:0:
288,176,70350,2,0,B|296:240|296:240|272:312,1,115.50000352478,8|0,0:0|0:0,0:0:0:0:
232,304,70750,2,0,P|176:272|112:296,1,115.50000352478,8|0,0:0|0:0,0:0:0:0:
88,272,71150,6,0,P|40:200|136:208,1,210,8|0,0:0|0:0,0:0:0:0:
168,352,71950,1,8,0:0:0:0:
200,208,72350,6,0,L|224:208,4,23.3333333333333
128,184,72750,6,0,L|128:234,2,46.6666666666667
284,156,73150,2,0,P|303:218|279:265,1,105
217,310,73550,5,8,0:0:0:0:
223,208,73750,1,0,0:0:0:0:
294,329,73950,1,0,0:0:0:0:
142,300,74150,1,0,0:0:0:0:
289,253,74350,6,0,P|339:266|340:392,1,188.999994232178,8|0,0:0|0:0,0:0:0:0:
160,376,75150,1,8,0:0:0:0:
160,376,75550,1,12,0:0:0:0:
256,192,75650,12,0,77550,0:0:0:0:
