osu file format v14

[General]
AudioFilename: audio.mp3
AudioLeadIn: 0
PreviewTime: 287166
Countdown: 1
SampleSet: Soft
StackLeniency: 0.3
Mode: 0
LetterboxInBreaks: 0
WidescreenStoryboard: 0

[Editor]
Bookmarks: 960,11994,23028,28546,34063,39580,45097,67166,78201,89235,111304,116822,122339,127856,133373,138891,160960,183028,194063,205097,210615,221649,232684,232770,232856,232942,233028,233115,233201,233287,233373,233460,233546,233632,233718,233804,233891,233977,234063,234149,234235,234322,234408,234494,234580,234666,234753,234839,234925,235011,235097,235184,235270,235356,235442,235528,235615,235701,235787,235873,235960,236046,236132,236218,236304,236391,236477,236563,236649,236735,236822,236908,236994,237080,237166,237253,237339,237425,237511,237597,237684,237770,237856,237942,238028,238115,238201,238287,238373,238460,238546,238632,238718,238804,238891,238977,239063,239149,239235,239322,239408,239494,239580,239666,239753,239839,239925,240011,240097,240184,240270,240356,240442,240528,240615,240701,240787,240873,240960,241046,241132,241218,241304,241391,241477,241563,241649,241735,241822,241908,241994,242080,242166,242253,242339,242425,242511,242597,242684,242770,242856,242942,243028,243115,243201,243287,243373,243460,243546,243632,243804,243891,243977,244063,244149,244235,244322,244408,244494,244580,244666,244753,244839,244925,245011,245097,245184,245270,245356,245442,245528,245615,245701,245787,245873,245960,246046,246132,246218,246304,246391,246477,246563,246649,246735,246822,246908,246994,247080,247166,247253,247339,247425,247511,247597,247684,247770,247856,247942,248028,248115,248201,248287,248373,248460,248546,248632,248718,248804,248891,248977,249063,249149,249235,249322,249408,249494,249580,249666,249753,249839,249925,250011,250097,250184,250270,250356,250442,250528,250615,250701,250787,250873,250960,251046,251132,251218,251304,251391,251477,251563,251649,251735,251822,251908,251994,252080,252166,252253,252339,252425,252511,252597,252684,252770,252856,252942,253028,253115,253201,253287,253373,271304,276822,282339,287856,304408,309925,315442,320960,326477,331994,337511,343028,348546
DistanceSpacing: 1.2
BeatDivisor: 8
GridSize: 32
TimelineZoom: 2.999999

[Metadata]
Title:Secret Desire - Dyes Remix -
TitleUnicode:シークレットデザイア- Dyes Remix - - remix
Artist:Meramipop
ArtistUnicode:めらみぽっぷ
Creator:_MiaoFUuU_
Version:Desire Drive
Source:東方神霊廟 ~ Ten Desires.
Tags:シークレットデザイア 凋叶棕 霍青娥 デザイアドライブ 東方神霊庙 ~ Ten Desires 東方Project 上海アリス幻樂団 touhou project team shanghai alice
BeatmapID:1193655
BeatmapSetID:564647

[Difficulty]
HPDrainRate:6
CircleSize:4.2
OverallDifficulty:8.5
ApproachRate:9.3
SliderMultiplier:1.7
SliderTickRate:1

[Events]
//Background and Video events
0,0,"BG1.jpg",0,0
//Break Periods
2,67366,77647
//Storyboard Layer 0 (Background)
//Storyboard Layer 1 (Fail)
//Storyboard Layer 2 (Pass)
//Storyboard Layer 3 (Foreground)
//Storyboard Sound Samples

[TimingPoints]
960,344.827586206897,4,2,10,100,1,0
3028,-111.111111111111,4,2,10,25,0,0
11304,-80,4,2,4,40,0,0
11994,-100,4,2,2,25,0,0
16132,-100,4,2,2,25,0,0
16304,-100,4,2,2,25,0,0
20270,-100,4,2,2,40,0,0
21649,-80,4,2,2,40,0,0
22339,-68.9655172413793,4,2,2,50,0,0
23028,-66.6666666666667,4,2,13,60,0,0
23201,-66.6666666666667,4,2,2,60,0,0
23718,-66.6666666666667,4,2,2,60,0,0
24063,-62.5,4,2,2,60,0,0
24408,-58.8235294117647,4,2,2,60,0,0
24753,-55.5555555555556,4,2,2,60,0,0
25097,-133.333333333333,4,2,2,60,0,0
25787,-66.6666666666667,4,2,2,60,0,0
26132,-133.333333333333,4,2,2,60,0,0
26477,-66.6666666666667,4,2,2,60,0,0
26822,-62.5,4,2,2,60,0,0
27166,-58.8235294117647,4,2,2,60,0,0
27511,-55.5555555555556,4,2,2,60,0,0
27856,-100,4,2,2,60,0,0
28115,-80,4,2,2,60,0,0
28373,-66.6666666666667,4,2,2,60,0,0
28546,-133.333333333333,4,2,13,60,0,0
29235,-66.6666666666667,4,2,2,60,0,0
29580,-62.5,4,2,2,60,0,0
29925,-58.8235294117647,4,2,2,60,0,0
30270,-55.5555555555556,4,2,2,60,0,0
30615,-133.333333333333,4,2,2,60,0,0
31304,-66.6666666666667,4,2,2,60,0,0
31649,-133.333333333333,4,2,2,60,0,0
31994,-66.6666666666667,4,2,2,60,0,0
32339,-62.5,4,2,2,60,0,0
32684,-58.8235294117647,4,2,2,60,0,0
33028,-55.5555555555556,4,2,2,60,0,0
34063,-133.333333333333,4,2,13,60,0,0
34753,-66.6666666666667,4,2,2,60,0,0
35097,-62.5,4,2,2,60,0,0
35442,-58.8235294117647,4,2,2,60,0,0
35787,-55.5555555555556,4,2,2,60,0,0
36132,-133.333333333333,4,2,2,60,0,0
36822,-66.6666666666667,4,2,2,60,0,0
37166,-133.333333333333,4,2,2,60,0,0
37511,-66.6666666666667,4,2,2,60,0,0
37856,-62.5,4,2,2,60,0,0
38201,-58.8235294117647,4,2,2,60,0,0
38546,-55.5555555555556,4,2,2,60,0,0
38891,-100,4,2,2,60,0,0
39149,-80,4,2,2,60,0,0
39408,-66.6666666666667,4,2,2,60,0,0
39580,-133.333333333333,4,2,13,60,0,0
40270,-66.6666666666667,4,2,2,60,0,0
40615,-62.5,4,2,2,60,0,0
40960,-58.8235294117647,4,2,2,60,0,0
41304,-55.5555555555556,4,2,2,60,0,0
41649,-133.333333333333,4,2,2,60,0,0
42339,-66.6666666666667,4,2,2,60,0,0
42684,-133.333333333333,4,2,2,60,0,0
43028,-66.6666666666667,4,2,2,60,0,0
43718,-62.5,4,2,2,60,0,0
44063,-58.8235294117647,4,2,2,60,0,0
44408,-55.5555555555556,4,2,2,60,0,0
44753,-133.333333333333,4,2,4,60,0,0
45270,-133.333333333333,4,2,4,40,0,0
46735,-133.333333333333,4,2,4,5,0,0
46822,-133.333333333333,4,2,4,40,0,0
47770,-133.333333333333,4,2,4,5,0,0
47856,-133.333333333333,4,2,4,40,0,0
49494,-133.333333333333,4,2,4,5,0,0
49580,-133.333333333333,4,2,4,40,0,0
50184,-133.333333333333,4,2,4,5,0,0
50270,-133.333333333333,4,2,4,40,0,0
50528,-133.333333333333,4,2,4,5,0,0
50615,-133.333333333333,4,2,4,40,0,0
52425,-133.333333333333,4,2,4,5,0,0
52511,-133.333333333333,4,2,4,40,0,0
52942,-133.333333333333,4,2,4,5,0,0
53028,-133.333333333333,4,2,4,40,0,0
54925,-100,4,2,4,40,0,0
55442,-90.9090909090909,4,2,4,40,0,0
56132,-100,4,2,4,40,0,0
56218,-100,4,2,4,5,0,0
56304,-133.333333333333,4,2,4,40,0,0
57770,-133.333333333333,4,2,4,5,0,0
57856,-133.333333333333,4,2,4,40,0,0
58804,-133.333333333333,4,2,4,5,0,0
58891,-133.333333333333,4,2,4,40,0,0
60528,-133.333333333333,4,2,4,5,0,0
60615,-133.333333333333,4,2,4,40,0,0
61218,-133.333333333333,4,2,4,5,0,0
61304,-133.333333333333,4,2,4,40,0,0
61563,-133.333333333333,4,2,4,5,0,0
61649,-133.333333333333,4,2,4,40,0,0
63460,-133.333333333333,4,2,4,5,0,0
63546,-133.333333333333,4,2,4,40,0,0
63977,-133.333333333333,4,2,4,5,0,0
64063,-133.333333333333,4,2,4,40,0,0
66822,-133.333333333333,4,2,4,40,0,0
67166,-133.333333333333,4,2,10,60,0,0
78201,-100,4,2,4,5,0,0
79063,-100,4,2,4,8,0,0
79753,-100,4,2,4,11,0,0
80442,-100,4,2,4,14,0,0
80960,-100,4,2,4,17,0,0
81822,-100,4,2,4,20,0,0
82511,-100,4,2,4,23,0,0
83201,-100,4,2,4,26,0,0
83718,-90.9090909090909,4,2,4,29,0,0
84580,-90.9090909090909,4,2,4,32,0,0
85270,-100,4,2,4,35,0,0
85960,-100,4,2,4,38,0,0
86477,-100,4,2,4,50,0,0
86822,-80,4,2,4,50,0,0
87080,-80,4,2,2,5,0,0
87166,-80,4,2,2,50,0,0
87511,-66.6666666666667,4,2,2,50,0,0
87856,-66.6666666666667,4,2,2,5,0,0
88546,-66.6666666666667,4,2,2,25,0,0
89235,-66.6666666666667,4,2,3,70,0,1
90615,-80,4,2,2,70,0,1
92684,-100,4,2,2,70,0,1
92942,-80,4,2,2,70,0,1
93201,-66.6666666666667,4,2,2,70,0,1
94753,-133.333333333333,4,2,12,70,0,1
95097,-133.333333333333,4,2,2,70,0,1
95442,-100,4,2,2,70,0,1
96132,-80,4,2,2,70,0,1
96822,-66.6666666666667,4,2,2,70,0,1
97511,-80,4,2,12,70,0,1
97684,-80,4,2,2,70,0,1
98373,-66.6666666666667,4,2,2,70,0,1
98891,-80,4,2,2,70,0,1
99580,-80,4,2,2,70,0,0
100270,-57.1428571428571,4,2,3,70,0,1
101649,-66.6666666666667,4,2,2,70,0,1
103718,-80,4,2,2,70,0,1
103977,-66.6666666666667,4,2,3,70,0,1
104235,-57.1428571428571,4,2,2,70,0,1
105787,-133.333333333333,4,2,12,70,0,1
105960,-133.333333333333,4,2,2,70,0,1
106477,-100,4,2,2,70,0,1
107166,-80,4,2,2,70,0,1
107856,-66.6666666666667,4,2,2,70,0,1
108546,-66.6666666666667,4,2,12,70,0,1
108718,-66.6666666666667,4,2,2,70,0,1
109408,-66.6666666666667,4,2,2,70,0,1
110270,-80,4,2,2,70,0,1
111304,-100,4,2,12,40,0,0
111477,-200,4,2,2,40,0,0
115442,-100,4,2,2,40,0,0
116132,-66.6666666666667,4,2,3,40,0,0
116477,-80,4,2,2,40,0,0
116822,-66.6666666666667,4,2,13,60,0,0
116994,-66.6666666666667,4,2,2,60,0,0
117511,-66.6666666666667,4,2,2,60,0,0
117856,-62.5,4,2,2,60,0,0
118201,-58.8235294117647,4,2,2,60,0,0
118546,-55.5555555555556,4,2,2,60,0,0
118891,-133.333333333333,4,2,2,60,0,0
119580,-66.6666666666667,4,2,2,60,0,0
119925,-133.333333333333,4,2,2,60,0,0
120270,-66.6666666666667,4,2,2,60,0,0
120615,-62.5,4,2,2,60,0,0
120960,-58.8235294117647,4,2,2,60,0,0
121304,-55.5555555555556,4,2,2,60,0,0
121649,-100,4,2,2,60,0,0
121908,-80,4,2,2,60,0,0
122166,-66.6666666666667,4,2,2,60,0,0
122339,-133.333333333333,4,2,13,60,0,0
123028,-66.6666666666667,4,2,2,60,0,0
123373,-62.5,4,2,2,60,0,0
123718,-58.8235294117647,4,2,2,60,0,0
124063,-55.5555555555556,4,2,2,60,0,0
124408,-133.333333333333,4,2,2,60,0,0
125097,-66.6666666666667,4,2,2,60,0,0
125442,-133.333333333333,4,2,2,60,0,0
125787,-66.6666666666667,4,2,2,60,0,0
126132,-62.5,4,2,2,60,0,0
126477,-58.8235294117647,4,2,2,60,0,0
126822,-55.5555555555556,4,2,2,60,0,0
127856,-50,4,2,2,35,0,0
128546,-66.6666666666667,4,2,20,100,0,0
128718,-66.6666666666667,4,2,2,60,0,0
128891,-62.5,4,2,2,60,0,0
129235,-58.8235294117647,4,2,2,60,0,0
129494,-55.5555555555556,4,2,2,60,0,0
129925,-133.333333333333,4,2,2,60,0,0
130615,-66.6666666666667,4,2,2,60,0,0
130960,-133.333333333333,4,2,2,60,0,0
131304,-66.6666666666667,4,2,2,60,0,0
131649,-62.5,4,2,2,60,0,0
131994,-58.8235294117647,4,2,2,60,0,0
132339,-55.5555555555556,4,2,2,60,0,0
132684,-100,4,2,2,60,0,0
132942,-83.3333333333333,4,2,2,60,0,0
133201,-66.6666666666667,4,2,2,60,0,0
133373,-133.333333333333,4,2,13,60,0,0
134063,-66.6666666666667,4,2,2,60,0,0
134408,-62.5,4,2,2,60,0,0
134753,-58.8235294117647,4,2,2,60,0,0
135097,-55.5555555555556,4,2,2,60,0,0
135442,-133.333333333333,4,2,2,60,0,0
136132,-66.6666666666667,4,2,2,60,0,0
136477,-133.333333333333,4,2,2,60,0,0
136822,-66.6666666666667,4,2,2,60,0,0
137511,-62.5,4,2,2,60,0,0
137856,-58.8235294117647,4,2,2,60,0,0
138201,-55.5555555555556,4,2,2,60,0,0
138546,-133.333333333333,4,2,2,60,0,0
138891,-76.9230769230769,4,2,2,60,0,0
140270,-76.9230769230769,4,2,3,60,0,0
141304,-100,4,2,2,60,0,0
141649,-76.9230769230769,4,2,2,60,0,0
143028,-76.9230769230769,4,2,3,60,0,0
144408,-76.9230769230769,4,2,2,60,0,0
145787,-76.9230769230769,4,2,3,60,0,0
146822,-100,4,2,2,60,0,0
146922,-100,4,2,2,60,0,0
147166,-76.9230769230769,4,2,2,60,0,0
148201,-76.9230769230769,4,2,3,60,0,0
148546,-76.9230769230769,4,2,2,60,0,0
151304,-76.9230769230769,4,2,3,60,0,0
152684,-76.9230769230769,4,2,2,60,0,0
154063,-76.9230769230769,4,2,3,60,0,0
155097,-100,4,2,2,60,0,0
155442,-76.9230769230769,4,2,2,60,0,0
155960,-100,4,2,2,60,0,0
156477,-76.9230769230769,4,2,2,60,0,0
156822,-76.9230769230769,4,2,3,60,0,0
157856,-100,4,2,2,60,0,0
158201,-76.9230769230769,4,2,2,60,0,0
159580,-76.9230769230769,4,2,3,60,0,0
160960,-71.4285714285714,4,2,23,60,0,0
162339,-71.4285714285714,4,2,2,60,0,0
162511,-71.4285714285714,4,2,23,60,0,0
163028,-71.4285714285714,4,2,2,60,0,0
163201,-71.4285714285714,4,2,23,60,0,0
163718,-71.4285714285714,4,2,2,60,0,0
164063,-71.4285714285714,4,2,23,60,0,0
165097,-71.4285714285714,4,2,2,60,0,0
165270,-71.4285714285714,4,2,23,60,0,0
165787,-71.4285714285714,4,2,2,60,0,0
165960,-71.4285714285714,4,2,23,60,0,0
167856,-71.4285714285714,4,2,2,60,0,0
168028,-71.4285714285714,4,2,23,60,0,0
168546,-71.4285714285714,4,2,2,60,0,0
170615,-71.4285714285714,4,2,2,60,0,0
170787,-71.4285714285714,4,2,23,60,0,0
171304,-71.4285714285714,4,2,2,60,0,0
171477,-71.4285714285714,4,2,23,60,0,0
173373,-71.4285714285714,4,2,2,60,0,0
173546,-71.4285714285714,4,2,23,60,0,0
176132,-71.4285714285714,4,2,2,60,0,0
176304,-71.4285714285714,4,2,23,60,0,0
176822,-71.4285714285714,4,2,2,60,0,0
176908,-71.4285714285714,4,2,23,60,0,0
181649,-111.111111111111,4,2,23,60,0,0
181822,-133.333333333333,4,2,23,5,0,0
182166,-66.6666666666667,4,2,23,25,0,0
183028,-66.6666666666667,4,2,3,70,0,1
183201,-66.6666666666667,4,2,2,70,0,1
185787,-80,4,2,2,70,0,1
186477,-100,4,2,2,70,0,1
186735,-80,4,2,2,70,0,1
186994,-66.6666666666667,4,2,2,70,0,1
187856,-80,4,2,2,70,0,1
188546,-133.333333333333,4,2,12,70,0,1
188891,-133.333333333333,4,2,2,70,0,1
189235,-100,4,2,2,70,0,1
189925,-80,4,2,2,70,0,1
190615,-66.6666666666667,4,2,2,70,0,1
191304,-66.6666666666667,4,2,12,70,0,1
191477,-66.6666666666667,4,2,2,70,0,1
193373,-66.6666666666667,4,2,2,70,0,0
194063,-57.1428571428571,4,2,3,70,0,1
194235,-57.1428571428571,4,2,2,70,0,1
197511,-80,4,2,2,70,0,1
197770,-66.6666666666667,4,2,2,70,0,1
198028,-57.1428571428571,4,2,2,70,0,1
199580,-133.333333333333,4,2,12,70,0,1
199925,-133.333333333333,4,2,2,70,0,1
200270,-100,4,2,2,70,0,1
200960,-80,4,2,2,70,0,1
201649,-66.6666666666667,4,2,2,70,0,1
201994,-80,4,2,2,70,0,1
202339,-66.6666666666667,4,2,12,70,0,1
202511,-66.6666666666667,4,2,2,70,0,1
205097,-80,4,2,12,55,0,0
205270,-80,4,2,2,55,0,0
205787,-100,4,2,2,55,0,0
206477,-133.333333333333,4,2,2,55,0,0
207166,-200,4,2,2,55,0,0
207856,-200,4,2,2,55,0,0
208201,-166.666666666667,4,2,2,55,0,0
208546,-142.857142857143,4,2,2,55,0,0
208891,-125,4,2,2,55,0,0
209235,-111.111111111111,4,2,2,55,0,0
209408,-100,4,2,2,55,0,0
209580,-90.9090909090909,4,2,2,55,0,0
209753,-83.3333333333333,4,2,2,55,0,0
209925,-142.857142857143,4,2,2,55,0,0
210615,-66.6666666666667,4,2,2,55,0,0
210960,-100,4,2,2,55,0,0
211304,-83.3333333333333,4,2,2,55,0,0
211649,-71.4285714285714,4,2,2,55,0,0
211994,-62.5,4,2,2,55,0,0
212339,-55.5555555555556,4,2,2,55,0,0
212684,-50,4,2,2,55,0,0
213373,-66.6666666666667,4,2,2,55,0,0
213718,-100,4,2,2,55,0,0
214063,-83.3333333333333,4,2,2,55,0,0
214408,-71.4285714285714,4,2,2,55,0,0
214753,-66.6666666666667,4,2,2,55,0,0
215787,-80,4,2,2,55,0,0
216132,-66.6666666666667,4,2,2,55,0,0
216477,-100,4,2,2,55,0,0
216822,-83.3333333333333,4,2,2,55,0,0
217166,-71.4285714285714,4,2,2,55,0,0
217511,-62.5,4,2,2,55,0,0
217856,-55.5555555555556,4,2,2,55,0,0
218201,-50,4,2,2,55,0,0
218891,-66.6666666666667,4,2,2,55,0,0
219235,-100,4,2,2,55,0,0
219580,-83.3333333333333,4,2,2,55,0,0
219925,-71.4285714285714,4,2,2,55,0,0
220270,-66.6666666666667,4,2,2,55,0,0
221994,-100,4,2,2,55,0,0
222339,-83.3333333333333,4,2,2,55,0,0
222684,-71.4285714285714,4,2,2,55,0,0
223028,-62.5,4,2,2,55,0,0
223373,-55.5555555555556,4,2,2,55,0,0
223718,-50,4,2,2,55,0,0
224408,-66.6666666666667,4,2,2,55,0,0
224753,-100,4,2,2,55,0,0
225097,-83.3333333333333,4,2,2,55,0,0
225442,-71.4285714285714,4,2,2,55,0,0
225787,-62.5,4,2,2,55,0,0
226822,-50,4,2,2,55,0,0
227166,-66.6666666666667,4,2,2,55,0,0
227511,-100,4,2,2,55,0,0
227856,-83.3333333333333,4,2,2,55,0,0
228201,-71.4285714285714,4,2,2,55,0,0
228546,-62.5,4,2,2,55,0,0
228891,-55.5555555555556,4,2,2,55,0,0
229925,-66.6666666666667,4,2,2,55,0,0
230270,-100,4,2,2,55,0,0
230615,-83.3333333333333,4,2,2,55,0,0
230960,-71.4285714285714,4,2,2,55,0,0
231304,-133.333333333333,4,2,2,55,0,0
231994,-80,4,2,2,55,0,0
232166,-68.9655172413793,4,2,2,55,0,0
232339,-60.6060606060606,4,2,2,55,0,0
232511,-54.054054054054,4,2,2,55,0,0
232684,-52.6315789473684,4,2,3,75,0,1
233028,-52.6315789473684,4,2,2,75,0,1
233201,-52.6315789473684,4,2,3,75,0,1
233718,-52.6315789473684,4,2,2,75,0,1
234063,-52.6315789473684,4,2,3,75,0,1
234408,-52.6315789473684,4,2,2,75,0,1
234580,-52.6315789473684,4,2,3,75,0,1
235097,-52.6315789473684,4,2,2,75,0,1
235442,-52.6315789473684,4,2,3,75,0,1
235787,-52.6315789473684,4,2,2,75,0,1
235960,-52.6315789473684,4,2,3,75,0,1
236477,-52.6315789473684,4,2,2,75,0,1
236822,-52.6315789473684,4,2,3,75,0,1
237166,-52.6315789473684,4,2,2,75,0,1
237339,-52.6315789473684,4,2,3,75,0,1
237511,-58.8235294117647,4,2,3,75,0,1
237770,-55.5555555555556,4,2,3,75,0,1
238028,-52.6315789473684,4,2,3,75,0,1
238546,-52.6315789473684,4,2,2,75,0,1
238718,-52.6315789473684,4,2,3,75,0,1
239235,-52.6315789473684,4,2,2,75,0,1
239580,-52.6315789473684,4,2,3,75,0,1
239925,-52.6315789473684,4,2,2,75,0,1
240097,-52.6315789473684,4,2,3,75,0,1
240615,-52.6315789473684,4,2,2,75,0,1
240960,-52.6315789473684,4,2,3,75,0,1
241304,-52.6315789473684,4,2,2,75,0,1
241477,-52.6315789473684,4,2,3,75,0,1
241994,-52.6315789473684,4,2,2,75,0,1
242339,-52.6315789473684,4,2,3,75,0,1
242684,-52.6315789473684,4,2,2,75,0,1
242856,-52.6315789473684,4,2,3,75,0,1
243373,-52.6315789473684,4,2,2,75,0,0
243718,-133.333333333333,4,2,3,75,0,0
244063,-52.6315789473684,4,2,2,75,0,1
244235,-52.6315789473684,4,2,3,75,0,1
244753,-52.6315789473684,4,2,2,75,0,1
245097,-52.6315789473684,4,2,3,75,0,1
245442,-52.6315789473684,4,2,2,75,0,1
245615,-52.6315789473684,4,2,3,75,0,1
246132,-52.6315789473684,4,2,2,75,0,1
246477,-52.6315789473684,4,2,3,75,0,1
246822,-52.6315789473684,4,2,2,75,0,1
246994,-52.6315789473684,4,2,3,75,0,1
247511,-52.6315789473684,4,2,2,75,0,1
247856,-52.6315789473684,4,2,3,75,0,1
248201,-52.6315789473684,4,2,2,75,0,1
248373,-52.6315789473684,4,2,3,75,0,1
249580,-52.6315789473684,4,2,2,75,0,1
249753,-52.6315789473684,4,2,3,75,0,1
250270,-52.6315789473684,4,2,2,75,0,1
250615,-52.6315789473684,4,2,3,75,0,1
250960,-52.6315789473684,4,2,2,75,0,1
251132,-52.6315789473684,4,2,3,75,0,1
251649,-52.6315789473684,4,2,2,75,0,1
251994,-52.6315789473684,4,2,3,75,0,1
252339,-52.6315789473684,4,2,2,75,0,1
252511,-52.6315789473684,4,2,3,75,0,1
253028,-200,4,2,2,75,0,1
253373,-66.6666666666667,4,2,3,60,0,0
254063,-80,4,2,3,60,0,0
254753,-71.4285714285714,4,2,23,60,0,0
262339,-71.4285714285714,4,2,2,60,0,0
265787,-71.4285714285714,4,2,23,60,0,0
276822,-100,4,2,10,50,0,0
276994,-100,4,2,2,50,0,0
278891,-100,4,2,2,39,0,0
278977,-100,4,2,2,42,0,0
279063,-100,4,2,2,45,0,0
279149,-100,4,2,2,48,0,0
279235,-100,4,2,2,51,0,0
279322,-100,4,2,2,54,0,0
279408,-100,4,2,2,57,0,0
279494,-100,4,2,2,60,0,0
279580,-100,4,2,2,50,0,0
279753,-100,4,2,2,50,0,0
281649,-100,4,2,2,60,0,0
281735,-100,4,2,2,57,0,0
281822,-100,4,2,2,54,0,0
281908,-100,4,2,2,51,0,0
281994,-100,4,2,2,48,0,0
282080,-100,4,2,2,45,0,0
282166,-100,4,2,2,42,0,0
282253,-100,4,2,2,39,0,0
282339,-100,4,2,2,50,0,0
283028,-90.9090909090909,4,2,2,50,0,0
283718,-83.3333333333333,4,2,2,50,0,0
284408,-76.9230769230769,4,2,2,50,0,0
285097,-71.4285714285714,4,2,2,50,0,0
286477,-200,4,2,2,50,0,0
286908,-200,4,2,2,5,0,0
286994,-200,4,2,2,50,0,0
287856,-57.1428571428571,4,2,3,70,0,1
288115,-57.1428571428571,4,2,2,70,0,1
290615,-80,4,2,2,70,0,1
291304,-80,4,2,2,70,0,1
291563,-66.6666666666667,4,2,2,70,0,1
291822,-57.1428571428571,4,2,2,70,0,1
293373,-100,4,2,12,70,0,1
293718,-100,4,2,2,70,0,1
294063,-80,4,2,2,70,0,1
294753,-66.6666666666667,4,2,2,70,0,1
295442,-57.1428571428571,4,2,2,70,0,1
296132,-66.6666666666667,4,2,12,70,0,1
296304,-66.6666666666667,4,2,2,70,0,1
297511,-80,4,2,2,70,0,1
298891,-80,4,2,12,60,0,0
299063,-80,4,2,2,60,0,0
299580,-100,4,2,2,60,0,0
300270,-133.333333333333,4,2,2,60,0,0
300960,-200,4,2,2,60,0,0
301649,-200,4,2,2,60,0,0
301994,-100,4,2,2,60,0,0
302339,-133.333333333333,4,2,2,60,0,0
302684,-80,4,2,2,60,0,0
303028,-100,4,2,2,60,0,0
303201,-90.9090909090909,4,2,2,60,0,0
303373,-83.3333333333333,4,2,2,60,0,0
303546,-76.9230769230769,4,2,2,60,0,0
303718,-57.1428571428571,4,2,2,60,0,0
304063,-66.6666666666667,4,2,2,60,0,0
304408,-57.1428571428571,4,2,13,75,0,1
304580,-57.1428571428571,4,2,2,75,0,1
307166,-50,4,2,2,75,0,1
307511,-57.1428571428571,4,2,2,75,0,1
309494,-54.054054054054,4,2,2,75,0,1
309753,-51.2820512820513,4,2,2,75,0,1
309925,-57.1428571428571,4,2,13,75,0,1
310270,-57.1428571428571,4,2,2,75,0,1
312684,-50,4,2,2,75,0,1
313028,-57.1428571428571,4,2,2,75,0,1
315442,-57.1428571428571,4,2,13,75,0,1
315787,-57.1428571428571,4,2,2,75,0,1
318201,-50,4,2,2,75,0,1
318891,-57.1428571428571,4,2,2,75,0,1
320528,-54.054054054054,4,2,2,75,0,1
320787,-51.2820512820513,4,2,2,75,0,1
320960,-57.1428571428571,4,2,13,75,0,1
321304,-57.1428571428571,4,2,2,75,0,1
323718,-50,4,2,2,75,0,1
324063,-57.1428571428571,4,2,2,75,0,1
326477,-100,4,2,2,60,0,0
326577,-100,4,2,2,60,0,0
337511,-133.333333333333,4,2,2,50,0,0
348546,-133.333333333333,4,2,2,30,0,0

[Colours]
Combo1 : 192,192,192
Combo2 : 192,192,192
Combo3 : 159,117,198
Combo4 : 0,64,128
Combo5 : 114,56,56
Combo6 : 255,0,0
SliderBorder : 255,255,128

[HitObjects]
184,28,959,101,8,0:0:0:0:
200,136,3028,70,0,L|115:157,1,76.4999976654054
290,128,3373,2,0,L|216:148,1,76.4999976654054
425,119,3718,5,0,0:0:0:0:
164,292,5097,85,2,0:0:0:0:
276,308,5787,70,0,L|268:392,1,76.4999976654054
299,223,6132,2,0,L|291:299,1,76.4999976654053
316,114,6477,85,0,0:0:0:0:
316,114,8546,6,0,P|347:91|384:76,1,76.4999976654053
261,50,8891,2,0,P|244:83|235:121,1,76.4999976654053
235,121,9235,70,0,P|107:13|175:165,1,458.999985992432
332,196,10615,5,0,0:0:0:0:
352,216,10701,1,0,0:0:0:0:
359,249,10787,1,0,0:0:0:0:
349,278,10873,1,0,0:0:0:0:
325,298,10960,1,0,0:0:0:0:
295,304,11046,1,0,0:0:0:0:
266,293,11132,1,0,0:0:0:0:
246,268,11218,1,0,0:0:0:0:
244,236,11304,6,0,L|276:236,1,26.5625,2|0,0:0|0:0,0:0:0:0:
224,208,11391,2,0,L|260:192,1,26.5625
196,192,11477,2,0,L|232:168,1,26.5625,2|0,0:0|0:0,0:0:0:0:
160,196,11563,2,0,L|196:160,1,26.5625
140,220,11649,2,0,L|148:176,1,26.5625,2|0,0:0|0:0,0:0:0:0:
128,252,11735,2,0,L|128:208,1,26.5625
136,284,11822,2,0,L|104:164,1,106.25,2|10,0:0|0:1,0:0:0:0:
252,128,12166,70,0,L|258:85,2,42.5
32,24,12511,1,0,0:0:0:0:
32,24,12597,1,0,0:0:0:0:
32,24,12684,2,0,L|40:72,2,42.5
153,98,13028,6,0,L|167:15,1,85
167,15,13287,1,0,0:0:0:0:
166,15,13373,1,0,0:0:0:0:
268,44,13546,2,0,L|256:100,2,42.5
260,172,13891,1,0,0:0:0:0:
260,172,13977,1,0,0:0:0:0:
260,172,14063,70,0,P|302:163|344:159,1,85
365,65,14408,2,0,P|406:75|446:91,1,85
492,184,14753,5,2,0:0:0:0:
325,291,14925,2,0,L|331:249,2,42.5
428,228,15270,1,0,0:0:0:0:
428,228,15356,1,0,0:0:0:0:
428,228,15442,2,0,L|420:300,2,42.5
248,120,15787,2,0,L|249:205,1,85
248,204,16046,1,0,0:0:0:0:
248,204,16132,69,2,0:3:0:0:
128,212,16304,1,0,0:0:0:0:
128,212,16391,1,0,0:0:0:0:
128,212,16477,1,0,0:0:0:0:
48,140,16649,1,0,0:0:0:0:
48,140,16735,1,0,0:0:0:0:
48,140,16822,6,0,L|44:48,1,85
140,224,17166,2,0,L|126:319,1,85
220,152,17511,69,10,0:1:0:0:
232,280,17684,2,0,L|236:336,2,42.5
324,240,18028,1,0,0:0:0:0:
324,240,18115,1,0,0:0:0:0:
324,240,18201,2,0,L|331:283,2,42.5
220,152,18546,1,0,0:0:0:0:
363,119,18718,5,0,0:0:0:0:
363,119,18804,1,0,0:0:0:0:
363,119,18891,1,0,0:0:0:0:
420,316,19063,1,0,0:0:0:0:
420,316,19149,1,0,0:0:0:0:
420,316,19235,1,0,0:0:0:0:
428,184,19408,2,0,L|496:176,1,42.5
504,176,19580,70,0,P|496:216|491:264,1,85
363,119,19925,2,0,P|357:77|349:36,1,85
444,28,20270,5,8,0:1:0:0:
336,208,20442,1,8,0:1:0:0:
348,35,20615,5,8,0:1:0:0:
432,232,20787,1,8,0:1:0:0:
256,20,20960,85,8,0:1:0:0:
192,244,21132,1,8,0:1:0:0:
160,32,21304,69,8,0:1:0:0:
292,272,21477,1,8,0:1:0:0:
260,100,21649,86,0,P|233:100|208:108,1,53.125,8|8,0:1|0:1,0:0:0:0:
191,243,21822,2,0,L|186:191,1,53.125,8|8,0:1|0:1,0:0:0:0:
336,192,21994,6,0,P|311:182|284:181,1,53.125,8|8,0:1|0:1,0:0:0:0:
198,309,22166,2,0,L|192:256,1,53.125,8|8,0:1|0:1,0:0:0:0:
80,156,22339,1,12,0:1:0:0:
400,0,22684,53,0,0:0:0:0:
404,44,22770,1,0,0:0:0:0:
408,88,22856,1,0,0:0:0:0:
412,132,22942,1,0,0:0:0:0:
416,176,23028,53,14,0:0:0:0:
299,243,23201,1,2,0:0:0:0:
484,272,23373,69,2,0:0:0:0:
407,87,23546,1,2,0:0:0:0:
478,187,23718,6,0,P|446:184|415:175,1,63.7500024318696,6|0,0:1|0:0,0:0:0:0:
407,87,23891,2,0,P|375:90|348:107,1,63.7500024318696,2|0,0:0|0:0,0:0:0:0:
204,262,24063,70,0,P|194:233|197:195,1,68,2|0,0:0|0:0,0:0:0:0:
282,180,24235,2,0,P|297:217|285:277,1,68,2|0,0:0|0:0,0:0:0:0:
116,212,24408,6,0,P|121:180|144:134,1,72.2500013780594,10|0,0:1|0:0,0:0:0:0:
155,67,24580,2,0,P|185:80|211:116,1,72.2500013780594,2|0,0:0|0:0,0:0:0:0:
40,208,24753,70,0,P|44:177|63:123,1,76.4999976654053,2|0,0:0|0:0,0:0:0:0:
80,44,24925,2,0,P|48:46|0:40,1,76.4999976654053,2|0,0:0|0:0,0:0:0:0:
112,296,25097,1,6,0:1:0:0:
304,108,25270,22,0,B|360:85|360:85|428:117,1,127.500004863739
396,219,25787,70,0,L|320:224,1,63.7500024318696,10|0,0:1|0:0,0:0:0:0:
332,8,25960,2,0,L|404:4,1,63.7500024318696,2|0,0:0|0:0,0:0:0:0:
420,114,26132,22,0,B|364:137|364:137|296:105,1,127.500004863739,0|6,0:0|0:1,0:0:0:0:
107,32,26649,1,2,0:0:0:0:
107,32,26735,1,0,0:0:0:0:
107,32,26822,38,0,P|125:61|137:100,1,68,2|0,0:0|0:0,0:0:0:0:
108,279,26994,2,0,P|122:250|151:219,1,68,2|0,0:0|0:0,0:0:0:0:
288,124,27166,6,0,L|211:117,1,72.2500013780594,10|0,0:3|0:0,0:0:0:0:
87,160,27339,2,0,L|13:152,1,72.2500013780594,2|0,0:0|0:0,0:0:0:0:
215,29,27511,70,0,L|295:35,1,76.4999976654053,2|0,0:0|0:0,0:0:0:0:
221,194,27684,2,0,L|303:202,1,76.4999976654053,2|0,0:0|0:0,0:0:0:0:
361,81,27856,6,0,P|372:128|348:192,1,85,6|0,0:1|0:0,0:0:0:0:
211,295,28115,2,0,P|203:243|222:194,1,106.25,2|0,0:1|0:0,0:0:0:0:
223,195,28373,2,0,L|288:203,1,63.7500024318696,2|0,0:1|0:0,0:0:0:0:
504,288,28546,6,0,B|440:273|410:223|410:223|401:267|378:289,1,191.250007295609,14|0,0:0|0:0,0:0:0:0:
312,348,29235,22,0,P|296:320|293:288,1,63.7500024318696,6|0,0:1|0:0,0:0:0:0:
328,132,29408,2,0,P|328:163|318:194,1,63.7500024318696,2|0,0:0|0:0,0:0:0:0:
234,218,29580,6,0,P|199:215|167:224,1,68,2|0,0:0|0:0,0:0:0:0:
156,129,29753,2,0,P|187:128|226:119,1,68,2|0,0:0|0:0,0:0:0:0:
48,236,29925,70,0,L|54:312,1,72.2500013780594,10|0,0:1|0:0,0:0:0:0:
168,224,30097,2,0,L|175:302,1,72.2500013780594,2|0,0:0|0:0,0:0:0:0:
293,230,30270,6,0,L|384:251,1,76.4999976654053,2|0,0:0|0:0,0:0:0:0:
420,176,30442,2,0,L|512:196,1,76.4999976654053,2|0,0:0|0:0,0:0:0:0:
312,348,30615,1,6,0:1:0:0:
224,115,30787,54,0,B|166:89|166:89|106:125,1,127.500004863739,2|0,0:0|0:0,0:0:0:0:
28,208,31304,6,0,L|91:216,1,63.7500024318696,10|0,0:1|0:0,0:0:0:0:
300,216,31477,2,0,L|236:207,1,63.7500024318696,2|0,0:0|0:0,0:0:0:0:
111,121,31649,70,0,B|174:146|174:146|224:113,1,127.500004863739,0|6,0:0|0:1,0:0:0:0:
432,36,32166,1,2,0:0:0:0:
432,36,32253,1,0,0:0:0:0:
432,35,32339,22,0,P|426:66|421:105,1,68,2|0,0:0|0:0,0:0:0:0:
352,216,32511,2,0,P|347:184|339:146,1,68,2|0,0:0|0:0,0:0:0:0:
292,44,32684,70,0,P|259:41|220:37,1,72.2500013780594,10|0,0:1|0:0,0:0:0:0:
107,10,32856,2,0,L|111:82,1,72.2500013780594,2|0,0:0|0:0,0:0:0:0:
120,241,33028,6,0,L|115:157,1,76.4999976654053,2|0,0:0|0:0,0:0:0:0:
111,82,33201,2,0,P|76:89|35:95,1,76.4999976654053,2|0,0:0|0:0,0:0:0:0:
201,144,33373,69,4,0:1:0:0:
0,280,33546,1,2,0:0:0:0:
191,359,33718,5,2,0:0:0:0:
0,184,33891,1,2,0:0:0:0:
119,171,34063,54,0,B|84:236|128:296|128:296|154:275|187:269,1,191.250007295609,14|0,0:0|0:0,0:0:0:0:
253,353,34753,38,0,P|222:363|191:359,1,63.7500024318696,6|0,0:1|0:0,0:0:0:0:
241,264,34925,2,0,P|209:262|179:270,1,63.7500024318696,2|0,0:0|0:0,0:0:0:0:
390,301,35097,54,0,P|357:307|322:297,1,68,2|0,0:0|0:0,0:0:0:0:
396,200,35270,2,0,P|364:189|324:197,1,68,2|0,0:0|0:0,0:0:0:0:
228,163,35442,22,0,P|246:133|274:110,1,72.2500013780594,10|0,0:1|0:0,0:0:0:0:
348,41,35615,2,0,P|365:67|375:108,1,72.2500013780594,2|0,0:0|0:0,0:0:0:0:
228,164,35787,54,0,L|146:138,1,76.4999976654053,2|0,0:0|0:0,0:0:0:0:
10,94,35960,2,0,L|93:121,1,76.4999976654053,2|0,0:0|0:0,0:0:0:0:
67,271,36132,1,6,0:1:0:0:
150,27,36304,54,0,B|182:87|182:87|155:140,1,127.500004863739
128,252,36822,54,0,P|97:260|68:271,1,63.7500024318696,10|0,0:1|0:0,0:0:0:0:
248,228,36994,2,0,P|280:221|311:218,1,63.7500024318696,2|0,0:0|0:0,0:0:0:0:
154,140,37166,38,0,B|123:89|123:89|151:26,1,127.500004863739,0|6,0:0|0:1,0:0:0:0:
317,72,37684,1,2,0:0:0:0:
317,72,37770,1,0,0:0:0:0:
317,72,37856,6,0,L|327:3,1,68,2|0,0:0|0:0,0:0:0:0:
480,132,38028,1,2,0:0:0:0:
448,160,38115,1,2,0:0:0:0:
408,160,38201,22,0,P|416:128|433:93,1,72.2500013780594,10|0,0:3|0:0,0:0:0:0:
327,5,38373,2,0,P|337:35|363:79,1,72.2500013780594,2|0,0:0|0:0,0:0:0:0:
292,192,38546,54,0,P|258:181|225:159,1,76.4999976654053,2|0,0:0|0:0,0:0:0:0:
71,256,38718,2,0,P|101:244|135:214,1,76.4999976654053,2|0,0:0|0:0,0:0:0:0:
292,192,38891,22,0,P|296:234|285:274,1,85,6|0,0:1|0:0,0:0:0:0:
135,123,39149,2,0,P|120:73|128:21,1,106.25,2|0,0:1|0:0,0:0:0:0:
128,21,39408,2,0,L|200:-1,1,63.7500024318696,2|0,0:1|0:0,0:0:0:0:
216,162,39580,38,0,B|168:154|136:120|136:120|92:154|42:152,1,191.250007295609,14|0,0:0|0:0,0:0:0:0:
228,100,40270,22,0,L|216:163,1,63.7500024318696,6|0,0:1|0:0,0:0:0:0:
195,250,40442,2,0,L|179:330,1,63.7500024318696,2|0,0:0|0:0,0:0:0:0:
108,252,40615,22,0,L|32:264,1,68,2|0,0:0|0:0,0:0:0:0:
279,235,40787,2,0,L|352:223,1,68
170,384,40960,54,0,L|184:310,1,72.2500013780594,10|0,0:1|0:0,0:0:0:0:
216,162,41132,2,0,L|307:145,1,72.2500013780594,2|0,0:0|0:0,0:0:0:0:
279,235,41304,22,0,L|268:314,1,76.4999976654053,2|0,0:0|0:0,0:0:0:0:
84,384,41477,2,0,L|104:279,1,76.4999976654053,2|0,0:0|0:0,0:0:0:0:
120,176,41649,1,6,0:1:0:0:
268,310,41822,22,0,B|327:287|327:287|383:319,1,127.500004863739,2|0,0:0|0:0,0:0:0:0:
251,176,42339,22,0,P|283:173|315:168,1,63.7500024318696,10|0,0:1|0:0,0:0:0:0:
428,147,42511,2,0,P|459:141|489:133,1,63.7500024318696,2|0,0:0|0:0,0:0:0:0:
382,318,42684,54,0,B|323:341|323:341|267:309,1,127.500004863739,0|6,0:0|0:1,0:0:0:0:
168,136,43201,1,2,0:0:0:0:
168,136,43287,1,0,0:0:0:0:
168,136,43373,54,0,P|171:167|176:200,1,63.7500024318696,2|0,0:0|0:0,0:0:0:0:
100,296,43546,1,2,0:0:0:0:
88,248,43632,1,2,0:0:0:0:
76,200,43718,54,0,L|59:132,1,68,10|0,0:1|0:0,0:0:0:0:
266,76,43891,2,0,L|260:147,1,68,2|0,0:0|0:0,0:0:0:0:
252,232,44063,22,0,L|336:221,1,72.2500013780594,2|0,0:0|0:0,0:0:0:0:
352,56,44235,2,0,L|344:152,1,72.2500013780594,2|0,0:0|0:0,0:0:0:0:
333,230,44408,54,0,L|411:219,1,76.4999976654053,6|0,0:1|0:0,0:0:0:0:
492,213,44580,2,0,L|500:137,1,76.4999976654053,2|0,0:0|0:0,0:0:0:0:
440,0,44753,2,0,L|432:88,1,63.7500024318696,2|0,0:0|0:0,0:0:0:0:
434,79,45011,1,0,0:0:0:0:
433,92,45097,53,8,0:1:0:0:
204,136,45270,2,0,B|256:97|256:97|316:110,1,127.500004863739
316,110,45701,1,0,0:0:0:0:
316,110,45787,1,4,0:1:0:0:
176,52,45960,1,0,0:0:0:0:
176,52,46132,1,0,0:0:0:0:
160,229,46304,6,0,B|198:241|239:224|239:224|280:206|316:216,1,159.375006079674
315,215,46822,2,0,L|304:292,1,63.7500024318696,0|8,0:0|0:1,0:0:0:0:
384,320,47166,6,0,P|290:286|267:382,1,223.125008511544,4|0,0:1|0:0,0:0:0:0:
266,381,47856,53,8,0:1:0:0:
172,324,48028,2,0,B|132:328|132:328|88:352|88:352|50:355,1,127.500004863739
50,355,48460,1,0,0:0:0:0:
50,355,48546,1,4,0:1:0:0:
148,244,48718,1,0,0:0:0:0:
148,244,48891,1,0,0:0:0:0:
266,381,49063,6,0,B|284:296|284:296|240:232,1,159.375006079674
242,236,49580,2,0,L|320:224,1,63.7500024318696,0|8,0:0|0:1,0:0:0:0:
392,184,49925,6,0,P|363:146|320:127,1,95.6250036478044,4|0,0:1|0:0,0:0:0:0:
266,52,50270,2,0,P|311:34|357:41,1,95.6250036478044
320,128,50615,54,0,B|272:152|227:130|227:130|184:108|136:128,1,191.250007295609,8|0,0:1|0:0,0:0:0:0:
131,133,51218,1,0,0:0:0:0:
127,137,51304,2,0,L|138:218,1,63.7500024318696,4|0,0:1|0:0,0:0:0:0:
72,264,51649,5,0,0:0:0:0:
220,360,51822,2,0,B|200:304|224:248|224:248|248:200|224:144,1,223.125008511544
223,143,52511,5,8,0:1:0:0:
150,36,52684,2,0,L|56:48,1,95.6250036478044,4|0,0:1|0:0,0:0:0:0:
264,52,53028,2,0,L|326:41,1,63.7500024318696
440,32,53373,54,0,B|436:83|436:83|431:91|431:91|435:99|435:99|432:148|432:148|436:156|436:156|431:164|431:164|426:218,1,191.250007295609,8|0,0:1|0:0,0:0:0:0:
426,218,53977,1,0,0:0:0:0:
426,218,54063,1,4,0:1:0:0:
160,292,54408,5,0,0:0:0:0:
260,304,54580,2,0,B|273:256|233:216,1,95.6250036478044
219,136,54925,6,0,P|199:141|180:150,1,42.5
104,151,55097,2,0,P|88:167|76:184,1,42.5
15,236,55270,2,0,P|8:256|5:276,1,42.5
97,359,55442,5,4,0:1:0:0:
112,315,55528,1,0,0:0:0:0:
114,268,55615,1,0,0:0:0:0:
101,223,55701,1,0,0:0:0:0:
76,184,55787,1,0,0:0:0:0:
57,141,55873,1,0,0:0:0:0:
54,95,55960,1,0,0:0:0:0:
66,50,56046,1,0,0:0:0:0:
88,8,56132,38,0,L|148:0,1,42.5,8|0,0:1|0:0,0:0:0:0:
159,116,56304,2,0,B|223:128|223:128|276:96,1,127.500004863739
277,96,56735,1,0,0:0:0:0:
277,96,56822,1,4,0:1:0:0:
168,200,56994,1,0,0:0:0:0:
168,200,57166,1,0,0:0:0:0:
244,16,57339,6,0,B|284:0|324:22|324:22|356:40|398:25,1,159.375006079674
397,25,57856,2,0,L|416:92,1,63.7500024318696,0|8,0:0|0:1,0:0:0:0:
312,220,58201,6,0,P|377:160|378:249,1,223.125008511544,4|0,0:1|0:0,0:0:0:0:
378,249,58891,53,8,0:1:0:0:
216,332,59063,2,0,L|220:188,1,127.500004863739
219,204,59494,1,0,0:0:0:0:
219,204,59580,1,4,0:1:0:0:
20,200,59753,1,0,0:0:0:0:
20,200,59925,1,0,0:0:0:0:
120,276,60097,6,0,B|114:253|112:224|112:224|120:198|128:172|128:172|127:146|120:120,1,159.375006079674
120,120,60615,2,0,P|89:129|58:135,1,63.7500024318696,0|8,0:0|0:1,0:0:0:0:
27,278,60960,6,0,B|72:289|72:289|118:276,1,95.6250036478044,4|0,0:1|0:0,0:0:0:0:
220,264,61304,2,0,B|267:250|267:250|312:261,1,95.6250036478044
311,348,61649,54,0,L|318:156,1,191.250007295609,8|0,0:1|0:0,0:0:0:0:
322,161,62253,1,0,0:0:0:0:
326,166,62339,2,0,P|294:162|259:154,1,63.7500024318696,4|0,0:1|0:0,0:0:0:0:
160,204,62684,1,0,0:0:0:0:
232,60,62856,6,0,B|271:45|339:73|339:73|399:97|448:74,1,223.125008511544
448,74,63546,1,8,0:1:0:0:
444,188,63718,6,0,L|436:283,1,95.6250036478044,4|0,0:1|0:0,0:0:0:0:
227,327,64063,2,0,L|219:263,1,63.7500024318696
295,162,64408,54,0,B|298:216|298:216|294:224|294:224|300:232|300:232|304:280|304:280|309:288|309:288|306:296|306:296|310:347,1,191.250007295609,8|0,0:1|0:0,0:0:0:0:
310,347,65011,1,0,0:0:0:0:
310,347,65097,1,4,0:1:0:0:
140,224,65270,1,0,0:0:0:0:
140,224,65356,1,0,0:0:0:0:
139,224,65442,6,0,P|130:254|132:292,1,63.7500024318696
219,263,65787,1,0,0:0:0:0:
140,84,65960,6,0,P|145:115|143:146,1,63.7500024318696
56,124,66304,1,0,0:0:0:0:
232,48,66477,5,4,0:1:0:0:
222,71,66563,1,0,0:0:0:0:
220,96,66649,1,0,0:0:0:0:
223,122,66735,1,0,0:0:0:0:
232,144,66822,1,0,0:0:0:0:
241,174,66908,1,0,0:0:0:0:
244,206,66994,1,0,0:0:0:0:
240,237,67080,1,0,0:0:0:0:
231,268,67166,21,8,0:0:0:0:
284,80,78201,5,8,0:1:0:0:
184,96,78373,1,0,0:0:0:0:
296,88,78546,6,0,L|268:248,1,127.5,6|0,0:1|0:0,0:0:0:0:
274,213,78891,2,0,P|315:221|356:213,1,85,0|8,0:0|0:1,0:0:0:0:
452,184,79235,22,0,P|436:252|484:300,1,127.5,6|0,0:1|0:0,0:0:0:0:
469,293,79580,2,0,L|377:285,1,85,0|8,0:0|0:1,0:0:0:0:
312,140,79925,38,0,L|228:147,1,85,6|0,0:1|0:0,0:0:0:0:
227,147,80184,1,0,0:0:0:0:
227,147,80270,1,0,0:0:0:0:
36,148,80442,1,8,0:1:0:0:
112,80,80615,6,0,B|136:140|136:140|119:200,1,127.5,6|0,0:1|0:0,0:0:0:0:
119,200,80960,1,8,0:1:0:0:
24,236,81132,1,0,0:0:0:0:
192,316,81304,22,0,P|194:267|200:224,1,85,6|0,0:1|0:0,0:0:0:0:
199,231,81563,1,0,0:0:0:0:
199,231,81649,1,0,0:0:0:0:
119,200,81822,1,8,0:1:0:0:
10,356,81994,1,4,0:1:0:0:
24,236,82166,38,0,B|62:260|62:260|72:294|72:294|111:321,1,127.5
192,316,82511,1,8,0:1:0:0:
368,184,82684,1,6,0:1:0:0:
280,232,82856,5,0,0:0:0:0:
280,232,82942,1,0,0:0:0:0:
280,232,83028,2,0,L|276:120,1,85,0|8,0:0|0:1,0:0:0:0:
192,35,83373,1,6,0:1:0:0:
192,35,83546,1,0,0:0:0:0:
192,35,83718,22,0,B|208:67|208:67|194:170,1,140.25000428009
194,171,84063,1,6,0:1:0:0:
112,144,84235,1,0,0:0:0:0:
112,144,84322,1,0,0:0:0:0:
112,144,84408,1,0,0:0:0:0:
272,17,84580,37,8,0:1:0:0:
100,48,84753,1,6,0:1:0:0:
194,171,84925,1,0,0:0:0:0:
180,87,85097,6,0,L|279:101,1,93.5000028533936,0|8,0:0|0:1,0:0:0:0:
440,132,85442,2,0,B|296:166,1,127.5,6|0,0:1|0:0,0:0:0:0:
427,217,85787,22,0,B|467:219|467:219|503:194,1,85,0|8,0:0|0:1,0:0:0:0:
261,97,86132,2,0,B|223:79|223:79|179:88,1,85,6|0,0:1|0:0,0:0:0:0:
72,84,86477,37,8,0:1:0:0:
72,84,86649,1,0,0:0:0:0:
112,276,86822,2,0,P|56:313|47:247,1,159.375,6|0,0:1|0:0,0:0:0:0:
16,176,87166,54,0,P|42:172|68:167,1,53.125,8|8,0:1|0:1,0:0:0:0:
151,120,87339,2,0,P|177:125|203:132,1,53.125,8|8,0:1|0:1,0:0:0:0:
324,148,87511,2,0,B|499:132,1,127.500004863739,6|0,0:1|0:0,0:0:0:0:
450,137,87770,1,0,0:0:0:0:
450,137,87856,5,0,0:0:0:0:
327,53,88546,6,0,L|331:21,2,31.8750012159348,8|8|8,0:1|0:1|0:1,0:0:0:0:
441,43,88847,5,8,0:1:0:0:
214,55,89063,5,8,0:1:0:0:
315,211,89235,22,0,P|319:179|324:148,1,63.7500024318696,12|0,0:0|0:0,0:0:0:0:
424,120,89408,1,0,0:0:0:0:
308,320,89580,5,0,0:0:0:0:
208,140,89753,1,0,0:0:0:0:
208,140,89839,1,0,0:0:0:0:
208,140,89925,38,0,P|176:143|148:157,1,63.7500024318696,2|0,0:0|0:0,0:0:0:0:
89,284,90097,2,0,P|57:284|28:272,1,63.7500024318696,2|0,0:0|0:0,0:0:0:0:
64,140,90270,6,0,P|67:171|76:201,1,63.7500024318696,2|0,0:0|0:0,0:0:0:0:
144,360,90442,2,0,P|162:334|173:304,1,63.7500024318696,2|0,0:0|0:0,0:0:0:0:
199,227,90615,70,0,B|228:220|251:234|251:234|274:247|302:241,1,106.25,8|0,0:1|0:0,0:0:0:0:
489,200,90873,2,0,L|512:249,2,53.125,8|0|0,0:1|0:0|0:0,0:0:0:0:
383,262,91132,2,0,L|400:211,1,53.125,8|0,0:1|0:0,0:0:0:0:
416,80,91304,5,2,0:0:0:0:
376,56,91391,1,2,0:0:0:0:
332,48,91477,1,2,0:0:0:0:
288,56,91563,1,2,0:0:0:0:
249,77,91649,1,2,0:0:0:0:
203,104,91735,1,2,0:0:0:0:
151,115,91822,1,2,0:0:0:0:
100,101,91908,1,2,0:0:0:0:
58,69,91994,70,0,L|64:208,1,106.25,8|0,0:1|0:0,0:0:0:0:
72,260,92253,1,0,0:0:0:0:
72,260,92339,2,0,L|160:240,1,53.125
199,195,92511,1,0,0:0:0:0:
384,260,92684,6,0,L|468:249,1,85,6|0,0:1|0:0,0:0:0:0:
305,182,92942,2,0,L|199:195,1,106.25,2|0,0:0|0:0,0:0:0:0:
199,195,93201,2,0,L|208:96,1,63.7500024318696,2|0,0:0|0:0,0:0:0:0:
332,92,93373,70,0,P|352:96|395:104,2,63.7500024318696,8|0|0,0:1|0:0|0:0,0:0:0:0:
184,312,93632,2,0,P|152:318|122:326,1,63.7500024318696,8|0,0:1|0:0,0:0:0:0:
460,336,93891,5,8,0:1:0:0:
255,238,94063,69,6,0:1:0:0:
260,290,94149,1,2,0:0:0:0:
296,328,94235,1,2,0:0:0:0:
347,335,94322,1,2,0:0:0:0:
393,310,94408,1,2,0:0:0:0:
412,260,94494,1,2,0:0:0:0:
399,211,94580,1,6,0:1:0:0:
357,180,94666,1,2,0:0:0:0:
305,182,94753,38,0,L|316:100,1,63.7500024318696,12|0,0:0|0:0,0:0:0:0:
326,92,95011,1,0,0:0:0:0:
326,92,95097,2,0,L|311:205,1,95.6250036478044,4|0,0:1|0:0,0:0:0:0:
216,180,95442,54,0,L|232:60,1,85,0|8,0:0|0:1,0:0:0:0:
240,60,95701,1,0,0:0:0:0:
240,60,95787,2,0,L|224:192,1,127.5,4|0,0:1|0:0,0:0:0:0:
124,180,96132,70,0,L|140:48,1,106.25,0|8,0:0|0:1,0:0:0:0:
152,28,96391,1,0,0:0:0:0:
152,28,96477,2,0,L|132:188,1,159.375,4|0,0:1|0:0,0:0:0:0:
24,180,96822,22,0,L|40:44,1,127.500004863739,0|8,0:0|0:1,0:0:0:0:
56,0,97080,1,0,0:0:0:0:
56,0,97166,2,0,L|32:208,1,191.250007295609,4|0,0:1|0:0,0:0:0:0:
36,288,97511,70,0,B|80:258|80:258|130:273,1,106.25,12|0,0:0|0:0,0:0:0:0:
132,186,97770,2,0,P|135:159|138:133,2,53.125,8|0|0,0:1|0:0|0:0,0:0:0:0:
132,360,98028,1,8,0:1:0:0:
132,186,98201,70,0,L|248:180,1,106.25,8|0,0:1|0:0,0:0:0:0:
348,200,98460,1,0,0:0:0:0:
348,200,98546,2,0,P|363:227|370:258,1,63.7500024318696
312,112,98718,2,0,P|325:83|344:58,1,63.7500024318696,4|0,0:1|0:3,0:3:0:0:
418,58,98891,6,0,B|383:69|345:57|345:57|287:79|287:79|254:71|211:79,1,212.5,0|8,0:0|0:1,0:0:0:0:
124,16,99322,1,0,0:0:0:0:
124,16,99408,2,0,L|124:76,2,53.125,0|0|4,0:0|0:0|0:1,0:0:0:0:
48,184,99753,69,0,0:0:0:0:
48,184,99839,1,0,0:0:0:0:
48,184,99925,2,0,L|116:176,1,53.125
220,360,100097,1,0,0:0:0:0:
352,108,100270,22,0,B|388:76|388:76|371:175,1,148.750001418591,12|0,0:0|0:0,0:0:0:0:
360,332,100615,5,0,0:0:0:0:
502,183,100787,1,0,0:0:0:0:
502,183,100873,1,0,0:0:0:0:
502,183,100960,54,0,P|468:172|428:172,1,74.3750007092953,2|0,0:0|0:0,0:0:0:0:
256,236,101132,2,0,P|289:218|326:214,1,74.3750007092953,2|0,0:0|0:0,0:0:0:0:
475,299,101304,70,0,P|447:276|413:262,1,74.3750007092953,2|0,0:0|0:0,0:0:0:0:
410,81,101477,2,0,P|376:94|347:118,1,74.3750007092953,2|0,0:0|0:0,0:0:0:0:
304,336,101649,6,0,B|279:333|257:320|257:320|232:328|232:328|210:316|181:316,1,127.500004863739,8|0,0:1|0:0,0:0:0:0:
99,183,101908,2,0,P|109:213|118:244,2,63.7500024318696,8|0|0,0:1|0:0|0:0,0:0:0:0:
88,328,102166,2,0,P|58:336|25:351,1,63.7500024318696,8|0,0:1|0:0,0:0:0:0:
32,112,102339,69,2,0:0:0:0:
68,84,102425,1,2,0:0:0:0:
112,72,102511,1,2,0:0:0:0:
156,84,102597,1,2,0:0:0:0:
195,109,102684,1,2,0:0:0:0:
241,136,102770,1,2,0:0:0:0:
293,147,102856,1,2,0:0:0:0:
344,133,102942,1,2,0:0:0:0:
384,100,103028,6,0,L|372:248,1,127.500004863739,8|0,0:1|0:0,0:0:0:0:
286,323,103287,1,0,0:0:0:0:
286,323,103373,2,0,P|285:291|284:259,1,63.7500024318696
380,231,103546,1,0,0:0:0:0:
464,364,103718,70,0,L|472:236,1,106.25,6|0,0:1|0:0,0:0:0:0:
273,196,103977,2,0,L|285:322,1,127.500004863739,2|0,0:0|0:0,0:0:0:0:
285,322,104235,2,0,L|196:300,1,74.3750007092953,2|0,0:0|0:0,0:0:0:0:
20,268,104408,6,0,P|53:251|87:236,2,74.3750007092953,8|0|0,0:1|0:0|0:0,0:0:0:0:
352,124,104666,2,0,P|317:109|282:97,1,74.3750007092953,8|0,0:1|0:0,0:0:0:0:
32,52,104925,69,8,0:1:0:0:
188,348,105097,5,6,0:1:0:0:
212,304,105184,1,2,0:0:0:0:
212,252,105270,1,2,0:0:0:0:
196,204,105356,1,2,0:0:0:0:
156,172,105442,1,2,0:0:0:0:
145,122,105528,1,2,0:0:0:0:
154,71,105615,1,2,0:0:0:0:
182,30,105701,1,2,0:0:0:0:
228,12,105787,38,0,P|259:16|291:21,1,63.7500024318696,12|0,0:0|0:0,0:0:0:0:
388,32,106046,1,0,0:0:0:0:
388,32,106132,2,0,B|394:84|394:84|374:122,1,95.6250036478044,4|0,0:1|0:0,0:0:0:0:
200,204,106477,22,0,P|242:207|284:213,1,85,0|8,0:0|0:1,0:0:0:0:
381,239,106735,1,0,0:0:0:0:
381,239,106822,2,0,B|352:180|352:180|374:122,1,127.5,4|0,0:1|0:0,0:0:0:0:
480,132,107166,6,0,P|429:128|374:121,1,106.25,0|8,0:0|0:1,0:0:0:0:
300,82,107425,1,0,0:0:0:0:
300,82,107511,2,0,B|247:148|247:148|299:240,1,159.375,4|0,0:1|0:0,0:0:0:0:
507,252,107856,6,0,P|440:242|380:238,1,127.500004863739,0|8,0:0|0:1,0:0:0:0:
283,213,108115,1,0,0:0:0:0:
283,213,108201,2,0,B|332:300|332:300|263:381,1,191.250007295609,4|0,0:1|0:0,0:0:0:0:
176,296,108546,54,0,B|180:264|166:235|166:235|152:208|156:172,1,127.500004863739,12|0,0:0|0:0,0:0:0:0:
72,188,108804,2,0,P|74:219|85:249,2,63.7500024318696,8|0|0,0:1|0:0|0:0,0:0:0:0:
92,344,109063,1,8,0:1:0:0:
270,296,109235,6,0,B|274:260|260:233|260:233|246:204|250:172,1,127.500004863739,4|0,0:1|0:0,0:0:0:0:
280,76,109494,1,0,0:0:0:0:
280,76,109580,2,0,L|356:88,1,63.7500024318696
448,68,109753,2,0,L|368:84,1,63.7500024318696,4|0,0:1|0:0,0:0:0:0:
372,204,109925,69,0,0:0:0:0:
372,204,110011,1,0,0:0:0:0:
372,204,110097,1,0,0:0:0:0:
172,24,110270,5,8,0:1:0:0:
176,20,110356,1,0,0:0:0:0:
180,16,110442,2,0,L|176:72,1,53.125
76,248,110615,1,4,0:1:0:0:
72,252,110701,1,0,0:0:0:0:
68,256,110787,2,0,L|56:188,1,53.125
140,306,110960,2,0,B|160:266|148:230|148:230|136:194|156:152,1,159.375
228,200,111304,21,12,0:0:0:0:
228,200,111477,2,0,L|236:296,1,85
323,272,111994,5,8,0:1:0:0:
323,272,112166,2,0,L|316:188,1,85
372,36,112684,69,8,0:1:0:0:
372,36,112856,2,0,L|468:52,1,85
460,148,113373,5,8,0:1:0:0:
460,148,113546,2,0,L|372:132,1,85
224,124,114063,22,0,L|216:82,1,42.5,8|0,0:1|0:0,0:0:0:0:
296,44,114408,2,0,L|304:96,1,42.5,8|0,0:1|0:0,0:0:0:0:
152,208,114753,6,0,L|143:156,1,42.5,8|0,0:1|0:0,0:0:0:0:
224,124,115097,2,0,L|234:178,1,42.5,8|0,0:1|0:0,0:0:0:0:
67,250,115442,70,0,L|74:293,1,42.5,8|8,0:1|0:1,0:0:0:0:
152,208,115615,2,0,L|158:250,1,42.5,8|8,0:1|0:1,0:0:0:0:
231,165,115787,2,0,L|239:206,1,42.5,8|8,0:1|0:1,0:0:0:0:
308,368,115960,1,8,0:1:0:0:
308,368,116046,1,8,0:1:0:0:
308,368,116132,22,0,P|333:267|400:346,1,255.000009727478,8|0,0:0|0:0,0:0:0:0:
401,339,116563,1,0,0:0:0:0:
402,333,116649,2,0,L|408:280,1,53.125
221,228,116822,54,0,L|231:165,1,63.7500024318696,14|0,0:0|0:0,0:0:0:0:
248,40,116994,1,2,0:0:0:0:
316,188,117166,6,0,L|327:125,1,63.7500024318696,2|0,0:0|0:0,0:0:0:0:
348,0,117339,1,2,0:0:0:0:
131,185,117511,70,0,P|97:178|68:156,1,63.7500024318696,6|0,0:1|0:0,0:0:0:0:
108,76,117684,2,0,P|138:82|166:100,1,63.7500024318696,2|0,0:0|0:0,0:0:0:0:
244,328,117856,6,0,P|275:329|315:313,1,68,2|0,0:0|0:0,0:0:0:0:
295,227,118028,2,0,P|263:225|225:243,1,68,2|0,0:0|0:0,0:0:0:0:
137,355,118201,70,0,P|138:322|131:279,1,72.2500013780594,10|0,0:1|0:0,0:0:0:0:
131,185,118373,2,0,L|218:164,1,72.2500013780594,2|0,0:0|0:0,0:0:0:0:
295,227,118546,6,0,P|298:188|305:151,1,76.4999976654053,2|0,0:0|0:0,0:0:0:0:
304,56,118718,2,0,L|202:39,1,76.4999976654053,2|0,0:0|0:0,0:0:0:0:
28,16,118891,1,6,0:1:0:0:
131,185,119063,22,0,B|141:119|141:119|113:65,1,127.500004863739
220,0,119580,38,0,L|212:68,1,63.7500024318696,10|0,0:1|0:0,0:0:0:0:
32,284,119753,2,0,L|48:188,1,63.7500024318696,2|0,0:0|0:0,0:0:0:0:
113,65,119925,38,0,B|101:125|101:125|130:184,1,127.500004863739,0|6,0:0|0:1,0:0:0:0:
288,220,120442,1,2,0:0:0:0:
288,220,120528,1,0,0:0:0:0:
288,220,120615,54,0,L|193:249,1,68,2|0,0:0|0:0,0:0:0:0:
128,280,120787,2,0,L|186:318,1,68,2|0,0:0|0:0,0:0:0:0:
264,384,120960,70,0,L|276:303,1,72.2500013780594,10|0,0:3|0:0,0:0:0:0:
292,140,121132,2,0,L|220:160,1,72.2500013780594,2|0,0:0|0:0,0:0:0:0:
184,317,121304,6,0,L|200:241,1,76.4999976654053,2|0,0:0|0:0,0:0:0:0:
224,84,121477,2,0,L|298:62,1,76.4999976654053,2|0,0:0|0:0,0:0:0:0:
371,233,121649,70,0,P|329:225|287:219,1,85,2|0,0:1|0:0,0:0:0:0:
119,104,121908,2,0,P|173:96|222:83,1,106.25,2|0,0:1|0:0,0:0:0:0:
223,83,122166,2,0,L|212:160,1,63.7500024318696,2|0,0:1|0:0,0:0:0:0:
371,233,122339,38,0,B|391:189|375:141|375:141|359:93|372:45,1,191.250007295609,14|0,0:0|0:0,0:0:0:0:
454,142,123028,70,0,P|469:169|473:201,1,63.7500024318696,6|0,0:1|0:0,0:0:0:0:
371,233,123201,2,0,P|355:205|354:174,1,63.7500024318696,2|0,0:0|0:0,0:0:0:0:
369,114,123373,38,0,P|356:145|353:179,1,68,2|0,0:0|0:0,0:0:0:0:
380,368,123546,2,0,P|385:331|380:293,1,68,2|0,0:0|0:0,0:0:0:0:
268,176,123718,38,0,L|195:186,1,72.2500013780594,10|0,0:1|0:0,0:0:0:0:
216,352,123891,2,0,L|293:343,1,72.2500013780594,2|0,0:0|0:0,0:0:0:0:
288,260,124063,38,0,L|212:269,1,76.4999976654053,2|0,0:0|0:0,0:0:0:0:
144,275,124235,2,0,L|66:282,1,76.4999976654053,2|0,0:0|0:0,0:0:0:0:
0,288,124408,1,4,0:1:0:0:
68,128,124580,54,0,B|100:181|100:181|82:243,1,127.500004863739
288,208,125097,70,0,P|318:200|350:194,1,63.7500024318696,10|0,0:1|0:0,0:0:0:0:
228,136,125270,2,0,P|196:131|165:124,1,63.7500024318696,2|0,0:0|0:0,0:0:0:0:
82,243,125442,6,0,B|49:186|49:186|68:126,1,127.500004863739,0|6,0:0|0:1,0:0:0:0:
308,96,125960,1,2,0:0:0:0:
308,96,126046,1,0,0:0:0:0:
308,96,126132,22,0,L|321:29,1,68,2|0,0:0|0:0,0:0:0:0:
288,208,126304,2,0,L|271:292,1,68
180,352,126477,38,0,L|201:279,1,72.2500013780594,10|0,0:1|0:0,0:0:0:0:
217,194,126649,2,0,P|259:205|290:208,1,72.2500013780594,2|0,0:0|0:0,0:0:0:0:
476,320,126822,38,0,L|467:243,1,76.4999976654053,2|0,0:0|0:0,0:0:0:0:
460,120,126994,2,0,P|428:125|380:125,1,76.4999976654053,2|0,0:0|0:0,0:0:0:0:
356,264,127166,37,4,0:1:0:0:
464,28,127339,1,0,0:0:0:0:
468,250,127511,37,0,0:0:0:0:
316,72,127684,1,0,0:0:0:0:
316,72,127770,1,0,0:0:0:0:
316,72,127856,38,0,B|324:92|323:117|323:117|321:143|333:165|333:165|304:188|273:193|273:193|253:172|252:128|252:128|252:92|233:70|233:70|208:84|173:78|173:78|183:105|181:136|181:136|178:167|192:204|200:240|200:240|166:225|128:229,1,595
96,384,128546,38,0,L|88:299,1,63.7500024318696,6|0,0:0|0:0,0:0:0:0:
65,240,128718,2,0,P|97:232|128:228,1,63.7500024318696,2|0,0:0|0:0,0:0:0:0:
200,344,128891,22,0,L|210:274,1,68
281,201,129063,2,0,P|256:178|225:167,1,68,2|0,0:0|0:0,0:0:0:0:
365,250,129235,54,0,P|345:280|316:300,1,72.2500013780594,10|0,0:1|0:0,0:0:0:0:
408,96,129408,2,0,P|439:102|473:122,1,72.2500013780594,2|0,0:0|0:0,0:0:0:0:
435,188,129580,22,0,P|453:222|456:260,1,76.4999976654053,2|0,0:0|0:0,0:0:0:0:
302,104,129753,2,0,P|309:67|328:34,1,76.4999976654053,2|0,0:0|0:0,0:0:0:0:
280,200,129925,1,6,0:1:0:0:
48,84,130097,22,0,B|62:53|88:36|88:36|122:37|150:49,1,127.500004863739
48,84,130615,22,0,L|54:147,1,63.7500024318696,10|0,0:1|0:0,0:0:0:0:
225,167,130787,2,0,L|230:103,1,63.7500024318696,2|0,0:0|0:0,0:0:0:0:
150,49,130960,54,0,B|136:80|110:97|110:97|76:96|48:84,1,127.500004863739,0|6,0:0|0:1,0:0:0:0:
132,240,131477,1,2,0:0:0:0:
132,240,131563,1,0,0:0:0:0:
132,240,131649,54,0,L|140:158,1,68,2|0,0:0|0:0,0:0:0:0:
356,100,131822,1,2,2:0:0:0:
372,136,131908,1,2,2:0:0:0:
387,170,131994,54,0,P|388:136|396:98,1,72.2500013780594,10|0,0:3|0:0,0:0:0:0:
440,20,132166,2,0,P|404:20|354:10,1,72.2500013780594,2|0,0:0|0:0,0:0:0:0:
452,240,132339,22,0,P|420:244|366:262,1,76.4999976654053,2|0,0:0|0:0,0:0:0:0:
288,112,132511,2,0,P|252:112|207:107,1,76.4999976654053,2|0,0:0|0:0,0:0:0:0:
330,323,132684,54,0,P|287:328|243:348,1,85,2|0,0:0|0:0,0:0:0:0:
144,224,132942,2,0,P|194:223|239:200,1,101.999996887207,2|0,0:0|0:0,0:0:0:0:
239,200,133201,2,0,L|228:268,1,63.7500024318696,2|0,0:0|0:0,0:0:0:0:
0,333,133373,54,0,B|31:289|67:273|67:273|103:317|156:310,1,191.250007295609,14|0,0:0|0:0,0:0:0:0:
33,176,134063,70,0,P|63:166|92:152,1,63.7500024318696,6|0,0:1|0:0,0:0:0:0:
170,110,134235,2,0,P|146:89|120:72,1,63.7500024318696,2|0,0:0|0:0,0:0:0:0:
44,28,134408,54,0,L|36:99,1,68,2|0,0:0|0:0,0:0:0:0:
22,243,134580,2,0,L|32:175,1,68,2|0,0:0|0:0,0:0:0:0:
169,109,134753,22,0,P|205:111|240:101,1,72.2500013780594,10|0,0:1|0:0,0:0:0:0:
316,44,134925,2,0,P|290:25|250:16,1,72.2500013780594,2|0,0:0|0:0,0:0:0:0:
193,238,135097,54,0,P|229:226|260:204,1,76.4999976654053,2|0,0:0|0:0,0:0:0:0:
469,128,135270,2,0,P|433:115|396:112,1,76.4999976654053,2|0,0:0|0:0,0:0:0:0:
352,324,135442,1,6,0:1:0:0:
361,211,135615,38,0,B|385:271|385:271|352:325,1,127.500004863739
192,344,136132,70,0,L|259:334,1,63.7500024318696,10|0,0:1|0:0,0:0:0:0:
512,304,136304,2,0,L|448:311,1,63.7500024318696,2|0,0:0|0:0,0:0:0:0:
352,324,136477,6,0,B|327:265|327:265|360:209,1,127.500004863739,0|6,0:0|0:1,0:0:0:0:
322,97,136994,1,2,0:0:0:0:
322,97,137080,1,0,0:0:0:0:
322,97,137166,38,0,L|235:110,1,63.7500024318696,2|0,0:0|0:0,0:0:0:0:
88,248,137339,1,0,0:0:0:0:
92,204,137425,1,0,0:0:0:0:
124,176,137511,22,0,P|139:203|151:251,1,68,10|0,0:1|0:0,0:0:0:0:
192,344,137684,2,0,P|202:313|223:277,1,68,2|0,0:0|0:0,0:0:0:0:
421,156,137856,54,0,P|405:183|391:226,1,72.2500013780594,2|0,0:0|0:0,0:0:0:0:
352,324,138028,2,0,P|341:293|315:255,1,72.2500013780594,2|0,0:0|0:0,0:0:0:0:
192,117,138201,22,0,L|268:108,1,76.4999976654053,6|0,0:1|0:0,0:0:0:0:
316,188,138373,2,0,L|230:197,1,76.4999976654053,2|0,0:0|0:0,0:0:0:0:
152,28,138546,2,0,L|216:20,1,63.7500024318696,2|6,0:0|0:1,0:0:0:0:
221,19,138804,1,0,0:0:0:0:
227,18,138891,38,0,L|212:112,1,55.2499974708558,8|0,0:1|0:0,0:0:0:0:
88,104,139063,1,0,0:0:0:0:
344,8,139235,22,0,L|336:64,1,55.2499974708558
320,140,139408,2,0,B|330:94|330:94|206:130|206:130|244:167,1,220.999989883423,8|0,0:1|0:0,0:0:0:0:
368,236,139925,1,0,0:0:0:0:
380,228,140011,1,0,0:0:0:0:
392,220,140097,2,0,L|312:212,1,55.2499974708558
239,335,140270,69,8,0:0:0:0:
396,144,140442,1,0,0:0:0:0:
396,144,140528,1,0,0:0:0:0:
396,144,140615,2,0,L|476:152,1,55.2499974708558
488,324,140787,1,8,0:0:0:0:
505,154,140960,70,0,L|501:98,1,55.2499974708558
392,88,141132,2,0,L|396:144,1,55.2499974708558
296,200,141304,2,0,L|288:72,1,127.5
288,72,141649,22,0,P|271:100|256:116,1,55.2499974708558,8|0,0:1|0:0,0:0:0:0:
56,184,141822,1,0,0:0:0:0:
136,56,141994,69,0,0:0:0:0:
160,256,142166,2,0,B|144:92|144:92|147:123|171:140,1,220.999989883423,8|0,0:1|0:0,0:0:0:0:
260,376,142684,1,0,0:0:0:0:
260,376,142770,1,0,0:0:0:0:
260,376,142856,1,0,0:0:0:0:
272,264,143028,69,8,0:0:0:0:
284,144,143201,1,0,0:0:0:0:
284,144,143373,1,0,0:0:0:0:
160,256,143546,22,0,L|0:272,1,110.499994941712,8|0,0:0|0:0,0:0:0:0:
312,244,143891,1,0,0:0:0:0:
308,252,143977,1,0,0:0:0:0:
304,260,144063,2,0,L|358:253,1,55.2499974708558
500,264,144235,2,0,L|416:272,1,55.2499974708558
304,260,144408,70,0,L|292:112,1,110.499994941712,8|0,0:1|0:0,0:0:0:0:
295,149,144666,1,0,0:0:0:0:
295,149,144753,1,0,0:0:0:0:
200,348,144925,1,8,0:1:0:0:
200,348,145270,69,0,0:0:0:0:
295,149,145442,2,0,P|267:152|238:154,1,55.2499974708558
156,224,145615,2,0,P|124:229|96:234,1,55.2499974708558
4,248,145787,21,8,0:0:0:0:
240,268,145960,1,0,0:0:0:0:
4,248,146132,1,0,0:0:0:0:
232,68,146304,69,8,0:0:0:0:
16,76,146477,1,0,0:0:0:0:
232,68,146649,1,0,0:0:0:0:
101,233,146822,70,0,L|92:128,1,85
93,148,147166,22,0,L|172:160,1,55.2499974708558,8|0,0:1|0:0,0:0:0:0:
352,184,147339,1,0,0:0:0:0:
268,272,147511,69,0,0:0:0:0:
237,96,147684,2,0,B|253:72|265:28|265:28|281:72|269:174,1,220.999989883423,8|0,0:1|0:0,0:0:0:0:
192,384,148201,70,0,P|216:372|239:354,1,55.2499974708558,8|0,0:0|0:0,0:0:0:0:
314,300,148373,2,0,P|290:288|266:270,1,55.2499974708558
179,217,148546,21,0,0:0:0:0:
332,380,148718,1,8,0:1:0:0:
352,184,148891,70,0,L|406:172,1,55.2499974708558
179,217,149063,2,0,L|107:233,1,55.2499974708558
420,225,149235,70,0,L|406:172,1,55.2499974708558,8|0,0:1|0:0,0:0:0:0:
111,175,149408,2,0,L|124:228,1,55.2499974708558
265,271,149580,21,0,0:0:0:0:
265,223,149666,1,0,0:0:0:0:
269,175,149753,1,0,0:0:0:0:
281,127,149839,1,0,0:0:0:0:
300,80,149925,70,0,P|329:90|354:96,1,55.2499974708558,8|0,0:1|0:0,0:0:0:0:
405,171,150097,1,0,0:0:0:0:
179,217,150270,69,0,0:0:0:0:
300,80,150442,2,0,B|348:84|374:46|374:46|393:75|429:76|429:76|459:55|500:73,1,220.999989883423,8|0,0:1|0:0,0:0:0:0:
212,80,150960,2,0,L|200:25,2,55.2499974708558
309,2,151304,21,8,0:0:0:0:
268,224,151477,1,0,0:0:0:0:
268,224,151563,1,0,0:0:0:0:
268,224,151649,2,0,L|276:140,1,55.2499974708558
108,124,151822,69,8,0:0:0:0:
176,280,151994,1,0,0:0:0:0:
280,121,152166,1,0,0:0:0:0:
280,121,152253,1,0,0:0:0:0:
280,121,152339,2,0,B|282:167|282:167|266:198|266:198|281:237|281:237|276:281,1,165.749992412568
330,288,152684,70,0,L|275:279,1,55.2499974708558,8|0,0:1|0:0,0:0:0:0:
96,264,152856,1,0,0:0:0:0:
96,264,152942,1,0,0:0:0:0:
96,264,153028,2,0,P|100:296|100:328,1,55.2499974708558
216,384,153201,1,8,0:1:0:0:
116,132,153546,21,0,0:0:0:0:
196,216,153718,1,0,0:0:0:0:
196,216,153804,1,0,0:0:0:0:
196,216,153891,1,0,0:0:0:0:
16,304,154063,69,8,0:0:0:0:
116,132,154235,1,0,0:0:0:0:
176,360,154408,1,0,0:0:0:0:
20,184,154580,69,8,0:0:0:0:
196,216,154753,1,0,0:0:0:0:
84,340,154925,2,0,L|76:268,1,55.2499974708558
207,89,155097,22,0,L|195:218,1,127.5
194,215,155442,70,0,P|167:212|140:208,1,55.2499974708558,8|0,0:1|0:0,0:0:0:0:
20,183,155615,2,0,P|46:177|73:171,1,55.2499974708558
281,214,155787,69,0,0:0:0:0:
302,45,155960,2,0,L|280:218,1,170,8|0,0:1|0:0,0:0:0:0:
378,98,156477,21,0,0:0:0:0:
410,94,156563,1,0,0:0:0:0:
442,90,156649,1,0,0:0:0:0:
474,82,156735,1,0,0:0:0:0:
506,74,156822,70,0,B|531:122|531:122|516:186,1,110.499994941712,8|0,0:0|0:0,0:0:0:0:
400,5,157166,1,0,0:0:0:0:
423,177,157339,70,0,L|438:292,1,110.499994941712,8|0,0:0|0:0,0:0:0:0:
400,5,157684,1,0,0:0:0:0:
276,193,157856,22,0,B|241:187|217:211|217:211|193:233|158:230,1,127.5
165,150,158201,70,0,L|161:209,1,55.2499974708558,8|0,0:1|0:0,0:0:0:0:
274,270,158373,1,0,0:0:0:0:
177,69,158546,69,0,0:0:0:0:
16,130,158718,2,0,B|63:122|87:68|87:68|100:144|165:149,1,220.999989883423,8|0,0:1|0:0,0:0:0:0:
238,198,159149,1,0,0:0:0:0:
238,198,159235,2,0,P|249:170|250:142,1,55.2499974708558
328,31,159408,2,0,P|329:58|344:91,1,55.2499974708558
491,174,159580,21,8,0:0:0:0:
491,174,160270,5,2,0:0:0:0:
487,142,160356,1,2,0:0:0:0:
483,110,160442,1,2,0:0:0:0:
479,78,160528,1,2,0:0:0:0:
504,68,160615,69,2,0:0:0:0:
504,112,160701,1,2,0:0:0:0:
504,156,160787,1,2,0:0:0:0:
504,200,160873,1,2,0:0:0:0:
470,275,160960,6,0,B|428:256|420:208|420:208|400:252|353:264,1,178.499994552612,10|0,0:0|0:0,0:0:0:0:
340,382,161304,2,0,L|352:264,1,118.999996368408,4|0,0:0|0:0,0:0:0:0:
185,191,161649,2,0,P|157:199|128:204,2,59.4999981842042,0|0|8,0:0|0:0|0:0,0:0:0:0:
323,73,161994,2,0,L|305:211,1,118.999996368408,4|0,0:0|0:0,0:0:0:0:
420,88,162339,6,0,P|447:98|475:108,2,59.4999981842042,2|0|8,0:0|0:0|0:0,0:0:0:0:
211,72,162684,2,0,L|56:103,1,118.999996368408,4|0,0:0|0:0,0:0:0:0:
201,164,163028,5,2,0:0:0:0:
248,160,163115,1,0,0:0:0:0:
285,131,163201,1,0,0:0:0:0:
304,88,163287,1,0,0:0:0:0:
300,40,163373,2,0,L|320:180,1,118.999996368408,4|0,0:0|0:0,0:0:0:0:
397,283,163718,54,0,B|356:269|336:233|336:233|299:324,1,178.499994552612,10|0,0:1|0:0,0:0:0:0:
409,365,164063,2,0,L|282:330,1,118.999996368408,4|0,0:0|0:0,0:0:0:0:
188,368,164408,2,0,P|187:335|184:300,2,59.4999981842042,0|0|8,0:0|0:0|0:0,0:0:0:0:
360,164,164753,1,4,0:0:0:0:
168,220,164925,1,0,0:0:0:0:
294,333,165097,5,2,0:3:0:0:
256,152,165270,1,8,0:0:0:0:
96,328,165442,1,4,0:0:0:0:
160,72,165615,1,0,0:0:0:0:
160,72,165701,1,0,0:0:0:0:
160,72,165787,70,0,P|158:104|153:137,1,59.4999981842042,2|0,0:3|0:0,0:0:0:0:
24,224,165960,2,0,P|28:197|32:165,1,59.4999981842042,8|0,0:0|0:0,0:0:0:0:
101,83,166132,6,0,P|130:78|159:72,1,59.4999981842042,4|0,0:0|0:0,0:0:0:0:
236,248,166304,2,0,P|265:251|294:257,1,59.4999981842042
256,152,166477,70,0,L|137:163,1,118.999996368408,10|0,0:0|0:0,0:0:0:0:
20,248,166822,5,4,0:0:0:0:
32,32,166994,1,0,0:0:0:0:
32,32,167080,1,0,0:0:0:0:
32,32,167166,2,0,L|116:16,2,59.4999981842042,0|0|8,0:0|0:0|0:0,0:0:0:0:
28,140,167511,69,4,0:0:0:0:
147,280,167684,1,0,0:0:0:0:
147,280,167770,1,0,0:0:0:0:
147,280,167856,22,0,B|154:249|145:221|145:221|137:194|145:163,1,118.999996368408,2|8,0:0|0:0,0:0:0:0:
232,192,168201,2,0,P|250:214|265:240,1,59.4999981842042,4|0,0:0|0:0,0:0:0:0:
264,300,168373,2,0,P|261:270|264:240,1,59.4999981842042
344,120,168546,53,2,0:0:0:0:
364,116,168632,1,0,0:0:0:0:
384,112,168718,1,10,0:1:0:0:
404,108,168804,1,0,0:0:0:0:
440,156,168891,5,6,0:1:0:0:
408,152,168977,1,0,0:0:0:0:
376,148,169063,1,2,0:0:0:0:
344,144,169149,1,0,0:0:0:0:
312,140,169235,70,0,L|320:60,1,59.4999981842042,10|0,0:1|0:0,0:0:0:0:
408,32,169408,1,0,0:0:0:0:
500,108,169580,5,6,0:1:0:0:
312,268,169753,1,2,0:1:0:0:
312,268,169839,1,0,0:0:0:0:
312,267,169925,70,0,L|248:236,1,59.4999981842042,2|0,0:1|0:0,0:0:0:0:
124,176,170097,2,0,L|192:208,1,59.4999981842042,10|0,0:1|0:0,0:0:0:0:
337,213,170270,22,0,L|312:267,1,59.4999981842042,6|0,0:1|0:0,0:0:0:0:
97,229,170442,2,0,L|124:176,1,59.4999981842042,2|0,0:1|0:0,0:0:0:0:
384,108,170615,69,2,0:3:0:0:
244,44,170787,2,0,L|247:103,1,59.4999981842042,8|0,0:0|0:0,0:0:0:0:
265,359,170960,2,0,L|257:240,1,118.999996368408,4|0,0:0|0:0,0:0:0:0:
168,304,171218,1,0,0:0:0:0:
168,304,171304,69,2,0:3:0:0:
152,56,171477,2,0,L|93:68,1,59.4999981842042,8|0,0:0|0:0,0:0:0:0:
13,149,171649,2,0,B|63:140|92:174|92:174|126:208|175:199,1,178.499994552612,4|0,0:0|0:0,0:0:0:0:
176,200,171994,21,10,0:0:0:0:
14,264,172166,1,0,0:0:0:0:
268,160,172339,70,0,L|396:180,1,118.999996368408,4|0,0:0|0:0,0:0:0:0:
424,196,172597,1,0,0:0:0:0:
440,156,172684,1,0,0:0:0:0:
444,112,172770,1,0,0:0:0:0:
435,67,172856,70,0,P|405:67|376:74,1,59.4999981842042,8|0,0:0|0:0,0:0:0:0:
279,278,173028,2,0,P|275:218|268:159,1,118.999996368408,4|0,0:0|0:0,0:0:0:0:
252,64,173373,21,2,0:0:0:0:
184,260,173546,1,8,0:0:0:0:
116,144,173718,69,0,0:0:0:0:
368,272,173891,1,0,0:0:0:0:
366,283,173977,1,0,0:0:0:0:
365,295,174063,1,0,0:0:0:0:
364,307,174149,1,0,0:0:0:0:
364,320,174235,70,0,L|370:252,1,59.4999981842042,8|0,0:0|0:0,0:0:0:0:
377,148,174408,2,0,B|317:129|317:129|267:159,1,118.999996368408,4|0,0:0|0:0,0:0:0:0:
249,276,174753,22,0,L|269:159,1,118.999996368408,8|0,0:0|0:0,0:0:0:0:
28,212,175097,1,4,0:0:0:0:
128,144,175270,70,0,P|157:150|184:161,1,59.4999981842042
286,215,175442,2,0,P|274:187|268:158,1,59.4999981842042
266,43,175615,2,0,P|248:67|225:87,1,59.4999981842042,8|0,0:0|0:0,0:0:0:0:
96,60,175787,69,4,0:0:0:0:
364,8,175960,1,0,0:0:0:0:
364,8,176046,1,0,0:0:0:0:
364,8,176132,22,0,L|374:127,1,118.999996368408,2|8,0:3|0:0,0:0:0:0:
472,224,176477,69,4,0:0:0:0:
268,158,176649,1,0,0:0:0:0:
372,376,176822,70,0,P|375:327|378:295,1,59.4999981842042,2|0,0:3|0:0,0:0:0:0:
324,234,176994,2,0,P|354:231|384:228,1,59.4999981842042,8|0,0:0|0:0,0:0:0:0:
452,288,177166,1,4,0:0:0:0:
452,288,177253,1,0,0:0:0:0:
452,288,177339,2,0,L|510:297,1,59.4999981842042
288,340,177511,22,0,B|242:333|223:288|223:288|183:361|84:354,1,237.999992736817,8|4,0:0|0:0,0:0:0:0:
112,160,177942,1,0,0:0:0:0:
112,160,178028,2,0,L|176:176,1,59.4999981842042
255,219,178201,54,0,L|263:79,1,118.999996368408,8|0,0:0|0:0,0:0:0:0:
262,101,178460,1,0,0:0:0:0:
262,101,178546,1,4,0:0:0:0:
469,161,178718,1,0,0:0:0:0:
348,24,178891,6,0,B|344:73|386:102|386:102|335:145|403:192|359:247,1,237.999992736817,8|4,0:0|0:0,0:0:0:0:
408,352,179322,1,0,0:0:0:0:
408,352,179408,2,0,L|467:358,1,59.4999981842042
364,239,179580,70,0,L|278:255,1,59.4999981842042,8|0,0:0|0:0,0:0:0:0:
216,264,179753,2,0,L|157:276,1,59.4999981842042
48,296,179925,1,4,0:0:0:0:
48,296,180011,1,0,0:0:0:0:
48,296,180097,1,0,0:0:0:0:
216,384,180270,5,8,0:0:0:0:
288,84,180442,1,8,0:0:0:0:
372,340,180615,69,4,0:0:0:0:
112,176,180787,1,8,0:0:0:0:
456,136,180960,21,8,0:0:0:0:
464,156,181046,1,8,0:0:0:0:
465,176,181132,1,8,0:0:0:0:
460,197,181218,1,8,0:0:0:0:
451,216,181304,1,4,0:0:0:0:
445,236,181391,1,8,0:0:0:0:
447,257,181477,1,8,0:0:0:0:
454,277,181563,1,8,0:0:0:0:
468,260,181649,54,0,B|436:256|404:232|404:232|354:296|354:296|328:263|276:256,1,229.499992996216,8|0,0:0|0:0,0:0:0:0:
272,180,182253,1,0,0:0:0:0:
272,180,182339,2,0,L|269:143,2,31.8750012159348,8|8|8,0:0|0:0|0:0,0:0:0:0:
360,152,182641,21,8,0:0:0:0:
448,128,182856,5,8,0:0:0:0:
189,76,183028,38,0,L|195:139,1,63.7500024318696,12|0,0:0|0:0,0:0:0:0:
108,196,183201,1,0,0:0:0:0:
180,0,183373,5,0,0:0:0:0:
252,248,183546,1,0,0:0:0:0:
252,248,183632,1,0,0:0:0:0:
252,248,183718,22,0,L|313:231,1,63.7500024318696,2|0,0:0|0:0,0:0:0:0:
512,204,183891,2,0,L|451:220,1,63.7500024318696,2|0,0:0|0:0,0:0:0:0:
440,368,184063,6,0,L|428:305,1,63.7500024318696,2|0,0:0|0:0,0:0:0:0:
364,108,184235,2,0,L|375:170,1,63.7500024318696,2|0,0:0|0:0,0:0:0:0:
332,348,184408,70,0,B|337:366|326:388|326:388|355:373|338:310,1,127.500004863739,8|0,0:1|0:0,0:0:0:0:
252,248,184666,2,0,P|256:216|264:185,2,63.7500024318696,8|0|0,0:1|0:0|0:0,0:0:0:0:
36,288,184925,2,0,P|28:257|17:227,1,63.7500024318696,8|0,0:1|0:0,0:0:0:0:
112,24,185097,5,6,0:1:0:0:
84,60,185184,1,2,0:0:0:0:
72,104,185270,1,2,0:0:0:0:
84,148,185356,1,2,0:0:0:0:
113,182,185442,1,2,0:0:0:0:
144,225,185528,1,2,0:0:0:0:
162,274,185615,1,2,0:0:0:0:
152,326,185701,1,2,0:0:0:0:
120,368,185787,70,0,P|121:314|128:256,1,106.25,8|0,0:1|0:0,0:0:0:0:
156,92,186046,1,0,0:0:0:0:
156,92,186132,2,0,P|182:100|206:111,1,53.125
395,103,186304,1,0,0:0:0:0:
320,216,186477,6,0,L|296:116,1,85,6|0,0:1|0:0,0:0:0:0:
500,88,186735,2,0,L|492:208,1,106.25,2|0,0:0|0:0,0:0:0:0:
492,194,186994,2,0,L|427:179,1,63.7500024318696,2|0,0:0|0:0,0:0:0:0:
405,40,187166,70,0,P|395:71|395:103,2,63.7500024318696,8|0|0,0:1|0:0|0:0,0:0:0:0:
212,176,187425,2,0,P|211:145|204:114,1,63.7500024318696,8|0,0:1|0:0,0:0:0:0:
68,12,187684,5,8,0:1:0:0:
268,248,187856,69,2,0:0:0:0:
216,244,187942,1,2,0:0:0:0:
163,240,188028,1,2,0:0:0:0:
110,236,188114,1,2,0:0:0:0:
96,288,188201,5,2,0:0:0:0:
148,279,188287,1,2,0:0:0:0:
200,271,188373,1,2,0:0:0:0:
253,263,188459,1,2,0:0:0:0:
306,254,188546,38,0,P|310:295|310:319,1,63.7500024318696,12|0,0:0|0:0,0:0:0:0:
384,336,188804,1,0,0:0:0:0:
384,336,188891,2,0,L|388:216,1,95.6250036478044,4|0,0:1|0:0,0:0:0:0:
476,201,189235,22,0,P|468:242|465:284,1,85,0|8,0:0|0:1,0:0:0:0:
392,316,189494,1,0,0:0:0:0:
392,316,189580,2,0,L|388:172,1,127.5,4|0,0:1|0:0,0:0:0:0:
278,151,189925,6,0,P|295:201|305:253,1,106.25,0|8,0:0|0:1,0:0:0:0:
384,292,190184,1,0,0:0:0:0:
384,292,190270,2,0,L|392:104,1,159.375,4|0,0:1|0:0,0:0:0:0:
512,80,190615,22,0,P|490:137|476:204,1,127.500004863739,0|8,0:0|0:1,0:0:0:0:
400,272,190873,1,0,0:0:0:0:
400,272,190960,2,0,L|388:80,1,191.250007295609,4|0,0:1|0:0,0:0:0:0:
388,70,191304,38,0,B|348:73|348:73|325:87|325:87|301:71|301:71|268:69,1,127.500004863739,12|0,0:0|0:0,0:0:0:0:
224,152,191563,2,0,P|228:184|232:216,2,63.7500024318696,8|0|0,0:1|0:0|0:0,0:0:0:0:
244,332,191822,1,8,0:1:0:0:
224,152,191994,6,0,B|188:148|160:164|160:164|132:180|100:176,1,127.500004863739,4|0,0:1|0:0,0:0:0:0:
52,268,192253,1,0,0:0:0:0:
52,268,192339,2,0,L|136:256,1,63.7500024318696
178,79,192511,2,0,L|116:92,1,63.7500024318696,4|0,0:1|0:0,0:0:0:0:
2,51,192684,70,0,B|34:111|-8:184|-8:184|41:152|101:176,1,255.000009727478,0|8,0:0|0:1,0:0:0:0:
224,152,193115,1,0,0:0:0:0:
224,152,193201,2,0,P|226:185|224:216,2,63.7500024318696,0|0|4,0:0|0:0|0:1,0:0:0:0:
159,27,193546,5,0,0:0:0:0:
211,31,193632,1,0,0:0:0:0:
263,31,193718,1,0,0:0:0:0:
315,23,193804,1,0,0:0:0:0:
364,7,193891,2,0,P|360:37|359:69,1,63.7500024318696
304,224,194063,22,0,B|356:214|356:214|378:178|378:178|430:168,1,148.750001418591,12|0,0:0|0:0,0:0:0:0:
432,247,194322,1,0,0:0:0:0:
432,247,194408,1,0,0:0:0:0:
306,143,194580,1,0,0:0:0:0:
476,36,194753,38,0,P|454:66|441:100,1,74.3750007092953,2|0,0:0|0:0,0:0:0:0:
317,296,194925,2,0,P|306:260|304:223,1,74.3750007092953,2|0,0:0|0:0,0:0:0:0:
376,4,195097,6,0,P|361:37|355:74,1,74.3750007092953,2|0,0:0|0:0,0:0:0:0:
428,276,195270,2,0,P|442:241|445:204,1,74.3750007092953,2|0,0:0|0:0,0:0:0:0:
151,162,195442,70,0,B|223:174|223:174|286:131,1,148.750001418591,8|0,0:1|0:0,0:0:0:0:
269,60,195701,2,0,P|272:96|286:131,2,74.3750007092953,8|0|0,0:1|0:0|0:0,0:0:0:0:
176,320,195960,2,0,P|193:287|196:250,1,74.3750007092953,8|0,0:1|0:0,0:0:0:0:
84,40,196132,5,2,0:0:0:0:
44,56,196218,1,2,0:0:0:0:
20,92,196304,1,2,0:0:0:0:
24,136,196391,1,2,0:0:0:0:
53,169,196477,1,2,0:0:0:0:
102,182,196563,1,2,0:0:0:0:
151,162,196649,1,2,0:0:0:0:
174,115,196735,1,2,0:0:0:0:
158,67,196822,70,0,B|126:107|126:107|145:236,1,148.750001418591,8|0,0:1|0:0,0:0:0:0:
56,332,197080,1,0,0:0:0:0:
56,332,197166,2,0,L|40:220,1,74.3750007092953
260,120,197339,1,0,0:0:0:0:
242,307,197511,6,0,P|189:309|140:290,1,106.25,6|0,0:1|0:0,0:0:0:0:
348,256,197770,2,0,P|411:250|472:269,1,127.500004863739,2|0,0:0|0:0,0:0:0:0:
472,269,198028,2,0,L|481:182,1,74.3750007092953,2|0,0:0|0:0,0:0:0:0:
501,103,198201,70,0,P|465:94|428:92,2,74.3750007092953,8|0|0,0:1|0:0|0:0,0:0:0:0:
240,192,198460,2,0,P|273:175|309:170,1,74.3750007092953,8|0,0:1|0:0,0:0:0:0:
344,360,198718,1,8,0:1:0:0:
357,60,198891,5,6,0:1:0:0:
304,60,198977,1,2,0:0:0:0:
260,91,199063,1,2,0:0:0:0:
242,140,199149,1,2,0:0:0:0:
240,192,199235,69,2,0:0:0:0:
230,244,199322,1,2,0:0:0:0:
192,282,199408,1,2,0:0:0:0:
141,291,199494,1,2,0:0:0:0:
92,280,199580,54,0,L|84:196,1,63.7500024318696,12|0,0:0|0:0,0:0:0:0:
12,156,199839,1,0,0:0:0:0:
12,156,199925,2,0,P|60:140|112:116,1,95.6250036478044,4|0,0:1|0:0,0:0:0:0:
192,104,200270,38,0,L|180:216,1,85,0|8,0:0|0:1,0:0:0:0:
92,280,200528,1,0,0:0:0:0:
92,280,200615,2,0,P|154:287|220:308,1,127.5,4|0,0:1|0:0,0:0:0:0:
312,312,200960,70,0,L|296:172,1,106.25,0|8,0:0|0:1,0:0:0:0:
192,104,201218,1,0,0:0:0:0:
192,104,201304,2,0,P|276:96|372:60,1,159.375,4|0,0:1|0:0,0:0:0:0:
436,80,201649,38,0,L|424:212,1,127.500004863739,0|8,0:0|0:1,0:0:0:0:
312,312,201908,1,0,0:0:0:0:
312,312,201994,2,0,P|393:322|485:362,1,159.375,4|0,0:1|0:0,0:0:0:0:
424,206,202339,54,0,B|367:177|367:177|305:217,1,127.500004863739,12|0,0:0|0:0,0:0:0:0:
312,312,202597,2,0,B|280:324|280:324|248:312,2,63.7500024318696,8|0|0,0:1|0:0|0:0,0:0:0:0:
176,263,202856,1,8,0:1:0:0:
289,93,203028,70,0,P|318:150|313:213,1,127.500004863739,4|0,0:1|0:0,0:0:0:0:
176,263,203287,1,0,0:0:0:0:
175,263,203373,2,0,P|180:231|183:199,1,63.7500024318696
187,135,203546,2,0,P|183:167|182:199,1,63.7500024318696,4|0,0:1|0:0,0:0:0:0:
60,268,203718,6,0,P|28:180|74:100,1,191.250007295609
183,200,204063,2,0,B|272:248|272:248|360:233,1,191.250007295609,8|0,0:1|0:0,0:0:0:0:
440,132,204408,70,0,P|378:148|315:155,1,127.500004863739,4|0,0:1|0:0,0:0:0:0:
160,16,204753,2,0,P|204:61|242:112,1,127.500004863739
241,194,205097,6,0,P|220:243|208:294,2,106.25,12|0|0,0:0|0:0|0:0,0:0:0:0:
315,154,205787,70,0,P|321:195|317:238,2,85,8|0|0,0:1|0:0|0:0,0:0:0:0:
184,136,206477,22,0,P|165:165|156:196,2,63.7500024318696,8|0|0,0:1|0:0|0:0,0:0:0:0:
368,92,207166,38,0,P|381:108|392:132,2,42.5,8|0|0,0:1|0:0|0:0,0:0:0:0:
288,44,207856,70,0,P|279:63|273:83,1,42.5,8|0,0:1|0:0,0:0:0:0:
272,220,208201,54,0,P|262:196|259:171,1,50.9999984436036,8|0,0:1|0:0,0:0:0:0:
192,36,208546,54,0,P|187:65|191:94,1,59.4999981842042,8|0,0:1|0:0,0:0:0:0:
160,260,208891,6,0,P|172:233|176:196,1,68,8|0,0:1|0:0,0:0:0:0:
88,12,209235,38,0,L|52:0,1,38.2499988327027,8|8,0:1|0:1,0:0:0:0:
24,172,209408,2,0,L|69:185,1,42.5,8|8,0:1|0:1,0:0:0:0:
36,96,209580,70,0,L|81:86,1,46.7500014266968,8|8,0:1|0:1,0:0:0:0:
68,256,209753,2,0,L|17:266,1,50.9999984436036,8|8,0:1|0:1,0:0:0:0:
4,348,209925,6,0,B|61:327|106:358|106:358|148:384|203:366,1,208.249993644715,8|0,0:1|0:0,0:0:0:0:
203,365,210615,70,0,L|189:238,1,127.500004863739,6|0,0:1|0:0,0:0:0:0:
36,96,210960,37,8,0:1:0:0:
36,96,211132,2,0,L|28:156,1,42.5
116,60,211304,5,8,0:1:0:0:
116,60,211476,2,0,L|128:128,1,50.9999984436036
200,84,211649,5,8,0:1:0:0:
200,84,211822,2,0,L|213:176,1,59.4999981842042
292,32,211994,53,8,0:1:0:0:
292,32,212166,2,0,L|288:104,1,68
380,60,212339,5,8,0:1:0:0:
380,60,212511,2,0,L|368:148,1,76.4999976654053
464,40,212684,5,8,0:1:0:0:
464,40,212856,2,0,L|476:160,1,85
488,248,213028,1,4,0:1:0:0:
488,248,213373,6,0,L|361:230,1,127.500004863739,6|0,0:1|0:0,0:0:0:0:
56,296,213718,37,8,0:1:0:0:
56,296,213891,2,0,L|52:253,1,42.5
144,324,214063,5,8,0:1:0:0:
144,324,214235,2,0,L|144:272,1,50.9999984436036
232,296,214408,5,8,0:1:0:0:
232,296,214580,2,0,L|240:212,1,59.4999981842042
348,64,214753,54,0,P|335:93|332:124,1,63.7500024318696,10|0,0:1|0:0,0:0:0:0:
259,92,214925,2,0,P|254:123|257:155,1,63.7500024318696,6|0,0:1|0:0,0:0:0:0:
318,271,215097,6,0,P|322:239|323:208,1,63.7500024318696,2|0,0:0|0:0,0:0:0:0:
399,172,215270,2,0,P|409:201|414:233,1,63.7500024318696,2|0,0:0|0:0,0:0:0:0:
493,170,215442,2,0,P|479:141|463:115,1,63.7500024318696,10|0,0:1|0:0,0:0:0:0:
259,92,215615,1,4,0:1:0:0:
482,41,215787,6,0,B|462:75|463:115|463:115|450:77|411:54,1,159.375,2|0,0:0|0:0,0:0:0:0:
328,8,216132,6,0,L|336:136,1,127.500004863739,6|0,0:1|0:0,0:0:0:0:
104,215,216477,37,8,0:1:0:0:
104,215,216649,2,0,P|123:208|140:195,1,42.5
192,120,216822,5,8,0:1:0:0:
192,120,216994,2,0,P|197:144|206:168,1,50.9999984436036
254,254,217166,5,8,0:1:0:0:
254,254,217339,2,0,P|226:243|197:238,1,59.4999981842042
82,159,217511,53,8,0:1:0:0:
82,159,217684,2,0,P|112:173|140:193,1,68
196,314,217856,5,8,0:1:0:0:
196,314,218029,2,0,P|193:275|196:237,1,76.4999976654053
281,131,218201,5,8,0:1:0:0:
281,131,218374,2,0,P|245:154|205:167,1,85
0,188,218546,53,4,0:1:0:0:
164,84,218718,1,0,0:0:0:0:
82,159,218891,38,0,L|76:32,1,127.500004863739,6|0,0:1|0:0,0:0:0:0:
384,48,219235,53,8,0:1:0:0:
384,48,219408,2,0,P|370:31|353:18,1,42.5
316,96,219580,5,8,0:1:0:0:
316,96,219753,2,0,P|290:100|267:110,1,50.9999984436036
316,180,219925,53,8,0:1:0:0:
316,180,220098,2,0,P|305:207|303:237,1,59.4999981842042
392,219,220270,6,0,P|396:251|408:280,1,63.7500024318696,10|0,0:1|0:0,0:0:0:0:
456,88,220442,2,0,P|483:71|505:48,1,63.7500024318696,2|0,0:0|0:0,0:0:0:0:
456,168,220615,6,0,P|480:188|509:200,1,63.7500024318696,2|0,0:0|0:0,0:0:0:0:
316,96,220787,1,2,0:0:0:0:
384,16,220960,54,0,L|384:52,2,31.8750012159348,10|8|8,0:1|0:1|0:1,0:0:0:0:
384,132,221132,1,2,0:0:0:0:
504,48,221304,5,2,0:0:0:0:
199,197,221477,1,2,0:0:0:0:
199,197,221649,22,0,L|188:71,2,127.500004863739,6|0|0,0:1|0:0|0:0,0:0:0:0:
112,220,222166,70,0,L|107:177,1,42.5,8|0,0:1|0:0,0:0:0:0:
92,92,222339,1,4,0:1:0:0:
199,197,222511,54,0,L|196:247,2,50.9999984436036
288,208,222856,6,0,L|288:149,2,59.4999981842042
372,152,223201,6,0,L|375:219,1,68
379,321,223373,1,8,0:1:0:0:
464,200,223546,54,0,L|456:120,1,76.4999976654053
288,64,223718,1,4,0:1:0:0:
476,30,223891,6,0,L|463:201,1,170
463,199,224235,1,0,0:0:0:0:
379,321,224408,22,0,L|373:193,2,127.500004863739,6|0|0,0:1|0:0|0:0,0:0:0:0:
272,356,224925,70,0,L|280:296,1,42.5,8|0,0:1|0:0,0:0:0:0:
292,232,225097,1,4,0:1:0:0:
120,364,225270,54,0,L|112:313,2,50.9999984436036
199,240,225615,6,0,P|197:270|196:299,2,59.4999981842042
8,200,225960,1,0,0:0:0:0:
95,151,226132,6,0,P|101:185|103:219,2,68,8|0|0,0:1|0:0|0:0,0:0:0:0:
0,76,226477,53,4,0:1:0:0:
195,55,226649,1,8,0:1:0:0:
195,55,226735,1,0,0:0:0:0:
195,54,226822,6,0,P|183:96|177:137,1,85
8,240,226994,1,4,0:1:0:0:
87,23,227166,22,0,L|95:151,2,127.500004863739,6|0|0,0:1|0:0|0:0,0:0:0:0:
264,4,227684,70,0,P|274:22|281:42,1,42.5,8|0,0:1|0:0,0:0:0:0:
284,168,227856,1,4,0:1:0:0:
368,48,228028,54,0,P|392:54|418:58,2,50.9999984436036
196,56,228373,6,0,P|167:64|138:70,2,59.4999981842042
428,176,228718,6,0,P|401:154|371:139,1,68
284,104,228891,1,8,0:1:0:0:
144,192,229063,54,0,P|168:162|199:140,1,76.4999976654053
352,220,229235,1,6,0:1:0:0:
352,220,229408,1,2,0:0:0:0:
144,304,229580,5,2,0:0:0:0:
392,324,229753,1,2,0:0:0:0:
234,228,229925,22,0,L|240:356,2,127.500004863739,6|0|0,0:1|0:0|0:0,0:0:0:0:
248,136,230442,70,0,P|226:136|206:140,1,42.5,0|0,0:3|0:0,0:0:0:0:
128,200,230615,1,4,0:1:0:0:
164,73,230787,54,0,P|145:90|132:112,2,50.9999984436036
52,87,231132,6,0,P|52:116|58:146,1,59.4999981842042
61,221,231304,38,0,P|119:287|128:200,1,223.125008511544,8|0,0:1|0:0,0:0:0:0:
132,111,231994,54,0,L|144:59,1,53.125
324,68,232166,2,0,L|308:140,1,61.6250018806458
220,56,232339,54,0,L|236:140,1,70.1250006687641
416,128,232511,2,0,L|400:48,1,78.6249997000694
508,4,232684,38,0,L|492:276,1,242.249993531227,14|0,0:0|0:0,0:0:0:0:
493,245,233028,54,0,P|457:253|409:233,1,80.7499978437424,6|0,0:1|0:0,0:0:0:0:
324,204,233201,2,0,P|284:207|248:227,1,80.7499978437424,10|0,0:0|0:0,0:0:0:0:
168,168,233373,6,0,L|154:248,1,80.7499978437424,2|0,0:0|0:0,0:0:0:0:
140,340,233546,2,0,L|152:260,1,80.7499978437424,10|0,0:0|0:0,0:0:0:0:
56,32,233718,1,6,0:1:0:0:
56,32,233804,1,2,0:0:0:0:
56,32,233891,6,0,L|52:216,1,161.499995687485,2|8,0:0|0:0,0:0:0:0:
162,85,234235,38,0,P|201:92|234:114,1,80.7499978437424,2|0,0:0|0:0,0:0:0:0:
227,196,234408,2,0,L|235:115,1,80.7499978437424,6|0,0:1|0:0,0:0:0:0:
408,76,234580,2,0,P|369:85|336:108,1,80.7499978437424,10|0,0:0|0:0,0:0:0:0:
230,276,234753,6,0,L|227:196,1,80.7499978437424,2|0,0:0|0:0,0:0:0:0:
240,4,234925,1,8,0:0:0:0:
56,124,235097,6,0,P|96:125|140:104,1,80.7499978437424,6|0,0:1|0:0,0:0:0:0:
234,115,235270,2,0,P|198:102|156:104,1,80.7499978437424,2|0,0:0|0:0,0:0:0:0:
148,360,235442,6,0,B|180:184|180:184|200:216|232:224,1,242.249993531227,14|0,0:0|0:0,0:0:0:0:
408,176,235787,38,0,L|416:256,1,80.7499978437424,6|0,0:1|0:0,0:0:0:0:
319,263,235960,2,0,L|311:179,1,80.7499978437424,10|0,0:0|0:0,0:0:0:0:
304,102,236132,6,0,L|311:189,1,80.7499978437424,2|0,0:0|0:0,0:0:0:0:
326,343,236304,2,0,L|319:263,1,80.7499978437424,10|0,0:0|0:0,0:0:0:0:
344,20,236477,5,6,0:1:0:0:
344,20,236563,1,2,0:0:0:0:
344,20,236649,2,0,B|304:4|264:20|264:20|228:36|185:21,1,161.499995687485,2|10,0:0|0:0,0:0:0:0:
23,221,236994,6,0,P|32:180|60:151,1,80.7499978437424,2|0,0:0|0:0,0:0:0:0:
21,74,237166,2,0,P|49:102|60:140,1,80.7499978437424,6|0,0:0|0:0,0:0:0:0:
146,150,237339,2,0,P|105:159|66:150,1,80.7499978437424,10|0,0:0|0:0,0:0:0:0:
128,232,237511,38,0,B|232:240|232:240|204:204,1,144.500002756119,2|8,0:0|0:0,0:0:0:0:
220,112,237770,2,0,B|332:116|332:116|292:148,1,152.999995330811,2|0,0:0|0:0,0:0:0:0:
304,244,238028,2,0,L|388:248,1,80.7499978437424,2|0,0:0|0:0,0:0:0:0:
492,104,238201,6,0,P|462:190|427:99,1,242.249993531227,14|0,0:0|0:0,0:0:0:0:
485,48,238546,6,0,P|451:70|424:100,1,80.7499978437424,6|0,0:1|0:0,0:0:0:0:
384,247,238718,2,0,P|377:207|361:170,1,80.7499978437424,10|0,0:0|0:0,0:0:0:0:
264,64,238891,6,0,P|301:78|341:84,1,80.7499978437424,2|0,0:0|0:0,0:0:0:0:
384,327,239063,2,0,P|381:289|384:246,1,80.7499978437424,10|0,0:0|0:0,0:0:0:0:
485,48,239235,37,6,0:1:0:0:
485,48,239322,1,2,0:0:0:0:
485,48,239408,2,0,B|380:24|380:24|348:72,1,161.499995687485,2|8,0:0|0:0,0:0:0:0:
251,181,239753,6,0,B|212:184|212:184|172:170,1,80.7499978437424,2|0,0:0|0:0,0:0:0:0:
212,20,239925,2,0,L|220:124,1,80.7499978437424,6|0,0:1|0:0,0:0:0:0:
196,344,240097,2,0,L|212:240,1,80.7499978437424,10|0,0:0|0:0,0:0:0:0:
19,152,240270,6,0,B|79:136|79:136|172:170,1,161.499995687485,2|10,0:0|0:0,0:0:0:0:
420,128,240615,1,6,0:1:0:0:
420,128,240701,1,0,0:0:0:0:
420,128,240787,2,0,P|379:123|341:111,1,80.7499978437424,2|0,0:0|0:0,0:0:0:0:
328,292,240960,6,0,P|346:194|416:264,1,242.249993531227,14|0,0:0|0:0,0:0:0:0:
492,267,241304,38,0,P|491:227|479:189,1,80.7499978437424,6|0,0:1|0:0,0:0:0:0:
269,146,241477,2,0,P|244:179|231:217,1,80.7499978437424,10|0,0:0|0:0,0:0:0:0:
380,369,241649,6,0,P|420:365|454:343,1,80.7499978437424,2|0,0:0|0:0,0:0:0:0:
419,127,241822,2,0,P|381:116|341:115,1,80.7499978437424,10|0,0:0|0:0,0:0:0:0:
239,304,241994,6,0,P|261:338|294:362,1,80.7499978437424,6|0,0:1|0:0,0:0:0:0:
492,267,242166,2,0,P|491:227|479:189,1,80.7499978437424,2|0,0:1|0:0,0:0:0:0:
278,226,242339,6,0,L|269:146,1,80.7499978437424,10|0,0:0|0:0,0:0:0:0:
136,256,242511,2,0,L|180:188,1,80.7499978437424,2|0,0:0|0:0,0:0:0:0:
25,155,242684,2,0,L|102:131,1,80.7499978437424,6|0,0:1|0:0,0:0:0:0:
183,16,242856,1,10,0:0:0:0:
183,16,242942,1,0,0:0:0:0:
183,16,243028,38,0,P|179:55|187:95,1,80.7499978437424,2|0,0:0|0:0,0:0:0:0:
103,131,243201,2,0,P|95:92|80:48,1,80.7499978437424,10|0,0:0|0:0,0:0:0:0:
275,52,243373,1,6,0:1:0:0:
275,52,243460,1,2,0:0:0:0:
275,52,243546,1,2,0:0:0:0:
268,145,243718,70,0,B|260:96|260:96|276:50,1,95.6250036478044,2|0,0:0|0:0,0:0:0:0:
275,52,244063,22,0,B|195:59,1,80.7499978437424,6|0,0:1|0:0,0:0:0:0:
84,68,244235,2,0,B|176:60,1,80.7499978437424,10|0,0:0|0:0,0:0:0:0:
360,228,244408,6,0,P|322:239|282:234,1,80.7499978437424,2|0,0:0|0:0,0:0:0:0:
175,233,244580,2,0,P|213:221|253:227,1,80.7499978437424,10|0,0:0|0:0,0:0:0:0:
372,312,244753,5,6,0:1:0:0:
372,312,244839,1,2,0:0:0:0:
372,312,244925,2,0,L|350:151,1,161.499995687485,2|10,0:0|0:0,0:0:0:0:
354,147,245184,1,2,0:0:0:0:
358,142,245270,2,0,P|317:145|280:130,1,80.7499978437424,2|2,0:0|0:0,0:0:0:0:
46,203,245442,38,0,P|86:201|120:180,1,80.7499978437424,6|0,0:1|0:0,0:0:0:0:
246,302,245615,1,10,0:0:0:0:
200,109,245787,5,2,0:0:0:0:
200,109,245873,1,0,0:0:0:0:
200,109,245960,2,0,L|116:97,1,80.7499978437424,8|0,0:0|0:0,0:0:0:0:
16,250,246132,2,0,B|48:174|123:179|123:179|159:223|216:214,1,242.249993531227,4|0,0:1|0:0,0:0:0:0:
215,224,246477,6,0,L|192:383,1,161.499995687485,14|2,0:0|0:0,0:0:0:0:
191,383,246735,2,0,L|272:375,1,80.7499978437424,0|4,0:1|0:1,0:0:0:0:
422,117,246994,1,10,0:0:0:0:
332,256,247166,6,0,P|320:208|320:172,1,80.7499978437424,2|0,0:0|0:0,0:0:0:0:
300,24,247339,2,0,P|312:72|312:108,1,80.7499978437424,10|0,0:0|0:0,0:0:0:0:
412,196,247511,37,12,0:1:0:0:
412,196,247597,1,2,0:0:0:0:
412,197,247684,2,0,L|423:117,1,80.7499978437424,2|0,0:1|0:0,0:0:0:0:
20,152,247856,6,0,P|64:147|100:160,1,80.7499978437424,10|0,0:0|0:0,0:0:0:0:
108,332,248028,2,0,L|112:248,1,80.7499978437424,2|0,0:0|0:0,0:0:0:0:
160,16,248201,6,0,L|167:97,1,80.7499978437424,6|0,0:1|0:0,0:0:0:0:
184,192,248373,2,0,P|223:196|262:184,1,80.7499978437424,10|0,0:0|0:0,0:0:0:0:
422,117,248546,6,0,B|305:103|305:103|334:135,1,161.499995687485,2|8,0:0|0:0,0:0:0:0:
344,276,248804,2,0,B|228:305|228:305|258:250,1,161.499995687485,2|0,0:0|0:0,0:0:0:0:
166,96,249063,2,0,L|58:80,1,80.7499978437424,2|0,0:0|0:0,0:0:0:0:
46,242,249235,38,0,P|121:302|120:205,1,242.249993531227,14|0,0:0|0:0,0:0:0:0:
41,162,249580,6,0,P|46:202|46:242,1,80.7499978437424,6|0,0:1|0:0,0:0:0:0:
46,322,249753,2,0,P|43:283|46:241,1,80.7499978437424,10|0,0:0|0:0,0:0:0:0:
252,32,249925,6,0,L|264:112,1,80.7499978437424,2|0,0:0|0:0,0:0:0:0:
297,332,250097,2,0,L|286:251,1,80.7499978437424,10|0,0:0|0:0,0:0:0:0:
120,205,250270,5,6,0:1:0:0:
120,205,250356,1,2,0:0:0:0:
120,205,250442,2,0,B|244:184|244:184|228:197|219:210,1,161.499995687485,2|8,0:0|0:0,0:0:0:0:
200,288,250701,1,2,0:0:0:0:
199,288,250787,2,0,P|160:293|120:301,1,80.7499978437424,2|0,0:0|0:0,0:0:0:0:
16,124,250960,38,0,P|54:111|93:99,1,80.7499978437424,6|0,0:1|0:0,0:0:0:0:
183,315,251132,2,0,P|144:308|104:304,1,80.7499978437424,10|0,0:0|0:0,0:0:0:0:
0,224,251304,6,0,L|159:197,1,161.499995687485,2|10,0:0|0:0,0:0:0:0:
344,8,251649,1,6,0:1:0:0:
344,8,251822,1,2,0:0:0:0:
254,189,251994,6,0,B|268:112|248:32|248:32|260:72|298:96,1,242.249993531227,14|0,0:0|0:0,0:0:0:0:
344,236,252339,6,0,L|356:156,1,80.7499978437424,6|0,0:1|0:0,0:0:0:0:
172,276,252511,2,0,L|158:196,1,80.7499978437424,10|0,0:0|0:0,0:0:0:0:
369,67,252684,38,0,L|357:151,1,80.7499978437424,2|0,0:0|0:0,0:0:0:0:
142,108,252856,2,0,L|158:200,1,80.7499978437424,10|0,0:0|0:0,0:0:0:0:
256,344,253028,5,6,0:1:0:0:
260,296,253115,1,2,0:0:0:0:
264,248,253201,1,2,0:0:0:0:
268,200,253287,1,2,0:0:0:0:
272,152,253373,5,10,0:0:0:0:
272,152,254063,1,0,0:0:0:0:
312,148,254149,1,0,0:0:0:0:
352,144,254235,1,0,0:0:0:0:
392,144,254322,1,0,0:0:0:0:
376,188,254408,69,0,0:0:0:0:
325,188,254494,1,0,0:0:0:0:
275,185,254580,1,0,0:0:0:0:
226,185,254667,1,0,0:0:0:0:
176,180,254753,22,0,L|184:368,1,178.499994552612,10|0,0:0|0:0,0:0:0:0:
72,292,255097,2,0,B|121:258|121:258|179:271,1,118.999996368408,4|0,0:0|0:0,0:0:0:0:
260,96,255442,2,0,P|263:66|264:32,2,59.4999981842042,0|0|8,0:0|0:0|0:0,0:0:0:0:
376,188,255787,2,0,L|365:306,1,118.999996368408,4|0,0:0|0:0,0:0:0:0:
440,96,256132,6,0,P|469:96|504:100,2,59.4999981842042,0|0|8,0:0|0:0|0:0,0:0:0:0:
376,188,256477,2,0,B|320:208|320:208|274:169,1,118.999996368408,4|0,0:0|0:0,0:0:0:0:
260,96,256735,1,0,0:0:0:0:
260,96,256822,1,0,0:0:0:0:
104,300,256994,69,8,0:0:0:0:
79,192,257166,2,0,L|197:174,1,118.999996368408,4|0,0:0|0:0,0:0:0:0:
429,98,257511,6,0,B|377:110|377:110|313:82|313:82|253:97,1,178.499994552612,8|0,0:0|0:0,0:0:0:0:
259,94,257856,2,0,P|267:153|271:213,1,118.999996368408,4|0,0:0|0:0,0:0:0:0:
364,296,258201,2,0,P|396:292|432:284,2,59.4999981842042,0|0|8,0:0|0:0|0:0,0:0:0:0:
180,256,258546,1,4,0:0:0:0:
368,128,258718,1,0,0:0:0:0:
160,140,258891,69,0,0:0:0:0:
376,208,259063,1,8,0:0:0:0:
248,340,259235,5,4,0:0:0:0:
256,56,259408,1,0,0:0:0:0:
256,56,259494,1,0,0:0:0:0:
256,55,259580,70,0,L|172:72,1,59.4999981842042
101,129,259753,2,0,L|165:141,1,59.4999981842042,8|0,0:0|0:0,0:0:0:0:
152,272,259925,1,4,0:0:0:0:
152,272,260097,1,0,0:0:0:0:
249,149,260270,22,0,P|251:202|256:268,1,118.999996368408,10|0,0:0|0:0,0:0:0:0:
36,328,260615,69,4,0:0:0:0:
141,213,260787,1,0,0:0:0:0:
141,213,260873,1,0,0:0:0:0:
141,213,260960,2,0,P|149:257|153:289,2,59.4999981842042,0|0|8,0:0|0:0|0:0,0:0:0:0:
36,328,261304,2,0,P|39:268|44:209,1,118.999996368408,4|0,0:0|0:0,0:0:0:0:
172,364,261649,69,0,0:0:0:0:
172,364,261822,1,8,0:0:0:0:
208,96,261994,2,0,L|280:112,1,59.4999981842042,4|0,0:0|0:0,0:0:0:0:
372,264,262166,2,0,L|448:248,1,59.4999981842042
496,168,262339,21,2,0:0:0:0:
457,150,262425,1,0,0:0:0:0:
416,152,262511,1,10,0:1:0:0:
375,161,262597,1,0,0:0:0:0:
339,184,262684,1,6,0:1:0:0:
300,202,262770,1,0,0:0:0:0:
258,205,262856,1,2,0:0:0:0:
217,194,262942,1,0,0:0:0:0:
180,172,263028,70,0,L|200:112,1,59.4999981842042,10|0,0:1|0:0,0:0:0:0:
136,276,263201,1,0,0:0:0:0:
96,96,263373,69,6,0:1:0:0:
48,296,263546,1,2,0:0:0:0:
48,296,263632,1,0,0:0:0:0:
48,296,263718,22,0,L|40:232,1,59.4999981842042,2|0,0:0|0:0,0:0:0:0:
28,160,263891,1,10,0:1:0:0:
249,288,264063,2,0,B|195:266|195:266|119:278,1,118.999996368408,6|2,0:1|0:0,0:0:0:0:
212,80,264408,53,2,0:3:0:0:
184,360,264580,1,0,0:0:0:0:
344,148,264753,2,0,B|424:128|424:128|464:152,1,118.999996368408,4|0,0:1|0:0,0:0:0:0:
412,212,265011,1,0,0:0:0:0:
412,212,265097,69,2,0:3:0:0:
336,36,265270,22,0,L|277:48,1,59.4999981842042,8|0,0:1|0:0,0:0:0:0:
176,208,265442,2,0,B|236:180|264:132|264:132|260:172|280:188,1,178.499994552612,4|0,0:1|0:0,0:0:0:0:
328,265,265787,70,0,L|348:113,1,118.999996368408,10|0,0:0|0:0,0:0:0:0:
188,304,266132,1,4,0:0:0:0:
88,128,266304,5,0,0:0:0:0:
72,120,266391,1,0,0:0:0:0:
60,112,266477,2,0,L|0:119,2,59.4999981842042,0|0|8,0:0|0:0|0:0,0:0:0:0:
192,92,266822,2,0,L|168:240,1,118.999996368408,4|0,0:0|0:0,0:0:0:0:
100,304,267166,69,0,0:0:0:0:
96,32,267339,1,8,0:0:0:0:
32,224,267511,21,4,0:0:0:0:
192,92,267684,1,0,0:0:0:0:
192,92,267770,1,0,0:0:0:0:
192,92,267856,1,0,0:0:0:0:
0,118,268028,53,8,0:0:0:0:
192,48,268201,2,0,L|195:226,1,178.499994552612,4|0,0:0|0:0,0:0:0:0:
195,226,268546,6,0,B|248:196|248:196|332:220,1,118.999996368408,8|0,0:0|0:0,0:0:0:0:
316,324,268891,2,0,B|263:354|263:354|179:330,1,118.999996368408,4|0,0:0|0:0,0:0:0:0:
303,211,269235,70,0,L|316:128,2,59.4999981842042,0|0|8,0:0|0:0|0:0,0:0:0:0:
92,128,269580,2,0,L|103:272,1,118.999996368408,4|0,0:0|0:0,0:0:0:0:
207,338,269925,5,0,0:0:0:0:
200,32,270097,1,8,0:0:0:0:
101,246,270270,69,4,0:0:0:0:
327,94,270442,2,0,L|310:153,1,59.4999981842042
295,246,270615,2,0,L|251:202,1,59.4999981842042
179,142,270787,2,0,L|239:126,1,59.4999981842042,8|0,0:0|0:0,0:0:0:0:
207,338,270960,1,4,0:0:0:0:
207,338,271132,1,0,0:0:0:0:
252,203,271304,22,0,B|304:211|304:211|370:177|370:177|426:210|426:210|471:205,1,237.999992736817,8|4,0:0|0:0,0:0:0:0:
460,72,271735,1,0,0:0:0:0:
448,76,271822,2,0,L|456:140,1,59.4999981842042
472,296,271994,70,0,B|412:308|412:308|332:268,1,118.999996368408,8|0,0:0|0:0,0:0:0:0:
256,20,272339,1,4,0:0:0:0:
256,20,272511,2,0,L|176:68,1,59.4999981842042
60,116,272684,70,0,P|134:47|169:142,1,237.999992736817,8|4,0:0|0:0,0:0:0:0:
176,228,273115,1,0,0:0:0:0:
176,228,273201,2,0,L|184:316,1,59.4999981842042
104,328,273373,22,0,B|95:302|95:302|99:270,1,59.4999981842042,8|0,0:0|0:0,0:0:0:0:
264,312,273546,2,0,B|268:280|268:280|259:254,1,59.4999981842042
108,176,273718,1,4,0:0:0:0:
108,176,273804,1,0,0:0:0:0:
108,176,273891,1,0,0:0:0:0:
288,72,274063,69,8,0:0:0:0:
192,376,274235,1,8,0:0:0:0:
432,132,274408,69,4,0:0:0:0:
108,176,274580,1,8,0:0:0:0:
412,368,274753,21,8,0:0:0:0:
420,348,274839,1,8,0:0:0:0:
421,328,274925,1,8,0:0:0:0:
416,307,275011,1,8,0:0:0:0:
407,288,275097,1,4,0:0:0:0:
401,268,275184,1,8,0:0:0:0:
403,247,275270,1,8,0:0:0:0:
410,227,275356,1,8,0:0:0:0:
472,264,275442,5,8,0:0:0:0:
336,332,276822,6,0,L|251:326,1,85,8|0,0:0|0:0,0:0:0:0:
172,179,277166,1,0,0:0:0:0:
72,204,277339,1,0,0:0:0:0:
186,263,277511,70,0,P|178:222|172:180,1,85
264,136,277770,1,0,0:0:0:0:
264,141,277856,2,0,P|265:162|268:184,2,42.5
88,320,278201,69,2,0:0:0:0:
186,275,278373,5,0,0:0:0:0:
186,269,278460,1,0,0:0:0:0:
186,263,278546,2,0,P|188:242|189:214,2,42.5
16,176,278891,5,2,0:0:0:0:
8,136,278977,1,2,0:0:0:0:
12,96,279063,1,2,0:0:0:0:
24,56,279149,1,2,0:0:0:0:
72,60,279235,5,2,0:0:0:0:
64,108,279321,1,2,0:0:0:0:
64,156,279407,1,2,0:0:0:0:
72,204,279494,1,2,0:0:0:0:
24,216,279580,37,2,0:0:0:0:
140,106,279753,22,0,P|138:127|141:149,2,42.5
144,20,280097,1,0,0:0:0:0:
228,124,280270,69,0,0:0:0:0:
236,20,280442,2,0,L|288:24,1,42.5
278,127,280615,2,0,L|236:124,1,42.5
288,24,280787,1,0,0:0:0:0:
512,16,280960,70,0,L|440:12,1,42.5,2|0,0:0|0:0,0:0:0:0:
356,80,281132,6,0,L|432:76,1,42.5
504,112,281304,1,0,0:0:0:0:
504,112,281477,1,0,0:0:0:0:
356,183,281649,21,2,0:0:0:0:
404,180,281735,1,2,0:0:0:0:
452,181,281822,1,2,0:0:0:0:
500,186,281908,1,2,0:0:0:0:
499,234,281994,53,2,0:0:0:0:
451,229,282080,1,2,0:0:0:0:
403,228,282167,1,2,0:0:0:0:
354,231,282253,1,2,0:0:0:0:
305,233,282339,54,0,L|308:276,1,42.5,2|0,0:0|0:0,0:0:0:0:
219,282,282511,2,0,L|216:240,1,42.5
300,216,282684,2,0,P|318:248|304:300,1,85
40,176,283028,54,0,L|37:227,1,46.7500014266968,2|0,0:0|0:0,0:0:0:0:
124,225,283201,2,0,L|127:179,1,46.7500014266968
36,154,283373,2,0,P|17:195|30:239,1,93.5000028533936
296,80,283718,6,0,L|298:136,1,50.9999984436036,2|0,0:0|0:0,0:0:0:0:
210,137,283891,2,0,L|209:87,1,50.9999984436036
297,59,284063,2,0,P|320:102|302:148,1,101.999996887207
49,23,284408,22,0,L|43:77,1,55.2499974708558,2|0,0:0|0:0,0:0:0:0:
129,82,284580,2,0,L|135:27,1,55.2499974708558
38,0,284753,2,0,P|12:46|34:95,1,110.499994941712
256,24,285097,70,0,B|316:12|316:12|369:34,1,118.999996368408,6|0,0:0|0:0,0:0:0:0:
399,120,285356,1,0,0:0:0:0:
399,120,285442,2,0,L|395:179,1,59.4999981842042
387,319,285615,2,0,L|391:260,1,59.4999981842042
491,168,285787,54,0,B|475:252|475:252|474:234|463:220,1,118.999996368408
315,256,286046,1,0,3:0:0:0:
315,255,286132,2,0,P|285:260|257:269,1,59.4999981842042
314,171,286305,2,0,P|285:171|256:164,1,59.4999981842042,0|0,3:0|3:0,3:0:0:0:
160,304,286477,54,0,L|163:197,1,106.25
168,96,286994,1,0,0:0:0:0:
35,227,287166,1,2,0:0:0:0:
33,225,287253,1,2,0:0:0:0:
31,223,287339,1,2,0:0:0:0:
29,221,287425,1,2,0:0:0:0:
27,219,287511,1,2,0:0:0:0:
25,217,287597,1,2,0:0:0:0:
23,215,287684,1,2,0:0:0:0:
21,213,287770,1,2,0:0:0:0:
19,211,287856,38,0,B|72:212|112:184|112:184|160:212|160:212|196:196|240:208,1,223.125002127886,14|0,0:0|0:0,0:0:0:0:
262,98,288201,54,0,B|238:90|210:54|210:54|246:134|222:226,1,223.125002127886,4|0,0:1|0:0,0:0:0:0:
142,202,288546,22,0,L|136:128,1,74.3750007092953,2|0,0:0|0:0,0:0:0:0:
333,186,288718,2,0,L|344:112,1,74.3750007092953,10|0,0:1|0:0,0:0:0:0:
485,166,288891,2,0,L|476:240,1,74.3750007092953,6|0,0:1|0:0,0:0:0:0:
324,276,289063,54,0,P|359:264|396:259,1,74.3750007092953
431,56,289235,2,0,P|467:66|503:72,1,74.3750007092953
476,239,289408,21,8,0:1:0:0:
128,260,289580,2,0,L|125:185,1,74.3750007092953,4|0,0:1|0:0,0:0:0:0:
344,156,289753,2,0,L|332:232,1,74.3750007092953
296,332,289925,37,2,0:0:0:0:
248,304,290011,1,2,0:0:0:0:
227,258,290097,1,10,0:1:0:0:
226,205,290184,1,2,0:0:0:0:
219,153,290270,21,6,0:1:0:0:
191,109,290356,1,2,0:0:0:0:
144,84,290442,1,2,0:0:0:0:
92,74,290528,1,2,0:0:0:0:
40,88,290615,70,0,L|28:221,1,106.25,8|0,0:1|0:0,0:0:0:0:
18,345,290960,1,4,0:1:0:0:
18,345,291132,1,0,0:0:0:0:
18,345,291304,22,0,L|143:328,1,106.25,2|8,0:0|0:1,0:0:0:0:
103,229,291563,2,0,L|171:213,2,63.7500024318696,2|4|0,0:0|0:1|0:0,0:0:0:0:
199,327,291822,2,0,L|283:320,1,74.3750007092953,2|0,0:0|0:0,0:0:0:0:
320,112,291994,53,0,0:0:0:0:
349,347,292166,1,8,0:1:0:0:
320,112,292339,1,4,0:1:0:0:
404,188,292684,5,2,0:0:0:0:
360,212,292770,1,2,0:0:0:0:
312,216,292856,1,2,0:0:0:0:
264,208,292942,1,2,0:0:0:0:
228,172,293028,53,2,0:0:0:0:
188,168,293115,1,2,0:0:0:0:
152,180,293201,1,2,0:0:0:0:
120,204,293287,1,2,0:0:0:0:
108,240,293373,22,0,L|100:128,1,85,12|0,0:0|0:0,0:0:0:0:
16,120,293632,1,0,0:0:0:0:
16,120,293718,2,0,L|24:280,1,127.5,4|0,0:1|0:0,0:0:0:0:
192,236,294063,54,0,L|185:92,1,106.25,0|8,0:1|0:1,0:0:0:0:
101,80,294322,1,0,0:0:0:0:
101,80,294408,2,0,L|109:272,1,159.375,4|0,0:1|0:0,0:0:0:0:
276,236,294753,6,0,L|269:86,1,127.500004863739,0|8,0:1|0:1,0:0:0:0:
184,44,295011,1,0,0:0:0:0:
184,44,295098,2,0,L|192:257,1,191.250007295609,4|0,0:1|0:0,0:0:0:0:
360,232,295442,22,0,L|353:72,1,148.750001418591,0|8,0:1|0:1,0:0:0:0:
267,12,295701,1,0,0:0:0:0:
267,12,295787,2,0,L|276:241,1,223.125002127886,4|0,0:1|0:0,0:0:0:0:
275,234,296132,53,12,0:0:0:0:
428,280,296304,1,0,0:0:0:0:
428,280,296391,1,0,0:0:0:0:
428,280,296477,2,0,P|379:319|304:296,1,127.500004863739,4|0,0:1|0:0,0:0:0:0:
205,211,296822,22,0,P|146:191|96:226,1,127.500004863739
32,368,297080,1,0,0:0:0:0:
32,368,297166,2,0,P|30:337|25:304,1,63.7500024318696,4|0,0:1|0:0,0:0:0:0:
152,332,297339,2,0,P|154:300|158:268,1,63.7500024318696
83,246,297511,54,0,P|74:191|76:141,1,106.25,0|8,0:0|0:1,0:0:0:0:
240,275,297856,2,0,P|258:218|288:170,1,106.25,4|0,0:1|0:0,0:0:0:0:
175,154,298201,22,0,P|171:101|145:50,1,106.25,0|8,0:0|0:1,0:0:0:0:
362,126,298546,2,0,P|383:75|377:13,1,106.25,4|0,0:1|0:0,0:0:0:0:
405,204,298891,54,0,P|353:211|304:193,2,106.25,12|0|0,0:0|0:0|0:0,0:0:0:0:
284,280,299580,70,0,P|247:259|219:227,2,85,8|0|0,0:1|0:0|0:0,0:0:0:0:
152,284,300270,22,0,P|139:254|135:223,2,63.7500024318696,8|0|0,0:1|0:0|0:0,0:0:0:0:
56,232,300960,38,0,P|57:210|62:190,2,42.5,8|0|0,0:1|0:0|0:0,0:0:0:0:
48,88,301649,70,0,P|26:87|5:91,1,42.5
200,88,301994,22,0,P|159:100|117:97,1,85
336,80,302339,22,0,P|304:75|272:80,1,63.7500024318696
508,88,302684,70,0,P|456:99|403:94,1,106.25
256,180,303028,38,0,L|297:169,1,42.5
352,316,303201,2,0,L|397:305,1,46.7500014266968
380,168,303373,6,0,L|390:227,1,50.9999984436036
266,330,303546,2,0,L|258:266,1,55.2499974708558
259,275,303718,54,0,B|219:274|191:247|191:247|151:299|151:299|116:278|72:281,1,223.125002127886
72,281,304063,2,0,L|87:190,1,63.7500024318696
256,180,304235,1,0,0:0:0:0:
256,180,304322,1,0,0:0:0:0:
256,180,304408,54,0,B|242:98,1,74.3750007092953,14|0,0:0|0:0,0:0:0:0:
236,8,304580,2,0,P|200:16|163:20,1,74.3750007092953,2|0,0:0|0:0,0:0:0:0:
82,218,304753,6,0,B|60:191|60:191|64:151,1,74.3750007092953,6|0,0:1|0:0,0:0:0:0:
148,132,304925,2,0,B|169:158|169:158|165:198,1,74.3750007092953,2|0,0:0|0:0,0:0:0:0:
330,190,305097,6,0,P|293:193|261:210,1,74.3750007092953,2|0,0:0|0:0,0:0:0:0:
485,321,305270,1,10,0:1:0:0:
288,299,305442,54,0,P|252:303|218:289,1,74.3750007092953,6|0,0:1|0:0,0:0:0:0:
476,214,305615,2,0,B|448:176|448:176|405:268,1,148.750001418591,2|2,0:0|0:0,0:0:0:0:
401,275,305873,1,0,0:0:0:0:
396,280,305960,2,0,L|412:180,1,74.3750007092953,10|0,0:1|0:0,0:0:0:0:
369,131,306132,6,0,P|340:155|329:190,1,74.3750007092953,6|0,0:1|0:0,0:0:0:0:
173,148,306304,2,0,P|138:162|102:161,1,74.3750007092953,2|0,0:0|0:0,0:0:0:0:
37,77,306477,5,2,0:0:0:0:
10,238,306649,1,10,0:1:0:0:
127,72,306822,54,0,P|140:38|168:13,1,74.3750007092953,6|0,0:1|0:0,0:0:0:0:
118,258,306994,2,0,P|120:295|139:327,1,74.3750007092953,2|0,0:0|0:0,0:0:0:0:
295,186,307166,6,0,P|278:83|202:154,1,255,10|0,0:1|0:0,0:0:0:0:
218,250,307511,6,0,P|276:283|387:251,1,148.750001418591,6|2,0:1|0:0,0:0:0:0:
436,227,307770,1,0,0:0:0:0:
436,227,307856,2,0,L|449:300,1,74.3750007092953,2|0,0:0|0:0,0:0:0:0:
355,381,308028,1,10,0:1:0:0:
244,252,308201,54,0,P|248:288|234:322,1,74.3750007092953,6|0,0:1|0:0,0:0:0:0:
60,293,308373,1,0,0:0:0:0:
60,293,308460,1,0,0:0:0:0:
60,293,308546,6,0,P|55:256|71:223,1,74.3750007092953,2|0,0:3|0:0,0:0:0:0:
169,154,308718,2,0,L|157:238,1,74.3750007092953,10|0,0:1|0:0,0:0:0:0:
133,384,308891,6,0,L|150:275,1,74.3750007092953,6|0,0:1|0:0,0:0:0:0:
162,143,309063,2,0,P|204:160|258:163,1,74.3750007092953,2|0,0:0|0:0,0:0:0:0:
308,95,309235,54,0,L|317:244,1,148.750001418591,2|8,0:0|0:1,0:0:0:0:
250,282,309494,2,0,B|318:244|318:244|392:277,1,157.249999400139,2|0,0:0|0:0,0:0:0:0:
399,257,309753,2,0,L|417:176,1,82.875000316143,2|0,0:0|0:0,0:0:0:0:
512,90,309925,6,0,B|364:44|364:44|386:71|383:108,1,223.125002127886,14|0,0:0|0:0,0:0:0:0:
234,89,310270,6,0,P|271:97|307:95,1,74.3750007092953,6|0,0:1|0:0,0:0:0:0:
313,181,310442,2,0,P|275:181|240:193,1,74.3750007092953,2|0,0:0|0:0,0:0:0:0:
134,145,310615,54,0,B|94:166|94:166|88:214|88:214|39:241,1,148.750001418591,2|10,0:0|0:1,0:0:0:0:
35,249,310873,1,0,0:0:0:0:
29,256,310960,2,0,L|51:167,1,74.3750007092953,6|0,0:1|0:0,0:0:0:0:
301,300,311132,1,2,0:0:0:0:
224,75,311304,6,0,B|277:127|277:127|239:191,1,148.750001418591,2|10,0:0|0:1,0:0:0:0:
232,198,311563,1,0,0:0:0:0:
227,206,311649,6,0,P|190:207|157:223,1,74.3750007092953,6|0,0:1|0:0,0:0:0:0:
144,66,311822,2,0,P|179:76|216:74,1,74.3750007092953,2|0,0:0|0:0,0:0:0:0:
399,43,311994,53,2,0:0:0:0:
413,306,312166,1,10,0:1:0:0:
371,115,312339,6,0,L|298:139,1,74.3750007092953,6|0,0:1|0:1,0:1:0:0:
287,366,312511,1,2,0:0:0:0:
460,222,312684,6,0,P|394:304|374:203,1,255,10|0,0:1|0:0,0:0:0:0:
300,138,313028,54,0,P|362:98|434:126,1,148.750001418591,6|2,0:1|0:0,0:0:0:0:
433,124,313287,1,0,0:0:0:0:
437,128,313373,2,0,L|449:28,1,74.3750007092953,2|0,0:0|0:0,0:0:0:0:
368,0,313546,1,10,0:1:0:0:
369,206,313718,6,0,P|340:228|303:234,1,74.3750007092953,6|0,0:1|0:0,0:0:0:0:
265,0,313891,2,0,P|300:10|336:6,1,74.3750007092953,2|0,0:0|0:0,0:0:0:0:
318,85,314063,6,0,P|305:118|309:159,1,74.3750007092953,2|0,0:0|0:0,0:0:0:0:
93,202,314235,2,0,P|73:170|73:133,1,74.3750007092953,10|0,0:1|0:0,0:0:0:0:
229,123,314408,54,0,L|156:139,1,74.3750007092953,6|0,0:1|0:0,0:0:0:0:
230,317,314580,2,0,L|156:312,1,74.3750007092953,2|0,0:0|0:0,0:0:0:0:
11,248,314753,5,2,0:0:0:0:
228,231,314925,1,10,0:1:0:0:
23,152,315097,6,0,B|77:166|77:166|96:201|96:201|146:215,1,148.750001418591,6|6,0:1|0:1,0:0:0:0:
412,164,315442,54,0,B|446:323|446:323|397:357,1,223.125002127886,14|0,0:0|0:0,0:0:0:0:
260,367,315787,6,0,L|264:271,1,74.3750007092953,6|0,2:1|2:1,2:1:0:0:
273,126,315960,2,0,L|269:200,1,74.3750007092953,2|0,0:0|0:0,0:0:0:0:
341,281,316132,6,0,B|291:275|291:275|248:303|248:303|201:296,1,148.750001418591,2|10,0:0|0:1,0:0:0:0:
195,294,316391,1,0,0:0:0:0:
190,290,316477,2,0,L|183:182,1,74.3750007092953,6|0,0:1|0:0,0:0:0:0:
174,58,316649,2,0,L|178:138,1,74.3750007092953,2|0,0:0|0:0,0:0:0:0:
88,248,316822,54,0,B|56:185|56:185|88:112,1,148.750001418591,2|10,0:0|0:1,0:0:0:0:
92,108,317080,1,0,0:0:0:0:
98,102,317166,2,0,P|50:106|14:102,1,74.3750007092953,6|0,0:1|0:0,0:0:0:0:
14,249,317339,2,0,P|62:245|98:249,1,74.3750007092953,2|0,0:1|0:0,0:0:0:0:
248,104,317511,5,2,0:0:0:0:
244,264,317684,1,10,0:1:0:0:
332,68,317856,6,0,P|325:104|321:141,1,74.3750007092953,6|0,0:1|0:0,0:0:0:0:
336,319,318028,2,0,P|326:282|326:243,1,74.3750007092953,2|0,0:0|0:0,0:0:0:0:
512,220,318201,54,0,P|469:314|422:223,1,255,10|0,0:1|0:0,0:0:0:0:
408,68,318546,6,0,B|484:48|484:48|512:96|511:134,1,170,6|2,0:1|0:0,0:0:0:0:
508,140,318804,1,0,0:0:0:0:
504,145,318891,2,0,L|428:153,1,74.3750007092953,2|0,0:0|0:0,0:0:0:0:
155,158,319063,1,10,0:1:0:0:
341,121,319235,6,0,P|334:161|345:196,1,74.3750007092953,6|0,0:1|0:0,0:0:0:0:
84,212,319408,1,2,0:0:0:0:
84,212,319494,1,2,0:0:0:0:
84,212,319580,6,0,P|66:176|71:136,1,74.3750007092953,2|0,0:3|0:0,0:0:0:0:
236,125,319753,54,0,P|244:160|235:198,1,74.3750007092953,10|0,0:1|0:0,0:0:0:0:
14,57,319925,6,0,L|93:57,1,74.3750007092953,6|0,0:1|0:0,0:0:0:0:
287,23,320097,2,0,L|176:50,1,74.3750007092953,2|0,0:0|0:0,0:0:0:0:
165,135,320270,54,0,B|207:138|207:138|235:125|235:125|266:143|266:143|305:148,1,148.750001418591,2|8,0:0|0:1,0:0:0:0:
403,159,320528,2,0,B|390:121|390:121|363:234,1,157.249999400139,2|0,0:0|0:0,0:0:0:0:
459,241,320787,2,0,L|363:253,1,82.875000316143,2|0,0:0|0:0,0:0:0:0:
120,248,320960,6,0,B|141:83|141:83|167:139,1,223.125002127886,14|0,0:0|0:0,0:0:0:0:
232,187,321304,6,0,P|247:153|247:116,1,74.3750007092953,6|0,0:1|0:0,0:0:0:0:
42,183,321477,2,0,P|40:147|17:118,1,74.3750007092953,2|0,0:0|0:0,0:0:0:0:
310,104,321649,54,0,L|165:134,1,148.750001418591,2|10,0:0|0:1,0:0:0:0:
159,131,321908,1,0,0:0:0:0:
154,127,321994,2,0,L|162:53,1,74.3750007092953,6|0,0:1|0:0,0:0:0:0:
20,329,322166,1,2,0:0:0:0:
338,164,322339,6,0,B|344:196|370:216|370:216|328:229|317:278,1,148.750001418591,2|10,0:0|0:1,0:0:0:0:
398,291,322597,1,0,0:0:0:0:
398,291,322684,2,0,P|432:293|468:311,1,74.3750007092953,6|0,0:1|0:0,0:0:0:0:
418,152,322856,2,0,P|452:137|489:137,1,74.3750007092953,2|0,0:0|0:0,0:0:0:0:
338,164,323028,6,0,L|348:90,1,74.3750007092953,2|0,0:1|0:0,0:0:0:0:
470,221,323201,1,10,0:1:0:0:
257,178,323373,54,0,L|268:105,1,74.3750007092953,6|0,0:1|0:0,0:0:0:0:
418,152,323546,2,0,L|429:78,1,74.3750007092953,2|0,0:0|0:0,0:0:0:0:
87,209,323718,6,0,P|114:110|175:192,1,255,10|0,0:1|0:0,0:0:0:0:
146,276,324063,6,0,B|188:263|215:288|215:288|244:312|285:300,1,148.750001418591,6|0,0:1|0:0,0:0:0:0:
425,366,324322,1,0,0:0:0:0:
425,367,324408,2,0,L|499:359,1,74.3750007092953,2|0,0:0|0:0,0:0:0:0:
264,223,324580,1,10,0:1:0:0:
371,304,324753,54,0,P|366:268|345:238,1,74.3750007092953,6|0,0:1|0:0,0:0:0:0:
479,182,324925,1,2,0:0:0:0:
479,182,325011,1,2,0:0:0:0:
479,182,325097,6,0,P|489:146|478:111,1,74.3750007092953,2|0,0:0|0:0,0:0:0:0:
411,45,325270,2,0,P|374:38|339:48,1,74.3750007092953,10|0,0:1|0:0,0:0:0:0:
120,127,325442,6,0,P|157:128|188:106,1,74.3750007092953,4|0,0:1|0:0,0:0:0:0:
260,73,325615,2,0,P|257:37|272:3,1,74.3750007092953,2|0,0:0|0:0,0:0:0:0:
55,185,325787,54,0,P|35:153|33:116,1,74.3750007092953,2|0,0:0|0:0,0:0:0:0:
131,51,325960,1,10,0:1:0:0:
131,51,326132,2,0,B|155:219,1,148.750001418591,6|2,0:1|0:0,0:0:0:0:
388,252,326477,70,0,P|392:209|398:167,1,85,4|0,0:0|0:0,0:0:0:0:
416,72,326822,1,2,0:0:0:0:
275,179,326994,21,0,0:0:0:0:
275,179,327080,1,0,0:0:0:0:
275,179,327166,2,0,P|280:221|282:264,1,85
280,352,327511,1,2,0:0:0:0:
280,352,327684,1,0,0:0:0:0:
192,184,327856,54,0,L|80:208,1,85
16,236,328201,1,2,0:0:0:0:
60,56,328373,21,0,2:0:0:0:
60,56,328460,1,0,2:0:0:0:
60,56,328546,2,0,L|136:140,1,85,0|0,2:0|2:0,2:0:0:0:
16,236,328891,2,0,L|51:127,1,85,2|0,0:0|0:0,0:0:0:0:
212,52,329235,54,0,P|254:51|291:70,1,85
256,212,329580,1,2,0:0:0:0:
372,92,329753,21,0,0:0:0:0:
372,92,329839,1,0,0:0:0:0:
372,92,329925,2,0,P|351:128|316:151,1,85
256,212,330270,2,0,P|234:176|232:134,1,85,2|0,0:0|0:0,0:0:0:0:
508,232,330615,54,0,B|528:272|528:272|513:309,1,85,2|0,0:3|0:0,0:0:0:0:
424,384,330960,1,2,0:0:0:0:
340,232,331132,21,0,0:0:0:0:
340,232,331218,1,0,0:0:0:0:
340,232,331304,2,0,B|320:272|320:272|334:309,1,85
464,200,331649,2,0,B|427:183|427:183|386:200,1,85,2|0,0:0|0:0,0:0:0:0:
424,384,331994,54,0,P|426:341|429:299,1,85
464,200,332339,1,2,0:0:0:0:
336,308,332511,21,0,0:0:0:0:
336,308,332597,1,0,0:0:0:0:
336,308,332684,2,0,P|330:265|320:216,1,85
292,132,333028,1,2,0:0:0:0:
292,132,333201,1,0,0:0:0:0:
106,286,333373,54,0,P|80:252|44:232,1,85
153,211,333718,1,2,0:0:0:0:
186,294,333891,21,0,0:0:0:0:
186,294,333977,1,0,0:0:0:0:
186,294,334063,2,0,P|170:333|172:376,1,85
153,211,334408,2,0,P|195:204|231:184,1,85,2|0,0:0|0:0,0:0:0:0:
231,183,334753,54,0,P|209:147|200:106,1,85
320,212,335097,1,2,0:0:0:0:
296,116,335270,21,0,0:0:0:0:
296,116,335356,1,0,0:0:0:0:
296,116,335442,2,0,P|316:78|347:49,1,85
320,212,335787,1,2,0:0:0:0:
320,212,335960,1,0,0:0:0:0:
388,136,336132,54,0,P|430:135|470:147,1,85
320,212,336477,1,2,0:0:0:0:
416,228,336649,21,0,0:0:0:0:
416,228,336735,1,0,0:0:0:0:
416,228,336822,2,0,P|437:264|447:305,1,85
352,308,337166,2,0,P|331:345|300:374,1,85,2|0,0:0|0:0,0:0:0:0:
160,192,337511,53,0,0:0:0:0:
112,252,337684,1,0,0:0:0:0:
156,312,337856,1,0,0:0:0:0:
228,284,338028,1,0,0:0:0:0:
232,208,338201,21,0,0:0:0:0:
252,136,338373,1,0,0:0:0:0:
312,88,338546,1,0,0:0:0:0:
372,136,338718,1,0,0:0:0:0:
384,212,338891,53,0,0:0:0:0:
308,232,339063,1,0,0:0:0:0:
232,208,339235,1,0,0:0:0:0:
188,144,339408,1,0,0:0:0:0:
112,140,339580,21,0,0:0:0:0:
144,28,339753,1,0,0:0:0:0:
184,136,339925,1,0,0:0:0:0:
88,76,340097,1,0,0:0:0:0:
204,68,340270,53,0,0:0:0:0:
206,69,340442,1,0,0:0:0:0:
208,69,340615,1,0,0:0:0:0:
210,68,340787,1,0,0:0:0:0:
212,68,340960,21,0,0:0:0:0:
288,76,341132,1,0,0:0:0:0:
364,80,341304,1,0,0:0:0:0:
440,84,341477,1,0,0:0:0:0:
440,84,341563,1,0,0:0:0:0:
440,84,341649,54,0,L|433:147,1,63.7500024318696,2|0,0:3|0:0,0:0:0:0:
428,224,341994,1,0,0:0:0:0:
364,184,342166,1,0,0:0:0:0:
360,260,342339,21,0,0:0:0:0:
256,212,342511,1,0,0:0:0:0:
364,184,342684,1,0,0:0:0:0:
292,276,342856,1,0,0:0:0:0:
300,160,343028,53,0,0:0:0:0:
298,158,343201,1,0,0:0:0:0:
296,156,343373,1,0,0:0:0:0:
294,154,343546,1,0,0:0:0:0:
292,152,343718,21,0,0:0:0:0:
216,136,343891,1,0,0:0:0:0:
152,176,344063,1,0,0:0:0:0:
92,128,344235,1,0,0:0:0:0:
124,56,344408,53,0,0:0:0:0:
200,60,344580,1,0,0:0:0:0:
216,136,344753,1,0,0:0:0:0:
152,176,344925,1,0,0:0:0:0:
156,252,345097,21,0,0:0:0:0:
272,236,345270,1,0,0:0:0:0:
164,272,345442,53,0,0:0:0:0:
280,280,345615,1,0,0:0:0:0:
216,376,345787,21,0,0:0:0:0:
216,374,345960,1,0,0:0:0:0:
216,372,346132,1,0,0:0:0:0:
216,370,346304,1,0,0:0:0:0:
216,368,346477,53,0,0:0:0:0:
212,292,346649,1,0,0:0:0:0:
208,216,346822,1,0,0:0:0:0:
204,140,346994,1,0,0:0:0:0:
204,140,347080,1,0,0:0:0:0:
204,140,347166,22,0,L|140:152,1,63.7500024318696
88,92,347511,2,0,L|36:168,1,63.7500024318696
40,252,347856,53,0,0:0:0:0:
156,232,348028,1,0,0:0:0:0:
36,264,348201,21,0,0:0:0:0:
160,276,348373,1,0,0:0:0:0:
88,372,348546,37,4,0:0:0:0:
