osu file format v14

[General]
AudioFilename: audio.mp3
AudioLeadIn: 0
PreviewTime: 605
Countdown: 0
SampleSet: Soft
StackLeniency: 0.2
Mode: 0
LetterboxInBreaks: 0
WidescreenStoryboard: 1

[Editor]
DistanceSpacing: 0.65
BeatDivisor: 4
GridSize: 32
TimelineZoom: 2.800001

[Metadata]
Title:Secret Desire - Dyes Remix -
TitleUnicode:シークレットデザイア- Dyes Remix -
Artist:Meramipop
ArtistUnicode:めらみぽっぷ
Creator:Skystar
Version:Irregular
Source:東方神霊廟 ~ Ten Desires.
Tags:-Tochi ESQUARIA marathon デザイアドライブ desire drive touhou project team shanghai alice 東方project Iwasaki ZUN 上海アリス幻樂団 凋叶棕 霍青娥
BeatmapID:1478218
BeatmapSetID:697895

[Difficulty]
HPDrainRate:6
CircleSize:4
OverallDifficulty:8.5
ApproachRate:9.5
SliderMultiplier:3.2
SliderTickRate:1

[Events]
//Background and Video events
0,0,"bg.jpg",0,0
//Break Periods
2,67356,77321
2,276812,281639
//Storyboard Layer 0 (Background)
Sprite,Background,Centre,"bg.jpg",320,240
//Storyboard Layer 1 (Fail)
//Storyboard Layer 2 (Pass)
//Storyboard Layer 3 (Foreground)
//Storyboard Sound Samples

[TimingPoints]
950,344.827586206897,4,2,2,20,1,0
950,-161.290322580645,4,2,2,20,0,0
1294,-161.290322580645,4,2,2,5,0,0
1467,-200,4,2,2,15,0,0
2846,-200,4,2,2,5,0,0
3018,-200,4,2,2,25,0,0
3708,-200,4,2,2,20,0,0
4053,-200,4,2,2,10,0,0
4225,-400,4,2,2,15,0,0
4743,-400,4,2,2,5,0,0
5087,-300,4,2,2,20,0,0
5109,-300,4,2,1,5,0,0
5777,-300,4,2,2,25,0,0
6467,-161.290322580645,4,2,2,20,0,0
6812,-161.290322580645,4,2,2,5,0,0
6984,-200,4,2,2,15,0,0
8363,-200,4,2,2,5,0,0
8536,-200,4,2,2,20,0,0
9225,-200,4,2,2,20,0,0
9570,-200,4,2,2,5,0,0
9743,-200,4,2,2,15,0,0
10432,-200,4,2,2,5,0,0
10605,-200,4,2,2,15,0,0
10691,-200,4,2,2,18,0,0
10777,-200,4,2,2,21,0,0
10863,-200,4,2,2,23,0,0
10950,-200,4,2,2,26,0,0
11036,-200,4,2,2,29,0,0
11122,-200,4,2,2,31,0,0
11208,-200,4,2,2,35,0,0
11294,-133.333333333333,4,2,2,40,0,0
11639,-100,4,2,2,40,0,0
11725,-100,4,2,2,5,0,0
11812,-200,4,2,2,40,0,0
11898,-100,4,2,2,5,0,0
11984,-133.333333333333,4,2,2,35,0,0
13018,-133.333333333333,4,2,2,35,0,0
14053,-200,4,2,2,35,0,0
14743,-133.333333333333,4,2,2,35,0,0
15777,-120.481927710843,4,2,2,35,0,0
16122,-100,4,2,2,35,0,0
16467,-133.333333333333,4,2,2,35,0,0
16812,-200,4,2,2,35,0,0
17501,-133.333333333333,4,2,2,35,0,0
18536,-133.333333333333,4,2,2,35,0,0
19570,-200,4,2,2,35,0,0
20260,-100,4,2,2,35,0,0
21639,-100,4,2,1,35,0,0
22674,-66.6666666666667,4,2,1,40,0,0
23018,-100,4,2,1,55,0,0
24743,-133.333333333333,4,2,1,55,0,0
24829,-133.333333333333,4,2,1,5,0,0
24915,-100,4,2,1,55,0,0
25001,-100,4,2,1,5,0,0
25087,-200,4,2,1,55,0,0
25174,-200,4,2,1,5,0,0
25260,-151.515151515152,4,2,1,55,0,0
25346,-151.515151515152,4,2,1,5,0,0
25432,-120.481927710843,4,2,1,55,0,0
25518,-120.481927710843,4,2,1,5,0,0
25605,-100,4,2,1,55,0,0
25691,-100,4,2,1,5,0,0
25777,-100,4,2,1,55,0,0
27846,-100,4,2,1,55,0,0
30260,-133.333333333333,4,2,1,55,0,0
30346,-133.333333333333,4,2,1,5,0,0
30432,-100,4,2,1,55,0,0
30518,-100,4,2,1,5,0,0
30605,-200,4,2,1,55,0,0
30691,-200,4,2,1,5,0,0
30777,-151.515151515152,4,2,1,55,0,0
30863,-151.515151515152,4,2,1,5,0,0
30950,-120.481927710843,4,2,1,55,0,0
31036,-120.481927710843,4,2,1,5,0,0
31122,-100,4,2,1,55,0,0
31208,-100,4,2,1,5,0,0
31294,-100,4,2,1,55,0,0
33363,-133.333333333333,4,2,1,55,0,0
33450,-100,4,2,1,5,0,0
33536,-100,4,2,1,55,0,0
33622,-100,4,2,1,5,0,0
33708,-80,4,2,1,55,0,0
33794,-100,4,2,1,5,0,0
33881,-66.6666666666667,4,2,1,55,0,0
33967,-100,4,2,1,5,0,0
34053,-100,4,2,1,55,0,0
35777,-133.333333333333,4,2,1,55,0,0
35863,-133.333333333333,4,2,1,5,0,0
35950,-100,4,2,1,55,0,0
36036,-100,4,2,1,5,0,0
36122,-200,4,2,1,55,0,0
36208,-100,4,2,1,5,0,0
36294,-151.515151515152,4,2,1,55,0,0
36380,-100,4,2,1,5,0,0
36467,-120.481927710843,4,2,1,55,0,0
36552,-100,4,2,1,5,0,0
36639,-100,4,2,1,55,0,0
36724,-100,4,2,1,5,0,0
36812,-100,4,2,1,55,0,0
38018,-200,4,2,1,55,0,0
38191,-100,4,2,1,55,0,0
41294,-133.333333333333,4,2,1,55,0,0
41381,-100,4,2,1,5,0,0
41467,-100,4,2,1,55,0,0
41553,-100,4,2,1,5,0,0
41639,-200,4,2,1,55,0,0
41725,-100,4,2,1,5,0,0
41812,-151.515151515152,4,2,1,55,0,0
41897,-100,4,2,1,5,0,0
41984,-120.481927710843,4,2,1,55,0,0
42069,-100,4,2,1,5,0,0
42156,-100,4,2,1,55,0,0
42241,-100,4,2,1,5,0,0
42329,-100,4,2,1,55,0,0
43536,-200,4,2,1,55,0,0
43708,-100,4,2,1,55,0,0
44398,-100,4,2,1,55,0,0
44484,-100,4,2,1,5,0,0
44570,-100,4,2,1,55,0,0
44656,-100,4,2,1,5,0,0
44743,-100,4,2,1,55,0,0
44829,-100,4,2,1,5,0,0
44915,-100,4,2,1,55,0,0
45001,-100,4,2,1,5,0,0
45087,-100,4,2,1,40,0,0
45260,-100,4,2,1,15,0,0
45432,-100,4,2,2,23,0,0
45605,-100,4,2,1,30,0,0
45777,-200,4,2,1,40,0,0
46122,-200,4,3,2,40,0,0
46812,-200,4,2,1,40,0,0
47156,-100,4,2,1,40,0,0
48018,-90.9090909090909,4,2,1,15,0,0
48191,-90.9090909090909,4,2,2,23,0,0
48363,-90.9090909090909,4,2,1,30,0,0
48536,-200,4,2,1,40,0,0
48881,-200,4,2,2,40,0,0
49053,-133.333333333333,4,2,2,40,0,0
49398,-200,4,2,1,40,0,0
50087,-100,4,2,1,40,0,0
50777,-80,4,2,1,15,0,0
50950,-80,4,2,2,23,0,0
51122,-80,4,2,1,30,0,0
51294,-200,4,2,1,40,0,0
51639,-133.333333333333,4,2,2,40,0,0
51984,-200,4,2,1,40,0,0
52846,-100,4,2,1,40,0,0
53536,-106.382978723404,4,2,1,15,0,0
53708,-106.382978723404,4,2,2,23,0,0
53881,-106.382978723404,4,2,1,30,0,0
54053,-200,4,2,1,40,0,0
54570,-100,4,2,1,40,0,0
54915,-200,4,2,1,40,0,0
55432,-100,4,2,1,40,0,0
56294,-100,4,2,1,15,0,0
56467,-100,4,2,2,23,0,0
56639,-100,4,2,1,30,0,0
56812,-100,4,2,1,40,0,0
56984,-200,4,2,1,40,0,0
57156,-200,4,2,2,40,0,0
57846,-200,4,2,1,40,0,0
58191,-100,4,2,1,40,0,0
59053,-100,4,2,1,15,0,0
59225,-100,4,2,2,23,0,0
59398,-100,4,2,1,30,0,0
59570,-166.666666666667,4,2,1,40,0,0
59915,-166.666666666667,4,2,2,40,0,0
60432,-200,4,2,1,40,0,0
60950,-100,4,2,1,40,0,0
61812,-91.743119266055,4,2,1,15,0,0
61984,-91.743119266055,4,2,2,23,0,0
62156,-91.743119266055,4,2,1,30,0,0
62329,-200,4,2,1,40,0,0
62674,-133.333333333333,4,2,2,40,0,0
63018,-158.730158730159,4,2,1,40,0,0
63881,-100,4,2,1,40,0,0
64570,-80,4,2,1,15,0,0
64743,-80,4,2,2,23,0,0
64915,-80,4,2,1,30,0,0
65087,-128.205128205128,4,2,1,40,0,0
65777,-100,4,2,1,40,0,0
65863,-100,4,2,1,5,0,0
65950,-200,4,2,1,40,0,0
66036,-200,4,2,1,5,0,0
66122,-200,4,2,1,40,0,0
66208,-200,4,2,1,5,0,0
66294,-100,4,2,1,40,0,0
66381,-100,4,2,1,5,0,0
66467,-200,4,2,1,40,0,0
77846,-200,4,2,0,30,0,0
80950,-200,4,2,0,35,0,0
83191,-200,4,2,0,40,0,0
84570,-200,4,2,0,45,0,0
85777,-125,4,2,0,50,0,0
86122,-100,4,2,1,50,0,0
86467,-200,4,2,1,50,0,0
86812,-100,4,2,1,50,0,0
87501,-100,4,2,1,40,0,0
88665,-100,4,2,0,40,0,0
88794,-66.6666666666667,4,2,0,40,0,0
89053,-66.6666666666667,4,2,0,40,0,0
89225,-200,4,2,1,60,0,1
89235,-200,4,2,2,35,0,1
89312,-200,4,2,1,38,0,1
89398,-200,4,2,2,43,0,1
89484,-200,4,2,1,47,0,1
89570,-200,4,2,2,52,0,1
89656,-200,4,2,1,56,0,1
89743,-200,4,2,2,60,0,1
89915,-66.6666666666667,4,2,1,60,0,0
90605,-133.333333333333,4,2,1,60,0,0
91984,-400,4,2,1,60,0,1
91994,-400,4,2,2,20,0,1
92070,-400,4,2,1,25,0,1
92156,-400,4,2,2,30,0,1
92243,-400,4,2,1,35,0,1
92329,-400,4,2,2,40,0,1
92415,-400,4,2,1,45,0,1
92501,-400,4,2,1,60,0,1
92674,-80,4,2,1,60,0,0
94743,-68.8172043010753,4,2,1,60,0,1
97156,-133.333333333333,4,2,1,60,0,1
97501,-66.6666666666667,4,2,1,60,0,0
97760,-100,4,2,1,60,0,0
98191,-80,4,2,1,60,0,0
98363,-200,4,2,1,60,0,0
98708,-66.6666666666667,4,2,1,60,0,0
98881,-133.333333333333,4,2,1,60,0,0
99225,-100,4,2,1,60,0,0
100087,-80,4,2,1,60,0,0
100260,-200,4,2,1,60,0,1
100270,-200,4,2,2,35,0,1
100346,-200,4,2,1,38,0,1
100432,-200,4,2,2,43,0,1
100518,-200,4,2,1,47,0,1
100605,-200,4,2,2,52,0,1
100691,-200,4,2,1,56,0,1
100777,-200,4,2,2,60,0,1
100950,-66.6666666666667,4,2,1,60,0,0
101639,-133.333333333333,4,2,1,60,0,0
103018,-400,4,2,1,60,0,1
103028,-400,4,2,2,20,0,1
103105,-400,4,2,1,25,0,1
103191,-400,4,2,2,30,0,1
103277,-400,4,2,1,35,0,1
103363,-400,4,2,2,40,0,1
103450,-400,4,2,1,45,0,1
103536,-400,4,2,2,50,0,1
103708,-80,4,2,1,60,0,0
105777,-68.8172043010753,4,2,1,60,0,1
108191,-133.333333333333,4,2,1,60,0,1
108536,-66.6666666666667,4,2,1,60,0,0
108794,-100,4,2,1,60,0,0
109225,-80,4,2,1,60,0,0
109398,-200,4,2,1,60,0,0
109743,-66.6666666666667,4,2,1,60,0,0
109915,-133.333333333333,4,2,1,60,0,0
110950,-100,4,2,1,60,0,0
111294,-100,4,2,0,48,0,0
111467,-200,4,2,0,28,0,0
111639,-200,4,1,3,38,0,0
111812,-200,4,2,0,48,0,0
112156,-80,4,2,0,28,0,0
112329,-80,4,1,3,38,0,0
112501,-80,4,2,0,48,0,0
112846,-200,4,2,0,28,0,0
113018,-200,4,1,3,38,0,0
113191,-200,4,2,0,48,0,0
113536,-80,4,2,0,28,0,0
113708,-80,4,1,3,38,0,0
113881,-80,4,2,0,48,0,0
114053,-200,4,2,0,48,0,0
114398,-166.666666666667,4,2,0,48,0,0
114743,-142.857142857143,4,2,0,48,0,0
115087,-125,4,2,0,48,0,0
115432,-111.111111111111,4,2,0,48,0,0
116122,-100,4,2,0,48,0,0
116467,-100,4,2,0,48,0,0
116812,-200,4,2,1,55,0,0
127329,-100,4,2,1,55,0,0
127846,-200,4,2,0,35,0,0
128536,-200,4,2,1,55,0,0
138881,-66.6666666666667,4,2,0,54,0,0
139398,-100,4,2,0,54,0,0
139915,-100,4,2,1,44,0,0
140260,-80,4,2,0,54,0,0
140605,-200,4,2,0,54,0,0
141122,-100,4,2,0,54,0,0
141294,-66.6666666666667,4,2,0,54,0,0
142156,-100,4,2,0,54,0,0
142674,-100,4,2,1,44,0,0
143018,-80,4,2,0,54,0,0
143363,-200,4,2,0,54,0,0
143881,-100,4,2,0,54,0,0
144053,-66.6666666666667,4,2,0,54,0,0
144915,-100,4,2,0,54,0,0
145432,-100,4,2,1,44,0,0
145777,-80,4,2,0,54,0,0
146122,-200,4,2,0,54,0,0
146639,-100,4,2,0,54,0,0
146812,-66.6666666666667,4,2,0,54,0,0
147674,-100,4,2,0,54,0,0
148191,-200,4,2,1,54,0,0
148363,-200,4,2,1,43,0,0
148536,-200,4,2,0,71,0,0
149398,-100,4,2,0,71,0,0
149570,-80,4,2,0,71,0,0
149915,-66.6666666666667,4,2,0,71,0,0
150432,-100,4,2,0,54,0,0
150950,-100,4,2,1,44,0,0
151294,-80,4,2,0,54,0,0
151639,-200,4,2,0,54,0,0
152156,-100,4,2,0,54,0,0
152329,-66.6666666666667,4,2,0,54,0,0
153191,-100,4,2,0,54,0,0
153708,-100,4,2,1,44,0,0
154053,-80,4,2,0,54,0,0
154398,-200,4,2,0,54,0,0
154915,-100,4,2,0,54,0,0
155087,-66.6666666666667,4,2,0,54,0,0
155950,-100,4,2,0,54,0,0
156467,-100,4,2,1,44,0,0
156812,-80,4,2,0,54,0,0
157156,-200,4,2,0,54,0,0
157674,-100,4,2,0,54,0,0
157846,-66.6666666666667,4,2,0,54,0,0
158708,-100,4,2,0,54,0,0
159225,-200,4,2,1,44,0,0
159570,-200,4,2,0,54,0,0
160260,-200,4,2,0,38,0,0
160346,-200,4,2,0,41,0,0
160432,-200,4,2,0,44,0,0
160518,-200,4,2,0,47,0,0
160605,-200,4,2,0,50,0,0
160691,-200,4,2,0,53,0,0
160777,-200,4,2,0,56,0,0
160863,-200,4,2,0,59,0,0
160950,-133.333333333333,4,2,1,43,0,0
161812,-200,4,2,1,43,0,0
161984,-100,4,2,1,43,0,0
162329,-133.333333333333,4,2,1,43,0,0
163191,-200,4,2,1,43,0,0
163363,-100,4,2,1,43,0,0
163708,-133.333333333333,4,2,1,43,0,0
164570,-200,4,2,1,43,0,0
165087,-100,4,2,1,43,0,0
165432,-133.333333333333,4,2,1,43,0,0
166122,-200,4,2,1,43,0,0
166467,-133.333333333333,4,2,1,43,0,0
167329,-200,4,2,1,43,0,0
167501,-100,4,2,1,43,0,0
167846,-133.333333333333,4,2,1,43,0,0
168536,-200,4,2,1,43,0,0
171984,-133.333333333333,4,2,1,43,0,0
172846,-200,4,2,1,43,0,0
173018,-100,4,2,1,43,0,0
173363,-133.333333333333,4,2,1,43,0,0
174225,-200,4,2,1,43,0,0
174398,-100,4,2,1,43,0,0
175605,-200,4,2,1,43,0,0
176122,-100,4,2,1,43,0,0
176467,-133.333333333333,4,2,1,43,0,0
176984,-200,4,2,1,43,0,0
177932,-133.333333333333,4,2,1,43,0,0
178363,-200,4,2,1,43,0,0
178536,-100,4,2,1,43,0,0
178881,-200,4,2,1,43,0,0
179225,-100,4,2,1,43,0,0
179570,-200,4,2,1,43,0,0
179915,-100,4,2,1,43,0,0
180605,-66.6666666666667,4,2,1,43,0,0
180777,-100,4,2,1,43,0,0
180950,-66.6666666666667,4,2,1,43,0,0
182329,-100,4,2,1,40,0,0
182458,-100,4,2,0,40,0,0
182587,-66.6666666666667,4,2,0,40,0,0
183018,-100,4,2,1,60,0,1
183028,-100,4,2,2,35,0,1
183105,-100,4,2,1,39,0,1
183191,-100,4,2,2,44,0,1
183277,-100,4,2,1,48,0,1
183363,-100,4,2,2,53,0,1
183450,-100,4,2,1,56,0,1
183536,-100,4,2,2,60,0,1
183708,-66.6666666666667,4,2,1,60,0,0
184398,-133.333333333333,4,2,1,60,0,0
185777,-400,4,2,1,60,0,1
185787,-400,4,2,2,25,0,1
185863,-400,4,2,1,30,0,1
185950,-400,4,2,2,35,0,1
186036,-400,4,2,1,40,0,1
186122,-400,4,2,2,45,0,1
186208,-400,4,2,1,50,0,1
186294,-400,4,2,2,55,0,1
186467,-80,4,2,1,60,0,0
188536,-68.8172043010753,4,2,1,60,0,1
190950,-133.333333333333,4,2,1,60,0,1
191294,-66.6666666666667,4,2,1,60,0,0
191553,-100,4,2,1,60,0,0
191984,-80,4,2,1,60,0,0
192156,-200,4,2,1,60,0,0
192501,-66.6666666666667,4,2,1,60,0,0
192674,-133.333333333333,4,2,1,60,0,0
193018,-100,4,2,1,60,0,0
193880,-80,4,2,1,60,0,0
194053,-100,4,2,1,60,0,1
194063,-100,4,2,2,35,0,1
194139,-100,4,2,1,39,0,1
194225,-100,4,2,2,44,0,1
194312,-100,4,2,1,48,0,1
194398,-100,4,2,2,52,0,1
194484,-100,4,2,1,56,0,1
194570,-100,4,2,2,60,0,1
194743,-66.6666666666667,4,2,1,60,0,0
195432,-133.333333333333,4,2,1,60,0,0
196639,-200,4,2,1,60,0,0
196812,-200,4,2,1,60,0,1
196821,-200,4,2,2,25,0,1
196898,-200,4,2,1,30,0,1
196984,-200,4,2,2,35,0,1
197070,-200,4,2,1,40,0,1
197156,-200,4,2,2,45,0,1
197243,-200,4,2,1,50,0,1
197329,-200,4,2,2,55,0,1
197501,-80,4,2,1,60,0,0
198881,-200,4,2,1,60,0,0
199570,-63.4920634920635,4,2,1,60,0,1
200605,-65.843621399177,4,2,1,60,0,1
201122,-61.3026819923372,4,2,1,60,0,1
201984,-133.333333333333,4,2,1,60,0,1
202329,-66.6666666666667,4,2,1,60,0,0
202587,-100,4,2,1,60,0,0
203018,-80,4,2,1,60,0,0
203191,-200,4,2,1,60,0,0
203536,-66.6666666666667,4,2,1,60,0,0
203708,-133.333333333333,4,2,1,60,0,0
204743,-100,4,2,1,60,0,0
205087,-400,4,2,0,48,0,0
205097,-200,4,1,3,8,0,0
205174,-200,4,2,0,18,0,0
205260,-200,4,1,3,28,0,0
205432,-200,4,2,0,38,0,0
205605,-200,4,1,3,48,0,0
205777,-66.6666666666667,4,2,0,48,0,0
205950,-66.6666666666667,4,2,0,28,0,0
206122,-66.6666666666667,4,1,3,38,0,0
206294,-66.6666666666667,4,2,0,48,0,0
206467,-400,4,2,0,48,0,0
206477,-200,4,1,3,8,0,0
206553,-200,4,2,0,18,0,0
206639,-200,4,1,3,28,0,0
206812,-200,4,2,0,38,0,0
206984,-200,4,1,3,48,0,0
207156,-66.6666666666667,4,2,0,48,0,0
207329,-66.6666666666667,4,2,0,28,0,0
207501,-66.6666666666667,4,1,3,38,0,0
207674,-66.6666666666667,4,2,0,48,0,0
207846,-200,4,2,0,48,0,0
208191,-166.666666666667,4,2,0,48,0,0
208536,-142.857142857143,4,2,0,48,0,0
208880,-125,4,2,0,48,0,0
209225,-111.111111111111,4,2,0,48,0,0
209915,-100,4,2,0,48,0,0
210605,-66.6666666666667,4,2,1,50,0,1
210950,-133.333333333333,4,2,1,50,0,0
211294,-100,4,2,1,50,0,0
211639,-80,4,2,1,50,0,0
211984,-66.6666666666667,4,2,1,50,0,0
212329,-57.1428571428571,4,2,1,50,0,0
212674,-50,4,2,1,50,0,0
213018,-400,4,2,1,50,0,0
213363,-66.6666666666667,4,2,1,50,0,1
213708,-133.333333333333,4,2,1,50,0,0
214053,-90.9090909090909,4,2,1,50,0,0
214398,-68.9655172413793,4,2,1,50,0,0
214743,-55.5555555555556,4,2,1,50,0,0
214915,-111.111111111111,4,2,1,50,0,0
215432,-52.6315789473684,4,2,1,50,0,0
215605,-105.263157894737,4,2,1,50,0,0
216122,-66.6666666666667,4,2,1,50,0,1
216467,-129.032258064516,4,2,1,50,0,0
216812,-102.040816326531,4,2,1,50,0,0
217156,-84.3881856540084,4,2,1,50,0,0
217501,-71.9424460431655,4,2,1,50,0,0
217846,-62.6959247648903,4,2,1,50,0,0
218191,-55.5555555555556,4,2,1,50,0,0
218536,-400,4,2,1,50,0,0
218881,-66.6666666666667,4,2,1,50,0,1
219225,-66.6666666666667,4,2,1,50,0,0
219570,-62.5,4,2,1,50,0,0
219915,-58.8235294117647,4,2,1,50,0,0
220260,-55.5555555555556,4,2,1,50,0,0
220950,-200,4,2,1,50,0,0
221122,-66.6666666666667,4,2,0,50,0,0
221639,-66.6666666666667,4,2,1,50,0,1
221984,-50,4,2,1,50,0,0
222501,-111.111111111111,4,2,1,50,0,0
222846,-125,4,2,1,50,0,0
223191,-142.857142857143,4,2,1,50,0,0
223536,-166.666666666667,4,2,1,50,0,0
223881,-200,4,2,1,50,0,0
224398,-66.6666666666667,4,2,1,50,0,1
224743,-50,4,2,1,50,0,0
225260,-120,4,2,1,50,0,0
225605,-150,4,2,1,50,0,0
225950,-100,4,2,1,50,0,0
227156,-66.6666666666667,4,2,1,50,0,1
227501,-50,4,2,1,50,0,0
228018,-111.111111111111,4,2,1,50,0,0
228363,-125,4,2,1,50,0,0
228708,-142.857142857143,4,2,1,50,0,0
229053,-166.666666666667,4,2,1,50,0,0
229398,-200,4,2,1,50,0,0
229915,-66.6666666666667,4,2,1,50,0,1
230260,-50,4,2,1,50,0,0
230777,-133.333333333333,4,2,1,50,0,0
231122,-100,4,2,1,50,0,0
231294,-400,4,2,1,50,0,0
231467,-400,4,2,1,5,0,0
231639,-100,4,1,0,50,0,0
232156,-200,4,2,1,50,0,0
232329,-100,4,2,1,50,0,0
232501,-66.6666666666667,4,2,1,50,0,0
232674,-66.6666666666667,4,2,1,60,0,1
233018,-66.6666666666667,4,2,1,60,0,1
233363,-200,4,2,1,60,0,1
233708,-133.333333333333,4,2,1,60,0,1
234053,-66.6666666666667,4,2,1,60,0,1
234225,-133.333333333333,4,2,1,60,0,1
234398,-100,4,2,1,60,0,1
234570,-80,4,2,1,60,0,1
234743,-57.1428571428571,4,2,1,60,0,1
234915,-200,4,2,1,60,0,1
235087,-66.6666666666667,4,2,1,60,0,1
235432,-66.6666666666667,4,2,1,60,0,1
235777,-66.6666666666667,4,2,1,60,0,1
236812,-80,4,2,1,60,0,1
237156,-66.6666666666667,4,2,1,60,0,1
237501,-100,4,2,1,60,0,1
238191,-66.6666666666667,4,2,1,60,0,1
238536,-66.6666666666667,4,2,1,60,0,1
238881,-200,4,2,1,60,0,1
239225,-133.333333333333,4,2,1,60,0,1
239570,-66.6666666666667,4,2,1,60,0,1
239743,-133.333333333333,4,2,1,60,0,1
239915,-100,4,2,1,60,0,1
240087,-80,4,2,1,60,0,1
240260,-57.1428571428571,4,2,1,60,0,1
240432,-200,4,2,1,60,0,1
240605,-66.6666666666667,4,2,1,60,0,1
241294,-133.333333333333,4,2,1,60,0,1
241467,-100,4,2,1,60,0,1
241639,-80,4,2,1,60,0,1
241812,-66.6666666666667,4,2,1,60,0,1
241984,-57.1428571428571,4,2,1,60,0,1
242329,-80,4,2,1,60,0,1
242501,-200,4,2,1,60,0,1
242846,-64,4,2,1,60,0,1
243191,-76.9230769230769,4,2,1,60,0,1
243363,-90.9090909090909,4,2,1,60,0,1
243536,-111.111111111111,4,2,1,60,0,1
243708,-200,4,2,1,35,0,1
244053,-66.6666666666667,4,2,1,60,0,1
244398,-200,4,2,1,60,0,1
244743,-133.333333333333,4,2,1,60,0,1
245174,-133.333333333333,4,2,1,60,0,1
245432,-100,4,2,1,60,0,1
245605,-80,4,2,1,60,0,1
245777,-57.1428571428571,4,2,1,60,0,1
245950,-200,4,2,1,60,0,1
246122,-66.6666666666667,4,2,1,60,0,1
246812,-66.6666666666667,4,2,1,60,0,1
247846,-80,4,2,1,60,0,1
248191,-66.6666666666667,4,2,1,60,0,1
248536,-100,4,2,1,60,0,1
249225,-66.6666666666667,4,2,1,60,0,1
249570,-66.6666666666667,4,2,1,60,0,1
249915,-200,4,2,1,60,0,1
250260,-133.333333333333,4,2,1,60,0,1
250605,-66.6666666666667,4,2,1,60,0,1
250777,-133.333333333333,4,2,1,60,0,1
250950,-100,4,2,1,60,0,1
251122,-80,4,2,1,60,0,1
251294,-57.1428571428571,4,2,1,60,0,1
251467,-200,4,2,1,60,0,1
251639,-66.6666666666667,4,2,1,60,0,1
252329,-66.6666666666667,4,2,1,60,0,1
253363,-400,4,2,1,60,0,0
253708,-400,4,2,0,5,0,0
254053,-200,4,2,0,20,0,0
254139,-200,4,2,0,23,0,0
254225,-200,4,2,0,26,0,0
254312,-200,4,2,0,31,0,0
254398,-200,4,2,0,33,0,0
254484,-200,4,2,0,35,0,0
254570,-200,4,2,0,38,0,0
254656,-200,4,2,0,41,0,0
254743,-133.333333333333,4,2,1,43,0,0
265432,-200,4,2,1,43,0,0
265518,-200,4,2,1,5,0,0
265605,-200,4,2,1,43,0,0
265691,-200,4,2,1,5,0,0
265777,-133.333333333333,4,2,1,43,0,0
271294,-400,4,2,1,43,0,0
273363,-200,4,2,1,43,0,0
275432,-100,4,2,1,43,0,0
275518,-100,4,2,0,5,0,0
282329,-188.679245283019,4,2,2,40,0,0
283018,-151.80265654649,4,2,2,40,0,0
283708,-101.748807631161,4,2,2,40,0,0
284398,-76.208621100262,4,2,2,40,0,0
285087,-80,4,2,2,40,0,0
285346,-100,4,2,2,40,0,0
285605,-200,4,2,2,40,0,0
286467,-400,4,2,0,20,0,0
286984,-400,4,2,0,5,0,0
287156,-400,4,1,0,20,0,0
287243,-400,4,1,0,23,0,0
287329,-400,4,1,0,25,0,0
287415,-400,4,1,0,28,0,0
287501,-400,4,1,0,30,0,0
287587,-400,4,1,0,32,0,0
287674,-400,4,1,0,35,0,0
287760,-400,4,1,0,38,0,0
287846,-66.6666666666667,4,2,1,60,0,1
288191,-100,4,2,1,60,0,1
288536,-57.1428571428571,4,2,1,60,0,1
289225,-100,4,2,1,60,0,1
289570,-66.6666666666667,4,2,1,60,0,1
290950,-100,4,2,1,60,0,1
291294,-66.6666666666667,4,2,1,60,0,1
291553,-100,4,2,1,60,0,1
291812,-66.6666666666667,4,2,1,60,0,1
292156,-133.333333333333,4,2,1,60,0,1
292329,-66.6666666666667,4,2,1,60,0,1
293363,-400,4,2,1,60,0,1
293708,-66.6666666666667,4,2,1,60,0,1
294053,-200,4,2,1,60,0,1
294225,-57.1428571428571,4,2,1,60,0,1
294398,-66.6666666666667,4,2,1,60,0,1
294743,-200,4,2,1,60,0,1
294915,-57.1428571428571,4,2,1,60,0,1
295087,-66.6666666666667,4,2,1,60,0,1
295432,-200,4,2,1,60,0,1
295605,-57.1428571428571,4,2,1,60,0,1
295777,-66.6666666666667,4,2,1,60,0,1
296122,-100,4,2,1,60,0,1
296467,-50,4,2,1,60,0,1
296984,-200,4,2,1,60,0,1
297156,-57.1428571428571,4,2,1,60,0,1
297329,-66.6666666666667,4,2,1,60,0,1
297501,-100,4,2,1,60,0,1
297674,-66.6666666666667,4,2,1,60,0,1
298191,-200,4,2,1,60,0,1
298536,-66.6666666666667,4,2,1,60,0,1
298881,-200,4,2,0,48,0,0
299053,-200,4,2,0,28,0,0
299225,-200,4,1,3,38,0,0
299398,-200,4,2,0,48,0,0
299570,-66.6666666666667,4,2,0,48,0,0
299743,-66.6666666666667,4,2,0,28,0,0
299915,-66.6666666666667,4,1,3,38,0,0
300087,-66.6666666666667,4,2,0,48,0,0
300260,-200,4,2,0,48,0,0
300432,-200,4,2,0,28,0,0
300605,-200,4,1,3,38,0,0
300777,-200,4,2,0,48,0,0
300950,-66.6666666666667,4,2,0,48,0,0
301122,-66.6666666666667,4,2,0,28,0,0
301294,-66.6666666666667,4,1,3,38,0,0
301467,-66.6666666666667,4,2,0,48,0,0
301639,-200,4,2,0,48,0,0
301984,-166.666666666667,4,2,0,48,0,0
302329,-142.857142857143,4,2,0,48,0,0
302674,-125,4,2,0,48,0,0
303018,-111.111111111111,4,2,0,48,0,0
303191,-100,4,2,0,48,0,0
303363,-90.9090909090909,4,2,0,48,0,0
303708,-133.333333333333,4,2,0,48,0,0
304225,-100,4,2,0,48,0,0
304398,-52.8052805280528,4,2,1,49,0,0
304570,-80,4,2,1,49,0,0
304743,-52.9100529100529,4,2,1,49,0,1
304872,-52.9100529100529,4,2,1,5,0,1
304915,-52.9100529100529,4,2,1,49,0,1
305087,-80,4,2,1,49,0,0
305432,-66.6666666666667,4,2,1,49,0,0
305777,-160,4,2,1,49,0,0
305950,-80,4,2,1,49,0,0
306294,-160,4,2,1,49,0,0
306467,-52.8052805280528,4,2,1,49,0,0
306553,-52.8052805280528,4,2,1,5,0,0
306639,-80,4,2,1,49,0,0
307156,-160,4,2,1,49,0,0
307501,-52.8052805280528,4,2,1,49,0,1
307846,-160,4,2,1,49,0,0
308018,-80,4,2,1,49,0,0
308191,-52.8052805280528,4,2,1,49,0,0
308277,-52.8052805280528,4,2,1,5,0,0
308363,-52.8052805280528,4,2,1,49,0,0
308536,-400,4,2,1,49,0,0
308622,-400,4,2,1,5,0,0
308708,-80,4,2,1,49,0,0
309053,-160,4,2,1,49,0,0
309225,-52.8052805280528,4,2,1,49,0,0
309484,-91.4285714285714,4,2,1,49,0,0
309743,-160,4,2,1,49,0,0
310087,-52.8052805280528,4,2,1,49,0,0
310260,-52.8052805280528,4,2,1,49,0,1
310346,-52.8052805280528,4,2,1,5,0,1
310432,-80,4,2,1,49,0,1
310605,-66.6666666666667,4,2,1,49,0,0
310950,-160,4,2,1,49,0,0
311467,-80,4,2,1,49,0,0
311812,-160,4,2,1,49,0,0
311984,-52.8052805280528,4,2,1,49,0,0
312070,-52.8052805280528,4,2,1,5,0,0
312156,-80,4,2,1,49,0,0
312674,-106.382978723404,4,2,1,49,0,0
313018,-50,4,2,1,49,0,1
313363,-160,4,2,1,49,0,0
313536,-80,4,2,1,49,0,0
313708,-160,4,2,1,49,0,0
314053,-52.8052805280528,4,2,1,49,0,0
314398,-160,4,2,1,49,0,0
314570,-52.8052805280528,4,2,1,49,0,0
314743,-106.382978723404,4,2,1,49,0,0
314915,-80,4,2,1,49,0,0
315087,-57.1428571428571,4,2,1,49,0,0
315432,-160,4,2,1,49,0,0
315777,-52.9100529100529,4,2,1,49,0,1
315863,-52.9100529100529,4,2,1,5,0,1
315950,-52.9100529100529,4,2,1,49,0,1
316122,-80,4,2,1,49,0,0
316467,-160,4,2,1,49,0,0
316811,-160,4,2,1,49,0,0
316984,-80,4,2,1,49,0,0
317328,-160,4,2,1,49,0,0
317501,-52.8052805280528,4,2,1,49,0,0
317587,-52.8052805280528,4,2,1,5,0,0
317673,-80,4,2,1,49,0,0
318018,-160,4,2,1,49,0,0
318536,-52.8052805280528,4,2,1,49,0,1
318881,-160,4,2,1,49,0,0
319052,-80,4,2,1,49,0,0
319225,-64,4,2,1,49,0,0
319570,-400,4,2,1,49,0,0
319656,-400,4,2,1,5,0,0
319742,-80,4,2,1,49,0,0
320087,-160,4,2,1,49,0,0
320259,-52.8052805280528,4,2,1,49,0,0
320518,-91.4285714285714,4,2,1,49,0,0
320777,-160,4,2,1,49,0,0
321121,-52.8052805280528,4,2,1,49,0,0
321294,-52.8052805280528,4,2,1,49,0,1
321381,-52.8052805280528,4,2,1,5,0,1
321466,-80,4,2,1,49,0,1
321639,-66.6666666666667,4,2,1,49,0,0
321984,-160,4,2,1,49,0,0
322501,-80,4,2,1,49,0,0
322846,-160,4,2,1,49,0,0
323018,-52.8052805280528,4,2,1,49,0,0
323105,-52.8052805280528,4,2,1,5,0,0
323190,-80,4,2,1,49,0,0
323708,-106.382978723404,4,2,1,49,0,0
324053,-50,4,2,1,49,0,1
324398,-160,4,2,1,49,0,0
324570,-80,4,2,1,49,0,0
324742,-160,4,2,1,49,0,0
325087,-52.8052805280528,4,2,1,49,0,0
325432,-160,4,2,1,49,0,0
325604,-52.8052805280528,4,2,1,49,0,0
325777,-106.382978723404,4,2,1,49,0,0
325949,-80,4,2,1,49,0,0
326121,-57.1428571428571,4,2,1,49,0,0
337501,-156.25,4,2,1,23,0,0
339398,-156.25,4,2,1,5,0,0
339570,-156.25,4,2,1,30,0,0
340260,-144.927536231884,4,2,1,23,0,0
341639,-144.927536231884,4,2,3,40,0,0
341725,-144.927536231884,4,2,1,23,0,0
342156,-144.927536231884,4,2,1,5,0,0
342329,-144.927536231884,4,2,1,30,0,0
343018,-156.25,4,2,1,23,0,0
344915,-156.25,4,2,1,5,0,0
345087,-156.25,4,2,1,30,0,0
345777,-144.927536231884,4,2,1,23,0,0
347674,-144.927536231884,4,2,1,5,0,0
347846,-144.927536231884,4,2,1,30,0,0

[Colours]
Combo1 : 239,239,239
Combo2 : 255,0,0
Combo3 : 238,136,134
Combo4 : 236,194,132
Combo5 : 187,187,187
Combo6 : 207,221,252
Combo7 : 179,247,190
Combo8 : 191,128,128

[HitObjects]
128,98,950,22,0,B|172:53|252:60|273:113|256:172|208:143|211:93,1,198.399992128907,0|0,1:0|0:0,0:0:0:0:
435,10,1467,2,0,B|354:37|331:142|331:142|343:82|304:41|304:41|427:156|369:294|369:294|371:256|348:224,1,640
272,366,3018,21,0,0:0:0:0:
286,295,3191,1,2,0:0:0:0:
252,222,3363,1,2,0:0:0:0:
172,183,3536,1,2,0:0:0:0:
80,235,3708,86,0,P|51:273|98:241,1,160,2|0,0:3|0:0,0:0:0:0:
240,308,4225,2,0,P|256:352|272:308,1,120
440,248,5087,6,0,P|477:292|464:235,1,160,2|0,0:0|0:0,0:0:0:0:
372,183,5777,5,2,0:0:0:0:
292,222,5950,1,2,0:0:0:0:
258,295,6122,1,2,0:0:0:0:
272,366,6294,1,0,0:0:0:0:
122,306,6467,86,0,B|161:305|180:338|180:338|147:281|171:216,1,198.399992128907
126,40,6984,2,0,B|117:81|161:124|191:133|191:133|245:150|256:219|256:219|265:178|236:124|183:146|196:79|199:37|219:10|245:-10|278:-23|314:-17|354:13|353:59|297:85,1,640
449,194,8536,21,0,0:0:0:0:
386,158,8708,1,2,0:0:0:0:
306,150,8881,1,2,0:0:0:0:
222,177,9053,1,2,0:0:0:0:
116,222,9225,86,0,B|154:165|133:107|133:107|121:119|115:144,1,160
33,344,9743,2,0,B|67:296|144:289|193:292|225:312|220:359|175:379|143:350|143:306|198:254,1,320
270,150,10605,21,0,0:0:0:0:
288,142,10691,1,0,0:0:0:0:
316,141,10777,1,0,0:0:0:0:
347,153,10863,1,0,0:0:0:0:
375,180,10950,1,0,0:0:0:0:
418,193,11036,1,0,0:0:0:0:
463,173,11122,1,0,0:0:0:0:
492,123,11208,1,0,0:0:0:0:
473,55,11294,70,0,P|473:39|479:18,6,30.0000011444092,2|2|2|2|2|2|2,0:0|0:0|0:0|0:0|0:0|0:0|0:0,0:0:0:0:
347,153,11639,38,0,P|353:117|338:74,1,80
269,104,11812,2,0,P|267:133|280:151,1,40
358,354,11984,85,0,1:0:0:0:
358,354,12156,2,0,P|374:318|362:280,1,60.0000022888184
220,202,12329,1,0,0:0:0:0:
220,202,12501,6,0,P|229:234|213:278,1,60.0000022888184
193,338,12674,2,0,P|178:368|136:391,1,60.0000022888184
14,384,12846,101,0,0:0:0:0:
70,321,13018,2,0,P|73:262|52:178,1,120.000004577637,0|2,0:0|0:0,0:0:0:0:
55,191,13277,1,0,0:0:0:0:
44,185,13363,1,0,0:0:0:0:
86,71,13536,5,2,0:0:0:0:
54,78,13622,1,0,0:0:0:0:
76,99,13708,1,0,0:0:0:0:
194,1,13881,101,0,0:0:0:0:
160,27,13967,1,0,0:0:0:0:
199,44,14053,1,0,0:0:0:0:
303,93,14225,21,2,0:0:0:0:
455,71,14398,1,2,0:0:0:0:
303,93,14570,1,2,0:0:0:0:
218,145,14743,86,0,P|236:205|242:279,1,120.000004577637,2|0,0:3|0:0,0:0:0:0:
246,337,15001,2,0,P|216:337|191:320,1,60.0000022888184
0,374,15260,5,0,0:0:0:0:
18,375,15346,1,0,0:0:0:0:
36,375,15432,1,0,0:0:0:0:
54,371,15518,1,0,0:0:0:0:
71,364,15605,1,0,0:0:0:0:
242,262,15777,102,0,P|200:213|137:219,1,132.800001925049
84,283,16036,1,0,0:0:0:0:
73,272,16122,2,0,B|65:204|123:154|137:196|193:147|183:78,1,240,2|0,0:0|0:0,0:0:0:0:
111,40,16467,2,0,P|101:97|137:142,1,120.000004577637
197,82,16725,1,0,0:0:0:0:
183,78,16812,21,2,0:0:0:0:
215,203,16984,1,2,0:0:0:0:
286,287,17157,1,2,0:0:0:0:
366,336,17329,1,0,0:0:0:0:
366,336,17501,86,0,P|380:261|431:211,1,120.000004577637,0|0,1:0|0:0,0:0:0:0:
464,177,17760,2,0,P|485:213|460:268,1,60.0000022888184
372,75,18018,6,0,P|362:102|338:119,1,60.0000022888184
260,81,18191,2,0,P|232:91|204:83,1,60.0000022888184
125,7,18363,101,0,0:0:0:0:
65,66,18536,2,0,P|80:128|78:222,1,120.000004577637,0|2,0:0|0:0,0:0:0:0:
79,195,18794,1,0,0:0:0:0:
72,205,18881,1,0,0:0:0:0:
259,278,19053,5,2,0:0:0:0:
232,291,19139,1,0,0:0:0:0:
202,293,19225,1,0,0:0:0:0:
440,366,19398,101,0,0:0:0:0:
401,381,19484,1,0,0:0:0:0:
359,371,19570,1,0,0:0:0:0:
292,327,19743,21,2,0:0:0:0:
202,293,19915,1,2,0:0:0:0:
92,270,20087,1,2,0:0:0:0:
86,96,20260,37,0,1:0:0:0:
312,243,20432,1,0,1:0:0:0:
165,363,20605,37,0,1:0:0:0:
250,180,20777,1,0,1:0:0:0:
397,224,20950,69,0,1:0:0:0:
440,348,21122,1,0,1:0:0:0:
497,193,21294,37,0,1:0:0:0:
425,139,21467,1,0,1:0:0:0:
409,134,21639,101,0,1:0:0:0:
438,77,21725,1,0,1:0:0:0:
423,23,21812,1,0,1:0:0:0:
383,0,21898,1,0,1:0:0:0:
345,4,21984,1,0,1:0:0:0:
324,28,22070,1,0,1:0:0:0:
319,52,22156,1,0,1:0:0:0:
327,66,22243,1,0,1:0:0:0:
335,70,22329,1,8,1:3:0:0:
335,70,22674,37,0,0:0:0:0:
325,49,22760,1,0,0:0:0:0:
296,32,22846,1,0,0:0:0:0:
246,32,22932,1,0,0:0:0:0:
203,74,23018,5,4,1:1:0:0:
154,159,23191,1,0,0:1:0:0:
185,192,23277,1,0,0:0:0:0:
186,237,23363,1,0,0:1:0:0:
296,326,23536,1,0,0:3:0:0:
434,306,23708,1,8,0:3:0:0:
481,185,23881,1,0,0:3:0:0:
436,88,24053,1,0,0:3:0:0:
356,71,24225,1,0,0:3:0:0:
270,119,24398,5,4,0:3:0:0:
250,232,24570,1,0,0:0:0:0:
326,336,24743,2,0,P|370:338|415:291,1,60.0000022888184
502,361,24915,2,0,P|527:327|528:286,1,80,4|0,0:3|0:0,0:0:0:0:
349,256,25087,86,0,P|353:225|345:195,1,40,8|0,0:3|0:0,0:0:0:0:
266,234,25260,2,0,P|251:206|227:186,1,52.7999998388672,2|0,0:0|0:0,0:0:0:0:
165,259,25432,2,0,P|137:244|90:247,1,66.4000009625244,2|0,0:0|0:0,0:0:0:0:
82,353,25605,2,0,P|51:357|2:399,1,80,2|0,0:0|0:0,0:0:0:0:
2,279,25777,21,4,0:3:0:0:
2,279,25950,1,0,0:0:0:0:
148,150,26122,101,0,0:0:0:0:
75,183,26294,1,0,0:3:0:0:
0,38,26467,5,8,0:3:0:0:
141,230,26639,1,0,0:0:0:0:
284,243,26812,1,0,0:0:0:0:
373,204,26984,1,0,0:0:0:0:
463,8,27156,101,4,0:3:0:0:
378,25,27329,1,0,0:0:0:0:
385,72,27415,1,0,0:0:0:0:
354,110,27501,1,0,0:0:0:0:
386,197,27674,1,4,0:3:0:0:
463,231,27846,53,10,0:3:0:0:
501,305,28105,1,2,0:3:0:0:
492,348,28363,1,10,0:3:0:0:
418,374,28536,53,4,0:3:0:0:
339,325,28708,1,0,0:0:0:0:
307,288,28794,1,0,0:0:0:0:
259,280,28881,1,2,0:2:0:0:
242,137,29053,1,0,0:3:0:0:
361,57,29225,1,8,0:3:0:0:
483,100,29398,1,0,0:0:0:0:
512,216,29570,1,2,0:0:0:0:
471,289,29743,1,0,0:0:0:0:
383,329,29915,5,4,0:3:0:0:
271,313,30087,1,0,0:0:0:0:
185,217,30260,2,0,P|184:171|198:147,1,60.0000022888184,2|0,0:0|0:0,0:0:0:0:
169,42,30432,2,0,P|194:16|236:8,1,80,6|0,0:3|0:0,0:0:0:0:
476,22,30605,86,0,P|459:11|443:0,1,40,8|0,0:3|0:0,0:0:0:0:
389,101,30777,2,0,P|372:79|360:57,1,52.7999998388672,2|0,0:0|0:0,0:0:0:0:
242,159,30950,2,0,P|234:127|233:93,1,66.4000009625244,2|0,0:0|0:0,0:0:0:0:
65,141,31122,2,0,P|70:102|86:64,1,80,2|0,0:0|0:0,0:0:0:0:
9,9,31295,21,4,0:3:0:0:
9,9,31466,1,0,0:0:0:0:
239,69,31639,101,2,0:0:0:0:
169,30,31812,1,0,0:3:0:0:
11,252,31984,5,8,0:3:0:0:
206,349,32156,1,2,0:0:0:0:
333,248,32329,1,0,0:0:0:0:
432,266,32501,1,0,0:0:0:0:
485,334,32674,101,2,1:1:0:0:
426,251,32846,1,2,0:2:0:0:
380,263,32932,1,2,0:2:0:0:
333,248,33018,1,2,0:2:0:0:
267,309,33191,1,2,1:1:0:0:
171,343,33363,54,2,P|161:322|180:335,1,60.0000022888184,8|0,0:3|0:0,0:1:0:0:
58,324,33536,2,2,P|62:294|73:322,1,80,10|0,0:3|0:0,0:1:0:0:
25,172,33708,2,2,P|22:209|6:176,1,100,10|0,0:3|0:0,0:1:0:0:
89,28,33881,2,2,P|103:69|68:41,1,120.000004577637,10|0,0:3|0:0,0:1:0:0:
255,18,34053,53,4,0:3:0:0:
333,61,34225,1,0,0:0:0:0:
375,82,34312,1,0,0:0:0:0:
421,69,34398,1,0,0:0:0:0:
333,61,34570,1,0,0:0:0:0:
224,151,34743,1,8,0:3:0:0:
241,290,34915,1,0,0:0:0:0:
335,349,35087,1,0,0:0:0:0:
414,341,35260,1,0,0:0:0:0:
490,283,35432,5,4,0:3:0:0:
506,171,35605,1,0,0:0:0:0:
421,69,35777,2,0,P|387:65|334:100,1,60.0000022888184
260,5,35950,2,0,P|230:21|207:80,1,80,4|0,0:3|0:0,0:0:0:0:
33,286,36122,86,0,P|46:303|75:319,1,40,8|0,0:3|0:0,0:0:0:0:
131,219,36294,2,0,P|131:240|146:270,1,52.7999998388672,2|0,0:0|0:0,0:0:0:0:
281,202,36467,2,0,P|261:232|252:288,1,66.4000009625244,2|0,0:0|0:0,0:0:0:0:
436,290,36639,2,0,P|402:303|363:344,1,80,2|0,0:0|0:0,0:0:0:0:
475,384,36812,21,4,0:3:0:0:
475,384,36984,1,0,0:0:0:0:
406,196,37156,101,0,0:0:0:0:
488,217,37329,1,0,0:0:0:0:
347,57,37501,5,8,0:3:0:0:
291,287,37674,1,0,0:0:0:0:
159,367,37846,1,0,0:0:0:0:
61,369,38018,2,0,P|47:347|47:307,1,40
52,249,38191,101,4,0:3:0:0:
118,189,38363,1,0,0:0:0:0:
157,215,38450,1,0,0:0:0:0:
204,215,38536,1,0,0:0:0:0:
239,301,38708,1,4,0:3:0:0:
336,338,38881,53,10,0:3:0:0:
401,292,39139,1,10,0:3:0:0:
444,287,39398,1,10,0:3:0:0:
512,335,39570,53,4,0:3:0:0:
444,287,39743,1,0,0:0:0:0:
423,245,39830,1,0,0:0:0:0:
436,199,39916,1,2,0:0:0:0:
444,287,40087,1,0,0:0:0:0:
336,383,40260,1,8,0:3:0:0:
195,352,40432,1,0,0:0:0:0:
140,253,40605,1,2,0:0:0:0:
169,178,40777,1,0,0:0:0:0:
258,154,40950,5,4,0:3:0:0:
362,198,41122,1,0,0:0:0:0:
485,145,41294,2,0,P|483:104|448:43,1,60.0000022888184,2|0,0:0|0:0,0:0:0:0:
381,2,41467,2,0,P|370:41|323:93,1,80,4|0,0:3|0:0,0:0:0:0:
98,150,41639,86,0,P|82:127|78:87,1,40,8|0,0:3|0:0,0:0:0:0:
189,73,41812,2,0,P|179:98|179:124,1,52.7999998388672,2|0,0:0|0:0,0:0:0:0:
291,160,41984,2,0,P|309:132|336:115,1,66.4000009625244,2|0,0:0|0:0,0:0:0:0:
440,282,42156,2,0,P|401:281|364:295,1,80,2|0,0:0|0:0,0:0:0:0:
283,332,42329,21,4,0:3:0:0:
283,332,42501,1,0,0:0:0:0:
461,191,42674,101,2,0:0:0:0:
382,211,42846,1,0,0:0:0:0:
476,358,43018,5,8,0:3:0:0:
404,132,43190,1,0,0:0:0:0:
282,36,43363,1,2,0:0:0:0:
186,13,43536,2,0,P|160:23|147:55,1,40
112,107,43708,101,2,1:1:0:0:
0,0,43881,1,0,0:0:0:0:
22,42,43967,1,0,0:0:0:0:
20,89,44053,1,2,0:0:0:0:
213,205,44225,1,2,1:1:0:0:
370,138,44398,102,2,P|382:95|379:34,1,80,8|0,0:3|0:0,0:1:0:0:
469,41,44570,2,2,P|472:80|465:120,1,80,2|0,0:0|0:0,0:1:0:0:
494,322,44743,54,2,P|459:305|367:298,1,80,2|0,0:0|0:0,0:1:0:0:
363,227,44915,2,2,P|324:233|245:280,1,80,2|0,0:0|0:0,0:1:0:0:
96,334,45087,85,4,0:3:0:0:
307,329,45260,38,2,B|246:340|196:301|196:242|196:242|159:236|159:236|154:231|154:231|149:235|149:235|94:228|94:228|43:233|20:278|20:278|61:229|127:248,1,480,0|8,0:0|0:3,0:1:0:0:
96,334,45950,69,0,0:0:0:0:
96,334,46122,2,0,B|110:359|110:359|40:353,1,80,4|10,0:3|0:3,0:0:0:0:
44,76,46639,1,0,0:0:0:0:
140,88,46812,2,0,P|105:94|48:75,1,80,0|4,0:0|0:3,0:0:0:0:
205,152,47156,38,0,B|159:190|174:237|174:237|170:205|197:178,1,160,8|2,0:3|0:0,0:1:0:0:
285,58,47501,2,0,B|250:49|225:68|225:68|257:31|314:52,1,160,0|2,0:0|0:0,0:1:0:0:
512,126,47846,69,4,0:3:0:0:
392,34,48018,38,2,B|434:35|465:59|446:94|475:119|512:126|512:126|403:114|387:116|360:117|322:98|314:52|314:52|258:46|258:46|251:42|251:42|174:34,1,528.000016113282,0|8,0:0|0:3,0:1:0:0:
15,121,48708,70,0,P|14:82|38:51,1,80,0|4,0:0|0:3,0:0:0:0:
113,81,49053,2,0,B|125:227|125:227|145:246|145:246|151:323,1,240.000009155274,10|0,0:3|0:0,0:0:0:0:
153,333,49570,2,0,B|156:368|156:368|111:372,1,80,0|4,0:0|0:3,0:0:0:0:
61,293,49915,1,8,0:3:0:0:
240,359,50087,38,0,P|335:319|508:322,1,240,2|0,0:0|0:0,0:0:0:0:
394,211,50432,2,0,P|434:208|468:228,1,80,2|0,0:0|0:0,0:0:0:0:
512,151,50605,69,4,0:3:0:0:
512,384,50777,38,2,B|526:314|468:275|468:275|488:166|488:166|499:149|499:149|495:130|495:130|513:35|513:35|406:8|406:8|464:39|455:105,1,600,0|8,0:0|0:3,0:1:0:0:
53,43,51639,69,4,0:3:0:0:
58,30,51812,1,2,0:0:0:0:
269,88,51984,2,0,B|156:102|156:102|130:62,1,160
336,144,52501,2,0,B|347:159|347:159|363:93,1,80,4|8,0:3|0:3,0:0:0:0:
469,270,52846,38,0,P|421:203|246:227,1,240,2|0,0:0|0:0,0:0:0:0:
361,99,53191,2,0,P|369:75|353:100,1,80,2|0,0:0|0:0,0:0:0:0:
205,250,53363,69,4,0:3:0:0:
0,325,53536,38,2,B|48:320|61:271|61:271|45:204|45:204|63:166|103:166|103:166|249:196|249:196|215:211|205:251,1,451.199993115235,0|8,0:0|0:3,0:1:0:0:
265,357,54398,69,2,0:0:0:0:
374,274,54570,2,0,B|296:276|265:357|265:357|286:305|343:297,1,240,4|0,0:2|0:0,0:0:0:0:
182,299,54915,2,0,P|184:318|181:338,1,40,2|0,0:0|0:0,0:0:0:0:
162,175,55087,2,0,P|171:192|174:212,1,40,2|0,0:0|0:0,0:0:0:0:
97,112,55260,1,6,0:3:0:0:
16,8,55432,85,8,0:3:0:0:
24,21,55518,1,0,0:0:0:0:
44,34,55605,1,0,0:0:0:0:
73,45,55691,1,0,0:0:0:0:
112,49,55777,1,0,0:0:0:0:
158,38,55863,1,0,0:0:0:0:
207,10,55950,1,0,0:0:0:0:
270,10,56036,1,0,0:0:0:0:
327,52,56122,37,4,0:3:0:0:
437,117,56294,22,2,B|485:115|514:78|514:78|494:168|392:201|324:163,1,320,0|2,0:1|0:1,0:1:0:0:
319,306,56812,2,0,P|277:256|134:274,1,160,8|0,0:3|0:0,0:0:0:0:
24,297,57156,1,4,0:3:0:0:
117,341,57329,86,0,P|114:310|96:233,1,80,10|0,0:3|0:0,0:0:0:0:
176,60,57674,2,0,P|151:31|92:37,1,80
34,207,58018,1,4,0:3:0:0:
145,181,58191,22,0,B|127:228|127:228|136:172|103:104,1,160,8|2,0:3|0:0,0:0:0:0:
263,79,58536,2,0,B|313:70|313:70|260:90|217:153,1,160,0|2,0:0|0:0,0:0:0:0:
118,376,58881,85,4,0:3:0:0:
334,310,59053,22,2,B|288:326|195:300|270:246|137:145|26:225,1,320,0|2,0:0|0:1,0:1:0:0:
23,10,59570,86,0,P|69:26|91:67,1,95.9999970703126,8|0,0:3|0:0,0:0:0:0:
114,298,59915,1,4,0:3:0:0:
161,121,60087,2,0,P|97:194|98:291,2,191.999994140625,10|0|4,0:3|0:0|0:3,0:0:0:0:
20,115,60950,1,8,0:3:0:0:
130,209,61122,22,0,P|224:186|368:191,1,240,2|0,0:0|0:0,0:0:0:0:
466,191,61467,2,0,P|471:223|458:193,1,80,2|0,0:0|0:0,0:0:0:0:
310,97,61639,5,4,0:3:0:0:
447,248,61812,102,2,B|496:258|520:222|520:175|495:145|439:135|384:154|358:195|387:231|351:237|275:249|217:201|228:111|228:111|231:146|264:165,1,523.200005588379,0|8,0:0|0:3,0:1:0:0:
447,247,62674,2,0,P|430:294|428:373,1,120.000004577637,4|10,0:3|0:3,0:0:0:0:
200,370,63018,86,0,P|173:331|180:281,1,100.799996923828
41,238,63363,1,0,0:0:0:0:
107,125,63536,2,0,P|134:164|127:214,1,100.799996923828,4|8,0:3|0:3,0:0:0:0:
263,308,63881,22,0,L|286:69,1,240,2|0,0:0|0:0,0:0:0:0:
290,42,64225,2,0,B|292:2|292:2|242:0,1,80,2|2,0:0|0:0,0:0:0:0:
198,73,64398,85,4,0:3:0:0:
0,181,64570,22,2,B|71:220|147:114|64:127|63:114|135:-43|266:-6|337:73|282:80|282:80|260:132|175:156|122:117,1,600,0|8,0:0|0:3,0:1:0:0:
376,83,65260,85,0,0:0:0:0:
376,83,65432,2,0,B|392:96|392:96|404:38|354:6,1,125
257,34,65777,22,2,P|243:90|278:149,1,120,2|0,0:1|0:0,0:1:0:0:
270,143,65950,86,0,P|301:134|337:135,1,40,2|0,0:0|0:0,0:0:0:0:
465,221,66122,2,0,P|435:212|399:213,1,40,2|0,0:0|0:0,0:0:0:0:
321,348,66294,22,2,P|307:292|342:233,1,120,2|0,1:0|0:0,0:1:0:0:
426,211,66467,37,10,0:3:0:0:
369,162,66553,1,2,0:0:0:0:
309,133,66639,1,2,0:0:0:0:
249,122,66725,1,2,0:0:0:0:
198,128,66811,1,0,0:0:0:0:
164,138,66898,1,0,0:0:0:0:
140,153,66984,1,0,0:0:0:0:
124,166,67070,1,0,0:0:0:0:
115,178,67156,1,8,0:3:0:0:
18,135,77846,86,0,B|33:160|33:160|116:164,1,80
167,162,78191,5,0,1:0:0:0:
167,162,78363,1,2,0:0:0:0:
250,173,78536,1,8,0:0:0:0:
262,171,78708,1,2,0:0:0:0:
253,161,78881,1,2,0:3:0:0:
245,258,79053,5,0,1:0:0:0:
344,167,79225,1,8,0:0:0:0:
357,158,79398,1,2,0:0:0:0:
342,154,79570,1,2,0:0:0:0:
371,251,79743,85,2,1:3:0:0:
426,112,79915,1,8,0:0:0:0:
431,95,80087,1,2,0:3:0:0:
412,98,80260,1,2,0:2:0:0:
474,180,80432,5,2,1:2:0:0:
453,9,80605,1,8,0:0:0:0:
34,49,80950,101,0,1:0:0:0:
59,44,81122,1,2,0:0:0:0:
40,180,81294,1,8,0:0:0:0:
52,154,81467,1,2,0:0:0:0:
72,134,81639,1,2,0:3:0:0:
53,297,81812,5,0,1:0:0:0:
187,176,81984,1,8,0:0:0:0:
156,185,82156,1,2,0:3:0:0:
131,206,82329,1,2,0:3:0:0:
365,233,82501,5,0,1:3:0:0:
189,270,82674,1,8,0:0:0:0:
224,268,82846,1,2,0:3:0:0:
256,284,83018,1,0,0:0:0:0:
131,384,83191,85,0,1:0:0:0:
277,142,83363,1,12,0:0:0:0:
473,362,83708,5,2,1:2:0:0:
462,323,83881,1,0,0:0:0:0:
324,252,84053,1,8,0:0:0:0:
367,262,84225,1,0,0:0:0:0:
408,246,84398,1,2,0:0:0:0:
479,287,84570,5,0,1:0:0:0:
364,169,84743,1,8,0:0:0:0:
400,199,84915,1,0,0:0:0:0:
438,114,85087,85,2,0:0:0:0:
408,246,85260,1,0,1:0:0:0:
491,189,85432,5,8,0:0:0:0:
440,205,85605,1,0,0:0:0:0:
189,175,85777,6,0,P|162:180|79:222,1,64,2|0,0:0|0:0,0:0:0:0:
336,53,85950,2,0,P|363:57|446:99,1,64,2|0,1:2|0:0,0:0:0:0:
461,203,86122,86,0,B|478:253|478:253|420:170|297:154,1,240,8|0,0:3|0:0,0:0:0:0:
156,89,86467,6,0,B|118:125|118:125|131:211,1,120,4|0,0:3|0:0,0:0:0:0:
270,309,86812,6,0,P|232:212|267:58,1,240,8|0,0:3|0:0,0:0:0:0:
325,143,87156,85,4,0:3:0:0:
322,158,87243,1,4,0:3:0:0:
337,162,87329,1,4,0:3:0:0:
342,147,87415,1,4,0:3:0:0:
411,72,87501,6,0,P|332:63|254:81,1,160,8|0,0:3|0:0,0:0:0:0:
184,128,87760,2,0,P|156:112|110:109,1,80
197,86,88536,6,0,L|205:36,3,40,4|4|4|8,0:3|0:3|0:3|0:3,0:0:0:0:
270,221,88837,2,0,P|193:176|104:168,1,180.000006866455,8|0,0:3|0:0,0:0:0:0:
30,137,89053,2,0,P|62:159|28:231,1,120.000004577637,8|0,0:3|0:0,0:0:0:0:
176,312,89225,70,2,P|115:384|104:290,1,240,4|0,1:0|0:0,0:1:0:0:
105,289,89915,102,0,P|154:276|247:276,1,120.000004577637,10|0,0:3|0:0,0:0:0:0:
222,172,90087,2,0,P|264:182|318:268,1,120.000004577637,2|0,0:0|0:0,0:0:0:0:
393,178,90260,2,0,P|418:222|326:289,1,120.000004577637,2|0,0:0|0:0,0:0:0:0:
490,359,90432,2,0,P|471:384|483:346,1,120.000004577637,2|0,0:0|0:0,0:0:0:0:
393,178,90605,54,0,P|386:117|400:40,1,120.000004577637,4|0,0:3|0:0,0:0:0:0:
501,28,90863,2,0,P|508:86|461:129,1,120.000004577637,4|0,0:3|0:0,0:0:0:0:
335,117,91122,1,4,0:3:0:0:
347,315,91294,53,8,0:3:0:0:
332,303,91381,1,2,0:0:0:0:
312,289,91467,1,2,0:0:0:0:
285,274,91553,1,2,0:0:0:0:
252,259,91639,1,2,0:0:0:0:
212,244,91725,1,2,0:0:0:0:
165,230,91812,1,2,0:0:0:0:
112,223,91898,1,2,0:0:0:0:
34,243,91984,54,2,P|0:260|38:246,1,120,4|0,0:3|0:0,0:1:0:0:
157,34,92674,54,0,B|87:73|120:160|120:160|141:180|178:186,1,200,10|0,0:3|0:0,0:0:0:0:
188,110,92932,2,0,P|235:93|285:94,1,100,2|0,0:0|0:0,0:0:0:0:
345,235,93191,2,0,P|316:275|302:323,1,100,2|0,0:0|0:0,0:0:0:0:
83,300,93363,54,0,B|142:262|235:278|235:278|223:254|201:243,1,200,4|0,0:3|0:0,0:0:0:0:
272,188,93622,2,0,P|265:139|284:94,1,100,4|0,0:3|0:0,0:0:0:0:
495,17,93881,2,0,P|461:52|449:101,1,100,4|0,0:3|0:0,0:0:0:0:
507,175,94053,53,10,0:3:0:0:
454,182,94139,1,2,0:0:0:0:
407,196,94226,1,2,0:0:0:0:
367,211,94312,1,2,0:0:0:0:
334,226,94398,1,2,0:0:0:0:
307,241,94484,1,0,0:0:0:0:
287,255,94570,1,8,0:3:0:0:
272,267,94657,1,0,0:0:0:0:
264,276,94743,6,0,P|164:219|49:214,1,232.500008869171,4|2,1:1|0:0,0:0:0:0:
94,82,95001,1,2,0:0:0:0:
88,65,95087,2,0,P|119:6|145:105,1,232.499989745021,8|0,0:3|0:0,0:1:0:0:
17,299,95346,1,0,0:0:0:0:
31,305,95432,2,0,P|83:305|120:222,1,116.249994872511
13,106,95605,102,0,P|40:156|44:256,1,116.249994872511,0|0,1:3|0:0,0:0:0:0:
179,372,95777,2,0,P|229:268|311:186,1,232.499989745021,8|0,0:3|0:0,0:1:0:0:
355,267,96036,1,0,0:0:0:0:
370,272,96122,2,0,P|406:217|374:125,1,116.249994872511
193,65,96294,54,0,B|131:70|162:99|88:109,1,116.249994872511,0|0,1:3|0:0,0:0:0:0:
28,50,96467,2,0,P|122:59|257:185,1,232.499989745021,8|0,0:3|0:0,0:1:0:0:
311,186,96725,1,0,0:0:0:0:
300,198,96812,2,0,P|266:232|176:174,1,116.249994872511
88,109,96984,2,0,P|62:164|102:245,1,116.249994872511,0|0,1:3|0:0,0:0:0:0:
155,349,97156,54,0,P|161:259|146:170,1,180.000006866455,8|0,0:3|0:0,0:1:0:0:
188,102,97501,54,0,P|268:68|413:107,1,240.000009155274,4|0,0:3|0:0,0:0:0:0:
485,155,97760,2,0,P|520:225|507:303,1,160,4|0,0:3|0:0,0:0:0:0:
411,105,98018,2,0,P|377:123|362:160,1,80,4|0,0:3|0:0,0:0:0:0:
223,218,98191,54,0,B|359:195|359:195|408:233,1,200,10|0,0:3|0:0,0:0:0:0:
489,15,98450,53,2,0:0:0:0:
493,19,98536,2,0,L|500:88,1,40,2|0,0:0|0:0,0:0:0:0:
507,303,98708,54,0,B|445:289|456:328|391:315,1,120.000004577637,10|0,0:3|0:0,0:0:0:0:
408,233,98881,54,0,B|387:113|387:113|417:60,1,180.000006866455
289,32,99225,2,0,B|338:26|338:26|269:141|269:141|210:147,1,240,4|0,0:3|0:0,0:0:0:0:
155,84,99570,53,10,0:3:0:0:
139,86,99656,1,2,0:0:0:0:
109,123,99743,53,2,0:0:0:0:
93,126,99829,1,2,0:0:0:0:
39,174,99915,54,2,P|80:175|133:226,1,80,2|0,0:0|0:0,0:1:0:0:
213,147,100087,2,2,P|243:174|251:247,1,100,2|0,0:0|0:0,0:1:0:0:
420,363,100260,6,2,B|422:288|347:231|272:291|287:379,1,240,4|0,1:0|0:0,0:1:0:0:
141,322,100950,102,0,P|134:355|135:317,1,120.000004577637,10|0,0:3|0:0,0:0:0:0:
221,162,101122,2,0,P|241:218|172:225,1,120.000004577637,2|0,0:0|0:0,0:0:0:0:
127,185,101294,2,0,P|137:129|66:49,1,120.000004577637,2|0,0:0|0:0,0:0:0:0:
158,0,101467,2,0,P|217:19|295:75,1,120.000004577637,2|0,0:0|0:0,0:0:0:0:
470,148,101639,54,0,P|450:193|434:280,1,120.000004577637,4|0,0:3|0:0,0:0:0:0:
399,335,101898,2,0,P|445:350|502:293,1,120.000004577637,4|0,0:3|0:0,0:0:0:0:
455,63,102156,2,0,P|426:69|403:115,1,60.0000022888184,4|0,0:3|0:0,0:0:0:0:
355,204,102329,53,8,0:3:0:0:
337,203,102415,1,2,0:0:0:0:
313,207,102501,1,2,0:0:0:0:
287,223,102587,1,2,0:0:0:0:
273,256,102674,1,2,0:0:0:0:
254,218,102760,1,2,0:0:0:0:
217,186,102846,1,2,0:0:0:0:
165,170,102932,1,2,0:0:0:0:
92,163,103018,54,2,P|52:151|94:152,1,120,4|0,0:3|0:0,0:1:0:0:
217,382,103708,54,0,B|189:334|214:287|214:287|261:247|244:197,1,200,10|0,0:3|0:0,0:0:0:0:
94,151,103967,2,0,P|125:194|203:223,1,100,2|0,0:0|0:0,0:0:0:0:
291,330,104225,2,0,P|333:308|415:323,1,100,2|0,0:0|0:0,0:0:0:0:
267,124,104398,54,0,P|324:183|243:197,1,200,4|0,0:3|0:0,0:0:0:0:
75,180,104656,2,0,P|124:147|206:141,1,100,4|0,0:3|0:0,0:0:0:0:
371,62,104915,2,0,P|405:105|400:190,1,100,4|0,0:3|0:0,0:0:0:0:
352,284,105087,53,10,0:3:0:0:
300,268,105173,1,2,0:0:0:0:
263,236,105259,1,2,0:0:0:0:
244,198,105345,1,2,0:0:0:0:
230,231,105432,1,2,0:0:0:0:
204,247,105518,1,0,0:0:0:0:
180,251,105604,1,0,0:0:0:0:
162,250,105690,1,0,0:0:0:0:
150,247,105777,6,0,B|128:192|128:192|144:128,1,116.250004434586,4|0,1:0|0:0,0:0:0:0:
368,112,105950,2,0,B|412:105|438:77|438:77|414:46,1,116.250004434586,2|2,0:2|0:0,0:1:0:0:
96,62,106122,38,0,B|160:48|160:48|214:102|292:124|368:112|368:112|408:160,1,348.750013303757,8|0,0:3|0:0,0:1:0:0:
472,192,106467,2,0,B|463:211|445:223|445:223|464:264|448:312,1,116.250004434586
339,37,106639,2,0,P|280:32|216:-8,1,116.250004434586,0|0,1:3|0:0,0:0:0:0:
200,208,106811,54,0,B|146:264|153:367|153:367|126:268|32:248,1,348.750013303757,8|0,0:3|0:0,0:1:0:0:
89,80,107156,2,0,P|109:127|113:200,1,116.250004434586
57,345,107329,2,0,P|98:381|152:367,1,116.249994872511,0|0,1:3|0:0,0:0:0:0:
464,328,107501,54,0,B|272:360|336:240|128:272,1,348.750013303757,8|0,0:3|0:0,0:1:0:0:
0,178,107846,2,0,B|55:166|113:191,1,116.250004434586
298,84,108018,2,0,B|298:110|313:126|313:126|284:105|246:109,1,116.249994872511,0|0,1:3|0:0,0:0:0:0:
38,1,108191,54,0,P|88:74|165:119,1,180.000006866455,8|0,0:3|0:0,0:0:0:0:
260,192,108536,54,0,P|301:57|427:13,1,240.000009155274,4|0,1:2|0:0,0:0:0:0:
452,77,108794,2,0,P|400:125|271:97,1,160,4|0,1:2|0:0,0:0:0:0:
166,119,109053,2,0,P|203:99|275:118,1,80,4|0,1:2|0:0,0:0:0:0:
291,302,109225,54,0,B|298:251|293:202|293:202|258:246|243:288,1,200,10|0,0:3|0:0,0:0:0:0:
314,127,109484,53,2,0:0:0:0:
318,115,109570,2,0,L|335:58,1,40,2|0,0:0|0:0,0:0:0:0:
246,374,109743,54,0,B|269:349|293:339|293:339|325:346|349:361,1,120.000004577637,10|0,0:3|0:0,0:0:0:0:
512,260,109915,54,0,B|479:230|433:218|433:218|384:233|348:273,1,180.000006866455
371,93,110260,2,0,B|368:54|338:12|338:12|374:48|418:51,1,180.000006866455,4|0,0:3|0:0,0:1:0:0:
434,305,110605,2,0,L|442:125,1,180.000006866455,8|0,0:3|0:0,0:1:0:0:
159,71,110950,54,0,B|125:76|101:96|133:139|174:106|174:106|207:80|266:70|296:101,1,240,0|0,0:0|0:0,0:1:0:0:
442,125,111294,53,4,1:2:0:0:
391,189,111467,54,2,P|326:213|219:215,1,160,0|0,0:0|0:0,1:1:0:0:
442,125,111984,53,0,1:0:0:0:
391,189,112156,70,2,B|442:125|442:125|399:226|399:226|295:285|295:285|237:219,1,400,0|0,0:0|0:0,1:1:0:0:
28,135,112674,5,0,1:0:0:0:
79,199,112847,86,2,P|155:196|251:225,1,160,0|0,0:0|0:0,1:1:0:0:
28,135,113363,21,0,1:0:0:0:
79,199,113536,102,2,B|29:134|29:134|129:159|129:159|150:271|150:271|236:218,1,400,0|0,0:0|0:0,1:1:0:0:
490,227,114053,6,0,L|442:242,1,40,0|0,1:0|0:0,0:0:0:0:
301,336,114225,1,0,1:0:0:0:
490,227,114398,6,0,L|440:233,1,47.9999985351563,0|0,1:0|0:0,0:0:0:0:
260,265,114570,1,0,1:0:0:0:
490,227,114743,102,0,L|435:224,1,55.9999982910157,0|0,1:0|0:0,0:0:0:0:
201,208,114915,1,0,1:0:0:0:
490,227,115087,6,0,L|425:212,1,64,0|0,1:0|0:0,0:0:0:0:
137,159,115260,1,0,1:0:0:0:
490,227,115432,102,0,L|423:199,1,71.9999978027344,0|0,1:0|1:0,0:0:0:0:
221,76,115605,2,0,L|230:147,1,71.9999978027344,0|0,1:0|1:0,0:0:0:0:
225,384,115778,2,0,L|282:340,1,71.9999978027344,0|0,1:0|1:0,0:0:0:0:
346,191,115950,5,0,1:0:0:0:
262,219,116036,101,0,1:0:0:0:
328,276,116122,6,0,B|316:262|303:254|303:254|291:243|277:254|277:254|258:238|245:256|245:256|202:219|138:253|123:298,1,240,0|0,1:3|0:0,0:1:0:0:
33,199,116467,6,0,P|55:230|47:268,3,80,2|2|2|2,0:0|0:0|0:0|0:0,0:0:0:0:
69,349,116812,6,0,P|115:329|206:337,1,120,4|0,1:1|0:0,0:1:0:0:
257,348,117156,2,2,P|290:327|329:319,1,80,0|0,0:1|0:0,0:1:0:0:
69,349,117501,5,8,0:3:0:0:
234,267,117674,1,0,0:0:0:0:
395,363,117846,2,0,P|417:365|448:349,2,40
330,319,118191,102,0,P|325:285|353:217,1,80,4|0,0:3|0:0,0:0:0:0:
429,27,118536,2,0,P|441:52|436:85,1,40
435,82,118708,1,4,0:3:0:0:
278,123,118881,101,8,0:3:0:0:
263,44,119053,1,2,0:0:0:0:
506,129,119225,1,2,0:0:0:0:
488,238,119398,1,2,0:0:0:0:
449,320,119570,6,0,B|380:314|408:286|336:280,1,120,4|0,0:3|0:0,0:0:0:0:
263,292,119915,2,2,P|243:343|304:385,1,120,0|0,0:0|0:0,0:1:0:0:
304,384,120260,5,8,0:3:0:0:
196,333,120432,101,0,0:0:0:0:
149,324,120605,1,0,0:0:0:0:
102,315,120777,1,0,0:0:0:0:
278,285,120950,5,4,0:3:0:0:
170,234,121122,101,0,0:0:0:0:
123,225,121294,1,0,0:3:0:0:
76,216,121467,1,4,0:3:0:0:
163,59,121639,54,0,P|175:96|146:143,1,80,10|0,0:3|0:0,0:0:0:0:
11,124,121898,2,0,P|-1:87|28:40,1,80,2|0,0:0|0:0,0:0:0:0:
88,71,122157,2,0,L|85:111,1,40,10|0,0:3|0:0,0:0:0:0:
76,216,122329,54,0,P|96:279|95:349,1,120,4|0,0:3|0:0,0:0:0:0:
183,348,122674,2,2,P|182:305|197:260,1,80,2|0,0:0|0:0,0:1:0:0:
438,318,123018,5,8,0:3:0:0:
359,330,123191,1,0,0:0:0:0:
286,299,123363,2,0,P|274:277|283:239,2,40,2|0|0,0:0|0:0|0:0,0:0:0:0:
225,160,123708,101,4,0:3:0:0:
328,182,123881,1,0,0:0:0:0:
433,205,124053,6,0,L|476:214,1,40,2|0,0:0|0:0,0:0:0:0:
328,182,124225,1,4,0:3:0:0:
286,299,124398,86,0,B|289:319|305:335|305:335|317:317|321:300,1,80,8|2,0:3|0:0,0:0:0:0:
336,64,124743,2,0,B|321:18|265:0|265:0|268:39,1,120,2|0,0:0|0:0,0:0:0:0:
179,75,125087,6,0,P|130:83|88:22,1,120,4|0,0:3|0:0,0:0:0:0:
254,33,125432,2,2,P|271:84|210:151,1,120,2|0,0:0|0:0,0:1:0:0:
223,149,125777,5,8,0:3:0:0:
389,144,125950,1,0,0:0:0:0:
317,94,126122,1,2,0:0:0:0:
466,108,126294,1,0,0:0:0:0:
470,112,126381,1,0,0:0:0:0:
474,116,126467,102,0,P|469:142|474:170,1,40,2|0,1:1|0:0,0:0:0:0:
308,203,126639,2,0,P|308:230|317:256,1,40
232,256,126812,6,0,P|238:282|233:310,1,40,2|0,0:0|0:0,0:0:0:0:
398,343,126984,2,0,P|399:370|390:396,1,40,2|0,1:1|0:0,0:0:0:0:
162,317,127156,37,8,0:3:0:0:
20,353,127329,2,2,B|22:332|7:317|7:317|24:304|30:283,1,80,10|0,0:3|0:0,0:1:0:0:
48,196,127501,2,2,B|61:178|55:158|55:158|76:155|91:140,1,80,10|0,0:3|0:0,0:1:0:0:
151,73,127674,2,2,B|171:64|176:43|176:43|196:51|216:46,1,80,10|0,0:3|0:0,0:1:0:0:
304,39,127846,37,0,0:0:0:0:
273,286,128018,1,0,0:0:0:0:
304,39,128191,1,0,0:0:0:0:
273,286,128363,1,0,0:0:0:0:
93,178,128536,5,4,1:0:0:0:
318,143,128708,1,0,0:0:0:0:
211,195,128881,2,0,L|199:258,1,40
93,178,129053,1,0,0:0:0:0:
79,327,129225,6,0,P|104:349|170:343,1,80,4|0,0:3|0:0,0:0:0:0:
273,286,129570,2,0,P|249:287|206:307,1,40
217,301,129743,1,4,0:3:0:0:
331,347,129915,85,8,0:3:0:0:
410,358,130087,1,2,0:0:0:0:
207,184,130260,1,2,0:0:0:0:
97,200,130432,1,2,0:0:0:0:
6,305,130605,6,0,P|19:247|24:187,1,120,4|0,0:3|0:0,0:0:0:0:
5,170,130950,2,0,P|1:196|9:228,1,40
97,200,131122,1,4,0:3:0:0:
189,170,131294,5,8,0:3:0:0:
281,200,131467,1,0,0:0:0:0:
373,230,131639,1,0,0:0:0:0:
465,260,131812,2,0,L|535:282,1,40
392,323,131984,101,4,0:3:0:0:
373,230,132156,1,0,0:0:0:0:
354,137,132329,1,0,0:0:0:0:
281,200,132501,1,4,0:3:0:0:
208,263,132674,54,0,L|182:302,1,40,10|0,0:3|0:0,0:0:0:0:
170,77,132932,2,0,L|158:30,1,40,10|0,0:3|0:0,0:0:0:0:
24,203,133191,2,0,L|-2:242,1,40,10|0,0:3|0:0,0:0:0:0:
291,349,133363,54,0,P|301:290|280:235,1,120,4|0,0:3|0:0,0:0:0:0:
208,263,133708,2,2,P|202:302|213:340,1,80,2|0,0:0|0:3,0:1:0:0:
438,290,134053,5,8,0:3:0:0:
291,349,134225,1,0,0:0:0:0:
134,307,134398,2,0,P|114:303|94:303,2,40,2|0|0,0:0|0:0|0:0,0:0:0:0:
132,67,134743,101,4,0:3:0:0:
94,160,134915,1,0,0:0:0:0:
55,255,135087,6,0,L|36:301,1,40,2|0,0:0|0:0,0:0:0:0:
94,160,135260,1,4,0:3:0:0:
13,39,135432,86,0,B|4:22|4:22|-5:61|18:102,1,80,8|2,0:3|0:0,0:0:0:0:
179,239,135777,2,0,B|221:242|257:238|257:238|261:244|266:249|266:249|272:243|274:238|274:238|294:241,1,120,2|0,0:0|0:0,0:0:0:0:
412,102,136122,6,0,P|372:144|365:224,1,120,4|0,0:3|0:0,0:0:0:0:
391,286,136467,2,2,P|347:247|288:240,1,120,2|0,0:0|0:0,0:1:0:0:
212,241,136812,5,8,0:3:0:0:
21,311,136984,1,0,0:0:0:0:
212,365,137156,1,2,0:0:0:0:
13,303,137328,1,0,0:0:0:0:
17,307,137415,1,0,0:0:0:0:
21,311,137501,102,0,P|17:294|22:255,1,40,2|0,1:1|0:0,0:0:0:0:
100,147,137674,2,0,L|108:200,1,40
216,201,137846,6,0,P|212:218|217:257,1,40,2|0,0:0|0:0,0:0:0:0:
295,365,138019,2,0,L|303:312,1,40,2|0,1:1|0:0,0:0:0:0:
385,249,138191,85,10,0:3:0:0:
135,315,138363,2,0,L|82:328,1,40,2|0,0:0|0:0,0:0:0:0:
260,282,138536,1,2,0:0:0:0:
385,249,138708,2,0,L|424:239,1,40,10|0,0:3|0:0,0:0:0:0:
168,187,138881,70,0,B|375:146|375:146|395:126|395:126|424:139|424:139|518:122,1,360.000013732911,4|0,1:2|0:0,0:0:0:0:
426,47,139225,2,0,B|396:40|383:12|383:12|378:40|340:62,1,120.000004577637,8|0,0:0|0:0,0:0:0:0:
87,242,139398,70,0,P|102:93|140:-7,1,240,0|0,1:0|0:0,0:0:0:0:
20,29,139743,2,0,P|54:67|134:45,1,80,8|0,0:0|0:0,0:0:0:0:
183,185,139915,85,0,0:0:0:0:
185,200,140001,1,0,0:0:0:0:
168,187,140087,1,0,0:0:0:0:
170,202,140173,1,0,0:0:0:0:
87,242,140260,22,0,B|147:261|247:225|192:169|282:136|358:164,1,300,0|0,1:0|0:0,0:0:0:0:
479,252,140605,2,0,P|481:274|457:302,1,40,8|0,0:0|0:0,0:0:0:0:
406,237,140777,2,0,P|395:256|405:291,1,40,0|0,1:0|0:0,0:0:0:0:
20,338,141122,38,0,P|36:360|74:331,1,80,8|0,0:0|0:0,0:0:0:0:
358,164,141294,2,0,P|236:240|23:245,1,360.000013732911
74,337,141639,2,0,B|168:269|115:146|29:160|29:160|89:169|107:224,1,360.000013732911,0|0,1:0|0:0,0:0:0:0:
106,266,141984,2,0,P|76:315|19:330,1,120.000004577637,8|0,0:0|0:0,0:0:0:0:
175,358,142156,70,0,P|289:344|436:338,1,240,0|0,1:0|0:0,0:0:0:0:
356,262,142501,2,0,P|318:252|278:254,1,80,8|0,0:0|0:0,0:0:0:0:
494,372,142674,85,0,0:0:0:0:
509,374,142760,1,0,0:0:0:0:
496,357,142846,1,0,0:0:0:0:
511,359,142932,1,0,0:0:0:0:
414,338,143018,22,0,B|381:200|381:200|389:191|389:191|357:46,1,300,0|0,1:0|0:0,0:0:0:0:
439,58,143363,2,0,L|489:65,1,40,8|0,0:0|0:0,0:0:0:0:
238,32,143536,2,0,L|277:38,1,40,0|0,1:0|0:0,0:0:0:0:
74,294,143881,38,0,B|32:313|0:285,1,80,8|0,0:0|0:0,0:0:0:0:
74,120,144053,2,0,B|77:165|46:211|46:211|176:160|328:245,1,360.000013732911
482,231,144398,2,0,B|453:226|439:183|439:183|461:268|441:340|403:366|403:366|352:343|350:288,1,360.000013732911,0|0,1:0|0:0,0:0:0:0:
300,231,144743,2,0,P|320:202|309:107,1,120.000004577637,8|0,0:0|0:0,0:0:0:0:
113,24,144915,70,0,B|60:2|24:53|96:115|223:71,1,240,0|0,1:0|0:0,0:0:0:0:
288,25,145260,2,0,P|312:60|286:100,1,80,8|0,0:0|0:0,0:0:0:0:
166,277,145432,85,0,0:0:0:0:
177,286,145518,1,0,0:0:0:0:
175,265,145604,1,0,0:0:0:0:
187,275,145690,1,0,0:0:0:0:
236,206,145777,22,0,B|287:164|246:119|187:125|164:216|189:313|259:353,1,300,0|0,1:0|0:0,0:0:0:0:
357,363,146122,2,0,P|341:348|310:353,1,40,8|0,0:0|0:0,0:0:0:0:
160,371,146294,2,0,P|139:369|118:393,1,40,0|0,1:0|0:0,0:0:0:0:
123,25,146639,38,0,P|115:69|49:97,1,80,8|0,0:0|0:0,0:0:0:0:
124,379,146812,2,0,P|117:242|21:24,1,360.000013732911
12,156,147156,2,0,B|132:95|271:152|271:152|223:139|162:148,1,360.000013732911,0|0,1:0|0:0,0:0:0:0:
255,232,147501,2,0,B|217:221|182:231|182:231|248:251,1,120.000004577637,8|0,0:0|0:0,0:0:0:0:
322,384,147674,70,0,P|283:271|271:152,1,240,0|0,1:0|0:0,0:0:0:0:
428,54,148018,2,0,P|460:78|447:148,1,80,8|0,0:0|0:0,0:0:0:0:
179,146,148191,86,0,L|140:148,1,40,0|0,1:0|0:0,0:0:0:0:
389,127,148363,2,0,L|350:129,1,40,0|0,1:0|0:0,0:0:0:0:
44,145,148536,54,0,L|27:88,1,40,0|0,1:0|0:0,0:0:0:0:
44,145,148708,2,0,L|70:83,1,40,0|0,1:0|0:0,0:0:0:0:
35,377,148881,1,8,0:0:0:0:
80,279,149053,54,0,L|84:219,1,40,0|0,1:0|0:0,0:0:0:0:
80,279,149225,2,0,L|126:229,1,40,0|0,1:0|0:0,0:0:0:0:
167,177,149398,86,0,P|193:214|174:289,1,80,8|0,0:0|0:0,0:0:0:0:
358,365,149570,6,0,P|414:339|410:261,1,100,8|0,0:0|0:0,0:0:0:0:
287,137,149743,37,8,0:0:0:0:
315,203,149829,1,8,0:0:0:0:
348,282,149915,38,0,P|222:233|-11:236,1,360.000013732911,0|0,1:0|0:0,0:0:0:0:
75,307,150260,2,0,P|111:348|70:384,1,120.000004577637,8|0,0:0|0:0,0:0:0:0:
71,384,150432,86,0,P|190:346|323:358,1,240,0|0,1:0|0:0,0:0:0:0:
348,282,150777,2,0,P|322:249|333:186,1,80,8|0,0:0|0:0,0:0:0:0:
295,20,150950,69,0,0:0:0:0:
293,33,151036,1,0,0:0:0:0:
282,16,151122,1,0,0:0:0:0:
278,31,151208,1,0,0:0:0:0:
197,16,151294,38,0,B|273:33|291:115|291:115|306:193|419:221,1,300,0|0,1:0|0:0,0:0:0:0:
471,173,151639,2,0,P|473:148|449:114,1,40,8|0,0:0|0:0,0:0:0:0:
469,17,151812,2,0,P|471:37|464:56,1,40,0|0,1:0|0:0,0:0:0:0:
215,244,152156,22,0,P|237:204|215:145,1,80,8|0,0:0|0:0,0:0:0:0:
63,46,152329,2,0,P|169:47|51:114,1,360.000013732911
0,235,152674,2,0,B|39:245|39:245|77:238|77:238|111:259|111:259|370:328,1,360.000013732911,0|0,1:0|0:0,0:0:0:0:
319,174,153018,2,0,B|279:195|279:195|257:291,1,120.000004577637,8|0,0:0|0:0,0:0:0:0:
473,377,153191,86,0,P|429:304|418:132,1,240,0|0,1:0|0:0,0:0:0:0:
319,174,153536,2,0,P|333:135|329:79,1,80,8|0,0:0|0:0,0:0:0:0:
492,6,153708,69,0,0:0:0:0:
479,8,153794,1,0,0:0:0:0:
496,19,153880,1,0,0:0:0:0:
481,23,153966,1,0,0:0:0:0:
395,29,154053,38,0,B|401:71|436:101|490:103|490:103|400:154|333:97,1,300,0|0,1:0|0:0,0:0:0:0:
253,75,154398,2,0,P|248:94|266:138,1,40,8|0,0:0|0:0,0:0:0:0:
248,221,154570,2,0,P|251:241|245:261,1,40,0|0,1:0|0:0,0:0:0:0:
251,114,154915,22,0,P|212:113|178:133,1,80,8|0,0:0|0:0,0:0:0:0:
96,316,155087,2,0,B|89:265|47:229|-17:227|-17:227|91:166|171:234,1,360.000013732911
342,226,155432,2,0,B|305:190|234:189|234:189|284:232|282:316|206:330|150:295|171:233,1,360.000013732911,0|0,1:0|0:0,0:0:0:0:
178,133,155777,2,0,B|170:100|151:74|151:74|132:115|166:159,1,120.000004577637,8|0,0:0|0:0,0:0:0:0:
23,17,155950,86,0,B|12:105|51:176|51:176|15:198|-3:270,1,240,0|0,1:0|0:0,0:0:0:0:
16,349,156294,2,0,B|34:371|34:371|22:321,1,80,8|0,0:0|0:0,0:0:0:0:
171,234,156467,69,0,0:0:0:0:
158,240,156553,1,0,0:0:0:0:
164,220,156639,1,0,0:0:0:0:
151,227,156725,1,0,0:0:0:0:
82,254,156812,38,0,B|100:306|100:306|281:345|281:345|331:284,1,300,0|0,1:0|0:0,0:0:0:0:
400,229,157156,2,0,P|391:245|398:263,1,40,8|0,0:0|0:0,0:0:0:0:
248,257,157329,2,0,P|258:240|251:222,1,40,0|0,1:0|0:0,0:0:0:0:
251,222,157674,22,0,P|274:246|354:243,1,80,8|0,0:0|0:0,0:0:0:0:
466,375,157846,2,0,P|327:351|56:367,1,360.000013732911
164,170,158191,2,0,P|262:266|241:131,1,360.000013732911,0|0,1:0|0:0,0:0:0:0:
251,13,158536,2,0,B|241:79|241:79|246:96|246:96|241:130,1,120.000004577637,8|0,0:0|0:0,0:0:0:0:
370,86,158708,86,0,P|238:101|83:69,1,240,0|0,1:0|0:0,0:0:0:0:
52,34,159053,2,0,P|37:72|89:130,1,80,8|0,0:0|0:0,0:0:0:0:
14,305,159225,70,0,P|22:277|12:237,1,40
142,369,159398,2,0,P|160:345|164:304,1,40
133,85,159570,37,0,1:0:0:0:
133,87,160260,69,0,1:0:0:0:
124,96,160346,1,0,1:0:0:0:
114,115,160432,1,0,1:0:0:0:
109,146,160518,1,0,1:0:0:0:
119,185,160605,1,0,1:0:0:0:
143,222,160691,1,0,1:0:0:0:
152,269,160777,1,0,1:0:0:0:
136,322,160863,1,0,1:0:0:0:
68,361,160950,86,0,B|42:380|42:380|73:338|48:299,1,120.000004577637,4|0,1:0|0:0,0:0:0:0:
299,83,161294,1,8,0:3:0:0:
299,83,161467,6,0,P|291:113|306:180,1,60.0000022888184
235,222,161639,2,0,P|239:252|277:310,1,60.0000022888184
434,379,161812,101,4,0:3:0:0:
478,308,161984,2,0,B|511:263|511:263|310:298,1,240,8|0,0:3|0:0,0:0:0:0:
250,337,162329,6,0,P|244:307|266:259,1,60.0000022888184,2|0,0:0|0:0,0:0:0:0:
93,384,162501,2,0,P|77:358|79:305,1,60.0000022888184,4|0,0:3|0:0,0:0:0:0:
314,153,162674,1,8,0:3:0:0:
314,153,162846,102,0,L|302:228,1,60.0000022888184
184,158,163018,2,0,L|172:233,1,60.0000022888184,2|0,0:0|0:0,0:0:0:0:
419,29,163191,6,0,P|447:19|476:26,1,40,4|0,0:3|0:0,0:0:0:0:
484,95,163363,2,0,P|398:71|229:75,1,240,8|0,0:3|0:0,0:0:0:0:
189,137,163708,102,0,P|221:165|308:130,1,120.000004577637,4|0,0:3|0:0,0:0:0:0:
419,29,164053,1,8,0:3:0:0:
419,29,164225,6,0,P|401:59|401:120,1,60.0000022888184
185,196,164398,2,0,P|182:166|189:137,1,60.0000022888184,0|0,0:3|0:0,0:0:0:0:
249,71,164570,101,4,0:3:0:0:
33,25,164743,2,0,L|17:80,1,40,8|0,0:3|0:0,0:0:0:0:
111,33,164915,2,0,L|118:72,1,40
18,254,165087,6,0,P|95:233|175:229,1,160,2|4,0:3|0:3,0:0:0:0:
241,283,165432,2,0,P|199:320|120:273,1,120.000004577637,8|0,0:3|0:0,0:0:0:0:
32,201,165691,1,0,0:0:0:0:
41,185,165777,2,0,P|75:186|118:209,1,60.0000022888184,2|0,0:0|0:0,0:0:0:0:
175,229,165950,101,4,0:3:0:0:
241,283,166122,2,0,P|263:293|298:292,1,40,10|0,0:3|0:0,0:0:0:0:
354,303,166294,2,0,P|379:304|411:291,1,40,2|0,0:0|0:0,0:0:0:0:
482,365,166467,6,0,P|462:266|463:147,1,180.000006866455,4|0,0:3|0:0,0:0:0:0:
460,187,166812,1,8,0:3:0:0:
303,33,166984,102,0,P|324:62|322:118,1,60.0000022888184
249,136,167156,2,0,P|253:171|223:219,1,60.0000022888184
91,284,167329,6,0,L|57:306,1,40,4|0,0:3|0:0,0:0:0:0:
9,247,167501,2,0,B|64:211|64:211|32:383,1,240,8|0,0:3|0:0,0:0:0:0:
123,330,167846,102,0,B|165:370|165:370|215:334,1,120.000004577637,2|4,0:0|0:3,0:0:0:0:
288,297,168191,1,8,0:3:0:0:
453,313,168363,2,0,L|515:321,1,60.0000022888184
506,297,168536,6,0,L|447:289,1,40,2|0,0:0|0:0,0:0:0:0:
288,297,168708,2,0,L|296:237,1,40,4|0,0:3|0:0,0:0:0:0:
328,27,168881,2,0,L|338:68,1,40,8|0,0:3|0:0,0:0:0:0:
328,27,169053,2,0,L|308:62,1,40
309,158,169225,5,4,0:3:0:0:
496,109,169398,1,0,0:0:0:0:
419,81,169570,1,8,0:3:0:0:
434,162,169743,2,0,L|416:219,1,40,2|0,0:0|0:0,0:0:0:0:
434,162,169915,54,0,L|446:123,1,40,2|0,0:0|0:0,0:0:0:0:
360,55,170087,1,6,0:3:0:0:
254,24,170260,1,10,0:3:0:0:
161,49,170432,1,2,0:0:0:0:
102,111,170605,53,0,0:0:0:0:
50,124,170777,1,4,0:3:0:0:
13,84,170950,1,8,0:3:0:0:
102,111,171122,54,0,P|104:139|82:161,1,40
183,190,171294,2,0,P|177:217|150:233,1,40
231,319,171467,1,4,0:3:0:0:
420,372,171639,22,0,L|459:381,1,40,10|0,0:3|0:0,0:0:0:0:
422,357,171812,2,0,L|379:347,1,40,2|0,0:0|0:0,0:0:0:0:
438,280,171984,6,0,L|461:142,1,120,4|0,0:3|0:0,0:0:0:0:
358,19,172329,1,8,0:3:0:0:
461,32,172501,102,0,B|484:42|484:42|440:47,1,60.0000022888184
276,58,172674,2,0,B|217:64,1,60.0000022888184
27,149,172846,6,0,P|41:163|81:163,1,40,4|0,0:3|0:0,0:0:0:0:
75,250,173018,2,0,P|89:132|141:25,1,240,8|0,0:3|0:0,0:0:0:0:
216,64,173363,102,0,P|214:97|246:154,1,60.0000022888184,2|0,0:0|0:0,0:0:0:0:
425,23,173536,2,0,P|403:46|391:111,1,60.0000022888184,4|0,0:3|0:0,0:0:0:0:
166,189,173708,1,8,0:3:0:0:
166,188,173881,6,0,P|191:204|239:198,1,60.0000022888184
443,257,174053,2,0,P|473:258|511:229,1,60.0000022888184,2|0,0:0|0:0,0:0:0:0:
470,353,174225,102,0,P|459:363|461:345,1,40,4|0,0:3|0:0,0:0:0:0:
221,205,174398,2,0,P|328:169|480:185,1,240,8|0,0:3|0:0,0:0:0:0:
499,244,174743,6,0,P|427:266|380:207,1,160,6|0,0:3|0:0,0:0:0:0:
312,28,175087,1,8,0:3:0:0:
312,28,175260,102,0,P|350:43|383:97,1,80,2|0,0:0|0:0,0:0:0:0:
449,252,175432,2,0,P|462:215|454:176,1,80
187,114,175605,5,4,0:3:0:0:
120,168,175777,2,0,P|97:169|72:150,1,40,8|0,0:3|0:0,0:0:0:0:
19,110,175950,2,0,P|4:93|2:61,1,40
182,25,176122,102,0,P|258:49|337:60,1,160,2|4,0:0|0:3,0:0:0:0:
450,124,176467,2,0,P|460:63|391:39,1,120.000004577637,8|2,0:3|0:0,0:0:0:0:
373,130,176725,1,0,0:0:0:0:
360,141,176812,2,0,P|338:174|338:232,1,60.0000022888184
419,316,176984,5,4,0:3:0:0:
337,60,177156,2,0,L|297:51,1,40,8|0,0:3|0:0,0:0:0:0:
337,60,177329,2,0,L|297:69,1,40
83,52,177501,102,0,L|203:59,1,120,0|0,1:3|0:0,0:0:0:0:
204,58,177846,1,8,1:3:0:0:
337,60,178018,6,0,P|350:86|338:140,1,60.0000022888184,2|0,0:0|0:0,0:0:0:0:
489,70,178191,2,0,P|472:93|475:148,1,60.0000022888184,2|0,1:3|0:0,0:0:0:0:
380,324,178363,102,0,L|376:366,1,40
451,278,178536,2,0,B|414:232|405:169|405:169|371:231|320:263,1,240,8|0,1:3|0:0,0:0:0:0:
242,293,178881,6,0,P|267:248|337:281,1,120,0|0,1:3|0:0,0:0:0:0:
376,364,179225,102,0,P|228:315|79:317,1,240,8|0,1:3|0:0,0:0:0:0:
62,311,179570,6,0,P|58:331|72:361,1,40,0|0,1:3|0:0,0:0:0:0:
62,311,179743,2,0,P|58:291|72:261,1,40
96,76,179915,102,0,B|167:51|124:-15|63:21|42:118|111:187,1,240,8|0,1:3|0:0,0:0:0:0:
183,228,180260,6,0,L|273:219,1,80,0|0,1:3|0:0,0:0:0:0:
484,226,180432,2,0,B|474:188|474:188|436:149,1,80,0|0,1:3|0:0,0:0:0:0:
372,240,180605,102,0,P|420:251|517:154,1,120.000004577637,8|0,1:0|0:0,0:0:0:0:
468,31,180777,2,0,P|433:48|431:146,1,80,0|0,1:0|0:0,0:0:0:0:
292,243,180950,5,0,1:0:0:0:
289,253,181036,1,0,1:0:0:0:
292,271,181122,1,0,1:3:0:0:
304,292,181208,1,0,1:3:0:0:
335,311,181294,1,8,1:3:0:0:
317,266,181381,1,0,1:3:0:0:
323,206,181467,1,0,1:3:0:0:
353,140,181553,1,0,1:3:0:0:
413,83,181639,1,0,1:3:0:0:
335,311,182329,6,0,P|317:304|280:310,3,40,4|4|4|8,0:3|0:3|0:3|0:3,0:0:0:0:
118,323,182631,2,0,P|207:308|297:303,1,180.000006866455,8|0,0:3|0:0,0:0:0:0:
410,352,182846,2,0,B|418:378|454:369|452:321|416:279,1,120.000004577637,8|0,0:3|0:0,0:0:0:0:
451,70,183018,70,2,B|431:87|422:107|422:107|401:103|385:118|340:126|304:102|304:102|341:80|396:110|439:184|425:257|371:275|317:253|322:188,1,480,4|0,1:0|0:0,0:1:0:0:
255,331,183708,102,0,P|195:337|140:361,1,120.000004577637,10|0,0:3|0:0,0:0:0:0:
105,271,183881,2,0,P|141:224|199:214,1,120.000004577637,2|0,0:0|0:0,0:0:0:0:
130,121,184053,2,0,P|73:131|54:186,1,120.000004577637,2|0,0:0|0:0,0:0:0:0:
20,63,184225,2,0,P|10:23|33:62,1,120.000004577637,2|0,0:0|0:0,0:0:0:0:
198,214,184398,54,0,P|212:163|183:50,1,120.000004577637,4|0,0:3|0:0,0:0:0:0:
236,24,184656,2,0,P|190:64|105:60,1,120.000004577637,4|0,0:3|0:0,0:0:0:0:
312,60,184915,2,0,P|313:90|297:116,1,60.0000022888184,4|0,0:3|0:0,0:0:0:0:
96,166,185087,53,8,0:3:0:0:
82,153,185174,1,2,0:0:0:0:
85,176,185260,1,2,0:0:0:0:
100,201,185346,1,2,0:0:0:0:
129,224,185432,1,2,0:0:0:0:
171,217,185518,1,2,0:0:0:0:
207,183,185605,1,2,0:0:0:0:
227,138,185691,1,2,0:0:0:0:
298,116,185777,54,2,B|366:105|347:135|416:123,1,120,4|0,0:3|0:0,0:1:0:0:
292,251,186467,54,0,P|265:283|364:298,1,200,10|0,0:3|0:0,0:0:0:0:
362,312,186725,2,0,P|331:182|346:50,1,200,2|0,0:0|0:0,0:0:0:0:
177,115,186984,2,0,P|176:59|274:10,1,100,2|0,0:0|0:0,0:0:0:0:
446,60,187156,54,0,P|324:94|214:75,1,200,4|0,0:3|0:0,0:0:0:0:
16,78,187415,2,0,B|2:61|2:29|2:29|85:49|96:149,1,200,4|0,0:3|0:0,0:0:0:0:
81,220,187674,2,0,P|39:226|40:157,1,100,4|0,0:3|0:0,0:0:0:0:
200,25,187846,53,10,0:3:0:0:
246,2,187932,1,2,0:0:0:0:
295,0,188019,1,2,0:0:0:0:
332,21,188105,1,2,0:0:0:0:
339,57,188191,1,2,0:0:0:0:
335,86,188277,1,0,0:0:0:0:
322,105,188363,1,8,0:3:0:0:
320,86,188450,1,0,0:0:0:0:
323,73,188536,6,0,B|338:9|426:-5|470:28|457:106|397:94,1,232.499989745021,4|2,0:3|0:0,0:0:0:0:
466,161,188794,1,2,0:0:0:0:
470,165,188881,2,0,P|422:264|407:393,1,232.499989745021,8|0,0:3|0:0,0:0:0:0:
493,338,189139,1,0,0:0:0:0:
497,342,189225,2,0,P|491:281|405:245,1,116.249994872511
295,171,189398,102,0,P|267:203|171:185,1,116.249994872511,0|0,1:3|0:0,0:0:0:0:
8,110,189570,2,0,P|117:77|220:124,1,232.499989745021,8|0,0:3|0:0,0:0:0:0:
197,206,189829,1,0,0:0:0:0:
185,222,189915,2,0,P|197:263|208:221,1,116.249994872511
358,79,190087,54,0,P|313:119|306:237,1,116.249994872511,0|0,1:0|0:0,0:0:0:0:
126,350,190260,2,0,P|280:276|446:319,1,348.749984617532,8|0,0:3|0:0,0:0:0:0:
360,366,190605,2,0,P|404:371|445:300,1,116.249994872511
408,132,190777,53,0,1:3:0:0:
444,219,190950,2,0,B|402:229|381:276|381:276|376:224|339:194,1,180.000006866455,8|0,0:3|0:0,0:0:0:0:
306,124,191294,54,0,P|257:246|145:348,1,240.000009155274,4|0,1:2|0:0,0:0:0:0:
94,367,191553,2,0,P|109:283|100:186,1,160,4|0,0:3|0:0,0:0:0:0:
139,122,191812,2,0,P|130:85|87:54,1,80,4|0,0:3|0:0,0:0:0:0:
19,178,191984,54,0,P|131:178|269:116,1,200,10|0,0:3|0:0,0:0:0:0:
301,292,192243,53,2,0:0:0:0:
309,284,192329,2,0,L|367:234,1,40,2|0,0:0|0:0,0:0:0:0:
99,58,192501,54,0,B|68:32|68:-8|68:-8|88:8|101:42,1,120.000004577637,10|0,0:3|0:0,0:0:0:0:
278,62,192674,54,0,B|299:180|299:180|249:231,1,180.000006866455
391,63,193018,2,0,B|382:108|382:108|182:149,1,240,4|0,0:3|0:0,0:0:0:0:
120,263,193363,54,0,B|133:177|94:197|109:103,1,160,8|2,0:3|0:0,0:0:0:0:
201,65,193622,1,2,0:0:0:0:
205,69,193708,2,0,P|193:110|197:173,1,80,0|2,0:0|0:0,0:0:0:0:
205,229,193881,1,2,0:0:0:0:
458,296,194053,6,2,B|467:254|510:229|510:229|358:246|254:355|254:355|255:306|313:251,1,480,4|0,0:3|0:0,0:1:0:0:
265,61,194743,102,0,P|267:17|283:52,1,120.000004577637,10|0,0:3|0:0,0:0:0:0:
408,147,194915,2,0,P|356:171|317:130,1,120.000004577637,2|0,0:0|0:0,0:0:0:0:
159,12,195087,2,0,P|151:70|187:116,1,120.000004577637,2|0,0:0|0:0,0:0:0:0:
477,208,195260,2,0,P|493:137|486:47,1,120.000004577637,2|0,0:0|0:0,0:0:0:0:
341,68,195432,54,0,B|321:52|309:20|309:20|294:46|264:62,1,120.000004577637,4|0,0:3|0:0,0:0:0:0:
255,202,195691,2,0,B|276:217|288:249|288:249|303:223|333:207,1,120.000004577637,4|0,0:3|0:0,0:0:0:0:
298,135,195950,1,4,0:3:0:0:
449,339,196122,53,8,0:3:0:0:
436,327,196208,1,2,0:0:0:0:
413,331,196294,1,2,0:0:0:0:
392,309,196381,1,2,0:0:0:0:
359,321,196467,1,2,0:0:0:0:
332,289,196553,1,2,0:0:0:0:
289,308,196639,1,2,0:3:0:0:
257,265,196725,1,2,0:0:0:0:
189,289,196812,54,2,B|151:275|151:275|122:119|122:119|82:104,1,240,4|0,0:3|0:0,0:1:0:0:
53,186,197501,54,0,B|61:227|61:227|256:200,1,200,10|0,0:3|0:0,0:0:0:0:
304,185,197760,2,0,B|279:151|279:151|375:148|419:207,1,200,2|0,0:0|0:0,0:0:0:0:
462,317,198018,2,0,P|488:311|452:302,1,100,2|0,0:0|0:0,0:0:0:0:
191,368,198191,54,0,P|286:337|385:349,1,200,4|0,0:3|0:0,0:3:0:0:
419,207,198450,2,0,B|393:166|351:161|351:161|323:98|378:27,1,200,4|0,0:3|0:0,0:0:0:0:
505,72,198708,2,0,P|470:68|419:141,1,100,4|0,0:3|0:0,0:0:0:0:
343,248,198881,53,10,0:3:0:0:
311,291,198967,1,2,0:0:0:0:
268,272,199053,1,2,0:0:0:0:
241,304,199139,1,2,0:0:0:0:
208,292,199225,1,2,0:0:0:0:
187,314,199312,1,0,0:0:0:0:
164,310,199398,2,0,P|150:292|149:257,1,40,0|0,0:3|0:0,0:0:0:0:
0,140,199570,6,0,P|115:64|420:74,1,378.000011175156,4|0,0:3|0:0,0:0:0:0:
455,178,199915,102,0,P|517:109|406:116,1,252.000007450104,8|0,0:3|0:0,0:0:0:0:
130,173,200174,1,0,0:0:0:0:
140,186,200260,2,0,P|197:198|232:109,1,126.000003725052
350,48,200432,1,0,1:3:0:0:
278,240,200605,54,0,P|260:105|287:-49,1,243.0000040555,8|0,0:3|0:0,0:0:0:0:
415,0,200863,1,0,0:0:0:0:
427,0,200950,2,0,P|444:56|410:104,1,121.50000202775
239,153,201122,1,0,1:3:0:0:
505,320,201294,54,0,B|431:341|391:280|391:280|351:218|277:240,1,261.000004355908,8|0,0:3|0:0,0:0:0:0:
191,339,201553,1,0,0:0:0:0:
205,350,201639,2,0,P|265:364|311:321,1,130.500002177954
208,52,201812,2,0,P|161:89|135:172,1,130.500002177954,0|0,1:3|0:0,0:0:0:0:
156,258,201984,54,0,P|225:256|312:321,1,180.000006866455,8|0,0:3|0:2,0:0:0:0:
444,266,202329,54,0,B|415:285|406:320|406:320|361:220|433:160,1,240.000009155274,4|0,1:2|0:0,0:0:0:0:
264,179,202587,2,0,P|322:154|387:56,1,160,4|0,1:2|0:0,0:0:0:0:
463,83,202846,2,0,P|496:103|507:174,1,80,4|0,1:2|0:0,0:0:0:0:
487,339,203018,54,0,P|380:275|257:270,1,200,10|0,0:3|0:0,0:0:0:0:
167,123,203277,53,2,0:0:0:0:
161,111,203363,2,0,P|150:130|161:180,1,40,2|0,0:0|0:0,0:0:0:0:
79,355,203536,54,0,P|47:332|81:253,1,120.000004577637,10|0,0:3|0:0,0:0:0:0:
223,197,203708,54,0,P|272:237|307:373,1,180.000006866455
310,344,204053,2,0,P|231:303|137:300,1,180.000006866455,4|0,0:3|0:0,0:0:0:0:
70,66,204398,2,0,P|95:32|131:112,1,180.000006866455,8|0,0:3|0:0,0:0:0:0:
64,317,204743,54,0,B|97:363|31:392|-13:270|57:154,1,240
133,111,205087,54,0,P|105:162|48:171,1,120
3,13,205777,6,0,B|47:48|55:97|55:97|50:48|85:8|85:8|9:80|3:259|114:373|114:373|66:323|86:261,1,720.000027465821
202,302,206467,102,0,P|177:274|195:312,1,120
260,357,207156,6,0,P|377:298|113:242,1,720.000027465821
145,94,207846,6,0,L|139:27,1,40,0|0,1:0|0:0,0:0:0:0:
182,297,208018,1,0,1:0:0:0:
342,138,208191,6,0,L|386:63,1,47.9999985351563,0|0,1:0|0:0,0:0:0:0:
182,297,208363,1,0,1:0:0:0:
142,54,208536,102,0,P|116:48|66:76,1,55.9999982910157,0|0,1:0|0:0,0:0:0:0:
182,297,208708,1,0,1:0:0:0:
367,96,208881,6,0,P|401:104|420:157,1,64,0|0,1:0|0:0,0:0:0:0:
182,297,209053,1,0,1:0:0:0:
55,154,209225,102,0,P|95:133|165:154,1,71.9999978027344,0|0,1:0|1:0,0:0:0:0:
351,175,209398,6,0,P|385:205|389:278,1,71.9999978027344,0|0,1:0|1:0,0:0:0:0:
310,384,209570,102,0,P|283:370|208:377,1,71.9999978027344,0|0,1:0|1:0,0:0:0:0:
51,345,209743,5,0,1:0:0:0:
103,287,209829,101,0,1:0:0:0:
182,297,209916,5,0,1:0:0:0:
479,94,210605,86,2,B|422:45|422:45|510:175|460:337,1,360.000013732911,4|0,1:0|0:0,0:1:0:0:
352,351,210950,38,0,B|380:290|338:237|338:237,1,120.000004577637,4|2,0:3|0:0,0:0:0:0:
352,351,211295,2,0,B|397:296|338:237|338:237|263:273|286:339,1,160,4|2,0:3|0:0,0:0:0:0:
352,351,211639,2,0,B|412:299|338:237|338:237|247:270|286:339,1,200,4|2,0:3|0:0,0:0:0:0:
352,351,211984,2,0,B|424:301|338:237|338:237|235:268|286:339,1,240.000009155274,4|2,0:3|0:0,0:0:0:0:
352,351,212329,2,0,B|437:303|338:237|338:237|222:266|286:339,1,280.000002670288,4|2,0:3|0:0,0:0:0:0:
352,351,212674,2,0,B|448:305|338:237|338:237|211:264|286:339,1,320,4|2,0:3|0:0,0:0:0:0:
170,332,213018,6,0,L|117:328,1,40,8|0,0:3|0:0,0:0:0:0:
44,318,213363,54,0,B|149:315|191:247|191:247|237:167|354:164,1,360.000013732911,4|0,0:3|0:0,0:0:0:0:
352,164,213708,38,0,B|407:152|407:152|440:97|440:97,1,120.000004577637,4|2,0:3|0:0,0:0:0:0:
352,164,214053,2,0,B|410:161|410:161|440:97|440:97|378:63|378:63|329:95,1,176.000005371094,4|2,0:3|0:0,0:0:0:0:
352,164,214398,2,0,B|412:168|412:168|440:97|440:97|376:56|376:56|329:95,1,232.000007080078,4|2,0:3|0:0,0:0:0:0:
352,164,214743,70,0,B|414:174|414:174|440:97|440:97|374:51,1,143.999995605469,4|0,0:3|0:0,0:0:0:0:
440,97,214915,2,0,B|374:50|374:50|330:94,1,143.999995605469,10|0,0:3|0:0,0:0:0:0:
272,152,215260,1,2,0:0:0:0:
352,164,215432,102,0,B|416:180|416:180|440:97|440:97,1,151.999995941162,4|0,0:3|0:0,0:0:0:0:
440,97,215605,2,0,B|372:44|372:44|330:94,1,151.999995941162,10|0,0:3|0:0,0:0:0:0:
272,152,215950,1,2,0:0:0:0:
352,164,216122,86,2,B|421:191|421:191|131:235,1,360.000013732911,4|0,1:0|0:0,0:1:0:0:
108,351,216467,86,0,B|96:286|138:234|138:234,1,124.000000946045,4|2,0:3|0:0,0:0:0:0:
108,351,216812,2,0,B|86:283|138:234|138:234|189:185|167:118,1,156.799998564453,4|2,0:3|0:0,0:0:0:0:
108,351,217156,2,0,B|76:281|138:234|138:234|199:187|167:118,1,189.600004628906,4|2,0:3|0:0,0:0:0:0:
108,351,217501,2,0,B|69:279|138:234|138:234|206:189|167:118,1,222.40000678711,4|2,0:3|0:0,0:0:0:0:
108,351,217846,2,0,B|61:277|138:234|138:234|214:191|167:118,1,255.19999226059,4|2,0:3|0:0,0:0:0:0:
108,351,218191,70,0,B|53:277|140:233,1,143.999995605469,4|0,0:3|0:0,0:0:0:0:
138,234,218363,2,0,B|223:193|168:117,1,143.999995605469,2|0,0:0|0:0,0:0:0:0:
104,19,218536,102,0,L|100:72,1,40,8|0,0:3|0:0,0:0:0:0:
138,234,218881,70,2,P|285:186|519:205,1,360.000013732911,4|0,0:3|0:0,0:1:0:0:
383,296,219225,102,0,B|352:271|352:271|300:210|300:210|265:282|265:282|241:313,1,240.000009155274,4|2,0:3|0:0,0:0:0:0:
383,296,219570,2,0,B|334:277|334:277|300:210|300:210|284:284|284:284|241:313,1,256,4|2,0:3|0:0,0:0:0:0:
383,296,219915,2,0,B|325:282|325:282|300:210|300:210|294:286|294:286|241:313,1,272.000005187988,4|2,0:3|0:0,0:0:0:0:
383,296,220260,70,0,B|320:287|320:287|300:210,1,143.999995605469,4|0,0:3|0:0,0:0:0:0:
300,210,220432,2,0,B|300:289|300:289|241:313,1,143.999995605469
169,276,220605,5,0,0:0:0:0:
5,292,220777,1,0,0:0:0:0:
108,114,220950,102,0,L|101:82,2,20,4|4|4,0:3|0:3|0:3,0:0:0:0:
5,39,221251,2,0,P|56:90|63:212,1,180.000006866455,8|0,0:3|0:0,0:0:0:0:
5,292,221467,2,0,P|30:328|33:277,1,120.000004577637,8|0,0:3|0:0,0:0:0:0:
141,335,221639,54,2,P|258:306|390:311,1,240.000009155274,4|0,1:0|0:0,0:1:0:0:
377,308,222156,102,0,P|361:342|438:335,2,160,6|0|8,0:3|0:0|0:3,0:0:0:0:
377,308,222501,2,0,P|361:342|437:348,1,143.999995605469,2|0,0:0|0:0,0:0:0:0:
377,308,222846,2,0,P|361:342|435:354,1,128,2|0,0:0|0:0,0:0:0:0:
377,308,223191,2,0,P|361:342|427:366,1,111.999996582031,2|4,0:0|0:3,0:0:0:0:
377,308,223536,2,0,P|361:342|412:374,1,95.9999970703126,2|8,0:0|0:3,0:0:0:0:
377,308,223881,2,0,P|361:342|384:374,1,80,2|0,0:0|0:0,0:0:0:0:
454,338,224225,5,0,0:0:0:0:
437,236,224398,6,2,B|294:218|294:218|269:229|269:229|179:217,1,240.000009155274,4|0,0:3|0:0,0:1:0:0:
201,220,224915,86,0,B|153:284|153:284|118:210,2,160,6|0|8,0:3|0:0|0:3,0:0:0:0:
201,220,225260,2,0,B|153:284|153:284|118:210,1,133.333333333333,2|0,0:0|0:0,0:0:0:0:
201,220,225605,2,0,B|153:284|153:284|118:210,1,106.666666666667,2|0,0:0|0:0,0:0:0:0:
201,220,225950,2,0,B|153:283,1,80,2|0,0:0|0:0,0:0:0:0:
26,383,226122,54,0,P|75:275|99:157,1,240,4|0,0:3|0:0,0:0:0:0:
201,220,226467,2,0,P|189:179|214:106,1,80,8|0,0:3|0:0,0:0:0:0:
59,93,226639,54,0,P|76:5|117:92,1,240,4|0,0:3|0:0,0:0:0:0:
99,157,226984,1,8,0:3:0:0:
270,35,227156,54,2,P|207:136|171:250,1,240.000009155274,4|0,1:0|0:0,0:1:0:0:
171,251,227674,54,0,B|208:227|247:238|247:238|224:279|182:283,2,160,6|0|8,0:3|0:0|0:3,0:0:0:0:
171,251,228018,2,0,B|208:227|247:238|247:238|224:279|182:283,1,143.999995605469,2|0,0:0|0:0,0:0:0:0:
171,251,228363,2,0,B|208:227|247:238|247:238|224:279|182:283,1,128,2|0,0:0|0:0,0:0:0:0:
171,251,228708,2,0,B|208:227|247:238|247:238|224:279|182:283,1,111.999996582031,2|4,0:0|0:3,0:0:0:0:
171,251,229053,2,0,B|208:227|247:238|247:238|224:279|182:283,1,95.9999970703126,2|8,0:0|0:3,0:0:0:0:
171,251,229398,2,0,B|208:227|247:238|247:238,1,80,2|0,0:0|0:0,0:0:0:0:
222,325,229743,1,0,0:0:0:0:
87,305,229915,54,2,P|201:340|320:327,1,240.000009155274,4|0,0:3|0:0,0:1:0:0:
319,327,230432,54,0,B|355:307|360:262|360:262|360:308|389:334,2,160,6|0|8,0:3|0:0|0:3,0:0:0:0:
319,327,230777,2,0,B|355:307|360:262|360:262|360:308|389:334,1,120.000004577637,2|0,0:0|0:0,0:0:0:0:
319,327,231122,2,0,B|355:307|360:262,1,80,2|0,0:0|0:0,0:0:0:0:
424,216,231294,54,0,P|435:231|440:251,1,40,4|0,0:3|0:0,0:0:0:0:
179,148,231639,6,0,P|188:232|228:121,1,320,0|0,2:0|2:0,0:0:0:0:
115,8,232156,5,2,0:0:0:0:
66,63,232329,5,2,0:0:0:0:
30,147,232501,53,2,0:0:0:0:
3,294,232674,86,2,B|70:237|199:262|147:325|276:356|341:307,1,360.000013732911,4|0,1:0|0:0,0:1:0:0:
421,241,233018,2,0,P|446:207|415:237,1,120.000004577637,10|0,0:3|0:0,0:1:0:0:
414,7,233191,2,0,P|387:40|398:150,1,120.000004577637,6|0,0:3|0:0,0:1:0:0:
431,338,233363,102,0,P|449:357|488:360,1,40,2|2,0:2|0:2,0:0:0:0:
492,369,233536,1,6,0:3:0:0:
179,374,233708,54,0,P|218:372|268:330,1,60.0000022888184,10|2,0:3|0:0,0:0:0:0:
255,345,233881,1,2,0:0:0:0:
7,169,234053,53,4,0:3:0:0:
47,288,234225,2,2,P|65:248|51:195,1,60.0000022888184,0|0,0:0|0:0,0:1:0:0:
255,345,234398,2,2,P|263:307|231:229,1,80,8|0,0:3|0:0,0:1:0:0:
492,369,234570,2,2,P|487:318|404:234,1,100,4|0,0:3|0:0,0:1:0:0:
387,180,234743,54,0,P|400:145|390:185,1,140.000001335144,2|0,0:1|0:0,0:0:0:0:
388,309,234915,2,0,L|384:349,1,40,4|0,0:3|0:0,0:0:0:0:
486,50,235087,2,2,P|417:104|181:81,1,240.000009155274,8|2,0:3|0:1,0:1:0:0:
186,96,235432,70,2,P|162:4|251:59,1,240.000009155274,4|2,0:3|0:0,0:1:0:0:
269,122,235691,1,2,0:0:0:0:
261,144,235777,1,8,0:3:0:0:
245,236,235950,1,6,0:3:0:0:
301,332,236122,37,2,0:0:0:0:
340,359,236208,1,2,0:0:0:0:
399,363,236294,1,6,0:3:0:0:
465,334,236381,1,2,0:0:0:0:
509,262,236467,1,10,0:3:0:0:
489,248,236553,1,2,0:0:0:0:
471,244,236639,1,2,0:0:0:0:
459,247,236725,1,2,0:0:0:0:
454,250,236812,54,2,L|307:240,1,100,2|0,1:0|0:0,0:1:0:0:
171,257,236984,2,2,L|24:247,1,100,0|0,0:0|0:0,0:1:0:0:
40,53,237156,54,2,P|60:32|42:62,1,120.000004577637,10|0,0:1|0:0,0:1:0:0:
167,12,237329,2,2,P|175:70|123:141,1,120.000004577637,2|0,1:0|0:0,0:1:0:0:
171,310,237501,54,0,P|133:328|93:220,1,160,2|4,0:0|0:3,0:1:0:0:
11,199,237760,2,0,P|32:179|115:192,1,80,2|8,0:0|0:3,0:0:0:0:
255,282,238018,2,0,P|283:284|329:354,1,80,2|0,0:0|0:0,0:0:0:0:
418,384,238191,6,2,P|392:248|408:24,1,360.000013732911,4|0,0:3|0:0,0:1:0:0:
509,80,238536,2,0,P|516:112|499:78,1,120.000004577637,10|0,0:3|0:0,0:0:0:0:
292,89,238708,2,4,P|281:128|300:92,1,120.000004577637,2|0,0:0|0:0,0:3:0:0:
508,202,238881,102,0,P|487:201|446:180,1,40,2|2,0:0|0:0,0:0:0:0:
206,44,239053,1,6,0:3:0:0:
206,44,239225,54,0,P|186:73|181:122,1,60.0000022888184,10|2,0:3|0:0,0:0:0:0:
106,346,239398,1,2,0:0:0:0:
12,107,239570,53,4,0:3:0:0:
49,189,239743,2,2,P|79:190|128:165,1,60.0000022888184,0|0,0:0|0:0,0:1:0:0:
292,89,239915,2,2,P|308:127|285:191,1,80,8|0,0:3|0:0,0:1:0:0:
404,367,240087,2,2,P|452:354|478:280,1,100,4|0,0:3|0:0,0:1:0:0:
492,95,240260,54,0,P|505:67|486:97,1,140.000001335144,2|0,0:0|0:0,0:0:0:0:
422,164,240432,2,0,P|404:175|367:178,1,40,6|0,0:3|0:0,0:0:0:0:
219,139,240605,2,0,P|330:195|402:288,1,240.000009155274,10|2,0:3|0:0,0:0:0:0:
478,313,240950,70,2,P|375:318|216:388,1,240.000009155274,4|0,0:3|0:0,0:1:0:0:
131,275,241208,1,0,0:0:0:0:
138,291,241294,38,2,L|208:299,1,60.0000022888184,8|0,0:3|0:0,0:1:0:0:
251,208,241467,2,2,L|220:294,1,80,4|0,0:3|0:0,0:1:0:0:
54,335,241639,54,2,L|29:230,1,100,0|0,0:0|0:0,0:1:0:0:
346,159,241812,2,2,L|248:86,1,120.000004577637,4|0,0:3|0:0,0:1:0:0:
30,237,241984,54,2,L|77:95,1,140.000001335144,8|0,0:3|0:0,0:1:0:0:
249,87,242156,2,2,L|108:83,1,140.000001335144,0|0,0:0|0:0,0:1:0:0:
48,17,242329,53,2,1:1:0:0:
140,166,242501,1,2,0:1:0:0:
159,182,242588,1,0,0:0:0:0:
182,189,242674,2,0,P|210:184|230:158,1,40,8|0,0:3|0:0,0:0:0:0:
331,27,242846,54,0,B|359:6|416:1|416:1|327:53|284:156|296:244,1,375,2|0,1:1|0:0,0:0:0:0:
270,320,243191,2,2,P|310:333|356:291,1,103.999995239258,4|0,0:3|0:0,0:1:0:0:
467,197,243363,2,2,P|424:187|343:189,1,88.000002685547,8|0,0:3|0:0,0:1:0:0:
219,177,243536,2,0,P|179:182|127:211,1,71.9999978027344,2|0,0:1|0:0,0:0:0:0:
31,286,243708,70,2,P|23:331|86:342,1,120,0|0,0:3|0:0,0:1:0:0:
106,337,244053,1,4,1:0:0:0:
354,297,244225,1,6,0:3:0:0:
476,372,244398,38,0,P|486:355|484:335,1,40,2|2,0:0|0:0,0:0:0:0:
354,297,244570,1,6,0:3:0:0:
179,193,244743,54,0,P|149:197|129:218,1,60.0000022888184,10|2,0:3|0:0,0:0:0:0:
106,337,244915,1,2,0:0:0:0:
62,42,245087,53,4,0:3:0:0:
62,42,245260,2,2,P|66:60|58:41,1,60.0000022888184,0|0,0:0|0:0,0:1:0:0:
223,120,245433,2,2,P|213:142|219:116,1,80,8|0,0:3|0:0,0:1:0:0:
310,276,245605,2,2,P|281:294|308:270,1,100,4|0,0:3|0:0,0:1:0:0:
253,373,245777,54,0,P|320:336|436:362,1,140.000001335144,2|0,0:1|0:0,0:0:0:0:
505,292,245950,2,0,L|510:246,1,40,4|0,0:3|0:0,0:0:0:0:
444,152,246122,2,2,P|422:292|462:411,1,240.000009155274,8|2,0:3|0:1,0:1:0:0:
382,336,246467,6,2,B|263:317|279:389|147:369,1,240.000009155274,4|2,0:3|0:0,0:1:0:0:
70,367,246725,1,2,0:0:0:0:
65,343,246812,1,8,0:3:0:0:
124,217,246984,1,6,0:3:0:0:
254,101,247156,37,2,0:0:0:0:
335,74,247243,1,2,0:0:0:0:
410,91,247329,1,6,0:3:0:0:
467,130,247415,1,2,0:0:0:0:
499,181,247501,1,10,0:3:0:0:
482,204,247587,1,2,0:0:0:0:
501,218,247674,1,2,0:0:0:0:
489,229,247760,1,2,0:0:0:0:
495,242,247846,54,0,P|444:226|336:252,1,100,2|0,1:1|0:0,0:0:0:0:
380,359,248018,2,2,P|431:375|539:349,1,100,0|0,0:1|0:0,0:1:0:0:
358,151,248191,54,2,P|310:185|341:259,1,120.000004577637,10|0,0:1|0:0,0:1:0:0:
176,381,248363,2,2,P|136:337|181:271,1,120.000004577637,2|0,1:1|0:0,0:1:0:0:
380,359,248536,54,0,P|305:322|177:331,1,160,2|4,0:0|0:3,0:0:0:0:
147,209,248794,2,0,P|102:222|73:289,1,80,2|8,0:0|0:3,0:0:0:0:
363,67,249053,2,0,P|408:80|437:147,1,80,2|0,0:0|0:0,0:0:0:0:
455,249,249225,6,2,L|487:-3,1,240.000009155274,4|0,0:3|0:0,0:1:0:0:
358,151,249484,1,0,0:0:0:0:
364,173,249570,1,10,0:3:0:0:
3,174,249743,1,6,0:3:0:0:
269,184,249915,38,0,L|283:116,1,40,2|2,0:0|0:0,0:0:0:0:
280,124,250087,1,6,0:3:0:0:
175,129,250260,54,0,L|188:204,1,60.0000022888184,10|2,0:3|0:0,0:0:0:0:
190,213,250432,1,2,0:0:0:0:
3,174,250605,53,4,0:3:0:0:
71,281,250777,2,2,P|84:242|82:192,1,60.0000022888184,0|0,0:0|0:0,0:1:0:0:
68,65,250950,2,2,P|86:102|91:141,1,80,8|0,0:3|0:0,0:1:0:0:
150,321,251122,2,2,P|129:358|46:344,1,100,4|0,0:3|0:0,0:1:0:0:
71,281,251294,53,2,0:1:0:0:
295,269,251467,2,0,L|355:266,1,40,4|0,0:3|0:0,0:0:0:0:
304,361,251639,2,2,B|187:329|187:329|75:367,1,240.000009155274,8|2,0:3|0:1,0:1:0:0:
160,9,251984,6,2,B|174:81|174:81|158:109|158:109|182:258,1,240.000009155274,4|2,0:3|0:0,0:1:0:0:
295,269,252243,1,2,0:0:0:0:
335,267,252329,1,8,0:3:0:0:
448,261,252501,1,6,0:3:0:0:
511,347,252674,101,2,0:0:0:0:
511,347,252760,1,2,0:0:0:0:
506,353,252846,1,6,0:3:0:0:
494,363,252932,1,2,0:0:0:0:
467,371,253018,1,10,0:3:0:0:
428,372,253105,1,2,0:0:0:0:
356,336,253191,1,2,0:0:0:0:
295,269,253277,1,2,0:0:0:0:
278,139,253363,6,0,P|288:114|289:145,1,80,4|0,0:3|0:0,0:0:0:0:
353,200,254053,101,0,1:0:0:0:
349,201,254139,1,0,1:0:0:0:
341,208,254225,1,0,1:0:0:0:
319,218,254312,1,0,1:0:0:0:
289,224,254398,1,0,1:0:0:0:
250,215,254484,1,0,1:0:0:0:
212,186,254570,1,0,1:0:0:0:
166,176,254656,1,0,1:0:0:0:
93,201,254743,22,0,P|52:236|39:371,1,180.000006866455,4|0,1:0|0:0,0:0:0:0:
105,384,255087,1,8,0:3:0:0:
286,251,255260,102,0,P|298:236|358:228,1,60.0000022888184
297,141,255432,2,0,P|314:134|370:157,1,60.0000022888184
507,45,255605,5,4,0:3:0:0:
454,117,255777,2,0,P|421:232|422:333,1,180.000006866455,8|0,0:3|0:0,0:0:0:0:
392,367,256122,102,0,P|441:384|479:318,1,120.000004577637,0|4,0:3|0:3,0:0:0:0:
354,141,256467,2,0,P|305:158|267:92,1,120.000004577637,8|0,0:3|0:0,0:0:0:0:
300,5,256725,1,0,0:0:0:0:
317,11,256812,2,0,P|331:42|331:83,1,60.0000022888184
124,196,256984,6,0,L|39:206,1,60.0000022888184,4|0,0:3|0:0,0:0:0:0:
30,185,257156,2,0,L|44:311,1,120.000004577637,8|0,0:3|0:0,0:0:0:0:
333,68,257501,102,0,L|303:301,1,180.000006866455,4|0,0:3|0:0,0:0:0:0:
310,247,257846,1,8,0:3:0:0:
52,361,258018,6,0,P|54:330|28:289,1,60.0000022888184
135,384,258191,2,0,P|154:359|156:311,1,60.0000022888184
282,161,258363,101,4,0:3:0:0:
197,193,258536,2,0,B|166:196|141:176,1,60.0000022888184,8|0,0:3|0:0,0:0:0:0:
121,203,258708,2,0,B|148:219|178:211,1,60.0000022888184,8|0,0:3|0:0,0:0:0:0:
425,246,258881,6,0,P|455:288|468:366,1,120.000004577637,0|4,0:0|0:3,0:0:0:0:
381,362,259139,2,0,P|365:325|372:289,1,60.0000022888184,0|8,0:0|0:3,0:0:0:0:
470,37,259398,101,0,0:0:0:0:
463,53,259484,1,0,0:0:0:0:
457,69,259570,2,0,L|376:58,1,60.0000022888184
150,141,259743,6,0,P|139:183|157:215,1,60.0000022888184,4|0,0:3|0:0,0:0:0:0:
216,235,259915,2,0,P|187:160|189:35,1,180.000006866455,8|0,0:3|0:0,0:0:0:0:
9,30,260260,102,0,P|70:18|105:67,1,120.000004577637,4|0,0:3|0:0,0:0:0:0:
303,13,260605,1,8,0:3:0:0:
303,13,260777,6,0,P|271:39|264:85,1,60.0000022888184
406,69,260950,2,0,P|365:72|332:106,1,60.0000022888184
216,235,261122,101,4,0:3:0:0:
140,252,261294,2,0,B|177:208|258:209|258:209|234:214|213:239,1,180.000006866455,8|0,0:3|0:0,0:0:0:0:
360,317,261639,6,0,P|344:262|353:178,1,120.000004577637,0|4,0:0|0:3,0:0:0:0:
473,10,261984,2,0,P|457:59|372:45,1,120.000004577637,8|0,0:3|0:0,0:0:0:0:
321,91,262243,1,0,0:0:0:0:
312,105,262329,2,0,P|303:73|314:23,1,60.0000022888184
36,43,262501,102,0,P|60:26|116:40,1,60.0000022888184,4|0,0:3|0:0,0:0:0:0:
50,219,262674,2,0,P|56:160|86:108,1,120.000004577637,8|0,0:3|0:0,0:0:0:0:
166,115,262932,1,0,0:0:0:0:
170,130,263018,5,4,0:3:0:0:
101,335,263190,1,0,0:0:0:0:
281,293,263363,101,8,0:3:0:0:
268,207,263535,1,2,0:0:0:0:
378,277,263707,5,2,0:0:0:0:
372,298,263880,1,6,0:3:0:0:
463,261,264052,101,10,0:3:0:0:
463,261,264225,1,2,0:0:0:0:
372,298,264398,5,0,0:0:0:0:
378,277,264571,1,4,0:3:0:0:
268,207,264743,101,8,0:3:0:0:
281,293,264916,1,0,0:0:0:0:
101,335,265088,5,0,0:0:0:0:
170,130,265260,1,4,0:3:0:0:
50,98,265432,102,0,P|43:122|61:137,1,40,10|0,0:3|0:0,0:0:0:0:
50,98,265605,2,0,P|69:115|60:137,1,40,2|0,0:0|0:0,0:0:0:0:
187,354,265777,22,0,B|226:316|272:318|272:318|306:351|358:349,1,180.000006866455,4|0,0:3|0:0,0:0:0:0:
439,373,266122,2,0,P|393:339|406:284,1,120.000004577637,8|0,0:3|0:0,0:0:0:0:
448,202,266381,1,0,0:0:0:0:
461,215,266467,2,0,P|476:193|448:134,1,60.0000022888184
444,3,266639,54,0,P|418:12|391:66,1,60.0000022888184,4|0,0:3|0:0,0:0:0:0:
475,161,266812,2,0,P|423:98|310:83,1,180.000006866455,8|0,0:3|0:0,0:0:0:0:
286,142,267156,54,0,B|262:180|262:180|163:195,1,120.000004577637,2|4,0:0|0:3,0:0:0:0:
42,91,267501,2,0,B|48:135|48:135|132:191,1,120.000004577637,8|2,0:3|0:0,0:0:0:0:
211,103,267760,1,0,0:0:0:0:
200,89,267846,2,0,L|129:94,1,60.0000022888184
0,280,268018,54,0,L|71:285,1,60.0000022888184,4|0,0:3|0:0,0:0:0:0:
187,363,268191,2,0,B|173:306|173:306|131:365,1,120.000004577637,8|0,0:3|0:0,0:0:0:0:
140,93,268536,54,0,B|188:75|207:34|207:34|199:78|233:122,1,180.000006866455,6|0,0:3|0:0,0:0:0:0:
166,171,268881,1,8,0:3:0:0:
140,93,269053,54,0,B|131:44|131:44|266:84|266:84|229:117,1,240.000009155274,2|4,0:0|0:3,0:0:0:0:
71,0,269570,2,0,P|48:21|87:59,1,60.0000022888184,8|0,0:3|0:0,0:0:0:0:
296,184,269743,1,0,0:0:0:0:
166,171,269915,54,0,P|181:220|188:310,1,120.000004577637,2|4,0:0|0:3,0:0:0:0:
229,117,270174,1,0,0:0:0:0:
217,102,270260,2,0,P|188:87|136:97,1,60.0000022888184,8|0,0:3|0:0,0:0:0:0:
60,318,270432,54,0,P|136:353|189:289,1,180.000006866455,2|0,0:0|0:0,0:0:0:0:
261,229,270777,2,0,P|273:202|296:184,1,60.0000022888184,4|0,0:3|0:0,0:0:0:0:
433,241,270950,53,8,0:3:0:0:
34,356,271294,54,0,P|34:378|42:358,1,60,4|0,0:3|0:0,0:0:0:0:
58,194,271639,2,0,P|57:172|52:193,1,60,8|0,0:3|0:0,0:0:0:0:
44,269,271984,54,0,P|48:290|55:269,1,60,4|0,0:3|0:0,0:0:0:0:
41,99,272329,2,0,P|34:78|32:100,1,60,8|0,0:3|0:0,0:0:0:0:
47,178,272674,54,0,P|51:200|55:178,1,60,4|0,0:3|0:0,0:0:0:0:
18,26,273019,2,0,P|11:6|13:27,1,60,8|0,0:3|0:0,0:0:0:0:
32,100,273363,54,0,P|123:61|202:54,1,160,4|8,0:3|0:3,0:0:0:0:
183,54,274053,54,0,P|209:58|235:80,1,40,4|0,0:3|0:0,0:0:0:0:
334,59,274225,2,0,P|308:60|280:80,1,40,4|0,0:3|0:0,0:0:0:0:
105,27,274398,54,8,P|132:26|161:43,1,40,12|0,0:3|0:0,0:3:0:0:
414,39,274570,2,4,P|388:36|358:50,1,40,4|0,0:3|0:0,0:3:0:0:
161,174,274743,53,4,0:3:0:0:
196,157,274829,1,4,0:3:0:0:
235,155,274915,1,4,0:3:0:0:
273,166,275001,1,4,0:3:0:0:
342,215,275087,53,12,0:3:0:0:
350,251,275174,1,4,0:3:0:0:
351,220,275260,1,4,0:3:0:0:
359,256,275347,1,4,0:3:0:0:
405,321,275432,54,0,B|433:358|477:344|477:344,1,80,4|0,0:3|0:0,0:0:0:0:
296,241,282329,102,0,B|319:225|319:225|395:216,1,84.8000001293945,4|0,1:2|0:0,0:0:0:0:
503,315,282674,2,0,B|480:297|480:297|404:290,1,84.8000001293945,8|0,0:1|0:0,0:0:0:0:
202,185,283018,6,0,B|207:234|207:234|211:240|211:240|216:289,2,105.399998934517,0|0|8,0:0|1:0|0:1,0:0:0:0:
63,32,283536,1,0,0:0:0:0:
118,223,283708,6,0,B|124:154|124:154|130:145|130:145|138:68,2,157.499999646579,0|0|8,0:0|1:0|0:1,0:0:0:0:
375,131,284225,1,0,0:0:0:0:
313,266,284398,86,0,B|304:175|304:175|296:163|296:163|286:60,2,210.000009424547,0|0|8,0:0|1:0|0:1,0:0:0:0:
69,144,284915,1,0,0:0:0:0:
106,231,285087,6,0,L|125:-9,1,200,4|0,0:2|0:0,0:0:0:0:
198,215,285346,2,0,L|212:42,1,160,4|0,0:2|0:0,0:0:0:0:
211,56,285605,2,0,P|231:63|281:54,1,40,0|0,0:2|0:0,0:0:0:0:
322,22,285777,1,8,0:1:0:0:
456,190,285950,5,0,0:0:0:0:
436,164,286036,1,0,0:0:0:0:
401,144,286122,1,0,0:0:0:0:
345,145,286208,1,0,0:0:0:0:
288,188,286294,2,0,L|297:252,1,40,8|0,0:1|0:0,0:0:0:0:
189,381,286467,54,0,P|177:340|179:380,1,120
48,266,287156,21,0,0:0:0:0:
41,278,287243,5,0,0:0:0:0:
40,299,287329,21,0,0:0:0:0:
59,273,287415,5,0,0:0:0:0:
94,250,287501,53,0,0:0:0:0:
144,236,287587,5,0,0:0:0:0:
212,238,287674,21,0,0:0:0:0:
282,274,287760,5,0,0:0:0:0:
354,350,287846,38,0,P|459:275|424:52,1,360.000013732911,4|0,1:0|0:0,0:0:0:0:
354,33,288191,2,0,P|354:81|386:148,1,80,8|0,0:3|0:0,0:0:0:0:
378,137,288363,1,0,0:0:0:0:
35,156,288536,38,0,P|102:111|203:95,1,140.000001335144,2|0,0:0|0:0,0:0:0:0:
207,27,288708,2,0,P|272:42|301:104,1,140.000001335144,2|0,1:3|0:0,0:0:0:0:
378,137,288881,2,0,P|383:188|306:176,1,140.000001335144,10|0,0:3|0:0,0:0:0:0:
398,301,289053,2,0,P|373:340|383:289,1,140.000001335144,2|0,0:0|0:0,0:0:0:0:
445,79,289225,53,0,0:0:0:0:
445,79,289398,2,0,P|412:56|333:71,1,80,0|0,1:3|0:0,0:0:0:0:
80,170,289570,2,0,B|160:176|160:176|199:175|199:175|196:179|196:179|327:189,1,240.000009155274,8|0,0:3|0:0,0:0:0:0:
509,320,289915,53,0,0:0:0:0:
500,308,290001,1,2,0:0:0:0:
478,293,290087,1,2,1:3:0:0:
442,287,290174,1,2,0:0:0:0:
395,298,290260,1,10,0:3:0:0:
351,329,290346,1,2,0:0:0:0:
289,350,290432,1,2,0:0:0:0:
211,344,290518,1,2,0:0:0:0:
129,301,290605,54,0,B|191:236|176:134|176:134|218:231|306:256,1,360.000013732911,0|0,1:3|0:0,0:0:0:0:
366,133,290950,2,0,P|375:78|269:14,1,160,8|0,0:3|0:0,0:0:0:0:
40,45,291294,54,0,B|22:65|15:85|15:85|102:28|220:27,1,240.000009155274,2|0,0:0|1:3,0:0:0:0:
288,12,291553,1,2,0:0:0:0:
305,11,291639,2,0,P|301:42|225:67,1,80,8|0,0:3|0:0,0:0:0:0:
101,244,291812,2,0,P|55:214|80:166,1,120.000004577637,2|0,0:0|0:0,0:0:0:0:
81,166,292156,54,0,P|119:163|158:188,1,60.0000022888184,0|0,1:3|0:0,0:0:0:0:
399,268,292329,2,0,B|457:286|457:286|370:329|284:290,1,240.000009155274,8|0,0:3|0:0,0:0:0:0:
19,287,292674,53,2,0:0:0:0:
101,244,292761,1,2,0:0:0:0:
179,238,292846,1,2,1:3:0:0:
241,259,292933,1,2,0:0:0:0:
284,290,293018,1,10,0:3:0:0:
332,301,293105,1,0,0:0:0:0:
368,295,293192,1,0,0:0:0:0:
390,280,293278,1,0,0:0:0:0:
399,268,293363,70,0,L|393:217,1,40,4|0,1:0|0:0,0:0:0:0:
448,31,293622,1,0,0:0:0:0:
465,29,293708,102,0,B|515:46|515:46|278:70|278:70|248:164,1,360.000013732911,8|0,0:3|0:0,0:0:0:0:
240,147,294053,2,0,L|259:83,1,40
303,323,294225,54,0,P|319:367|292:327,1,140.000001335144,0|0,1:3|0:0,0:0:0:0:
11,200,294398,2,0,B|46:161|46:161|149:179|149:179|173:225|173:225|272:241|272:241|308:202,1,360.000013732911,8|0,0:3|0:0,0:0:0:0:
268,98,294743,2,0,L|257:137,1,40
127,328,294915,54,0,B|102:301|102:301|224:318,1,140.000001335144,0|0,1:0|0:0,0:0:0:0:
462,117,295087,2,0,B|421:116|392:99|392:99|430:305|430:305|386:282|328:280,1,360.000013732911,8|0,0:3|0:0,0:0:0:0:
240,147,295432,2,0,L|251:108,1,40
467,18,295605,54,0,P|424:-4|460:26,1,140.000001335144,0|0,1:0|0:0,0:0:0:0:
150,243,295777,2,0,B|187:163|290:130|387:197|387:197|337:188|302:205,1,360.000013732911,8|0,0:3|0:0,0:0:0:0:
430,305,296122,2,0,B|395:287|356:282|356:282|377:323|422:332,1,160,4|0,1:2|0:0,0:0:0:0:
114,323,296467,54,2,B|18:347|18:347|79:197|79:197|79:192|79:192|83:189|83:189|141:50|141:50|157:106|157:106|-30:144,1,640,8|0,0:3|0:0,0:1:0:0:
66,9,296984,2,0,L|49:55,1,40,0|0,1:0|0:0,0:0:0:0:
310,155,297156,54,0,B|3:214|3:214|77:209|150:244,1,420.000004005432,8|0,0:3|0:0,0:0:0:0:
175,278,297501,2,0,P|190:241|184:202,1,80
302,39,297674,54,0,P|333:68|292:55,1,120.000004577637,0|0,1:0|0:0,0:0:0:0:
467,304,297846,2,2,B|496:367|496:367|536:258|480:151|360:117,1,360.000013732911,8|0,0:3|0:0,0:1:0:0:
212,48,298191,53,0,0:0:0:0:
211,74,298277,1,0,0:0:0:0:
221,95,298363,1,0,1:0:0:0:
64,255,298536,54,2,P|215:159|392:128,1,360.000013732911,8|0,0:3|0:0,0:1:0:0:
466,208,298881,53,4,1:2:0:0:
382,218,299053,54,2,B|341:205|316:174|316:174|314:217|292:248,1,160,0|0,0:0|0:0,1:1:0:0:
360,306,299570,53,0,1:0:0:0:
466,208,299743,70,2,B|421:234|363:227|316:174|316:174|311:282|194:348|83:309,1,480.000018310548,0|0,0:0|0:0,1:1:0:0:
83,309,300260,5,0,1:0:0:0:
192,163,300432,86,2,P|114:175|54:227,1,160,0|0,0:0|0:0,1:1:0:0:
15,356,300950,21,0,1:0:0:0:
55,227,301122,102,2,B|80:136|33:82|-32:105|-46:168|-3:213|32:194|46:163|109:206|143:277|98:360|98:360|99:331|80:304,1,480.000018310548,0|0,0:0|0:0,1:1:0:0:
146,122,301639,6,0,P|143:151|151:180,1,40,0|0,1:0|0:0,0:0:0:0:
179,339,301812,2,0,P|169:316|172:278,1,40,0|0,1:0|0:0,0:0:0:0:
269,129,301984,6,0,P|244:138|200:142,1,47.9999985351563,0|0,1:0|0:0,0:0:0:0:
295,307,302156,2,0,P|268:302|224:306,1,47.9999985351563,0|0,1:0|0:0,0:0:0:0:
374,112,302329,102,0,P|357:146|313:168,1,55.9999982910157,0|0,1:0|0:0,0:0:0:0:
398,304,302501,2,0,P|375:273|328:259,1,55.9999982910157,0|0,1:0|0:0,0:0:0:0:
450,66,302674,6,0,P|456:107|438:156,1,64,0|0,1:0|0:0,0:0:0:0:
481,326,302846,2,0,P|475:284|444:242,1,64,0|0,1:0|0:0,0:0:0:0:
360,265,303018,102,0,P|331:276|270:254,1,71.9999978027344,0|0,1:0|1:0,0:0:0:0:
223,302,303191,2,0,P|192:294|155:241,1,80,0|0,1:0|1:0,0:0:0:0:
86,273,303363,2,0,P|65:249|65:184,1,88.000002685547,0|0,1:0|1:0,0:0:0:0:
0,129,303536,5,0,1:0:0:0:
37,60,303622,101,0,1:0:0:0:
115,55,303708,6,0,B|156:31|204:52|204:52|244:69|291:47,1,180.000006866455,0|0,1:0|0:0,0:1:0:0:
380,19,304053,6,0,P|382:48|374:77,1,60.0000022888184,0|2,0:0|0:0,0:0:0:0:
484,146,304225,2,0,P|477:175|443:214,1,80,0|2,0:0|0:0,0:0:0:0:
375,353,304398,5,4,1:0:0:0:
375,353,304570,2,0,B|370:293|370:293|329:245,1,100,2|0,0:1|0:0,0:0:0:0:
69,206,304743,6,2,B|45:238|45:238|251:219,1,226.799998529205,8|0,0:3|0:0,0:1:0:0:
307,191,304915,2,0,P|349:135|292:54,1,151.19999901947,2|0,0:1|0:0,0:1:0:0:
101,19,305087,1,2,0:0:0:0:
101,19,305260,6,0,B|117:34|120:55|120:55|148:54|176:76,1,100,4|0,0:3|0:0,0:0:0:0:
417,213,305432,2,0,B|386:161|386:161|153:190|153:190|122:132,1,360.000013732911,8|0,0:3|0:0,0:0:0:0:
44,113,305777,2,0,P|38:142|64:177,1,50
104,372,305950,38,0,L|111:266,1,100,6|0,0:3|0:0,0:0:0:0:
123,133,306122,1,8,0:3:0:0:
123,133,306294,2,0,L|118:195,1,50,2|0,0:0|0:0,0:0:0:0:
318,318,306467,6,0,B|337:369|337:369|384:297|384:297|370:211,1,227.250007531107
258,105,306639,2,2,P|307:104|349:132,1,100,4|0,0:3|0:0,0:1:0:0:
485,270,306812,2,2,B|500:200|435:155|435:155|451:47|451:47|485:122,1,300,8|0,0:3|0:0,0:1:0:0:
458,184,307156,22,0,P|419:213|370:211,1,100,4|2,0:3|0:2,0:0:0:0:
349,132,307415,1,2,0:2:0:0:
352,119,307501,2,2,B|371:80|365:38|365:38|343:68|334:134,1,151.500005020738,10|0,0:1|0:0,0:1:0:0:
103,251,307674,5,2,0:1:0:0:
107,255,307760,1,0,0:0:0:0:
111,259,307846,2,0,L|191:249,1,50,2|0,0:1|0:0,0:0:0:0:
242,32,308018,2,2,B|247:67|247:67|253:74|253:74|264:146,1,100,4|0,0:3|0:0,0:1:0:0:
192,333,308191,6,2,B|210:227|210:227|250:198|250:198|264:113,1,227.250007531107,8|0,0:3|0:0,0:1:0:0:
510,94,308363,2,2,B|528:132|528:132|364:120,1,151.500005020738,0|0,0:0|0:0,0:1:0:0:
175,134,308536,6,2,L|143:132,1,30,2|0,0:0|0:0,0:1:0:0:
171,119,308708,22,2,P|214:142|261:129,1,100,6|0,0:3|0:0,0:1:0:0:
406,50,308881,2,2,P|361:70|354:157,1,100,8|0,0:3|0:0,0:1:0:0:
296,355,309053,2,2,B|321:361|321:361|351:352,1,50,2|0,0:0|0:0,0:1:0:0:
503,309,309225,6,0,L|194:335,1,303.000010041476,2|4,0:0|0:3,0:0:0:0:
116,346,309484,2,0,B|159:332|159:332|201:334,1,87.4999979138375,2|8,0:0|0:3,0:0:0:0:
15,220,309743,2,0,B|32:241|32:241|68:256,1,50,2|0,0:0|0:0,0:0:0:0:
201,334,309915,22,0,P|209:312|196:260,1,50,4|0,0:3|0:0,0:0:0:0:
173,86,310087,2,0,B|165:126|165:126|149:142|149:142|135:242,1,151.500005020738,2|0,0:1|0:0,0:0:0:0:
33,339,310260,6,2,B|206:291|206:291|221:228,1,227.250007531107,8|0,0:3|0:0,0:1:0:0:
173,86,310432,2,0,P|129:59|51:82,1,100,2|0,0:1|0:0,0:0:0:0:
7,192,310605,1,0,0:0:0:0:
7,192,310777,6,0,L|181:170,1,120.000004577637,4|0,0:3|0:0,0:0:0:0:
240,161,310950,2,0,L|198:168,6,25,8|0|0|0|0|0|0,0:3|0:0|0:0|0:0|0:0|0:0|0:0,0:0:0:0:
126,177,311294,2,0,L|135:123,1,50
314,48,311467,38,0,B|266:28|266:28|233:62,1,100,6|0,0:3|0:0,0:0:0:0:
209,308,311639,1,8,0:3:0:0:
209,308,311812,2,0,L|200:254,1,50,2|0,0:0|0:0,0:0:0:0:
291,129,311984,6,0,B|311:198|311:198|355:235|355:235|385:346,1,227.250007531107
442,384,312156,2,2,P|469:353|464:283,1,100,4|0,0:3|0:0,0:1:0:0:
365,54,312329,2,2,B|386:-14|386:-14|452:115|452:115|410:113|381:152,1,300,8|0,0:3|0:0,0:1:0:0:
381,330,312674,22,0,P|328:292|358:186,1,150.399997705078,4|2,0:3|0:3,0:0:0:0:
452,197,312932,1,2,0:0:0:0:
469,200,313018,6,2,B|506:227|506:227|375:257,1,160,10|0,0:1|0:0,0:1:0:0:
137,264,313191,2,0,B|115:304|115:304|246:274,1,160,0|0,0:1|0:0,0:0:0:0:
330,213,313363,6,0,P|315:210|267:222,1,50,2|0,0:1|0:0,0:0:0:0:
62,235,313536,2,2,P|97:193|171:199,1,100,4|0,0:3|0:0,0:1:0:0:
309,291,313708,2,2,L|305:319,6,25,8|0|0|0|0|0|0,0:3|0:0|0:0|0:0|0:0|0:0|0:0,0:1:0:0:
139,331,314053,6,0,B|124:266|124:266|153:230|136:171,1,151.500005020738,2|0,0:1|0:0,0:0:0:0:
45,68,314225,2,0,B|25:103|25:103|170:68,1,151.500005020738,2|0,1:1|0:0,0:0:0:0:
265,55,314398,2,0,L|313:44,1,50,8|0,0:3|0:0,0:0:0:0:
61,215,314570,2,2,B|29:270|29:270|260:215,1,303.000010041476,2|2,0:1|0:0,0:1:0:0:
314,44,314915,54,0,P|288:86|304:169,1,100,2|2,1:1|0:0,0:0:0:0:
369,316,315087,1,10,0:1:0:0:
369,316,315260,1,10,0:1:0:0:
465,253,315432,6,2,P|414:201|341:199,1,150,4|0,0:3|0:0,0:1:0:0:
340,199,315777,6,2,B|390:231|405:312|349:355|349:355|378:298,1,226.799998529205,8|0,0:3|0:0,0:1:0:0:
199,338,315950,2,0,P|214:281|312:299,1,151.19999901947,2|0,0:1|0:0,0:0:0:0:
264,84,316122,6,0,P|268:131|217:199,1,100
245,177,316294,2,0,L|70:207,1,100,4|0,0:3|0:0,0:0:0:0:
15,308,316467,38,0,L|25:267,6,25,8|0|0|0|0|0|0,0:3|0:0|0:0|0:0|0:0|0:0|0:0,0:0:0:0:
53,212,316812,2,0,P|74:226|92:283,1,50
277,353,316984,6,0,L|393:338,1,100,6|0,0:3|0:0,0:0:0:0:
434,126,317156,2,0,P|395:173|416:247,1,100,8|0,0:3|0:0,0:0:0:0:
376,340,317329,22,0,P|383:300|356:266,1,50,2|0,0:0|0:0,0:0:0:0:
457,39,317501,6,0,B|300:27|300:27|383:63,1,227.250007531107
434,126,317674,2,2,B|428:181|428:181|383:220,1,100,4|0,0:3|0:0,0:1:0:0:
202,244,317846,1,10,0:1:0:0:
202,244,318018,6,2,L|206:187,1,50,0|0,0:0|0:0,0:1:0:0:
138,154,318191,2,0,P|169:123|250:133,1,100,4|2,0:3|0:0,0:0:0:0:
308,53,318450,1,2,0:0:0:0:
299,36,318536,2,0,P|267:88|294:189,1,151.500005020738,10|0,0:1|0:0,0:0:0:0:
405,384,318708,38,0,L|432:213,1,151.500005020738,2|0,0:1|0:0,0:0:0:0:
508,152,318881,2,0,L|453:161,1,50,2|0,0:1|0:0,0:0:0:0:
282,174,319053,2,2,P|327:188|388:154,1,100,4|0,0:3|0:0,0:1:0:0:
479,9,319225,6,2,B|507:75|453:122|453:122|398:172|428:234,1,250,8|2,0:3|0:1,0:1:0:0:
461,310,319484,1,2,0:1:0:0:
476,311,319570,70,2,L|473:348,1,30,2|0,0:0|0:0,0:1:0:0:
373,304,319743,70,2,P|385:257|428:234,1,100,6|0,0:3|0:0,0:1:0:0:
373,304,319915,2,2,L|211:333,1,100,8|0,0:3|0:0,0:1:0:0:
185,264,320087,2,2,L|135:274,1,50,2|0,0:0|0:0,0:1:0:0:
142,132,320260,6,0,B|108:75|108:75|201:144|201:144|183:282,1,303.000010041476,2|4,0:0|0:3,0:0:0:0:
176,342,320518,2,0,P|212:342|251:301,1,87.4999979138375,2|8,0:0|0:3,0:0:0:0:
278,123,320777,2,0,P|264:92|221:75,1,50,2|0,0:0|0:0,0:0:0:0:
347,12,320950,6,0,P|343:50|321:75,1,50,4|0,0:3|0:0,0:0:0:0:
143,172,321122,2,0,P|212:125|324:144,1,151.500005020738,2|0,0:1|0:0,0:0:0:0:
428,359,321294,38,2,B|400:277|400:277|429:126,1,227.250007531107,8|0,0:3|0:0,0:1:0:0:
432,61,321467,2,0,B|484:74|484:74|512:142,1,100,2|0,0:1|0:0,0:0:0:0:
491,271,321639,1,0,0:0:0:0:
491,271,321812,6,0,L|349:257,1,120.000004577637,4|0,0:3|0:0,0:0:0:0:
181,292,321984,2,0,L|144:298,6,25,8|0|0|0|0|0|0,0:3|0:0|0:0|0:0|0:0|0:0|0:0,0:0:0:0:
30,251,322329,22,0,L|107:236,1,50
247,354,322501,2,0,B|280:315|280:315|266:268,1,100,6|0,0:3|0:0,0:0:0:0:
157,59,322674,1,8,0:3:0:0:
157,59,322846,2,0,L|144:127,1,50,2|0,0:0|0:0,0:0:0:0:
79,241,323018,6,0,B|143:236|159:173|159:173|177:108|239:107,1,227.250007531107
329,221,323191,2,2,P|291:190|216:205,1,100,4|0,0:3|0:0,0:1:0:0:
79,155,323363,2,2,B|64:121|64:121|184:141|259:227|266:268,1,300,8|0,0:3|0:0,0:1:0:0:
261,347,323708,6,0,P|295:345|337:280,1,75.1999988525391,4|0,0:3|0:0,0:0:0:0:
501,242,323881,2,0,P|465:227|401:249,1,75.1999988525391,2|0,0:1|0:0,0:0:0:0:
266,269,324053,38,2,B|281:198|281:198|446:141|446:141|473:17,1,320,8|2,0:3|0:1,0:1:0:0:
373,32,324312,1,0,0:0:0:0:
392,28,324398,2,0,L|308:50,1,50,2|0,0:1|0:0,0:0:0:0:
214,155,324570,2,2,P|160:156|106:89,1,100,4|0,0:3|0:0,0:1:0:0:
57,29,324743,6,2,L|41:144,1,100,8|2,0:3|0:1,0:1:0:0:
124,131,325001,1,2,0:1:0:0:
127,105,325087,6,0,B|197:90|197:90|231:115|285:100,1,151.500005020738,2|0,0:1|0:0,0:1:0:0:
271,336,325260,2,0,B|242:363|242:363|260:238,1,151.500005020738,2|0,1:1|0:0,0:0:0:0:
253,22,325432,2,0,L|318:12,1,50,8|0,0:3|0:0,0:0:0:0:
409,195,325605,2,0,B|423:263|423:263|342:280,1,151.500005020738,2|0,0:1|0:0,0:0:0:0:
115,290,325777,54,2,P|136:263|192:260,1,75.1999988525391,0|0,0:0|0:0,0:1:0:0:
274,164,325950,2,2,P|285:208|236:262,1,100,2|0,1:1|0:0,0:1:0:0:
221,383,326122,54,2,P|184:315|177:222,1,140.000001335144,10|0,0:1|0:0,0:1:0:0:
24,286,326294,2,2,P|25:208|66:124,1,140.000001335144,2|0,0:1|0:0,0:1:0:0:
95,62,326467,53,0,0:0:0:0:
170,19,326639,1,0,0:0:0:0:
104,71,326812,1,2,0:0:0:0:
172,33,326984,1,0,0:0:0:0:
253,48,327156,1,0,0:0:0:0:
246,59,327329,1,0,0:0:0:0:
298,119,327501,1,2,0:0:0:0:
377,131,327674,1,0,0:0:0:0:
457,96,327846,53,0,0:0:0:0:
462,8,328018,1,0,0:0:0:0:
374,2,328191,1,2,0:0:0:0:
369,90,328363,1,0,0:0:0:0:
462,8,328536,85,0,0:0:0:0:
477,86,328708,1,0,0:0:0:0:
432,162,328881,1,2,0:0:0:0:
447,240,329053,1,0,0:0:0:0:
464,328,329225,85,0,0:0:0:0:
464,328,329398,1,0,0:0:0:0:
464,328,329570,1,2,0:0:0:0:
464,328,329743,1,0,0:0:0:0:
464,328,329915,1,0,0:0:0:0:
464,328,330087,1,0,0:0:0:0:
464,328,330260,1,2,0:0:0:0:
464,328,330432,1,0,0:0:0:0:
464,328,330605,53,2,0:0:0:0:
384,320,330777,1,0,0:0:0:0:
464,328,330950,1,2,0:0:0:0:
384,320,331122,1,0,0:0:0:0:
447,240,331294,101,0,0:0:0:0:
432,162,331466,1,0,0:0:0:0:
477,86,331639,1,2,0:0:0:0:
462,8,331811,1,0,0:0:0:0:
374,19,331984,69,0,0:0:0:0:
358,105,332156,1,0,0:0:0:0:
361,20,332329,1,2,0:0:0:0:
347,97,332501,1,0,0:0:0:0:
283,150,332673,1,0,0:0:0:0:
279,137,332846,1,0,0:0:0:0:
242,67,333018,1,2,0:0:0:0:
169,32,333191,1,0,0:0:0:0:
104,91,333363,53,0,0:0:0:0:
140,171,333536,1,0,0:0:0:0:
60,206,333708,1,2,0:0:0:0:
24,127,333881,1,0,0:0:0:0:
140,171,334053,5,0,0:0:0:0:
198,116,334225,1,0,0:0:0:0:
340,170,334398,1,2,0:0:0:0:
355,91,334570,1,0,0:0:0:0:
500,42,334743,37,0,0:0:0:0:
500,42,334915,1,0,0:0:0:0:
500,42,335087,1,2,0:0:0:0:
500,42,335260,1,0,0:0:0:0:
500,42,335432,1,0,0:0:0:0:
500,42,335604,1,0,0:0:0:0:
500,42,335776,1,2,0:0:0:0:
500,42,335949,1,0,0:0:0:0:
500,42,336122,53,0,0:0:0:0:
511,120,336294,1,0,0:0:0:0:
500,42,336467,1,2,0:0:0:0:
511,120,336639,1,0,0:0:0:0:
355,91,336812,21,0,0:0:0:0:
340,170,336984,1,0,0:0:0:0:
198,116,337157,1,2,0:0:0:0:
140,171,337329,1,0,0:0:0:0:
145,300,337501,22,0,B|106:282|67:302|47:339|47:339|69:313|92:262|64:197|64:197|70:235|100:265|156:277|214:250|174:235|226:206|286:215|317:252|322:302|322:302|311:253|321:192|381:158|441:160|505:199|491:278|449:298|404:276|404:276|401:272|401:272|398:276|398:276|411:325|382:358|382:358|406:322|462:324,1,1126.4
241,306,339570,21,0,0:0:0:0:
226,231,339743,1,2,0:0:0:0:
262,154,339915,1,2,0:0:0:0:
346,113,340088,1,2,0:0:0:0:
467,96,340260,22,0,B|419:54|338:66|338:66|436:23|536:93|543:175|538:245|434:284|434:284|482:215|450:138|355:109|300:136|292:192|308:235|365:235|365:235|367:232|367:232|362:234|362:234|317:226|271:243|246:284|246:284|213:213|223:142|260:103,1,1214.40000185303
261,102,342329,101,2,0:0:0:0:
339,152,342502,1,2,0:0:0:0:
367,232,342674,1,2,0:0:0:0:
344,305,342847,1,0,0:0:0:0:
456,196,343018,70,0,B|399:231|387:301|422:279|423:344|386:366|386:366|359:337|384:271|409:305|424:234|363:175|289:170|245:195|245:195|292:188|351:158|356:80|312:35|312:35|312:32|312:32|309:34|309:34|224:4|246:56|152:20|152:20|166:65|157:108|119:123|134:104|104:119|90:133|90:133|110:136|137:127|118:117|157:108|189:124,1,1126.4
142,347,345087,69,0,0:0:0:0:
175,278,345260,1,2,0:0:0:0:
161,194,345432,1,2,0:0:0:0:
90,133,345605,1,2,0:0:0:0:
24,302,345777,102,0,B|71:312|105:269|105:269|103:321|149:350|192:333|192:333|204:338|204:338|200:329|200:329|196:262|253:223|330:234|301:273|360:296|407:275|427:245|427:245|439:243|439:243|431:237|431:237|375:174|428:96|428:96|388:93|356:58|356:19|356:19|374:48|356:102|337:73|322:131|323:168|323:168|324:177|324:177|312:167|312:167|265:172|236:148|229:101|247:55|247:55|259:77|251:108,1,1214.40000185303
443,15,347846,21,2,0:0:0:0:
506,82,348019,1,2,0:0:0:0:
512,167,348191,1,2,0:0:0:0:
471,232,348364,1,0,0:0:0:0:
439,243,348536,37,4,0:1:0:0:
