osu file format v14

[General]
AudioFilename: coolsong.mp3
AudioLeadIn: 0
PreviewTime: 247338
Countdown: 0
SampleSet: Soft
StackLeniency: 0.4
Mode: 0
LetterboxInBreaks: 0
WidescreenStoryboard: 0

[Editor]
Bookmarks: 74549,97928,104162,110396,116630,122863,127539,135331,141565,147798,152474,160266,172734,178188,185201,191435,203902,210136,214811,222604,228837,235071,241305,247539,284941,297409,303643,317669,330136,337928,350396,353513
DistanceSpacing: 1.2
BeatDivisor: 4
GridSize: 32
TimelineZoom: 2.3

[Metadata]
Title:Saifu 'Kamiasobi no Uta'
TitleUnicode:祭符「神遊びの唄」
Artist:Meramipop
ArtistUnicode:めらみぽっぷ
Creator:Mirash
Version:Mountain of Faith
Source:東方風神録 ~ Mountain of Faith.
Tags:ネイティブフェイス Native Faith Extra Stage Theme 洩矢 諏訪子 Suwako Moriya 明日ハレの日、ケの昨日 Diao ye zong 凋叶棕 掲 光収容 RD-Sounds Hikarisyuyo ZUN 上海アリス幻樂団 Hakurei Shrine Reitaisai 13 博麗神社例大祭13 Kakage 掲 Merami
BeatmapID:1140087
BeatmapSetID:538136

[Difficulty]
HPDrainRate:6
CircleSize:4
OverallDifficulty:9
ApproachRate:9.4
SliderMultiplier:3
SliderTickRate:1

[Events]
//Background and Video events
0,0,"moriya suwako touhou drawn by yushika.jpg",0,0
//Break Periods
2,44746,47512
2,185395,190888
2,330233,337383
//Storyboard Layer 0 (Background)
//Storyboard Layer 1 (Fail)
//Storyboard Layer 2 (Pass)
//Storyboard Layer 3 (Foreground)
//Storyboard Sound Samples

[TimingPoints]
2120,451.127819548872,4,2,0,70,1,0
2120,-142.857142857143,4,2,0,70,0,0
27383,-125,4,2,0,70,0,0
41819,389.61038961039,4,2,1,5,1,0
48052,-100,4,2,1,70,0,0
52728,-111.111111111111,4,2,1,70,0,0
52922,-100,4,2,1,70,0,0
53117,-90.9090909090909,4,2,1,70,0,0
53312,-83.3333333333333,4,2,1,70,0,0
53507,-76.9230769230769,4,2,1,70,0,0
54286,-90.9090909090909,4,2,1,70,0,0
69871,-200,4,2,1,70,0,0
78637,-100,4,2,1,70,0,0
85455,-83.3333333333333,4,2,1,70,0,0
97922,-100,4,2,1,70,0,0
108831,-142.857142857143,4,2,1,70,0,0
116624,-100,4,2,1,70,0,0
122857,-76.9230769230769,4,2,1,70,0,0
135325,-71.4285714285714,4,2,1,70,0,1
141169,-83.3333333333333,4,2,1,70,0,0
141559,-62.5,4,2,1,70,0,0
145065,-58.8235294117647,4,2,1,70,0,0
145455,-55.5555555555556,4,2,1,70,0,0
145844,-52.6315789473684,4,2,1,70,0,0
146234,-52.6315789473684,4,2,0,70,0,0
147013,-83.3333333333333,4,2,1,70,0,0
147792,-83.3333333333333,4,2,2,70,0,0
160260,-142.857142857143,4,2,1,70,0,0
162598,-100,4,2,1,70,0,0
163377,-142.857142857143,4,2,1,70,0,0
172338,-100,4,2,1,70,0,0
178377,-71.4285714285714,4,2,1,70,0,0
178962,-100,4,2,1,70,0,0
194546,-200,4,2,1,70,0,0
203312,-100,4,2,1,70,0,0
210130,-83.3333333333333,4,2,1,70,0,0
222598,-100,4,2,1,70,0,0
228831,-142.857142857143,4,2,1,70,0,0
241299,-100,4,2,1,70,0,0
247533,-76.9230769230769,4,2,1,70,0,0
260000,-71.4285714285714,4,2,1,70,0,1
265844,-71.4285714285714,4,2,1,70,0,0
266234,-71.4285714285714,4,2,1,70,0,1
272078,-83.3333333333333,4,2,1,70,0,0
272468,-100,4,2,1,70,0,0
278507,-142.857142857143,4,2,1,70,0,0
280455,-100,4,2,1,70,0,0
281819,-142.857142857143,4,2,1,70,0,0
282793,-100,4,2,1,70,0,0
284935,-76.9230769230769,4,2,1,70,0,1
290780,-76.9230769230769,4,2,1,70,0,0
291169,-76.9230769230769,4,2,1,70,0,1
297403,-142.857142857143,4,2,1,70,0,0
304611,-83.3333333333333,4,2,1,70,0,0
305195,-76.9230769230769,4,2,1,70,0,0
317663,-71.4285714285714,4,2,1,70,0,1
323117,-83.3333333333333,4,2,1,70,0,0
323896,-62.5,4,2,1,70,0,0
327013,-62.5,4,2,1,70,0,0
327403,-58.8235294117647,4,2,1,70,0,0
327792,-55.5555555555556,4,2,1,70,0,0
328182,-52.6315789473684,4,2,1,70,0,0
328572,-52.6315789473684,4,2,0,70,0,0
329546,-52.6315789473684,4,2,1,70,0,0
337922,-71.4285714285714,4,2,1,70,0,1
343767,-71.4285714285714,4,2,1,70,0,0
344156,-62.5,4,2,1,70,0,0
348831,-62.5,4,2,0,70,0,0
349611,-62.5,4,2,1,70,0,0

[Colours]
Combo1 : 255,94,55
Combo2 : 173,255,95
Combo3 : 17,254,176
Combo4 : 255,88,100

[HitObjects]
31,148,2120,6,0,P|18:198|39:285,1,139.999995727539,2|0,1:2|0:0,0:0:0:0:
37,282,2571,2,0,P|92:274|172:305,1,139.999995727539,0|0,0:2|0:0,0:0:0:0:
417,327,3022,1,2,1:2:0:0:
282,360,3323,1,0,0:0:0:0:
282,360,3473,2,0,P|291:308|265:221,1,139.999995727539
94,134,3924,6,0,P|158:141|228:108,1,139.999995727539,2|0,1:2|0:0,0:0:0:0:
321,31,4375,2,0,P|326:77|377:154,1,139.999995727539,2|0,1:2|0:0,0:0:0:0:
384,287,4826,1,2,1:2:0:0:
267,225,5127,1,2,0:0:0:0:
267,225,5277,1,0,0:0:0:0:
162,130,5578,5,0,0:0:0:0:
162,130,5729,2,0,P|107:159|22:158,1,139.999995727539,2|0,1:2|0:0,0:0:0:0:
30,160,6180,2,0,P|48:228|50:306,1,139.999995727539,0|0,0:0|0:0,0:0:0:0:
145,370,6631,2,0,P|163:301|163:224,1,139.999995727539,2|0,1:2|0:0,0:0:0:0:
164,232,7082,2,0,P|220:244|303:226,1,139.999995727539,0|0,0:0|0:0,0:0:0:0:
364,361,7533,5,2,1:2:0:0:
483,259,7834,1,0,0:0:0:0:
483,259,7984,1,2,1:2:0:0:
362,243,8285,1,0,0:2:0:0:
362,243,8435,1,2,1:2:0:0:
241,229,8736,1,0,0:0:0:0:
241,229,8886,1,0,0:0:0:0:
376,130,9187,5,0,0:0:0:0:
376,130,9338,2,0,P|315:106|237:107,1,139.999995727539,2|0,1:2|0:0,0:0:0:0:
241,106,9789,2,0,P|169:117|103:97,1,139.999995727539,0|0,0:0|0:0,0:0:0:0:
15,273,10240,1,2,1:2:0:0:
112,237,10541,1,0,0:0:0:0:
112,237,10691,1,0,0:0:0:0:
228,362,10992,5,0,0:0:0:0:
228,362,11142,2,0,P|214:295|227:218,1,139.999995727539,2|0,1:2|0:0,0:0:0:0:
419,257,11593,2,0,P|353:235|298:183,1,139.999995727539,2|0,1:2|0:0,0:0:0:0:
427,38,12044,2,0,P|375:83|301:105,1,139.999995727539,2|2,1:2|0:0,0:0:0:0:
236,64,12495,1,0,0:0:0:0:
71,219,12796,5,0,0:0:0:0:
71,219,12947,2,0,P|133:201|208:221,1,139.999995727539,2|0,1:2|0:0,0:0:0:0:
204,219,13398,2,0,P|214:289|245:356,1,139.999995727539,0|0,0:0|0:0,0:0:0:0:
446,332,13849,1,2,1:2:0:0:
329,356,14150,1,0,0:0:0:0:
329,356,14300,2,0,P|319:286|287:221,1,139.999995727539
457,77,14751,6,0,P|389:92|332:132,1,139.999995727539,2|0,1:2|0:0,0:0:0:0:
240,145,15202,1,2,1:2:0:0:
107,87,15503,1,0,0:0:0:0:
106,86,15653,2,0,P|118:154|104:223,1,139.999995727539,2|0,1:2|0:0,0:0:0:0:
39,314,16104,2,0,L|196:301,1,139.999995727539,2|0,0:0|0:0,0:0:0:0:
280,360,16556,6,0,P|266:297|281:215,1,139.999995727539,2|0,1:2|0:0,0:0:0:0:
277,223,17007,2,0,L|418:231,1,139.999995727539,0|0,0:0|0:0,0:0:0:0:
503,129,17458,1,2,1:2:0:0:
367,109,17759,1,0,0:0:0:0:
367,109,17909,2,0,L|219:115,1,139.999995727539
59,217,18360,5,2,1:2:0:0:
203,200,18661,1,0,0:0:0:0:
203,200,18811,1,2,1:2:0:0:
298,293,19112,1,0,0:0:0:0:
298,293,19262,1,2,1:2:0:0:
157,306,19413,6,0,L|114:315,2,34.9999989318848,0|0|0,1:0|1:0|1:0,1:0:0:0:
242,372,19713,1,0,1:0:0:0:
377,357,19864,1,0,1:0:0:0:
301,258,20014,1,0,1:0:0:0:
436,273,20165,5,4,1:0:0:0:
419,268,21067,1,4,1:0:0:0:
401,264,21969,5,4,1:0:0:0:
382,260,22420,1,4,1:0:0:0:
364,256,22871,1,4,1:0:0:0:
346,252,23172,1,0,3:0:0:0:
337,250,23247,1,0,3:0:0:0:
328,248,23323,1,0,3:0:0:0:
310,243,23623,1,0,1:0:0:0:
158,266,23774,5,4,1:0:0:0:
175,262,24676,1,4,1:0:0:0:
192,258,25578,5,4,1:0:0:0:
209,254,26029,1,4,1:0:0:0:
226,250,26480,1,4,1:0:0:0:
243,245,26781,1,0,3:0:0:0:
251,243,26856,1,0,3:0:0:0:
259,241,26932,1,0,3:0:0:0:
276,237,27232,1,0,0:0:0:0:
420,248,27383,6,0,P|394:191|409:95,1,160,4|0,1:0|0:0,0:0:0:0:
422,77,27834,2,0,L|245:138,1,160
108,38,28285,2,0,P|131:120|114:220,1,160,4|0,1:0|0:0,0:0:0:0:
109,213,28736,2,0,L|306:216,1,160
333,297,29187,6,0,L|172:303,1,160,4|0,1:0|0:0,0:0:0:0:
31,365,29638,2,0,P|52:299|47:204,1,160,4|0,1:0|0:0,0:0:0:0:
12,99,30089,2,0,L|183:120,1,160,4|0,1:0|3:0,0:0:0:0:
180,125,30465,1,0,3:0:0:0:
190,130,30541,1,0,3:0:0:0:
461,361,30992,6,0,P|440:294|462:206,1,160,4|0,1:2|0:0,0:0:0:0:
476,190,31443,2,0,P|409:211|320:184,1,160
191,119,31894,2,0,P|212:186|188:275,1,160,4|0,1:0|0:0,0:0:0:0:
183,294,32345,2,0,P|116:305|56:378,1,160
22,258,32796,6,0,P|32:191|6:99,1,160,4|0,1:0|0:0,0:0:0:0:
92,23,33247,2,0,P|143:72|255:94,1,160,4|0,1:0|0:0,0:0:0:0:
423,173,33698,2,0,L|257:187,1,160,4|0,1:0|3:0,0:0:0:0:
254,194,34074,1,0,0:0:0:0:
246,203,34150,1,0,0:0:0:0:
434,352,34601,6,0,P|446:278|422:192,1,160,4|0,1:2|0:0,0:0:0:0:
404,183,35052,2,0,P|335:196|240:178,1,160
84,13,35503,2,0,P|78:78|111:182,1,160,4|0,1:0|0:0,0:0:0:0:
112,190,35954,2,0,P|186:173|273:186,1,160
289,356,36405,6,0,P|216:334|132:337,1,160,4|0,1:0|0:0,0:0:0:0:
51,177,36856,2,0,P|62:234|40:334,1,160,4|0,1:0|0:0,0:0:0:0:
139,173,37307,2,0,P|201:187|303:166,1,160,4|0,1:0|3:0,0:0:0:0:
306,165,37683,1,0,0:0:0:0:
316,158,37759,1,0,0:0:0:0:
512,50,38210,6,0,P|448:43|351:58,1,160,4|0,1:2|0:0,0:0:0:0:
338,75,38661,2,0,P|267:86|180:64,1,160
81,24,39112,2,0,P|90:93|72:186,1,160,4|0,1:0|0:0,0:0:0:0:
88,200,39563,2,0,P|169:209|255:200,1,160
493,224,40014,6,0,P|417:193|315:187,1,160,4|0,1:0|0:0,0:0:0:0:
340,336,40465,2,0,P|289:271|204:214,1,160,4|0,1:0|0:0,0:0:0:0:
150,354,40916,2,0,P|138:272|93:181,1,160,4|0,1:0|3:0,0:0:0:0:
98,193,41292,1,0,3:0:0:0:
87,187,41368,1,0,3:0:0:0:
256,192,41819,12,0,44546,0:0:0:0:
73,175,48052,5,2,1:2:0:0:
92,172,48442,1,0,1:2:0:0:
111,169,48831,1,2,1:2:0:0:
130,166,49221,1,0,1:2:0:0:
190,215,49611,5,2,1:2:0:0:
209,212,50000,1,2,1:2:0:0:
228,209,50390,1,2,1:2:0:0:
258,141,50780,1,2,1:2:0:0:
301,200,51169,5,2,1:2:0:0:
320,197,51559,1,0,1:2:0:0:
339,194,51948,1,0,1:2:0:0:
424,56,52143,1,0,2:0:0:0:
405,59,52241,1,0,2:0:0:0:
386,62,52338,1,0,1:0:0:0:
467,137,52533,1,0,0:0:0:0:
486,134,52630,1,0,0:0:0:0:
505,131,52728,6,0,P|509:168|502:226,1,67.4999979400635,0|0,1:0|0:0,0:0:0:0:
487,330,52922,2,0,P|449:326|407:332,1,75,0|0,1:0|0:0,0:0:0:0:
287,358,53117,2,0,P|292:313|281:259,1,82.5000025177003,0|0,1:0|0:0,0:0:0:0:
375,189,53312,2,0,P|370:144|378:85,1,89.9999972534181,0|0,1:0|0:0,0:0:0:0:
202,27,53507,6,0,P|207:75|202:123,1,97.4999955368044,0|0,1:0|0:0,0:0:0:0:
208,263,53702,2,0,P|163:243|124:215,1,97.4999955368044,0|0,1:0|0:0,0:0:0:0:
0,149,53896,2,0,P|39:120|83:100,1,97.4999955368044,0|0,1:0|0:0,0:0:0:0:
337,19,54091,2,0,P|308:58|289:102,1,97.4999955368044,0|0,1:0|0:0,0:0:0:0:
183,239,54286,6,0,L|290:227,1,82.5000025177003
477,177,54481,1,8,1:0:0:0:
444,252,54578,1,0,0:0:0:0:
370,289,54676,2,0,P|334:307|305:339,1,82.5000025177003
73,372,54870,5,8,1:0:0:0:
125,308,54968,1,0,0:0:0:0:
202,280,55065,2,0,P|238:262|266:229,1,82.5000025177003
398,43,55260,1,8,1:0:0:0:
328,85,55357,1,0,0:0:0:0:
248,66,55455,2,0,P|202:60|151:66,1,82.5000025177003
118,182,55650,2,0,P|159:184|199:178,1,82.5000025177003,8|0,1:0|0:0,0:0:0:0:
506,279,55844,6,0,P|460:273|409:279,1,82.5000025177003
309,333,56039,1,8,1:0:0:0:
231,362,56137,1,0,0:0:0:0:
151,339,56234,1,0,0:0:0:0:
113,264,56331,1,0,0:0:0:0:
118,182,56429,5,8,1:0:0:0:
172,163,56526,1,0,0:0:0:0:
229,167,56624,1,0,0:0:0:0:
277,198,56721,1,0,0:0:0:0:
312,244,56819,5,8,1:0:0:0:
344,218,56916,1,0,0:0:0:0:
361,180,57013,1,0,0:0:0:0:
366,138,57111,1,0,0:0:0:0:
356,98,57208,2,0,B|316:93|274:99,1,82.5000025177003,8|0,1:0|0:0,0:0:0:0:
149,183,57403,6,0,B|181:206|221:223,1,82.5000025177003
316,330,57598,1,8,1:0:0:0:
237,353,57695,1,0,0:0:0:0:
155,339,57793,2,0,P|101:321|50:285,1,82.5000025177003
13,204,57987,1,8,1:0:0:0:
80,159,58085,1,0,0:0:0:0:
161,166,58182,5,0,0:0:0:0:
220,222,58280,1,0,0:0:0:0:
230,304,58377,1,8,1:0:0:0:
285,322,58474,1,0,0:0:0:0:
337,302,58572,1,0,0:0:0:0:
367,253,58669,1,0,0:0:0:0:
350,197,58767,2,0,L|442:210,1,82.5000025177003,8|0,1:0|0:0,0:0:0:0:
512,246,58961,6,0,L|500:164,1,82.5000025177003
449,80,59156,2,0,L|367:92,1,82.5000025177003,8|0,1:0|0:0,0:0:0:0:
252,85,59351,1,0,0:0:0:0:
179,46,59448,1,0,0:0:0:0:
96,50,59546,1,8,1:0:0:0:
40,110,59643,1,0,0:0:0:0:
43,192,59741,5,0,0:0:0:0:
102,248,59838,1,0,0:0:0:0:
184,251,59935,2,0,P|219:280|249:322,1,82.5000025177003,8|0,1:0|0:0,0:0:0:0:
478,336,60130,1,0,0:0:0:0:
404,302,60228,1,0,0:0:0:0:
322,298,60325,2,0,P|276:300|225:315,1,82.5000025177003,8|0,1:0|0:0,0:0:0:0:
78,358,60520,6,0,P|76:312|62:263,1,82.5000025177003
12,152,60715,1,8,1:0:0:0:
92,170,60812,1,0,0:0:0:0:
173,160,60909,2,0,P|216:146|259:119,1,82.5000025177003
469,49,61104,5,8,1:0:0:0:
387,43,61202,1,0,0:0:0:0:
313,79,61299,2,0,P|274:103|238:140,1,82.5000025177003
116,251,61494,1,8,1:0:0:0:
169,310,61591,1,0,0:0:0:0:
246,336,61689,2,0,P|290:345|341:343,1,82.5000025177003
466,365,61883,2,0,P|449:327|440:287,1,82.5000025177003,8|0,1:0|0:0,0:0:0:0:
341,204,62078,6,0,P|338:158|323:109,1,82.5000025177003
360,14,62273,2,0,P|320:23|278:25,1,82.5000025177003,8|0,1:0|0:0,0:0:0:0:
132,81,62468,1,0,0:0:0:0:
93,153,62564,1,0,0:0:0:0:
115,233,62663,5,8,1:0:0:0:
142,183,62760,1,0,0:0:0:0:
196,162,62857,1,0,0:0:0:0:
253,178,62955,1,0,0:0:0:0:
286,224,63052,5,8,1:1:0:0:
246,212,63150,1,0,0:0:0:0:
208,227,63247,1,0,0:0:0:0:
189,262,63344,1,0,0:0:0:0:
193,303,63442,1,8,1:1:0:0:
221,332,63539,1,0,0:0:0:0:
259,345,63637,6,0,B|302:350|345:321,1,82.5000025177003
488,87,63831,1,8,1:0:0:0:
414,125,63929,1,0,0:0:0:0:
332,134,64026,2,0,B|289:130|232:150,1,82.5000025177003
122,231,64221,1,8,1:0:0:0:
170,163,64319,1,0,0:0:0:0:
250,144,64416,5,0,0:0:0:0:
319,187,64513,1,0,0:0:0:0:
336,268,64611,1,8,1:0:0:0:
296,339,64708,1,0,0:0:0:0:
215,360,64806,2,0,P|171:362|132:369,1,82.5000025177003
0,251,65000,5,8,1:0:0:0:
79,231,65098,1,0,0:0:0:0:
154,266,65195,2,0,P|202:264|247:246,1,82.5000025177003
294,195,65390,2,0,P|301:147|292:99,1,82.5000025177003
137,45,65585,1,0,0:0:0:0:
216,65,65682,1,0,0:0:0:0:
291,30,65780,2,0,P|339:32|384:50,1,82.5000025177003
489,167,65974,5,8,1:0:0:0:
481,190,66072,1,0,1:0:0:0:
473,213,66169,1,0,1:0:0:0:
465,236,66267,1,0,1:0:0:0:
458,259,66364,2,0,L|364:250,1,82.5000025177003,4|0,1:2|0:0,0:0:0:0:
56,208,66559,1,0,1:0:0:0:
365,230,66754,5,0,3:0:0:0:
301,172,67533,1,0,3:0:0:0:
225,220,68312,5,0,3:0:0:0:
294,267,68702,1,0,3:0:0:0:
365,230,69091,1,0,3:0:0:0:
304,288,69871,6,0,P|232:305|139:277,1,150,0|0,0:0|3:0,0:0:0:0:
18,254,70650,2,0,P|71:214|164:189,1,150,0|0,0:0|3:0,0:0:0:0:
293,105,71429,6,0,P|270:148|219:191,1,112.5,0|0,3:0|0:0,0:0:0:0:
184,185,71819,2,0,P|198:236|240:285,1,112.5,0|0,3:0|0:0,0:0:0:0:
303,231,72208,1,0,3:0:0:0:
373,179,72403,1,0,1:0:0:0:
377,189,72500,1,0,1:0:0:0:
381,199,72598,1,0,3:0:0:0:
385,209,72695,1,0,1:0:0:0:
389,219,72793,1,0,1:0:0:0:
393,229,72890,1,0,1:0:0:0:
397,239,72987,5,0,3:0:0:0:
388,338,73767,1,0,3:0:0:0:
287,333,74546,5,0,3:0:0:0:
192,296,74935,1,0,3:0:0:0:
103,347,75325,1,0,3:0:0:0:
28,260,76104,6,0,P|39:186|29:112,1,150,0|0,0:0|3:0,0:0:0:0:
98,45,76884,2,0,P|172:56|246:46,1,150,0|0,0:0|3:0,0:0:0:0:
133,256,77663,5,0,3:0:0:0:
140,146,78052,1,0,3:0:0:0:
249,149,78442,1,0,3:0:0:0:
247,262,78637,5,0,1:0:0:0:
250,276,78734,1,0,1:0:0:0:
254,290,78831,1,0,3:0:0:0:
258,305,78929,1,0,1:0:0:0:
262,319,79026,1,0,1:0:0:0:
266,334,79124,1,0,1:0:0:0:
270,348,79221,6,0,L|180:347,1,75,0|0,3:0|0:0,0:0:0:0:
243,249,79416,2,0,L|317:249,1,75,0|0,3:0|0:0,0:0:0:0:
417,289,79611,5,4,3:2:0:0:
428,292,79709,1,0,3:0:0:0:
438,295,79806,1,0,3:0:0:0:
448,298,79903,1,0,3:0:0:0:
459,301,80000,2,0,L|449:222,1,75,0|0,3:0|0:0,0:0:0:0:
358,89,80195,2,0,L|348:163,1,75,0|0,3:0|0:0,0:0:0:0:
273,296,80390,5,4,3:2:0:0:
270,281,80487,1,0,3:0:0:0:
268,266,80584,1,0,3:0:0:0:
266,251,80682,1,0,3:0:0:0:
264,236,80780,2,0,L|189:226,1,75,0|0,3:0|0:0,0:0:0:0:
26,149,80974,2,0,L|100:139,1,75,0|0,3:0|0:0,0:0:0:0:
234,80,81169,5,4,3:2:0:0:
248,82,81266,1,0,3:0:0:0:
263,85,81363,1,0,3:0:0:0:
278,87,81461,1,0,3:0:0:0:
293,90,81559,2,0,L|388:81,1,75,0|0,3:0|0:0,0:0:0:0:
512,181,81754,2,0,L|437:188,1,75,0|0,3:0|0:0,0:0:0:0:
297,213,81948,5,4,3:2:0:0:
283,211,82045,1,0,3:0:0:0:
268,208,82142,1,0,3:0:0:0:
253,206,82240,1,0,3:0:0:0:
238,203,82338,2,0,L|143:212,1,75,0|0,3:0|0:0,0:0:0:0:
2,293,82533,2,0,L|76:300,1,75,0|0,3:0|0:0,0:0:0:0:
244,364,82728,5,4,3:2:0:0:
241,349,82825,1,0,3:0:0:0:
238,334,82923,1,0,3:0:0:0:
235,319,83020,1,0,3:0:0:0:
232,304,83117,2,0,L|240:222,1,75,0|0,3:0|0:0,0:0:0:0:
332,92,83312,2,0,L|339:166,1,75,0|0,3:0|0:0,0:0:0:0:
391,299,83507,5,4,3:2:0:0:
376,295,83604,1,0,3:0:0:0:
361,291,83702,1,0,3:0:0:0:
346,287,83799,1,0,3:0:0:0:
331,283,83897,2,0,B|293:272|293:272|241:277,1,75,0|0,3:0|0:0,0:0:0:0:
176,195,84091,2,0,B|187:157|187:157|182:105,1,75,0|0,3:0|0:0,0:0:0:0:
264,50,84286,2,0,B|302:61|302:61|354:56,1,75,0|0,3:0|0:0,0:0:0:0:
494,143,84481,2,0,B|456:132|456:132|404:137,1,75,0|0,1:0|0:0,0:0:0:0:
276,199,84676,6,0,L|188:193,1,75,0|0,1:0|0:0,0:0:0:0:
45,278,84871,2,0,L|119:283,1,75,0|0,1:0|0:0,0:0:0:0:
306,349,85065,1,0,1:0:0:0:
320,346,85163,1,0,1:0:0:0:
334,343,85260,1,0,1:0:0:0:
348,340,85358,1,0,1:0:0:0:
362,337,85455,6,0,L|464:345,1,89.9999972534181,0|0,1:0|0:0,0:0:0:0:
433,157,85650,2,0,P|421:210|439:283,1,89.9999972534181,2|0,1:2|0:2,0:2:0:0:
307,221,85844,2,0,L|209:206,1,89.9999972534181,0|0,1:0|0:0,0:0:0:0:
46,133,86039,2,0,L|151:122,1,89.9999972534181,2|0,1:2|0:2,0:2:0:0:
325,120,86234,6,0,P|315:75|325:30,1,89.9999972534181,0|0,1:0|0:0,0:0:0:0:
216,40,86429,2,0,P|171:30|126:40,1,89.9999972534181,2|0,1:2|0:0,0:0:0:0:
130,206,86624,2,0,P|175:216|220:206,1,89.9999972534181,0|0,1:0|0:0,0:0:0:0:
342,338,86818,2,0,P|297:328|252:338,1,89.9999972534181,2|0,1:2|0:2,0:2:0:0:
44,360,87013,6,0,L|27:268,1,89.9999972534181,0|0,1:0|0:0,0:0:0:0:
139,163,87208,2,0,L|122:251,1,89.9999972534181,2|0,1:2|0:2,0:2:0:0:
254,336,87403,2,0,L|165:352,1,89.9999972534181,0|0,1:0|0:0,0:0:0:0:
408,283,87598,2,0,L|320:267,1,89.9999972534181,2|0,1:2|0:2,0:2:0:0:
391,108,87792,6,0,P|387:152|403:194,1,89.9999972534181,0|0,1:2|0:2,0:2:0:0:
265,168,87987,2,0,P|280:130|257:45,1,89.9999972534181,2|0,1:2|0:2,0:2:0:0:
120,47,88182,2,0,L|31:38,1,89.9999972534181,0|0,1:2|0:2,0:2:0:0:
84,155,88377,2,0,L|174:146,1,89.9999972534181,2|0,1:2|0:2,0:2:0:0:
251,357,88572,6,0,P|257:305|248:256,1,89.9999972534181,0|0,1:0|0:0,0:0:0:0:
261,152,88766,2,0,P|303:183|349:199,1,89.9999972534181,2|0,1:2|0:0,0:0:0:0:
454,270,88962,2,0,P|405:290|368:323,1,89.9999972534181,0|0,1:0|0:0,0:0:0:0:
251,268,89156,2,0,P|199:262|150:271,1,89.9999972534181,2|0,1:2|0:0,0:0:0:0:
415,152,89351,6,0,P|366:172|329:205,1,89.9999972534181,0|0,1:0|0:0,0:0:0:0:
212,150,89546,2,0,P|160:144|111:153,1,89.9999972534181,2|0,1:2|0:0,0:0:0:0:
23,44,89741,2,0,B|44:163,1,89.9999972534181,0|0,1:0|0:0,0:0:0:0:
0,257,89935,2,0,B|119:236,1,89.9999972534181,2|0,1:2|0:0,0:0:0:0:
287,162,90130,6,0,L|314:65,1,89.9999972534181,8|0,1:0|0:0,0:0:0:0:
403,119,90325,2,0,L|379:31,1,89.9999972534181,2|0,0:2|0:0,0:0:0:0:
193,25,90520,6,0,L|166:122,1,89.9999972534181,8|0,1:0|0:0,0:0:0:0:
77,68,90714,2,0,L|101:156,1,89.9999972534181,2|0,0:2|0:0,0:0:0:0:
317,254,90910,6,0,L|290:351,1,89.9999972534181,8|0,1:0|0:0,0:0:0:0:
203,298,91104,2,0,L|227:386,1,89.9999972534181,2|0,0:2|0:0,0:0:0:0:
21,304,91299,6,0,P|74:219|253:241,1,269.999991760254,2|0,0:1|0:0,0:0:0:0:
309,212,91689,6,0,L|423:197,1,89.9999972534181,0|0,1:0|0:0,0:0:0:0:
512,128,91883,2,0,L|398:113,1,89.9999972534181,2|0,1:2|0:0,0:0:0:0:
326,32,92078,2,0,P|329:76|320:120,1,89.9999972534181,0|0,1:0|0:0,0:0:0:0:
220,206,92273,2,0,P|263:215|311:211,1,89.9999972534181,2|0,1:2|0:0,0:0:0:0:
396,289,92468,6,0,B|388:243|398:196,1,89.9999972534181,0|0,1:2|0:0,0:0:0:0:
422,116,92663,2,0,B|377:109|328:121,1,89.9999972534181,2|0,1:2|0:0,0:0:0:0:
209,117,92857,2,0,P|221:169|217:217,1,89.9999972534181,0|0,1:2|0:0,0:0:0:0:
396,289,93052,2,0,P|342:286|296:298,1,89.9999972534181,2|0,1:2|0:0,0:0:0:0:
155,353,93247,6,0,L|31:344,1,89.9999972534181,0|0,1:0|0:0,0:0:0:0:
0,263,93442,2,0,L|89:256,1,89.9999972534181,2|0,1:2|0:0,0:0:0:0:
368,179,93637,2,0,L|244:188,1,89.9999972534181,0|0,1:0|0:0,0:0:0:0:
179,270,93832,2,0,L|268:276,1,89.9999972534181,2|0,1:2|0:0,0:0:0:0:
89,77,94026,6,0,L|-1:83,1,89.9999972534181,0|0,1:0|0:0,0:0:0:0:
96,174,94221,2,0,L|185:180,1,89.9999972534181,2|0,1:2|0:0,0:0:0:0:
447,126,94416,2,0,P|430:168|427:217,1,89.9999972534181,0|0,1:0|0:0,0:0:0:0:
277,333,94611,2,0,P|294:291|297:242,1,89.9999972534181,2|0,1:2|0:0,0:0:0:0:
246,88,94805,6,0,B|289:97|289:97|333:85,1,89.9999972534181,0|0,1:0|0:0,0:0:0:0:
468,19,95000,2,0,B|458:62|458:62|470:106,1,89.9999972534181,2|0,1:2|0:0,0:0:0:0:
512,249,95195,2,0,B|402:253,1,89.9999972534181,0|0,1:0|0:0,0:0:0:0:
349,344,95390,2,0,B|260:341,1,89.9999972534181,2|0,1:2|0:0,0:0:0:0:
203,265,95585,6,0,P|211:217|207:160,1,89.9999972534181,0|0,1:0|0:0,0:0:0:0:
332,95,95779,2,0,P|324:143|328:200,1,89.9999972534181,2|0,1:2|0:0,0:0:0:0:
120,169,95974,2,0,P|168:177|225:173,1,89.9999972534181,0|0,1:0|0:0,0:0:0:0:
414,190,96169,2,0,P|366:182|309:186,1,89.9999972534181,2|0,1:2|0:0,0:0:0:0:
39,312,96364,6,0,L|132:311,1,89.9999972534181,8|0,1:0|0:0,0:0:0:0:
213,354,96559,2,0,L|213:264,1,89.9999972534181,2|0,0:2|0:0,0:0:0:0:
149,58,96754,6,0,L|103:139,1,89.9999972534181,8|0,1:0|0:0,0:0:0:0:
27,184,96949,2,0,L|104:229,1,89.9999972534181,2|0,0:2|0:0,0:0:0:0:
328,276,97143,6,0,L|280:195,1,89.9999972534181,8|0,1:0|0:0,0:0:0:0:
284,106,97338,2,0,L|205:150,1,89.9999972534181,2|0,0:2|0:0,0:0:0:0:
104,229,97533,1,0,1:2:0:0:
21,40,97922,6,0,P|64:37|104:43,1,75,0|0,3:0|0:0,0:0:0:0:
175,117,98117,2,0,P|212:121|249:117,1,75,0|0,3:0|0:0,0:0:0:0:
394,54,98312,1,4,3:2:0:0:
389,68,98409,1,0,3:0:0:0:
384,82,98507,1,0,3:0:0:0:
379,96,98604,1,0,3:0:0:0:
374,110,98702,2,0,L|376:206,1,75,0|0,3:0|0:0,0:0:0:0:
457,335,98896,2,0,L|458:260,1,75,0|0,3:0|0:0,0:0:0:0:
296,303,99091,5,4,3:2:0:0:
281,305,99189,1,0,3:0:0:0:
266,307,99286,1,0,3:0:0:0:
251,309,99383,1,0,3:0:0:0:
236,311,99481,2,0,L|145:310,1,75,0|0,3:0|0:0,0:0:0:0:
3,367,99676,2,0,L|94:366,1,75,0|0,3:0|0:0,0:0:0:0:
49,232,99870,5,4,3:2:0:0:
53,217,99968,1,0,3:0:0:0:
56,202,100065,1,0,3:0:0:0:
60,187,100163,1,0,3:0:0:0:
64,172,100260,2,0,L|50:89,1,75,0|0,3:0|0:0,0:0:0:0:
201,19,100455,2,0,L|187:102,1,75,0|0,3:0|0:0,0:0:0:0:
210,286,100650,5,4,3:2:0:0:
224,288,100747,1,0,3:0:0:0:
238,290,100844,1,0,3:0:0:0:
252,292,100942,1,0,3:0:0:0:
266,294,101039,2,0,L|254:213,1,75,0|0,3:0|0:0,0:0:0:0:
146,128,101234,2,0,L|134:209,1,75,0|0,3:0|0:0,0:0:0:0:
288,107,101429,5,4,3:2:0:0:
302,110,101526,1,0,3:0:0:0:
316,113,101624,1,0,3:0:0:0:
330,116,101721,1,0,3:0:0:0:
344,119,101818,2,0,L|443:115,1,75,0|0,3:0|0:0,0:0:0:0:
512,235,102013,2,0,L|437:231,1,75,0|0,3:0|0:0,0:0:0:0:
256,192,102208,5,4,3:2:0:0:
242,190,102305,1,0,3:0:0:0:
228,188,102402,1,0,3:0:0:0:
214,186,102500,1,0,3:0:0:0:
200,184,102597,2,0,B|198:219|198:219|212:265,1,75,0|0,3:0|0:0,0:0:0:0:
293,138,102792,2,0,B|264:118|264:118|217:107,1,75,0|0,3:0|0:0,0:0:0:0:
286,241,102987,2,0,B|317:226|317:226|350:191,1,75,0|0,3:0|0:0,0:0:0:0:
148,122,103182,2,0,B|121:145|121:145|99:187,1,75,0|0,3:0|0:0,0:0:0:0:
373,124,103377,2,0,B|366:89|366:89|340:48,1,75,0|0,1:0|0:0,0:0:0:0:
258,317,103572,2,0,B|292:328|292:328|340:327,1,75,0|0,1:0|0:0,0:0:0:0:
256,192,103766,5,0,1:0:0:0:
256,176,103864,1,0,1:0:0:0:
256,161,103961,1,0,1:0:0:0:
256,145,104059,1,0,1:0:0:0:
256,130,104156,5,0,3:0:0:0:
358,152,104351,1,0,3:0:0:0:
375,322,104741,5,0,3:0:0:0:
276,351,104935,1,0,1:0:0:0:
173,337,105130,1,0,3:0:0:0:
173,337,105228,1,0,3:0:0:0:
173,337,105325,1,0,3:0:0:0:
33,275,105520,5,0,3:0:0:0:
36,260,105617,1,0,3:0:0:0:
39,245,105715,5,4,3:2:0:0:
113,193,105909,1,0,3:0:0:0:
486,111,106299,5,0,3:0:0:0:
382,66,106494,1,0,1:0:0:0:
360,177,106689,1,0,3:0:0:0:
360,177,106786,1,0,3:0:0:0:
360,177,106883,1,0,3:0:0:0:
462,304,107078,1,0,3:0:0:0:
447,300,107176,1,0,3:0:0:0:
432,295,107273,5,4,3:2:0:0:
290,278,107468,1,0,3:0:0:0:
329,369,107663,5,2,0:0:0:0:
172,334,107857,1,0,3:0:0:0:
211,246,108052,5,0,1:0:0:0:
54,281,108246,1,0,3:0:0:0:
304,187,108442,5,0,3:0:0:0:
147,152,108636,1,0,3:0:0:0:
256,90,108832,6,0,P|321:80|387:116,1,104.999996795654,4|0,3:2|3:0,0:0:0:0:
450,134,109124,2,0,L|403:169,1,52.4999983978272,4|4,0:0|0:0,0:0:0:0:
338,253,109319,2,0,L|420:250,2,52.4999983978272,4|0|4,3:0|3:0|3:0,0:0:0:0:
220,345,109611,2,0,L|213:286,1,52.4999983978272,0|0,1:0|3:0,0:0:0:0:
149,237,109805,1,0,3:0:0:0:
144,210,109903,1,0,3:0:0:0:
139,184,110000,1,0,3:0:0:0:
134,158,110098,1,0,3:0:0:0:
174,147,110195,1,0,3:0:0:0:
214,136,110292,1,0,3:0:0:0:
255,125,110390,5,4,3:2:0:0:
367,158,110585,1,0,3:0:0:0:
402,359,110974,5,0,3:0:0:0:
287,332,111169,1,0,1:0:0:0:
174,364,111364,1,0,3:0:0:0:
174,364,111461,1,0,3:0:0:0:
174,364,111559,1,0,3:0:0:0:
0,194,111754,1,0,3:0:0:0:
16,197,111851,1,0,3:0:0:0:
32,200,111948,5,4,3:2:0:0:
101,275,112143,1,0,3:0:0:0:
469,130,112533,5,0,3:0:0:0:
358,112,112728,1,0,1:0:0:0:
265,175,112922,1,0,3:0:0:0:
265,175,113020,1,0,3:0:0:0:
265,175,113117,1,0,3:0:0:0:
390,262,113312,1,0,3:0:0:0:
386,246,113409,1,0,3:0:0:0:
382,230,113507,5,4,3:2:0:0:
214,251,113702,1,0,3:0:0:0:
357,152,113896,5,0,3:2:0:0:
288,305,114091,1,0,3:0:0:0:
232,86,114286,5,0,1:2:0:0:
312,224,114481,1,0,3:0:0:0:
70,230,114676,5,0,3:2:0:0:
236,193,114871,1,0,3:0:0:0:
128,23,115065,6,0,P|138:88|102:154,1,104.999996795654,4|0,3:2|3:0,0:0:0:0:
70,230,115358,2,0,L|117:265,1,52.4999983978272,4|4,0:0|0:0,0:0:0:0:
209,206,115552,2,0,L|291:203,2,52.4999983978272,4|0|4,0:3|3:3|0:3,0:3:0:0:
210,322,115845,2,0,L|269:329,1,52.4999983978272,0|0,1:0|0:0,0:0:0:0:
382,294,116039,1,0,3:0:0:0:
407,284,116137,1,0,3:0:0:0:
432,276,116234,1,0,3:0:0:0:
457,268,116332,1,0,3:0:0:0:
447,228,116429,1,0,3:0:0:0:
436,187,116526,1,0,3:0:0:0:
425,146,116624,6,0,B|360:89|242:74|140:114|140:114|198:172|295:166,3,450,2|2|2|2,0:0|0:0|0:0|0:0,0:0:0:0:
48,320,118961,2,0,P|134:273|336:296,1,300,2|2,0:0|0:0,0:0:0:0:
462,354,119741,6,0,B|463:305|435:256|435:256|454:172|434:104|391:70|391:70|356:94|344:176|374:220,2,450,2|2|2,0:0|0:0|0:0,0:0:0:0:
372,357,121299,6,0,P|364:316|368:266,1,75,2|0,0:0|0:0,0:0:0:0:
271,180,121494,2,0,P|279:221|275:271,1,75,2|0,0:0|0:0,0:0:0:0:
382,278,121689,2,0,P|395:238|424:197,1,75,2|0,0:0|0:0,0:0:0:0:
267,261,121883,2,0,P|253:300|224:341,1,75,2|0,0:0|0:0,0:0:0:0:
412,194,122078,2,0,P|449:175|498:166,1,75,2|0,1:2|1:0,0:0:0:0:
231,342,122273,2,0,P|193:360|144:369,1,75,2|0,1:2|1:0,0:0:0:0:
490,292,122468,1,0,1:0:0:0:
286,67,122857,6,0,P|302:112|287:160,1,97.4999955368044,0|0,1:0|0:0,0:0:0:0:
234,239,123052,2,0,P|188:255|140:240,1,97.4999955368044,10|0,1:2|0:0,0:0:0:0:
59,184,123247,2,0,P|42:138|57:90,1,97.4999955368044,0|0,1:0|0:0,0:0:0:0:
111,13,123442,2,0,P|156:-3|204:11,1,97.4999955368044,10|0,1:2|0:2,0:0:0:0:
427,71,123637,6,0,L|324:95,1,97.4999955368044,0|0,1:0|0:0,0:0:0:0:
486,145,123831,2,0,L|457:238,1,97.4999955368044,10|0,1:2|0:0,0:0:0:0:
301,182,124026,2,0,L|373:259,1,97.4999955368044,0|0,1:0|0:0,0:0:0:0:
424,334,124221,2,0,L|321:357,1,97.4999955368044,10|0,1:2|0:0,0:0:0:0:
152,356,124416,6,0,P|189:321|198:275,1,97.4999955368044,0|0,1:0|0:0,0:0:0:0:
155,205,124611,2,0,P|106:190|61:203,1,97.4999955368044,10|0,1:2|0:0,0:0:0:0:
22,275,124805,2,0,P|33:324|67:356,1,97.4999955368044,0|0,1:0|0:0,0:0:0:0:
106,283,125000,2,0,P|94:233|60:201,1,97.4999955368044,10|0,1:2|0:0,0:0:0:0:
213,133,125195,6,0,P|165:118|120:131,1,97.4999955368044,0|0,1:0|0:0,0:0:0:0:
164,201,125390,2,0,P|213:215|258:202,1,97.4999955368044,10|0,1:2|0:0,0:0:0:0:
241,369,125584,2,0,P|277:334|288:289,1,97.4999955368044,0|0,1:0|0:0,0:0:0:0:
206,292,125779,2,0,P|168:327|157:372,1,97.4999955368044,10|0,1:2|0:0,0:0:0:0:
371,328,125974,6,0,B|378:283|378:283|359:214,1,97.4999955368044,0|0,1:0|0:0,0:0:0:0:
446,136,126169,2,0,B|401:143|401:143|332:124,1,97.4999955368044,10|0,1:2|0:0,0:0:0:0:
161,209,126364,2,0,B|206:216|206:216|275:197,1,97.4999955368044,0|0,1:0|0:0,0:0:0:0:
246,18,126559,2,0,B|253:63|253:63|234:132,1,97.4999955368044,10|0,1:2|0:0,0:0:0:0:
67,125,126754,6,0,P|110:110|160:121,1,97.4999955368044,0|0,1:0|0:0,0:0:0:0:
266,299,126948,2,0,P|220:314|173:303,1,97.4999955368044,10|0,1:2|0:0,0:0:0:0:
22,220,127143,1,0,1:0:0:0:
118,214,127240,1,0,1:0:0:0:
215,209,127338,2,0,L|319:203,1,97.4999955368044,10|0,1:2|0:0,0:0:0:0:
419,358,127533,6,0,P|396:321|390:264,1,97.4999955368044,2|0,1:0|0:0,0:0:0:0:
479,282,127728,2,0,L|456:186,1,97.4999955368044,10|0,1:2|0:0,0:0:0:0:
407,44,127922,2,0,P|397:86|361:130,1,97.4999955368044,2|0,1:0|0:0,0:0:0:0:
311,56,128117,2,0,L|259:140,1,97.4999955368044,10|0,1:2|0:0,0:0:0:0:
98,342,128312,5,2,1:0:0:0:
192,365,128409,1,0,1:0:0:0:
280,323,128507,2,0,P|327:313|388:326,1,97.4999955368044,10|0,1:2|0:0,0:0:0:0:
274,163,128702,1,0,1:0:0:0:
179,139,128799,1,0,1:0:0:0:
88,171,128896,2,0,P|41:181|-19:168,1,97.4999955368044,10|0,1:2|0:0,0:0:0:0:
109,39,129091,6,0,B|152:43|152:43|215:41,1,97.4999955368044,0|0,1:0|0:0,0:0:0:0:
339,82,129286,2,0,B|382:78|382:78|445:80,1,97.4999955368044,10|0,1:2|0:0,0:0:0:0:
462,201,129481,2,0,B|419:197|419:197|356:199,1,97.4999955368044,0|0,1:0|0:0,0:0:0:0:
232,158,129676,2,0,B|189:162|189:162|126:160,1,97.4999955368044,10|0,1:2|0:0,0:0:0:0:
38,358,129870,6,0,P|45:309|36:261,1,97.4999955368044,0|0,1:0|0:0,0:0:0:0:
135,256,130065,2,0,P|127:211|134:161,1,97.4999955368044,10|0,1:2|0:0,0:0:0:0:
262,384,130260,2,0,P|255:340|263:288,1,97.4999955368044,0|0,1:0|0:0,0:0:0:0:
367,294,130455,2,0,P|374:249|364:199,1,97.4999955368044,10|0,1:2|0:0,0:0:0:0:
135,119,130650,6,0,L|236:123,1,97.4999955368044,0|0,1:0|0:0,0:0:0:0:
363,198,130844,2,0,L|257:203,1,97.4999955368044,10|0,1:2|0:0,0:0:0:0:
147,222,131039,2,0,P|189:254|198:296,1,97.4999955368044,0|0,1:0|0:0,0:0:0:0:
341,116,131233,2,0,P|300:82|291:40,1,97.4999955368044,10|0,1:2|0:0,0:0:0:0:
197,294,131429,6,0,L|295:304,1,97.4999955368044,0|0,1:2|0:2,0:2:0:0:
290,40,131624,2,0,L|193:31,1,97.4999955368044,10|0,1:2|0:2,0:2:0:0:
147,222,131819,2,0,L|157:116,1,97.4999955368044,0|0,1:2|0:2,0:2:0:0:
341,116,132013,2,0,L|331:222,1,97.4999955368044,10|0,1:2|0:2,0:2:0:0:
196,316,132208,6,0,B|242:331|242:331|291:320,1,97.4999955368044,0|0,1:0|0:0,0:0:0:0:
379,384,132403,2,0,B|393:339|393:339|383:290,1,97.4999955368044,10|0,1:2|0:0,0:0:0:0:
444,208,132598,2,0,B|396:196|396:196|348:204,1,97.4999955368044,0|0,1:0|0:0,0:0:0:0:
264,137,132793,2,0,B|252:185|252:185|261:236,1,97.4999955368044,10|0,1:2|0:0,0:0:0:0:
510,294,132987,6,0,P|468:287|413:299,1,97.4999955368044,0|0,1:0|0:0,0:0:0:0:
263,327,133182,2,0,P|253:276|260:232,1,97.4999955368044,10|0,1:2|0:0,0:0:0:0:
416,58,133377,2,0,P|374:65|319:53,1,97.4999955368044,0|0,1:0|0:0,0:0:0:0:
169,25,133572,2,0,P|159:76|166:120,1,97.4999955368044,10|0,1:2|0:0,0:0:0:0:
40,202,133766,6,0,P|50:151|43:107,1,97.4999955368044,0|0,1:0|0:0,0:0:0:0:
147,233,133961,2,0,L|253:226,1,97.4999955368044,10|0,1:2|0:0,0:0:0:0:
327,324,134156,2,0,L|229:319,1,97.4999955368044,0|0,1:0|0:0,0:0:0:0:
340,225,134351,2,0,L|333:119,1,97.4999955368044,10|0,1:2|0:0,0:0:0:0:
424,264,134546,2,0,L|419:361,1,97.4999955368044,0|0,1:0|0:0,0:0:0:0:
481,139,134741,5,8,1:0:0:0:
408,111,134838,1,8,1:0:0:0:
333,127,134935,1,8,1:0:0:0:
279,182,135033,1,8,1:0:0:0:
225,237,135131,1,8,1:0:0:0:
150,253,135228,1,8,1:0:0:0:
78,226,135325,6,0,L|105:339,1,104.999996795654,4|0,1:0|0:0,0:0:0:0:
163,133,135520,2,0,L|188:235,1,104.999996795654,12|0,1:0|0:0,0:0:0:0:
387,70,135715,2,0,L|362:172,1,104.999996795654,4|0,1:0|0:0,0:0:0:0:
472,163,135909,2,0,L|445:276,1,104.999996795654,12|0,1:0|0:0,0:0:0:0:
239,43,136104,6,0,L|264:145,1,104.999996795654,4|0,1:0|0:0,0:0:0:0:
274,290,136299,1,12,1:0:0:0:
358,314,136396,1,0,1:0:0:0:
428,262,136494,2,0,L|453:364,1,104.999996795654,4|0,1:0|0:0,0:0:0:0:
488,146,136689,2,0,L|513:248,1,104.999996795654,12|0,1:0|0:0,0:0:0:0:
261,34,136883,6,0,L|236:136,1,104.999996795654,4|0,1:0|0:0,0:0:0:0:
125,88,137078,2,0,L|150:190,1,104.999996795654,12|0,1:0|0:0,0:0:0:0:
252,229,137273,2,0,L|226:336,1,104.999996795654,4|0,1:0|0:0,0:0:0:0:
124,283,137468,2,0,L|97:392,1,104.999996795654,12|0,1:0|0:0,0:0:0:0:
37,184,137663,2,0,L|9:294,1,104.999996795654,4|0,1:0|0:0,0:0:0:0:
142,61,137857,5,12,1:0:0:0:
226,37,137954,1,0,1:0:0:0:
296,89,138052,2,0,L|271:196,1,104.999996795654,4|0,1:0|0:0,0:0:0:0:
410,44,138247,2,0,L|385:151,1,104.999996795654,12|0,1:0|0:0,0:0:0:0:
453,300,138442,6,0,P|397:281|336:295,1,104.999996795654,4|0,1:0|0:0,0:0:0:0:
278,370,138637,2,0,P|239:325|179:307,1,104.999996795654,12|0,1:0|0:0,0:0:0:0:
87,331,138831,2,0,P|75:273|32:227,1,104.999996795654,4|0,1:0|0:0,0:0:0:0:
26,110,139026,2,0,P|83:121|129:164,1,104.999996795654,12|0,1:0|0:0,0:0:0:0:
194,215,139221,6,0,P|250:196|311:210,1,104.999996795654,4|0,1:0|0:0,0:0:0:0:
510,205,139416,2,0,P|454:224|393:210,1,104.999996795654,12|0,1:0|0:0,0:0:0:0:
348,52,139611,2,0,P|367:108|353:169,1,104.999996795654,4|0,1:0|0:0,0:0:0:0:
355,367,139806,2,0,P|336:311|350:250,1,104.999996795654,12|0,1:0|0:0,0:0:0:0:
52,34,140000,6,0,L|167:47,1,104.999996795654,4|0,1:0|0:0,0:0:0:0:
259,24,140195,2,0,L|246:139,1,104.999996795654,12|0,1:0|0:0,0:0:0:0:
110,202,140390,2,0,L|225:215,1,104.999996795654,4|0,1:0|0:0,0:0:0:0:
317,192,140585,2,0,L|304:307,1,104.999996795654,12|0,1:0|0:0,0:0:0:0:
126,323,140779,5,4,1:0:0:0:
24,293,140877,2,0,P|35:194|16:79,1,209.999993591309,0|0,1:0|0:0,0:0:0:0:
59,5,141169,1,8,1:0:0:0:
146,25,141266,1,8,1:0:0:0:
199,98,141364,1,8,1:0:0:0:
208,187,141461,1,8,1:0:0:0:
168,268,141559,6,0,B|143:321|143:321|194:368|305:367|338:324|338:324|243:298,1,360,12|0,1:0|0:0,0:0:0:0:
208,187,141948,2,0,B|89:174|65:53|65:53|130:51|170:30|170:30|208:54,1,360,12|0,1:0|0:0,0:0:0:0:
302,121,142338,2,0,P|281:278|98:251,1,360,12|0,1:0|0:0,0:0:0:0:
20,349,142728,2,0,B|32:299|23:224|7:183|7:183|73:192|126:160|126:160|159:178|190:184,1,360,12|0,1:0|0:0,0:0:0:0:
302,121,143117,6,0,B|164:32|164:32|214:6|274:8|274:8|352:58,1,360,12|0,1:0|0:0,0:0:0:0:
464,0,143507,2,0,B|421:51|399:145|427:213|427:213|348:192|283:239,1,360,12|0,1:0|0:0,0:0:0:0:
161,356,143896,2,0,B|206:337|334:335|420:374|420:374|379:317|364:279,1,360,12|0,1:0|0:0,0:0:0:0:
297,229,144286,2,0,B|170:227|170:227|125:153|125:153|282:154,1,360,12|0,1:0|0:0,0:0:0:0:
384,69,144676,6,0,P|483:149|348:117,1,360,12|0,1:0|0:0,0:0:0:0:
381,63,145065,6,0,P|483:168|341:145,1,382.500007295609,12|0,1:0|0:0,0:0:0:0:
378,57,145455,6,0,P|490:171|337:159,1,404.999987640381,12|0,1:0|0:0,0:0:0:0:
375,51,145844,6,0,P|495:176|326:140,1,427.499988584519,12|0,1:0|0:0,0:0:0:0:
17,281,146234,5,4,1:0:0:0:
415,131,146624,1,4,1:0:0:0:
194,342,147013,1,8,1:0:0:0:
0,103,147208,5,8,1:0:0:0:
66,162,147305,1,8,1:0:0:0:
152,184,147402,1,8,1:0:0:0:
239,165,147500,1,8,1:0:0:0:
326,146,147597,1,8,1:0:0:0:
412,168,147694,1,8,1:0:0:0:
478,227,147792,6,0,P|501:272|505:320,1,89.9999972534181,0|0,3:0|0:0,0:0:0:0:
387,348,147987,2,0,P|335:356|289:344,1,89.9999972534181,8|0,3:0|0:0,0:0:0:0:
169,303,148182,2,0,P|120:321|86:354,1,89.9999972534181,0|0,3:0|0:0,0:0:0:0:
0,164,148377,5,8,3:0:0:0:
81,162,148474,1,0,3:0:0:0:
155,129,148572,2,0,P|197:113|262:111,1,89.9999972534181,0|0,3:0|0:0,0:0:0:0:
371,25,148766,2,0,P|378:69|396:110,1,89.9999972534181,8|0,3:0|0:0,0:0:0:0:
492,271,148961,5,0,3:0:0:0:
419,309,149059,1,0,3:0:0:0:
338,304,149156,1,8,3:0:0:0:
272,255,149254,1,0,3:0:0:0:
243,179,149351,2,0,P|183:166|129:173,1,89.9999972534181,0|0,3:0|0:0,0:0:0:0:
37,41,149546,2,0,P|97:54|151:47,1,89.9999972534181,8|0,3:0|0:0,0:0:0:0:
326,75,149741,5,0,3:0:0:0:
364,146,149839,1,0,3:0:0:0:
360,226,149936,1,8,3:0:0:0:
310,290,150034,1,0,3:0:0:0:
236,322,150131,2,0,P|184:355|151:398,1,89.9999972534181,0|0,3:0|0:0,0:0:0:0:
55,336,150325,2,0,P|52:274|31:224,1,89.9999972534181,8|0,3:0|0:0,0:0:0:0:
88,138,150520,2,0,P|140:105|173:62,1,89.9999972534181,0|0,3:0|0:0,0:0:0:0:
269,124,150714,2,0,P|271:185|292:235,1,89.9999972534181,8|0,3:0|0:0,0:0:0:0:
499,191,150910,6,0,L|493:290,1,89.9999972534181,0|0,3:0|0:0,0:0:0:0:
407,359,151104,2,0,L|308:353,1,89.9999972534181,8|0,3:0|0:0,0:0:0:0:
234,270,151299,2,0,L|240:171,1,89.9999972534181,0|0,3:0|0:0,0:0:0:0:
330,106,151494,2,0,L|429:112,1,89.9999972534181,8|0,3:0|0:0,0:0:0:0:
416,233,151689,2,0,L|327:233,1,89.9999972534181,0|0,3:0|0:0,0:0:0:0:
115,78,152078,6,0,P|122:118|118:177,1,89.9999972534181,0|0,3:0|0:0,0:0:0:0:
213,131,152273,2,0,P|210:175|217:220,1,89.9999972534181,8|0,3:0|0:0,0:0:0:0:
123,283,152468,1,0,3:0:0:0:
123,283,152857,6,0,P|119:327|105:370,1,89.9999972534181,0|0,3:0|0:0,0:0:0:0:
217,220,153052,2,0,P|221:265|235:308,1,89.9999972534181,8|0,3:0|0:0,0:0:0:0:
39,311,153247,2,0,P|75:293|133:282,1,89.9999972534181,0|0,3:0|0:0,0:0:0:0:
301,249,153442,2,0,P|264:231|206:220,1,89.9999972534181,8|0,3:0|0:0,0:0:0:0:
78,113,153637,2,0,P|104:144|130:197,1,89.9999972534181,0|0,3:0|0:0,0:0:0:0:
258,52,153831,2,0,P|231:83|205:136,1,89.9999972534181,8|0,3:0|0:0,0:0:0:0:
257,320,154026,6,0,P|277:236|336:148,1,179.999994506836,0|8,3:0|3:0,0:0:0:0:
441,309,154416,2,0,P|394:302|348:306,1,89.9999972534181,0|0,3:0|0:0,0:0:0:0:
412,184,154611,2,0,P|459:191|505:187,1,89.9999972534181,8|0,3:0|0:0,0:0:0:0:
414,74,154805,2,0,P|367:67|321:71,1,89.9999972534181,0|0,3:0|0:0,0:0:0:0:
124,34,155000,1,8,3:0:0:0:
167,101,155097,1,0,3:0:0:0:
187,179,155195,2,0,P|168:266|121:343,1,179.999994506836,0|8,3:0|3:0,0:0:0:0:
40,236,155585,6,0,P|60:183|88:140,1,89.9999972534181,0|0,3:0|0:0,0:0:0:0:
246,85,155779,1,8,3:0:0:0:
318,121,155876,1,0,3:0:0:0:
372,181,155974,2,0,P|399:265|401:290,1,89.9999972534181,0|0,3:0|0:0,0:0:0:0:
211,339,156169,1,8,3:0:0:0:
155,280,156266,1,0,3:0:0:0:
139,199,156364,1,0,3:0:0:0:
176,127,156461,1,0,3:0:0:0:
246,85,156559,5,8,3:0:0:0:
298,99,156656,1,0,3:0:0:0:
332,142,156754,1,0,3:0:0:0:
331,196,156851,1,0,3:0:0:0:
268,259,156948,5,8,3:0:0:0:
332,308,157046,1,0,3:0:0:0:
412,306,157143,2,0,P|456:281|482:234,1,89.9999972534181,0|0,3:0|0:0,0:0:0:0:
510,103,157338,2,0,P|462:119|409:107,1,89.9999972534181,8|0,3:0|0:0,0:0:0:0:
269,35,157533,5,0,3:0:0:0:
189,16,157631,1,0,3:0:0:0:
113,44,157728,1,8,3:0:0:0:
74,115,157825,1,0,3:0:0:0:
85,194,157922,2,0,P|108:239|154:267,1,89.9999972534181,0|0,3:0|0:0,0:0:0:0:
285,351,158117,2,0,P|257:308|256:254,1,89.9999972534181,8|0,3:0|0:0,0:0:0:0:
201,147,158312,1,0,3:0:0:0:
443,127,158507,5,8,3:0:0:0:
366,102,158604,1,0,3:0:0:0:
286,120,158702,2,0,P|252:133|192:148,1,89.9999972534181,0|0,3:0|0:0,0:0:0:0:
6,246,158896,5,8,3:0:0:0:
83,223,158993,1,0,3:0:0:0:
163,235,159091,2,0,P|197:248|257:263,1,89.9999972534181,0|0,3:0|0:0,0:0:0:0:
460,332,159286,5,8,3:0:0:0:
383,306,159384,1,0,3:0:0:0:
305,332,159481,2,0,P|271:345|211:360,1,89.9999972534181,0|0,3:0|0:0,0:0:0:0:
78,369,159676,2,0,P|83:333|100:273,1,89.9999972534181,8|0,3:0|0:0,0:0:0:0:
155,152,159871,1,0,3:0:0:0:
500,122,160260,6,0,P|404:92|283:140,1,209.999993591309,4|0,3:2|3:0,3:0:0:0:
293,136,160747,1,0,3:0:0:0:
284,149,160844,1,0,3:0:0:0:
204,272,161039,1,8,3:0:0:0:
201,256,161137,1,0,3:0:0:0:
197,240,161234,2,0,L|175:192,1,52.4999983978272,0|0,3:0|3:0,3:0:0:0:
89,112,161429,2,0,P|64:183|109:290,1,157.499995193482,0|0,3:0|3:0,3:0:0:0:
85,364,161818,5,8,3:0:0:0:
100,359,161916,1,0,3:0:0:0:
115,354,162013,1,0,3:0:0:0:
130,349,162111,1,0,3:0:0:0:
145,345,162208,2,0,P|201:335|287:349,1,104.999996795654,0|0,3:0|3:0,3:0:0:0:
365,248,162598,2,0,B|344:285|344:285|356:317|389:346|389:346|373:373,2,150,8|0|0,3:0|3:0|3:0,3:0:0:0:
460,283,163182,1,0,3:0:0:0:
481,153,163377,5,8,3:0:0:0:
465,154,163474,1,0,3:0:0:0:
449,155,163572,1,0,3:0:0:0:
433,156,163669,1,0,3:0:0:0:
417,157,163766,2,0,L|343:150,1,52.4999983978272,0|0,3:0|3:0,3:0:0:0:
244,96,163961,2,0,L|239:148,1,52.4999983978272,0|0,3:0|3:0,3:0:0:0:
316,253,164156,2,0,P|244:233|139:250,1,157.499995193482,8|0,3:0|3:0,3:0:0:0:
75,294,164546,2,0,L|69:225,1,52.4999983978272,0|0,3:0|3:0,3:0:0:0:
13,133,164741,2,0,L|65:128,1,52.4999983978272,0|0,3:0|3:0,3:0:0:0:
177,24,164935,6,0,P|225:85|320:71,1,157.499995193482,8|0,3:0|3:0,3:0:0:0:
203,124,165325,2,0,P|162:172|120:187,2,104.999996795654,0|0|8,3:0|3:0|3:0,3:0:0:0:
364,52,165909,1,0,3:0:0:0:
379,55,166007,1,0,3:0:0:0:
394,58,166104,2,0,L|471:43,1,52.4999983978272,0|0,3:0|3:0,3:0:0:0:
502,164,166299,2,0,L|450:153,1,52.4999983978272,0|0,3:0|3:0,3:0:0:0:
273,203,166494,5,4,3:2:0:0:
257,206,166591,1,0,3:0:0:0:
241,209,166689,1,0,3:0:0:0:
225,212,166786,1,0,3:0:0:0:
209,215,166883,2,0,L|137:218,1,52.4999983978272,0|0,3:0|3:0,3:0:0:0:
88,353,167078,2,0,L|140:350,1,52.4999983978272,0|0,3:0|3:0,3:0:0:0:
256,303,167273,2,0,L|308:300,1,52.4999983978272,8|0,3:0|3:0,3:0:0:0:
420,326,167468,1,0,3:0:0:0:
421,310,167565,1,0,3:0:0:0:
422,294,167663,2,0,L|416:237,1,52.4999983978272,0|0,3:0|3:0,3:0:0:0:
321,145,167857,2,0,L|315:202,1,52.4999983978272,0|0,3:0|3:0,3:0:0:0:
171,272,168052,5,8,3:0:0:0:
169,256,168150,1,0,3:0:0:0:
167,240,168247,1,0,3:0:0:0:
165,224,168344,1,0,3:0:0:0:
163,208,168442,2,0,L|173:148,1,52.4999983978272,0|0,3:0|3:0,3:0:0:0:
214,55,168637,2,0,L|274:65,1,52.4999983978272,0|0,3:0|3:0,3:0:0:0:
482,96,168831,2,0,P|406:92|344:157,1,157.499995193482,8|0,3:0|3:0,3:0:0:0:
348,160,169221,1,0,3:0:0:0:
350,175,169318,1,0,3:0:0:0:
352,190,169416,1,0,3:0:0:0:
353,205,169513,1,0,3:0:0:0:
355,220,169611,6,0,P|340:287|231:327,1,157.499995193482,8|0,3:0|3:0,3:0:0:0:
111,335,170000,2,0,L|144:282,1,52.4999983978272,0|0,3:0|3:0,3:0:0:0:
266,241,170195,2,0,L|203:238,1,52.4999983978272,0|0,3:0|3:0,3:0:0:0:
108,153,170390,2,0,L|137:208,1,52.4999983978272,8|0,3:0|3:0,3:0:0:0:
231,346,170585,5,0,3:0:0:0:
246,347,170682,1,0,3:0:0:0:
261,348,170779,1,0,3:0:0:0:
276,350,170877,1,0,3:0:0:0:
291,351,170974,1,0,3:0:0:0:
306,352,171072,1,0,3:0:0:0:
321,353,171169,2,0,L|385:345,1,52.4999983978272,8|0,3:0|3:0,3:0:0:0:
481,324,171364,1,0,3:0:0:0:
485,308,171461,1,0,3:0:0:0:
488,292,171559,2,0,L|485:236,1,52.4999983978272,0|0,3:0|3:0,3:0:0:0:
377,230,171754,1,0,3:0:0:0:
361,226,171851,1,0,3:0:0:0:
345,223,171949,2,0,L|289:226,1,52.4999983978272,8|0,3:0|3:0,3:0:0:0:
214,284,172143,1,0,3:0:0:0:
198,288,172240,1,0,3:0:0:0:
182,291,172338,6,0,L|104:287,1,75,4|0,1:1|1:0,1:0:0:0:
23,248,172533,2,0,L|19:166,1,75,0|0,1:0|1:0,1:0:0:0:
42,47,172728,5,0,1:0:0:0:
118,34,172825,1,0,1:0:0:0:
186,78,172923,1,2,1:2:0:0:
214,151,173020,1,0,1:0:0:0:
201,228,173117,2,0,L|220:315,1,75,0|0,1:0|0:0,0:0:0:0:
314,373,173312,2,0,L|331:300,1,75,2|0,1:2|0:0,0:0:0:0:
365,180,173507,5,0,1:2:0:0:
431,146,173604,1,0,1:0:0:0:
496,183,173702,2,0,L|451:255,1,75,2|0,1:2|0:0,0:0:0:0:
314,373,173896,1,0,1:0:0:0:
238,379,173994,1,0,1:0:0:0:
170,346,174091,2,0,L|214:273,1,75,2|0,1:2|0:0,0:0:0:0:
431,146,174286,6,0,L|388:219,1,75,0|0,1:0|0:0,0:0:0:0:
296,226,174481,2,0,L|222:183,1,75,2|0,1:2|0:0,0:0:0:0:
215,90,174676,2,0,L|257:16,1,75,0|0,1:0|0:0,0:0:0:0:
349,9,174870,2,0,L|422:51,1,75,2|0,1:2|0:0,0:0:0:0:
512,263,175065,5,0,1:0:0:0:
438,244,175163,1,0,1:0:0:0:
363,245,175260,2,0,L|277:244,1,75,2|0,1:2|0:0,0:0:0:0:
35,322,175455,1,0,1:0:0:0:
108,340,175553,1,0,1:0:0:0:
183,339,175650,2,0,L|268:339,1,75,2|0,1:2|0:0,0:0:0:0:
424,331,175845,6,0,P|391:315|363:287,1,75,0|0,1:0|0:0,0:0:0:0:
276,166,176039,1,2,1:2:0:0:
255,93,176137,1,0,1:0:0:0:
203,39,176234,2,0,P|137:32|68:73,1,150,0|2,1:0|1:2,0:0:0:0:
75,228,176624,2,0,P|131:263|210:254,1,150,0|2,1:0|1:2,0:0:0:0:
264,200,176916,1,0,1:0:0:0:
276,166,177013,1,0,1:0:0:0:
275,128,177110,1,0,1:0:0:0:
264,93,177208,1,2,1:2:0:0:
374,360,177403,6,0,L|358:263,1,75,0|0,1:0|0:0,0:0:0:0:
449,230,177598,2,0,L|465:133,1,75,2|0,1:2|0:0,0:0:0:0:
277,176,177792,2,0,L|374:192,1,75,0|0,1:0|0:0,0:0:0:0:
174,80,177987,2,0,L|271:64,1,75,2|0,1:2|0:0,0:0:0:0:
25,209,178182,1,0,1:0:0:0:
305,258,178377,6,0,P|281:301|282:362,1,104.999996795654,4|0,1:1|0:0,0:0:0:0:
277,176,178572,2,0,P|234:201|205:254,1,104.999996795654,4|0,1:0|0:0,0:0:0:0:
293,92,178766,2,0,P|243:92|191:124,1,104.999996795654,4|0,1:1|0:0,0:0:0:0:
399,166,178962,6,0,P|432:243|418:334,1,150,0|2,1:0|1:2,0:0:0:0:
243,343,179351,1,0,1:0:0:0:
211,275,179448,1,0,1:0:0:0:
214,201,179546,2,0,P|214:163|206:125,1,75,2|0,1:2|0:0,0:0:0:0:
21,79,179741,5,0,1:0:0:0:
88,47,179838,1,0,1:0:0:0:
162,50,179936,2,0,P|200:49|238:41,1,75,2|0,1:2|0:0,0:0:0:0:
504,78,180130,1,0,1:0:0:0:
437,110,180227,1,0,1:0:0:0:
363,107,180325,2,0,P|324:107|286:115,1,75,2|0,1:2|0:0,0:0:0:0:
132,123,180520,6,0,P|151:156|177:185,1,75,0|0,1:0|0:0,0:0:0:0:
259,266,180715,2,0,P|239:299|213:328,1,75,2|0,1:2|0:0,0:0:0:0:
23,320,180909,2,0,P|87:272|188:270,1,150,0|2,1:0|1:2,0:0:0:0:
363,107,181299,5,0,1:0:0:0:
413,162,181396,1,0,1:0:0:0:
424,236,181494,2,0,P|421:273|400:311,1,75,2|0,1:2|0:0,0:0:0:0:
255,283,181689,1,0,1:0:0:0:
182,299,181786,1,0,1:0:0:0:
112,272,181884,2,0,P|81:251|58:214,1,75,2|0,1:2|0:0,0:0:0:0:
38,49,182078,6,0,P|114:86|137:190,1,150,0|2,1:0|1:2,0:0:0:0:
306,339,182468,1,0,1:0:0:0:
255,283,182565,1,0,1:0:0:0:
244,209,182663,2,0,P|246:171|267:133,1,75,2|0,1:2|0:0,0:0:0:0:
405,58,182857,6,0,P|371:74|327:75,1,75,0|0,1:0|0:0,0:0:0:0:
195,4,183052,2,0,P|226:24|249:61,1,75,2|0,1:2|0:0,0:0:0:0:
437,194,183247,1,0,1:0:0:0:
382,243,183344,1,0,1:0:0:0:
311,266,183442,2,0,P|273:263|235:242,1,75,2|0,1:2|0:0,0:0:0:0:
33,189,183637,5,0,1:0:0:0:
105,205,183734,1,0,1:0:0:0:
178,189,183832,2,0,P|209:168|232:131,1,75,2|0,1:2|0:0,0:0:0:0:
431,61,184026,2,0,P|362:95|329:186,1,150,0|2,1:0|1:2,0:0:0:0:
447,353,184416,1,0,1:0:0:0:
384,311,184513,1,0,1:0:0:0:
310,293,184611,2,0,P|267:295|230:305,1,75,4|0,1:0|0:0,0:0:0:0:
29,356,184805,1,0,1:0:0:0:
65,290,184902,1,0,1:0:0:0:
123,242,185000,2,0,P|162:224|200:217,1,75,4|0,1:0|0:0,0:0:0:0:
330,157,185195,5,2,0:0:0:0:
269,177,191428,5,0,3:0:0:0:
205,119,192207,1,0,3:0:0:0:
129,167,192987,5,0,3:0:0:0:
198,214,193376,1,0,3:0:0:0:
269,177,193766,1,0,3:0:0:0:
127,320,194546,6,0,P|196:340|292:309,1,150,0|0,0:0|3:0,0:0:0:0:
397,275,195325,2,0,P|344:235|251:210,1,150,0|0,0:0|3:0,0:0:0:0:
141,198,196103,6,0,P|164:155|215:112,1,112.5,0|0,3:0|0:0,0:0:0:0:
230,81,196493,2,0,P|244:132|286:181,1,112.5,0|0,3:0|0:0,0:0:0:0:
346,258,196883,1,0,3:0:0:0:
445,266,197077,1,0,1:0:0:0:
449,276,197175,1,0,1:0:0:0:
453,286,197272,1,0,3:0:0:0:
457,296,197370,1,0,1:0:0:0:
461,306,197467,1,0,1:0:0:0:
465,316,197564,1,0,1:0:0:0:
469,326,197662,5,0,3:0:0:0:
353,356,198441,1,0,3:0:0:0:
207,249,199220,5,0,3:0:0:0:
295,220,199610,1,0,3:0:0:0:
383,261,200000,1,0,3:0:0:0:
512,145,200779,6,0,P|438:156|364:146,1,150,0|0,0:0|3:0,0:0:0:0:
254,111,201558,2,0,P|265:185|255:259,1,150,0|0,0:0|3:0,0:0:0:0:
324,316,202337,5,0,3:0:0:0:
225,364,202727,1,0,3:0:0:0:
173,269,203117,1,0,3:0:0:0:
285,224,203312,5,0,1:0:0:0:
288,210,203409,1,0,1:0:0:0:
292,196,203507,1,0,3:0:0:0:
296,181,203604,1,0,1:0:0:0:
300,167,203702,1,0,1:0:0:0:
304,152,203799,1,0,1:0:0:0:
308,138,203896,6,0,L|357:79,1,75,0|0,3:0|0:0,0:0:0:0:
399,208,204091,2,0,L|473:208,1,75,0|0,3:0|0:0,0:0:0:0:
341,320,204286,5,4,3:2:0:0:
326,319,204383,1,0,3:0:0:0:
310,318,204481,1,0,3:0:0:0:
295,317,204578,1,0,3:0:0:0:
280,314,204676,2,0,L|195:294,1,75,0|0,3:0|0:0,0:0:0:0:
60,235,204870,2,0,L|145:215,1,75,0|0,3:0|0:0,0:0:0:0:
238,74,205065,5,4,3:2:0:0:
242,88,205163,1,0,3:0:0:0:
246,102,205260,1,0,3:0:0:0:
250,116,205357,1,0,3:0:0:0:
253,130,205455,2,0,L|227:213,1,75,0|0,3:0|0:0,0:0:0:0:
190,331,205650,2,0,L|263:313,1,75,0|0,3:0|0:0,0:0:0:0:
371,242,205844,5,4,3:2:0:0:
385,244,205942,1,0,3:0:0:0:
399,246,206039,1,0,3:0:0:0:
413,248,206137,1,0,3:0:0:0:
427,251,206234,2,0,L|412:171,1,75,0|0,3:0|0:0,0:0:0:0:
329,39,206429,2,0,L|314:119,1,75,0|0,3:0|0:0,0:0:0:0:
237,251,206624,5,4,3:2:0:0:
243,264,206721,1,0,3:0:0:0:
249,277,206819,1,0,3:0:0:0:
256,290,206916,1,0,3:0:0:0:
263,303,207013,2,0,L|189:340,1,75,0|0,3:0|0:0,0:0:0:0:
37,298,207208,2,0,L|127:282,1,75,0|0,3:0|0:0,0:0:0:0:
271,182,207403,5,4,3:2:0:0:
256,180,207500,1,0,3:0:0:0:
240,178,207598,1,0,3:0:0:0:
225,176,207695,1,0,3:0:0:0:
210,174,207793,2,0,L|136:187,1,75,0|0,3:0|0:0,0:0:0:0:
8,85,207987,2,0,L|81:98,1,75,0|0,3:0|0:0,0:0:0:0:
244,47,208182,5,4,3:2:0:0:
258,45,208280,1,0,3:0:0:0:
272,43,208377,1,0,3:0:0:0:
286,41,208474,1,0,3:0:0:0:
301,40,208572,6,0,P|339:42|397:54,1,75,0|0,3:0|0:0,0:0:0:0:
451,96,208767,2,0,P|476:124|508:173,1,75,0|0,3:0|0:0,0:0:0:0:
206,133,208961,2,0,P|244:135|302:147,1,75,0|0,3:0|0:0,0:0:0:0:
405,227,209156,2,0,P|430:255|460:305,1,75,0|0,1:0|0:0,0:0:0:0:
301,349,209351,6,0,P|263:356|204:360,1,75,0|0,1:0|0:0,1:0:0:0:
98,319,209546,2,0,P|109:282|136:229,1,75,0|0,1:0|0:0,0:0:0:0:
263,150,209741,1,0,1:0:0:0:
258,164,209838,1,0,1:0:0:0:
253,178,209935,1,0,1:2:0:0:
248,192,210033,1,0,1:0:0:0:
243,206,210130,6,0,L|261:295,1,89.9999972534181,0|0,1:0|0:0,0:0:0:0:
288,384,210325,2,0,L|356:323,1,89.9999972534181,2|0,1:2|0:0,0:0:0:0:
420,246,210520,2,0,L|333:217,1,89.9999972534181,0|0,1:0|0:0,0:0:0:0:
184,167,210715,2,0,L|270:138,1,89.9999972534181,2|0,1:2|0:0,0:0:0:0:
438,70,210909,6,0,B|394:65|346:71,1,89.9999972534181,0|0,1:0|0:0,0:0:0:0:
212,56,211104,2,0,B|163:66|120:55,1,89.9999972534181,2|0,1:2|0:0,0:0:0:0:
85,181,211299,2,0,P|57:215|40:258,1,89.9999972534181,0|0,1:0|0:0,0:0:0:0:
104,381,211494,2,0,P|131:346|149:304,1,89.9999972534181,2|0,1:2|0:0,0:0:0:0:
233,150,211689,6,0,P|280:135|341:162,1,89.9999972534181,0|0,1:0|0:0,0:0:0:0:
483,219,211883,2,0,P|436:234|375:207,1,89.9999972534181,2|0,1:2|0:0,0:0:0:0:
284,258,212078,2,0,P|237:243|176:270,1,89.9999972534181,0|0,1:0|0:0,0:0:0:0:
48,378,212273,2,0,P|84:344|91:278,1,89.9999972534181,2|0,1:2|0:0,0:0:0:0:
94,189,212468,6,0,L|110:95,1,89.9999972534181,0|0,1:0|0:0,0:0:0:0:
197,29,212663,2,0,L|212:117,1,89.9999972534181,2|0,1:2|0:0,0:0:0:0:
475,139,212857,2,0,P|412:138|372:126,1,89.9999972534181,0|0,1:0|0:0,0:0:0:0:
298,190,213052,2,0,P|352:222|380:252,1,89.9999972534181,2|0,1:2|0:0,0:0:0:0:
488,312,213247,6,0,P|433:321|387:343,1,89.9999972534181,0|0,1:0|0:0,0:0:0:0:
295,334,213442,2,0,P|253:317|208:311,1,89.9999972534181,2|0,1:2|0:0,0:0:0:0:
44,235,213637,2,0,P|99:229|149:238,1,89.9999972534181,0|0,1:0|0:0,0:0:0:0:
236,206,213831,2,0,P|272:179|313:162,1,89.9999972534181,2|0,1:2|0:0,0:0:0:0:
479,93,214026,6,0,P|423:87|373:96,1,89.9999972534181,0|0,1:0|0:0,0:0:0:0:
286,63,214221,2,0,P|249:36|208:19,1,89.9999972534181,2|0,1:2|0:0,0:0:0:0:
51,43,214416,2,0,L|74:154,1,89.9999972534181,0|0,1:0|0:0,0:0:0:0:
144,265,214611,2,0,L|162:176,1,89.9999972534181,2|0,1:2|0:0,0:0:0:0:
225,59,214806,6,0,P|259:79|279:130,1,89.9999972534181,8|0,1:0|0:0,0:0:0:0:
359,109,215000,2,0,P|359:149|325:191,1,89.9999972534181,2|0,0:2|0:0,0:0:0:0:
275,360,215195,6,0,P|274:319|308:277,1,89.9999972534181,8|0,1:0|0:0,0:0:0:0:
247,220,215390,2,0,P|281:199|335:208,1,89.9999972534181,2|0,0:2|0:0,0:0:0:0:
507,167,215585,6,0,P|472:187|418:178,1,89.9999972534181,8|0,1:0|0:0,0:0:0:0:
399,259,215780,2,0,P|363:239|344:188,1,89.9999972534181,2|0,0:2|0:0,0:0:0:0:
225,143,215974,1,2,1:2:0:0:
138,119,216072,1,2,1:2:0:0:
74,183,216169,1,2,1:2:0:0:
97,270,216267,1,2,1:2:0:0:
184,293,216364,6,0,P|229:263|271:254,1,89.9999972534181,0|0,1:0|0:0,0:0:0:0:
417,218,216559,2,0,P|372:188|330:179,1,89.9999972534181,2|0,1:2|0:0,0:0:0:0:
213,115,216754,2,0,P|216:168|203:209,1,89.9999972534181,0|0,1:0|0:0,0:0:0:0:
66,191,216948,2,0,P|62:137|75:96,1,89.9999972534181,2|0,1:2|0:0,0:0:0:0:
175,30,217143,6,0,B|219:23|219:23|273:39,1,89.9999972534181,0|0,1:0|0:0,0:0:0:0:
418,89,217338,2,0,B|374:82|374:82|320:98,1,89.9999972534181,2|0,1:2|0:0,0:0:0:0:
321,322,217533,2,0,L|310:232,1,89.9999972534181,0|0,1:0|0:0,0:0:0:0:
424,174,217728,2,0,L|413:263,1,89.9999972534181,2|0,1:2|0:0,0:0:0:0:
198,350,217922,6,0,P|152:352|98:337,1,89.9999972534181,0|0,1:0|0:0,0:0:0:0:
5,322,218117,2,0,P|26:281|66:241,1,89.9999972534181,2|0,1:2|0:0,0:0:0:0:
259,285,218312,2,0,P|234:246|220:191,1,89.9999972534181,0|0,1:0|0:0,0:0:0:0:
186,103,218507,2,0,P|232:101|286:115,1,89.9999972534181,2|0,1:2|0:0,0:0:0:0:
339,322,218702,6,0,P|360:281|400:241,1,89.9999972534181,0|0,1:0|0:0,0:0:0:0:
460,167,218896,2,0,P|484:205|498:260,1,89.9999972534181,2|0,1:2|0:0,0:0:0:0:
282,214,219091,2,0,L|177:212,1,89.9999972534181,0|0,1:0|0:0,0:0:0:0:
67,245,219286,2,0,L|69:140,1,89.9999972534181,2|0,1:2|0:0,0:0:0:0:
17,39,219481,6,0,L|122:41,1,89.9999972534181,0|0,1:0|0:0,0:0:0:0:
248,91,219676,2,0,P|296:100|349:96,1,89.9999972534181,2|0,1:2|0:0,0:0:0:0:
472,43,219870,2,0,P|463:91|467:144,1,89.9999972534181,0|0,1:0|0:0,0:0:0:0:
510,263,220065,2,0,P|462:254|409:258,1,89.9999972534181,2|0,1:2|0:0,0:0:0:0:
325,374,220260,6,0,L|305:273,1,89.9999972534181,0|0,1:0|0:0,0:0:0:0:
225,197,220455,2,0,L|207:285,1,89.9999972534181,2|0,1:2|0:0,0:0:0:0:
325,374,220650,2,0,L|426:354,1,89.9999972534181,0|0,1:0|0:0,0:0:0:0:
225,197,220844,2,0,L|137:180,1,89.9999972534181,2|0,1:2|0:0,0:0:0:0:
212,21,221039,6,0,P|223:70|215:129,1,89.9999972534181,8|0,1:0|0:0,0:0:0:0:
140,73,221234,2,0,P|91:84|32:76,1,89.9999972534181,2|0,0:2|0:0,0:0:0:0:
380,189,221429,6,0,P|332:174|284:137,1,89.9999972534181,8|0,1:0|0:0,0:0:0:0:
371,103,221624,2,0,P|385:55|422:7,1,89.9999972534181,2|0,0:2|0:0,0:0:0:0:
152,248,221819,6,0,P|188:213|244:191,1,89.9999972534181,8|0,1:0|0:0,0:0:0:0:
239,283,222013,2,0,P|273:319|295:375,1,89.9999972534181,2|0,0:2|0:0,0:0:0:0:
320,226,222208,1,2,1:2:0:0:
456,78,222598,6,0,L|375:103,1,75,0|0,3:0|0:0,0:0:0:0:
282,65,222793,2,0,L|192:52,1,75,0|0,3:0|0:0,0:0:0:0:
84,37,222987,1,4,3:2:0:0:
87,51,223085,1,0,3:0:0:0:
90,65,223182,1,0,3:0:0:0:
93,79,223280,1,0,3:0:0:0:
96,93,223377,2,0,L|83:183,1,75,0|0,3:0|0:0,0:0:0:0:
23,297,223572,2,0,L|113:284,1,75,0|0,3:0|0:0,0:0:0:0:
248,197,223767,5,4,3:2:0:0:
245,211,223864,1,0,3:0:0:0:
242,225,223961,1,0,3:0:0:0:
239,239,224059,1,0,3:0:0:0:
236,253,224156,2,0,L|326:266,1,75,0|0,3:0|0:0,0:0:0:0:
485,331,224351,2,0,L|395:344,1,75,0|0,3:0|0:0,0:0:0:0:
412,215,224546,5,4,3:2:0:0:
415,200,224643,1,0,3:0:0:0:
418,185,224741,1,0,3:0:0:0:
421,170,224838,1,0,3:0:0:0:
424,155,224935,2,0,L|409:66,1,75,0|0,3:0|0:0,0:0:0:0:
275,25,225130,2,0,L|287:98,1,75,0|0,3:0|0:0,0:0:0:0:
316,264,225325,5,4,3:2:0:0:
301,263,225422,1,0,3:0:0:0:
285,262,225520,1,0,3:0:0:0:
270,261,225617,1,0,3:0:0:0:
254,260,225715,2,0,L|179:280,1,75,0|0,3:0|0:0,0:0:0:0:
39,180,225909,2,0,L|111:199,1,75,0|0,3:0|0:0,0:0:0:0:
211,132,226104,5,4,3:2:0:0:
225,136,226202,1,0,3:0:0:0:
239,140,226299,1,0,3:0:0:0:
253,144,226396,1,0,3:0:0:0:
267,149,226494,2,0,L|358:141,1,75,0|0,3:0|0:0,0:0:0:0:
469,86,226689,2,0,L|462:160,1,75,0|0,3:0|0:0,0:0:0:0:
387,331,226883,5,4,3:2:0:0:
372,331,226981,1,0,3:0:0:0:
357,331,227078,1,0,3:0:0:0:
342,331,227176,1,0,3:0:0:0:
327,331,227273,6,0,L|247:346,1,75,0|0,3:0|0:0,0:0:0:0:
94,260,227468,2,0,L|174:275,1,75,0|0,3:0|0:0,0:0:0:0:
332,337,227663,2,0,L|252:352,1,75,0|0,3:0|0:0,0:0:0:0:
89,252,227857,2,0,L|169:267,1,75,0|0,1:0|0:0,0:0:0:0:
338,343,228052,2,0,L|258:358,1,75,0|0,1:0|0:0,0:0:0:0:
84,246,228247,2,0,L|164:261,1,75,0|0,1:0|0:0,0:0:0:0:
419,357,228442,5,0,1:0:0:0:
412,312,228539,1,0,1:0:0:0:
405,267,228637,1,0,1:0:0:0:
398,222,228734,1,0,1:0:0:0:
368,185,228831,5,0,3:0:0:0:
220,207,229026,1,0,3:0:0:0:
103,140,229416,5,0,3:0:0:0:
198,86,229611,1,0,1:0:0:0:
307,105,229805,1,0,3:0:0:0:
307,105,229903,1,0,3:0:0:0:
307,105,230000,1,0,3:0:0:0:
492,207,230196,1,0,3:0:0:0:
477,204,230294,1,0,3:0:0:0:
462,201,230391,5,4,3:2:0:0:
357,256,230585,1,0,3:0:0:0:
454,338,230974,5,0,3:0:0:0:
344,276,231169,1,0,1:0:0:0:
233,336,231364,1,0,3:0:0:0:
233,336,231461,1,0,3:0:0:0:
233,336,231559,1,0,3:0:0:0:
111,253,231754,1,0,3:0:0:0:
126,257,231851,1,0,3:0:0:0:
141,262,231948,5,4,3:2:0:0:
277,233,232143,1,0,3:0:0:0:
379,164,232338,5,2,0:0:0:0:
222,133,232533,1,0,3:0:0:0:
104,134,232728,5,0,1:0:0:0:
280,36,232923,1,0,3:0:0:0:
324,254,233117,5,0,3:0:0:0:
170,52,233312,1,0,3:0:0:0:
61,256,233507,6,0,P|126:246|193:282,1,104.999996795654,4|0,3:2|3:0,0:0:0:0:
220,345,233799,2,0,L|262:313,1,52.4999983978272,4|4,0:0|0:0,0:0:0:0:
262,205,233994,2,0,L|341:202,2,52.4999983978272,4|0|4,3:0|3:0|3:0,0:0:0:0:
429,289,234286,6,0,L|422:230,1,52.4999983978272,0|0,1:0|3:0,0:0:0:0:
393,115,234480,1,0,3:0:0:0:
398,88,234578,1,0,3:0:0:0:
403,62,234675,1,0,3:0:0:0:
408,36,234773,1,0,3:0:0:0:
368,25,234870,1,0,3:0:0:0:
328,14,234967,1,0,3:0:0:0:
287,3,235065,5,4,3:2:0:0:
172,38,235260,1,0,3:0:0:0:
62,189,235649,1,0,3:0:0:0:
177,162,235844,1,0,1:0:0:0:
277,224,236039,1,0,3:0:0:0:
277,224,236136,1,0,3:0:0:0:
277,224,236234,1,0,3:0:0:0:
357,344,236429,1,0,3:0:0:0:
360,328,236526,1,0,3:0:0:0:
363,312,236623,5,4,3:2:0:0:
450,232,236819,1,0,3:0:0:0:
140,152,237209,5,0,3:0:0:0:
252,132,237404,1,0,1:0:0:0:
344,197,237598,1,0,3:0:0:0:
344,197,237696,1,0,3:0:0:0:
344,197,237793,1,0,3:0:0:0:
440,316,237987,1,0,3:0:0:0:
436,300,238084,1,0,3:0:0:0:
432,284,238182,5,4,3:2:0:0:
500,152,238377,1,0,3:0:0:0:
356,43,238572,5,0,3:2:0:0:
424,175,238767,1,0,3:0:0:0:
132,151,238961,5,0,1:0:0:0:
285,170,239156,1,0,3:0:0:0:
64,367,239351,5,0,3:0:0:0:
188,268,239546,1,0,3:0:0:0:
134,49,239741,6,0,P|144:114|108:180,1,104.999996795654,4|0,3:2|3:0,0:0:0:0:
69,272,240033,2,0,L|122:260,1,52.4999983978272,4|4,0:0|0:2,0:0:0:0:
232,202,240228,2,0,L|229:284,2,52.4999983978272,4|0|4,3:3|3:0|3:3,0:0:0:0:
189,360,240520,6,0,L|248:367,1,52.4999983978272,0|0,1:0|3:0,0:0:0:0:
385,357,240715,1,0,3:0:0:0:
410,347,240812,1,0,3:0:0:0:
435,339,240909,1,0,3:0:0:0:
460,331,241007,1,0,3:0:0:0:
450,291,241104,1,0,3:0:0:0:
439,250,241202,1,0,3:0:0:0:
405,219,241299,6,0,B|354:201|296:221|296:221|258:278|192:299|192:299|172:239|220:169|220:169|256:163|296:137,3,450,2|2|2|2,0:0|0:0|0:0|0:0,0:0:0:0:
368,96,243637,2,0,B|267:42|162:23|162:23|206:44|231:94,1,300,2|2,0:0|0:0,0:0:0:0:
49,129,244416,6,0,B|83:205|62:276|62:276|135:263|222:280,2,300,2|2|2,0:0|0:0|0:0,0:0:0:0:
158,184,245585,1,2,0:0:0:0:
286,44,245974,6,0,P|293:80|293:118,1,75,2|0,0:0|0:0,0:0:0:0:
445,253,246169,2,0,P|437:216|437:178,1,75,2|0,0:0|0:0,0:0:0:0:
433,11,246364,2,0,P|420:46|401:78,1,75,2|0,0:0|0:0,0:0:0:0:
333,224,246559,2,0,P|299:240|263:249,1,75,2|0,0:0|0:0,0:0:0:0:
346,383,246754,2,0,P|357:347|376:315,1,75,2|0,1:2|1:0,1:0:0:0:
437,178,246948,2,0,P|470:160|506:151,1,75,2|0,1:2|1:0,1:0:0:0:
496,304,247143,1,2,1:2:0:0:
321,366,247533,6,0,L|212:358,1,97.4999955368044,0|0,1:0|0:0,0:0:0:0:
36,323,247728,2,0,L|145:315,1,97.4999955368044,10|0,1:2|0:0,0:0:0:0:
232,262,247922,2,0,L|240:165,1,97.4999955368044,0|0,1:0|0:0,0:0:0:0:
289,63,248117,2,0,L|180:71,1,97.4999955368044,10|0,1:2|0:0,0:0:0:0:
91,37,248312,2,0,L|99:146,1,97.4999955368044,0|0,1:2|0:0,0:0:0:0:
37,236,248507,2,0,L|146:228,1,97.4999955368044,10|0,1:2|0:0,0:0:0:0:
341,200,248701,2,0,B|292:199|292:199|231:213,1,97.4999955368044,0|0,1:0|0:0,0:0:0:0:
259,352,248896,2,0,B|308:353|308:353|369:339,1,97.4999955368044,10|0,1:2|0:0,0:0:0:0:
456,375,249091,6,0,P|441:324|443:281,1,97.4999955368044,0|0,1:0|0:0,0:0:0:0:
418,174,249286,2,0,P|469:189|512:187,1,97.4999955368044,10|0,1:2|0:0,0:0:0:0:
398,78,249481,2,0,P|349:76|303:90,1,97.4999955368044,0|0,1:0|0:0,0:0:0:0:
191,50,249676,2,0,P|205:96|203:144,1,97.4999955368044,10|0,1:2|0:0,0:0:0:0:
57,210,249870,6,0,L|165:228,1,97.4999955368044,0|0,1:0|0:0,0:0:0:0:
221,326,250065,2,0,L|317:309,1,97.4999955368044,10|0,1:2|0:0,0:0:0:0:
502,282,250260,1,0,1:0:0:0:
430,216,250357,1,0,1:0:0:0:
332,210,250455,2,0,P|279:220|234:213,1,97.4999955368044,10|0,1:2|0:0,0:0:0:0:
175,53,250650,6,0,P|169:101|179:149,1,97.4999955368044,0|0,1:0|0:0,0:0:0:0:
398,150,250844,2,0,P|404:102|395:55,1,97.4999955368044,10|0,1:2|0:0,0:0:0:0:
327,0,251039,2,0,P|279:-6|232:3,1,97.4999955368044,0|0,1:2|0:0,0:0:0:0:
283,109,251234,2,0,L|295:229,1,97.4999955368044,10|0,1:2|0:0,0:0:0:0:
462,269,251429,6,0,L|342:257,1,97.4999955368044,0|0,1:0|0:0,0:0:0:0:
187,300,251624,2,0,L|284:290,1,97.4999955368044,10|0,1:2|0:0,0:0:0:0:
467,117,251819,1,0,1:0:0:0:
376,79,251916,1,0,1:0:0:0:
283,109,252013,2,0,L|295:229,1,97.4999955368044,10|0,1:2|0:0,0:0:0:0:
160,350,252208,6,0,L|150:252,1,97.4999955368044,2|0,1:0|0:0,0:0:0:0:
75,288,252403,2,0,L|65:190,1,97.4999955368044,10|0,1:2|0:0,0:0:0:0:
70,92,252598,2,0,L|158:132,1,97.4999955368044,2|0,1:0|0:0,0:0:0:0:
180,58,252793,2,0,L|268:98,1,97.4999955368044,10|0,1:2|0:0,0:0:0:0:
444,232,252987,5,2,1:0:0:0:
373,299,253085,1,0,1:0:0:0:
276,287,253182,2,0,L|155:277,1,97.4999955368044,10|0,1:2|0:0,0:0:0:0:
6,73,253377,1,0,1:0:0:0:
99,100,253475,1,0,1:0:0:0:
137,190,253572,2,0,L|188:299,1,97.4999955368044,10|0,1:2|0:0,0:0:0:0:
252,195,253766,6,0,L|277:87,1,97.4999955368044,0|0,1:0|0:0,0:0:0:0:
364,27,253961,2,0,L|385:121,1,97.4999955368044,10|0,1:2|0:0,0:0:0:0:
512,309,254156,2,0,L|417:330,1,97.4999955368044,0|0,1:0|0:0,0:0:0:0:
344,197,254351,2,0,L|438:218,1,97.4999955368044,10|0,1:2|0:0,0:0:0:0:
295,287,254546,6,0,L|200:265,1,97.4999955368044,0|0,1:0|0:0,0:0:0:0:
127,175,254741,2,0,L|221:153,1,97.4999955368044,10|0,1:2|0:0,0:0:0:0:
310,18,254935,2,0,P|298:65|315:121,1,97.4999955368044,0|0,1:0|0:0,0:0:0:0:
424,113,255130,2,0,P|436:66|419:10,1,97.4999955368044,10|0,1:2|0:0,0:0:0:0:
368,186,255325,6,0,B|329:217|329:217|299:254,1,97.4999955368044,0|0,1:0|0:0,0:0:0:0:
206,279,255520,2,0,B|243:309|243:309|281:356,1,97.4999955368044,10|0,1:2|0:0,0:0:0:0:
179,186,255715,2,0,B|148:223|148:223|101:261,1,97.4999955368044,0|0,1:0|0:0,0:0:0:0:
273,153,255909,2,0,B|235:122|235:122|197:75,1,97.4999955368044,10|0,1:2|0:0,0:0:0:0:
102,91,256104,6,0,B|70:129|70:129|33:159,1,97.4999955368044,0|0,1:0|0:0,0:0:0:0:
44,339,256299,1,10,1:2:0:0:
136,308,256396,1,0,1:0:0:0:
229,338,256494,2,0,P|278:333|345:310,1,97.4999955368044,0|0,1:0|0:0,0:0:0:0:
432,246,256689,2,0,P|437:295|460:362,1,97.4999955368044,10|0,1:2|0:0,0:0:0:0:
327,217,256883,6,0,P|272:217|231:191,1,97.4999955368044,0|0,1:0|0:0,0:0:0:0:
112,122,257078,2,0,P|139:169|137:218,1,97.4999955368044,10|0,1:2|0:0,0:0:0:0:
228,102,257273,2,0,L|335:110,1,97.4999955368044,0|0,1:0|0:0,0:0:0:0:
419,56,257468,2,0,L|426:153,1,97.4999955368044,10|0,1:2|0:0,0:0:0:0:
481,245,257663,6,0,L|383:252,1,97.4999955368044,0|0,1:0|0:0,0:0:0:0:
303,324,257857,2,0,L|205:316,1,97.4999955368044,10|0,1:2|0:0,0:0:0:0:
37,245,258052,2,0,B|85:238|85:238|156:248,1,97.4999955368044,0|0,1:0|0:0,0:0:0:0:
255,221,258247,2,0,B|224:182|224:182|198:116,1,97.4999955368044,10|0,1:2|0:0,0:0:0:0:
80,38,258442,6,0,L|89:153,1,97.4999955368044,0|0,1:0|0:0,0:0:0:0:
279,42,258637,2,0,L|181:49,1,97.4999955368044,10|0,1:2|0:0,0:0:0:0:
441,140,258831,2,0,L|326:131,1,97.4999955368044,0|0,1:0|0:0,0:0:0:0:
159,200,259026,2,0,L|254:220,1,97.4999955368044,10|0,1:2|0:0,0:0:0:0:
306,343,259221,2,0,L|210:322,1,97.4999955368044,0|0,1:0|0:0,0:0:0:0:
47,162,259416,5,8,1:0:0:0:
120,134,259513,1,8,1:0:0:0:
195,150,259610,1,8,1:0:0:0:
249,205,259708,1,8,1:0:0:0:
303,260,259806,1,8,1:0:0:0:
378,276,259903,1,8,1:0:0:0:
450,249,260000,6,0,L|423:362,1,104.999996795654,4|0,1:0|0:0,0:0:0:0:
292,218,260195,2,0,L|313:320,1,104.999996795654,12|0,1:0|0:0,0:0:0:0:
207,141,260390,2,0,L|191:244,1,104.999996795654,4|0,1:0|0:0,0:0:0:0:
173,22,260585,2,0,L|115:108,1,104.999996795654,12|0,1:0|0:0,0:0:0:0:
285,83,260780,6,0,L|309:185,1,104.999996795654,4|0,1:0|0:0,0:0:0:0:
468,330,260975,1,12,1:0:0:0:
389,299,261072,1,0,1:0:0:0:
306,314,261169,2,0,P|239:315|195:302,1,104.999996795654,4|0,1:0|0:0,0:0:0:0:
48,201,261364,2,0,P|115:200|159:213,1,104.999996795654,12|0,1:0|0:0,0:0:0:0:
383,73,261559,6,0,L|395:195,1,104.999996795654,4|0,1:0|0:0,0:0:0:0:
267,130,261754,2,0,L|255:252,1,104.999996795654,12|0,1:0|0:0,0:0:0:0:
45,132,261948,2,0,L|33:254,1,104.999996795654,4|0,1:0|0:0,0:0:0:0:
161,189,262143,2,0,L|173:311,1,104.999996795654,12|0,1:0|0:0,0:0:0:0:
288,113,262338,6,0,L|300:235,1,104.999996795654,4|0,1:0|0:0,0:0:0:0:
89,355,262533,1,12,1:0:0:0:
170,375,262630,1,0,1:0:0:0:
252,357,262728,2,0,P|307:343|369:298,1,104.999996795654,4|0,1:0|0:0,0:0:0:0:
435,196,262922,2,0,P|432:143|414:94,1,104.999996795654,12|0,1:0|0:0,0:0:0:0:
171,68,263117,6,0,P|232:76|283:112,1,104.999996795654,4|0,1:0|0:0,0:0:0:0:
298,217,263312,2,0,P|237:209|186:173,1,104.999996795654,12|0,1:0|0:0,0:0:0:0:
29,114,263507,2,0,P|90:122|141:158,1,104.999996795654,4|0,1:0|0:0,0:0:0:0:
101,321,263702,2,0,P|109:260|145:209,1,104.999996795654,12|0,1:0|0:0,0:0:0:0:
233,9,263896,6,0,P|225:70|189:121,1,104.999996795654,4|0,1:0|0:0,0:0:0:0:
298,217,264091,2,0,P|237:209|186:173,1,104.999996795654,12|0,1:0|0:0,0:0:0:0:
380,127,264286,2,0,L|494:150,1,104.999996795654,4|0,1:0|0:0,0:0:0:0:
418,300,264481,2,0,L|304:323,1,104.999996795654,12|0,1:0|0:0,0:0:0:0:
6,376,264676,6,0,P|56:367|129:383,1,104.999996795654,4|0,1:0|0:0,0:0:0:0:
231,347,264870,2,0,P|198:308|175:236,1,104.999996795654,12|0,1:0|0:0,0:0:0:0:
242,136,265065,2,0,P|192:145|119:129,1,104.999996795654,4|0,1:0|0:0,0:0:0:0:
17,165,265259,2,0,P|49:203|72:275,1,104.999996795654,12|0,1:0|0:0,0:0:0:0:
337,250,265455,5,4,1:0:0:0:
439,276,265552,2,0,P|402:183|391:67,1,209.999993591309,0|0,1:0|0:0,0:0:0:0:
331,8,265844,1,8,1:0:0:0:
252,49,265942,1,8,1:0:0:0:
220,133,266039,1,8,1:0:0:0:
234,221,266137,1,8,1:0:0:0:
266,303,266234,6,0,P|214:305|148:304,1,104.999996795654,4|0,1:0|0:0,0:0:0:0:
0,226,266429,2,0,P|52:224|118:225,1,104.999996795654,12|0,1:0|0:0,0:0:0:0:
104,129,266624,2,0,P|102:77|103:11,1,104.999996795654,4|0,1:0|0:0,0:0:0:0:
308,149,266819,2,0,P|256:147|190:148,1,104.999996795654,12|0,1:0|0:0,0:0:0:0:
346,52,267013,6,0,P|398:50|464:51,1,104.999996795654,4|0,1:0|0:0,0:0:0:0:
415,254,267208,2,0,P|413:202|414:136,1,104.999996795654,12|0,1:0|0:0,0:0:0:0:
204,251,267403,2,0,P|256:249|322:250,1,104.999996795654,4|0,1:0|0:0,0:0:0:0:
464,343,267598,2,0,P|412:345|346:344,1,104.999996795654,12|0,1:0|0:0,0:0:0:0:
217,342,267793,6,0,P|165:344|99:343,1,104.999996795654,4|0,1:0|0:0,0:0:0:0:
90,162,267987,1,12,1:0:0:0:
172,142,268085,1,0,1:0:0:0:
255,156,268182,2,0,P|311:147|362:108,1,104.999996795654,4|0,1:0|0:0,0:0:0:0:
492,38,268377,2,0,P|471:90|480:154,1,104.999996795654,12|0,1:0|0:0,0:0:0:0:
462,305,268572,6,0,P|426:261|366:236,1,104.999996795654,4|0,1:0|0:0,0:0:0:0:
252,286,268767,2,0,P|287:329|347:354,1,104.999996795654,12|0,1:0|0:0,0:0:0:0:
143,374,268961,2,0,L|123:258,1,104.999996795654,4|0,1:0|0:0,0:0:0:0:
19,194,269156,2,0,L|39:78,1,104.999996795654,12|0,1:0|0:0,0:0:0:0:
246,21,269351,6,0,L|228:124,1,104.999996795654,4|0,1:0|0:0,0:0:0:0:
335,201,269546,2,0,L|352:304,1,104.999996795654,12|0,1:0|0:0,0:0:0:0:
248,339,269741,2,0,L|230:235,1,104.999996795654,4|0,1:0|0:0,0:0:0:0:
123,159,269936,2,0,L|140:55,1,104.999996795654,12|0,1:0|0:0,0:0:0:0:
340,0,270130,6,0,L|358:103,1,104.999996795654,4|0,1:0|0:0,0:0:0:0:
384,247,270325,1,12,1:0:0:0:
327,308,270422,1,0,1:0:0:0:
248,339,270520,2,0,P|197:320|117:323,1,104.999996795654,4|0,1:0|0:0,0:0:0:0:
28,221,270715,2,0,P|82:226|158:202,1,104.999996795654,12|0,1:0|0:0,0:0:0:0:
310,149,270909,6,0,L|200:161,1,104.999996795654,4|0,1:0|0:0,0:0:0:0:
384,247,271104,2,0,L|274:235,1,104.999996795654,12|0,1:0|0:0,0:0:0:0:
163,64,271299,2,0,L|207:165,1,104.999996795654,4|0,1:0|0:0,0:0:0:0:
39,58,271494,2,0,L|104:147,1,104.999996795654,12|0,1:0|0:0,0:0:0:0:
278,339,271689,5,4,1:0:0:0:
382,356,271786,2,0,P|345:263|334:147,1,209.999993591309,0|0,1:0|0:0,0:0:0:0:
274,88,272079,1,8,1:0:0:0:
195,129,272176,1,8,1:0:0:0:
163,213,272274,1,8,1:0:0:0:
177,301,272371,1,8,1:0:0:0:
227,374,272468,5,0,0:0:0:0:
402,335,272663,1,2,0:2:0:0:
511,274,272857,1,0,0:0:0:0:
296,232,273052,1,2,0:2:0:0:
176,175,273247,1,0,0:0:0:0:
343,130,273442,1,2,3:0:0:0:
357,112,273539,1,0,3:0:0:0:
371,94,273637,1,0,3:0:0:0:
58,61,273831,5,2,0:0:0:0:
213,112,274026,1,0,0:0:0:0:
140,238,274221,1,2,0:0:0:0:
339,169,274416,1,0,0:0:0:0:
274,359,274611,1,2,0:0:0:0:
493,293,274806,6,0,L|410:282,1,75
308,265,275000,1,2,0:0:0:0:
129,322,275195,1,2,0:0:0:0:
246,67,275586,5,0,0:0:0:0:
362,100,275780,1,2,0:0:0:0:
134,107,275975,1,0,0:0:0:0:
112,114,276073,1,0,0:0:0:0:
91,121,276170,1,2,0:0:0:0:
70,129,276267,1,0,0:0:0:0:
48,137,276365,1,0,0:0:0:0:
40,286,276559,1,2,0:0:0:0:
175,349,276754,5,0,0:0:0:0:
196,343,276851,1,0,0:0:0:0:
215,311,276948,1,2,0:0:0:0:
237,305,277046,1,0,0:0:0:0:
258,299,277143,1,0,0:0:0:0:
493,127,277338,5,2,0:0:0:0:
334,171,277533,1,0,0:0:0:0:
178,215,277728,1,2,0:0:0:0:
200,219,277825,1,0,0:0:0:0:
222,223,277922,1,0,0:0:0:0:
474,372,278117,1,4,1:0:0:0:
361,350,278312,1,4,1:0:0:0:
248,328,278507,2,0,P|177:315|136:309,1,104.999996795654,4|0,1:0|0:0,0:0:0:0:
44,163,278896,5,2,0:0:0:0:
312,143,279091,2,0,P|313:206|309:251,2,104.999996795654,0|2|0,0:0|0:0|0:0,0:0:0:0:
494,146,279676,5,2,0:0:0:0:
171,40,279870,1,0,0:0:0:0:
44,163,280065,1,2,0:0:0:0:
66,166,280163,1,0,0:0:0:0:
88,169,280260,1,0,0:0:0:0:
227,257,280455,2,0,L|279:252,2,50,2|0|0,0:0|0:0|0:0,0:0:0:0:
212,261,280650,5,0,0:0:0:0:
192,272,280747,1,0,0:0:0:0:
172,283,280844,1,2,0:0:0:0:
152,294,280942,1,0,0:0:0:0:
132,305,281039,1,0,0:0:0:0:
262,350,281234,1,2,0:0:0:0:
465,305,281430,5,0,0:0:0:0:
443,299,281527,1,0,0:0:0:0:
421,293,281625,1,2,0:0:0:0:
399,287,281722,1,0,0:0:0:0:
377,281,281819,2,0,P|323:266|261:246,1,104.999996795654,0|2,0:0|0:0,0:0:0:0:
50,38,282403,5,2,0:0:0:0:
328,94,282598,1,0,0:0:0:0:
193,151,282793,2,0,L|201:206,1,50,2|0,0:0|0:0,0:0:0:0:
55,340,283182,5,2,0:0:0:0:
234,344,283377,1,0,0:0:0:0:
225,292,283474,1,0,0:0:0:0:
216,239,283572,1,2,0:0:0:0:
207,187,283669,1,0,0:0:0:0:
198,135,283766,1,0,0:0:0:0:
335,280,283961,5,2,0:0:0:0:
344,228,284058,1,0,0:0:0:0:
353,175,284156,1,0,0:0:0:0:
362,123,284253,1,0,0:0:0:0:
371,71,284350,1,2,0:0:0:0:
446,221,284546,5,0,0:0:0:0:
437,274,284643,1,0,0:0:0:0:
428,326,284741,1,2,0:0:0:0:
282,349,284935,6,0,B|231:344|231:344|176:353,1,97.4999955368044,4|0,1:0|0:0,0:0:0:0:
113,297,285130,2,0,B|118:246|118:246|109:191,1,97.4999955368044,12|0,1:0|0:0,0:0:0:0:
171,134,285325,2,0,B|222:139|222:139|277:130,1,97.4999955368044,4|0,1:0|0:0,0:0:0:0:
373,234,285520,2,0,B|322:229|322:229|267:238,1,97.4999955368044,12|0,1:0|0:0,0:0:0:0:
368,132,285715,6,0,B|363:81|363:81|372:26,1,97.4999955368044,4|0,1:0|0:0,0:0:0:0:
476,187,285909,2,0,B|480:237|480:237|472:293,1,97.4999955368044,12|0,1:0|0:0,0:0:0:0:
379,357,286104,2,0,B|332:363|332:363|282:359,1,97.4999955368044,4|0,1:0|0:0,0:0:0:0:
187,309,286299,2,0,B|140:302|140:302|90:306,1,97.4999955368044,12|0,1:0|0:0,0:0:0:0:
51,94,286494,6,0,L|57:210,1,97.4999955368044,4|0,1:0|0:0,0:0:0:0:
179,26,286689,2,0,L|154:139,1,97.4999955368044,12|0,1:0|0:0,0:0:0:0:
281,95,286883,2,0,L|256:208,1,97.4999955368044,4|0,1:0|0:0,0:0:0:0:
50,288,287078,2,0,L|56:172,1,97.4999955368044,12|0,1:0|0:0,0:0:0:0:
177,350,287273,6,0,L|152:236,1,97.4999955368044,4|0,1:0|0:0,0:0:0:0:
279,286,287467,2,0,L|254:172,1,97.4999955368044,12|0,1:0|0:0,0:0:0:0:
379,230,287663,2,0,B|427:224|427:224|482:232,1,97.4999955368044,4|0,1:0|0:0,0:0:0:0:
474,352,287857,2,0,B|426:358|426:358|371:350,1,97.4999955368044,12|0,1:0|0:0,0:0:0:0:
185,279,288052,6,0,P|231:272|279:286,1,97.4999955368044,4|0,1:0|0:0,0:0:0:0:
162,86,288247,2,0,P|175:132|169:180,1,97.4999955368044,12|0,1:0|0:0,0:0:0:0:
258,190,288442,2,0,P|304:197|352:183,1,97.4999955368044,4|0,1:0|0:0,0:0:0:0:
451,100,288637,2,0,P|437:146|443:194,1,97.4999955368044,12|0,1:0|0:0,0:0:0:0:
480,320,288831,5,4,1:0:0:0:
388,354,288929,1,0,1:0:0:0:
291,345,289026,2,0,P|241:344|183:328,1,97.4999955368044,12|0,1:0|0:0,0:0:0:0:
87,251,289221,2,0,L|110:364,1,97.4999955368044,4|0,1:0|0:0,0:0:0:0:
193,246,289416,2,0,L|204:149,1,97.4999955368044,12|0,1:0|0:0,0:0:0:0:
52,38,289611,6,0,L|182:51,1,97.4999955368044,4|0,1:0|0:0,0:0:0:0:
259,65,289805,2,0,L|389:52,1,97.4999955368044,12|0,1:0|0:0,0:0:0:0:
476,160,290000,2,0,L|346:173,1,97.4999955368044,4|0,1:0|0:0,0:0:0:0:
277,178,290195,2,0,L|147:165,1,97.4999955368044,12|0,1:0|0:0,0:0:0:0:
55,264,290390,5,0,1:0:0:0:
92,353,290488,2,0,P|188:334|284:340,1,194.999991073609,0|0,1:0|0:0,0:0:0:0:
372,299,290780,1,8,1:0:0:0:
314,223,290877,1,8,1:0:0:0:
224,187,290975,1,8,1:2:0:0:
129,202,291072,1,8,1:0:0:0:
54,264,291169,1,0,1:0:0:0:
29,59,291364,6,0,L|45:175,1,97.4999955368044,12|0,1:0|0:0,0:0:0:0:
176,0,291559,2,0,L|160:116,1,97.4999955368044,4|0,1:0|0:0,0:0:0:0:
425,119,291754,2,0,L|409:235,1,97.4999955368044,12|0,1:0|0:0,0:0:0:0:
278,60,291949,2,0,L|294:176,1,97.4999955368044,4|0,1:0|0:0,0:0:0:0:
54,241,292143,6,0,L|70:357,1,97.4999955368044,12|0,1:0|0:0,0:0:0:0:
201,182,292338,2,0,L|185:298,1,97.4999955368044,4|0,1:0|0:0,0:0:0:0:
425,312,292533,2,0,L|409:196,1,97.4999955368044,12|0,1:0|0:0,0:0:0:0:
278,371,292728,6,0,L|294:255,1,97.4999955368044,4|0,1:0|0:0,0:0:0:0:
320,151,292923,2,0,L|211:195,1,97.4999955368044,12|0,1:0|0:0,0:0:0:0:
110,218,293118,2,0,L|202:289,1,97.4999955368044,4|0,1:0|0:0,0:0:0:0:
398,329,293313,5,12,1:0:0:0:
457,252,293410,1,0,1:0:0:0:
455,153,293508,2,0,P|448:107|419:63,1,97.4999955368044,4|0,1:0|0:0,0:0:0:0:
262,19,293703,2,0,P|288:59|296:107,1,97.4999955368044,12|0,1:0|0:0,0:0:0:0:
297,226,293897,2,0,P|276:269|239:301,1,97.4999955368044,4|0,1:0|0:0,0:0:0:0:
31,130,294092,5,12,1:0:0:0:
108,71,294189,1,0,1:0:0:0:
207,73,294286,2,0,P|253:80|297:109,1,97.4999955368044,4|0,1:0|0:0,0:0:0:0:
461,104,294481,2,0,P|431:140|384:163,1,97.4999955368044,12|0,1:0|0:0,0:0:0:0:
310,304,294676,2,0,P|293:260|296:208,1,97.4999955368044,4|0,1:0|0:0,0:0:0:0:
207,73,294870,2,0,P|199:119|171:163,1,97.4999955368044,12|0,1:0|0:0,0:0:0:0:
115,350,295065,6,0,L|122:252,1,97.4999955368044,4|0,1:0|0:0,0:0:0:0:
3,175,295260,2,0,L|100:182,1,97.4999955368044,12|0,1:0|0:0,0:0:0:0:
193,232,295455,2,0,L|290:224,1,97.4999955368044,4|0,1:0|0:0,0:0:0:0:
507,164,295651,5,12,1:0:0:0:
420,119,295748,1,0,1:0:0:0:
324,137,295845,2,0,P|277:143|209:130,1,97.4999955368044,4|0,1:0|0:0,0:0:0:0:
39,64,296040,2,0,P|86:58|154:71,1,97.4999955368044,12|0,1:0|0:0,0:0:0:0:
111,176,296235,2,0,P|117:223|104:291,1,97.4999955368044,4|0,1:0|0:0,0:0:0:0:
258,369,296430,5,12,1:0:0:0:
274,273,296527,1,0,1:0:0:0:
245,179,296625,2,0,L|219:78,1,97.4999955368044,4|0,1:0|0:0,0:0:0:0:
368,51,296819,5,12,1:0:0:0:
353,146,296915,1,0,1:0:0:0:
384,238,297013,2,0,L|410:339,1,97.4999955368044,0|0,1:0|0:0,0:0:0:0:
408,332,297208,1,8,1:0:0:0:
408,332,297305,1,0,1:0:0:0:
408,332,297403,5,0,1:0:0:0:
162,251,297598,2,0,L|136:352,1,104.999996795654,0|0,3:0|3:0,0:0:0:0:
136,353,297891,1,0,3:0:0:0:
136,353,297988,1,0,3:0:0:0:
221,375,298183,1,0,3:0:0:0:
64,293,298378,5,8,3:0:0:0:
66,270,298475,1,8,3:0:0:0:
68,247,298573,1,8,3:0:0:0:
70,224,298670,1,0,3:0:0:0:
72,201,298767,1,0,3:0:0:0:
74,178,298865,1,0,3:0:0:0:
76,155,298961,6,0,P|130:133|241:149,2,157.499995193482,0|0|0,3:0|3:0|3:0,0:0:0:0:
388,64,299742,1,4,3:1:0:0:
370,78,299839,1,4,3:1:0:0:
352,92,299936,1,4,3:1:0:0:
299,193,300131,1,4,3:1:0:0:
443,139,300326,1,0,3:0:0:0:
425,153,300423,1,0,3:0:0:0:
407,167,300520,5,8,3:0:0:0:
354,268,300715,1,8,3:0:0:0:
494,218,300910,1,0,3:0:0:0:
476,232,301007,1,8,3:0:0:0:
458,246,301104,1,8,3:0:0:0:
405,347,301299,1,8,3:0:0:0:
297,353,301494,1,8,3:0:0:0:
274,348,301591,1,8,3:0:0:0:
251,343,301689,1,8,3:0:0:0:
228,339,301786,1,0,3:0:0:0:
206,334,301883,1,0,3:0:0:0:
183,329,301981,1,0,3:0:0:0:
160,325,302078,5,2,3:2:0:0:
46,248,302273,1,8,3:0:0:0:
46,248,302370,1,8,3:0:0:0:
155,224,302565,1,0,3:0:0:0:
155,224,302663,1,8,3:0:0:0:
267,194,302857,1,4,3:1:0:0:
267,194,302955,1,4,3:1:0:0:
267,194,303052,1,4,3:1:0:0:
287,84,303247,1,4,3:1:0:0:
379,158,303442,1,4,3:1:0:0:
379,158,303539,1,0,3:0:0:0:
379,158,303637,5,4,3:2:0:0:
379,158,304221,1,4,1:1:0:0:
120,204,304416,1,4,1:1:0:0:
167,94,304611,5,8,1:0:0:0:
79,88,304708,1,8,1:0:0:0:
11,144,304805,1,8,1:0:0:0:
0,231,304903,1,8,1:0:0:0:
51,303,305000,1,8,1:0:0:0:
137,320,305098,1,8,1:0:0:0:
224,302,305196,6,0,P|270:290|342:316,1,97.4999955368044,0|0,1:0|0:0,0:0:0:0:
428,277,305391,2,0,P|394:243|381:167,1,97.4999955368044,10|0,1:2|0:0,0:0:0:0:
307,117,305586,2,0,P|294:162|235:212,1,97.4999955368044,0|0,1:0|0:0,0:0:0:0:
144,137,305780,2,0,P|156:91|215:41,1,97.4999955368044,10|0,1:2|0:0,0:0:0:0:
306,20,305974,6,0,B|346:46|346:46|395:52,1,97.4999955368044,0|0,1:0|0:0,0:0:0:0:
502,32,306169,2,0,B|476:72|476:72|470:121,1,97.4999955368044,10|0,1:2|0:0,0:0:0:0:
485,226,306364,2,0,B|445:200|445:200|396:194,1,97.4999955368044,0|0,1:0|0:0,0:0:0:0:
324,118,306559,2,0,B|318:167|318:167|292:207,1,97.4999955368044,10|0,1:2|0:0,0:0:0:0:
339,308,306754,6,0,L|220:293,1,97.4999955368044,0|0,1:0|0:0,0:0:0:0:
72,361,306948,2,0,L|191:346,1,97.4999955368044,10|0,1:2|0:0,0:0:0:0:
160,256,307143,2,0,L|145:137,1,97.4999955368044,0|0,1:0|0:0,0:0:0:0:
55,87,307338,2,0,L|42:183,1,97.4999955368044,10|0,1:2|0:0,0:0:0:0:
145,62,307533,6,0,L|241:74,1,97.4999955368044,0|0,1:0|0:0,0:0:0:0:
512,148,307728,1,10,1:2:0:0:
418,122,307825,1,0,1:0:0:0:
326,154,307922,2,0,L|213:172,1,97.4999955368044,0|0,1:0|0:0,0:0:0:0:
92,246,308117,2,0,L|205:264,1,97.4999955368044,10|0,1:2|0:0,0:0:0:0:
330,354,308312,6,0,P|377:364|442:349,1,97.4999955368044,0|0,1:0|0:0,0:0:0:0:
425,227,308507,2,0,P|378:217|313:232,1,97.4999955368044,10|0,1:2|0:0,0:0:0:0:
245,359,308702,2,0,L|262:258,1,97.4999955368044,0|0,1:0|0:0,0:0:0:0:
512,357,308896,2,0,L|495:256,1,97.4999955368044,10|0,1:2|0:0,0:0:0:0:
376,58,309091,6,0,L|376:162,1,97.4999955368044,0|0,1:0|0:0,0:0:0:0:
376,324,309286,1,10,1:2:0:0:
278,323,309383,1,0,1:0:0:0:
190,277,309481,2,0,L|167:153,1,97.4999955368044,0|0,1:0|0:0,0:0:0:0:
86,45,309676,2,0,L|68:140,1,97.4999955368044,10|0,1:2|0:0,0:0:0:0:
247,96,309870,6,0,P|260:142|294:176,1,97.4999955368044,2|0,1:0|0:0,0:0:0:0:
456,116,310065,2,0,P|409:105|363:118,1,97.4999955368044,8|0,1:0|0:0,0:0:0:0:
252,258,310260,2,0,P|299:269|346:257,1,97.4999955368044,2|0,1:0|0:0,0:0:0:0:
462,279,310455,2,0,P|448:232|414:198,1,97.4999955368044,8|0,1:0|0:0,0:0:0:0:
179,109,310650,5,2,1:0:0:0:
125,189,310747,1,0,1:0:0:0:
145,283,310844,2,0,P|174:320|196:385,1,97.4999955368044,10|0,1:2|0:0,0:0:0:0:
479,271,311039,1,0,1:0:0:0:
414,198,311136,1,0,1:0:0:0:
319,192,311234,2,0,P|275:210|207:214,1,97.4999955368044,10|0,1:2|0:0,0:0:0:0:
81,69,311428,6,0,L|183:57,1,97.4999955368044,0|0,1:0|0:0,0:0:0:0:
290,17,311624,2,0,L|278:119,1,97.4999955368044,10|0,1:2|0:0,0:0:0:0:
399,214,311819,2,0,L|387:117,1,97.4999955368044,0|0,1:0|0:0,0:0:0:0:
289,214,312013,2,0,L|192:225,1,97.4999955368044,10|0,1:2|0:0,0:0:0:0:
41,301,312208,6,0,L|137:312,1,97.4999955368044,0|0,1:0|0:0,0:0:0:0:
285,338,312403,1,8,1:2:0:0:
359,325,312500,1,8,1:0:0:0:
403,261,312598,1,8,1:0:0:0:
396,182,312695,1,8,1:2:0:0:
334,134,312793,1,8,1:2:0:0:
334,134,312987,6,0,P|285:143|154:80,1,194.999991073609,12|0,1:0|0:0,0:0:0:0:
107,264,313280,2,0,P|123:217|243:135,1,194.999991073609,12|0,1:0|0:0,0:0:0:0:
108,3,313572,2,0,P|140:40|156:156,1,97.4999955368044,12|0,1:0|0:0,0:0:0:0:
226,235,313767,6,0,P|244:280|275:316,1,97.4999955368044,0|0,1:0|0:0,0:0:0:0:
407,347,313961,1,8,1:0:0:0:
366,280,314059,1,8,1:0:0:0:
361,202,314156,1,8,1:0:0:0:
333,128,314254,1,8,1:0:0:0:
280,71,314351,1,8,1:2:0:0:
280,71,314546,6,0,P|228:63|179:73,1,97.4999955368044,0|0,1:0|0:0,0:0:0:0:
82,168,314741,2,0,P|90:121|82:73,1,97.4999955368044,10|0,1:2|0:0,0:0:0:0:
270,180,314935,2,0,P|262:227|270:275,1,97.4999955368044,0|0,1:2|0:0,0:0:0:0:
72,277,315130,2,0,P|124:285|173:275,1,97.4999955368044,10|0,1:2|0:0,0:0:0:0:
26,83,315325,6,0,P|78:75|127:85,1,97.4999955368044,0|0,1:0|0:0,0:0:0:0:
224,180,315520,2,0,P|215:132|223:84,1,97.4999955368044,10|0,1:2|0:0,0:0:0:0:
346,16,315715,2,0,P|391:32|428:63,1,97.4999955368044,0|0,1:0|0:0,0:0:0:0:
339,139,315909,2,0,P|369:176|386:221,1,97.4999955368044,10|0,1:2|0:0,0:0:0:0:
297,251,316104,6,0,P|305:298|297:346,1,97.4999955368044,0|0,1:0|0:0,0:0:0:0:
189,344,316299,2,0,P|181:296|190:249,1,97.4999955368044,10|0,1:2|0:0,0:0:0:0:
100,219,316494,2,0,P|117:174|148:137,1,97.4999955368044,0|0,1:0|0:0,0:0:0:0:
58,61,316689,2,0,P|95:30|141:14,1,97.4999955368044,10|0,1:2|0:0,0:0:0:0:
241,78,316883,2,0,L|241:191,1,97.4999955368044,0|0,1:0|0:0,0:0:0:0:
500,214,317078,5,8,1:0:0:0:
427,180,317175,1,8,1:0:0:0:
352,190,317272,1,8,1:0:0:0:
294,241,317370,1,8,1:0:0:0:
235,292,317468,1,8,1:0:0:0:
159,302,317565,1,8,1:0:0:0:
90,270,317663,6,0,L|109:384,1,104.999996795654,4|0,1:0|0:0,0:0:0:0:
28,145,317857,2,0,L|1:258,1,104.999996795654,12|0,1:0|0:0,0:0:0:0:
105,53,318052,2,0,L|132:166,1,104.999996795654,4|0,1:0|0:0,0:0:0:0:
223,111,318247,2,0,L|250:224,1,104.999996795654,12|0,1:0|0:0,0:0:0:0:
313,29,318442,6,0,L|340:142,1,104.999996795654,4|0,1:0|0:0,0:0:0:0:
482,299,318637,1,12,1:0:0:0:
398,291,318734,1,0,1:0:0:0:
318,316,318831,2,0,P|263:322|210:302,1,104.999996795654,4|0,1:0|0:0,0:0:0:0:
110,258,319026,2,0,P|116:203|96:150,1,104.999996795654,12|0,1:0|0:0,0:0:0:0:
221,40,319221,6,0,L|207:168,1,104.999996795654,4|0,1:0|0:0,0:0:0:0:
293,177,319416,2,0,L|279:305,1,104.999996795654,12|0,1:0|0:0,0:0:0:0:
395,61,319611,2,0,L|381:189,1,104.999996795654,4|0,1:0|0:0,0:0:0:0:
478,190,319805,2,0,L|464:318,1,104.999996795654,12|0,1:0|0:0,0:0:0:0:
359,366,320000,6,0,L|231:352,1,104.999996795654,4|0,1:0|0:0,0:0:0:0:
48,280,320195,1,12,1:0:0:0:
123,243,320292,1,0,1:0:0:0:
207,242,320390,2,0,L|342:251,1,104.999996795654,4|0,1:0|0:0,0:0:0:0:
406,169,320585,2,0,L|278:155,1,104.999996795654,12|0,1:0|0:0,0:0:0:0:
46,30,320779,6,0,P|97:24|161:47,1,104.999996795654,4|0,1:0|0:0,0:0:0:0:
205,122,320974,2,0,P|255:129|311:168,1,104.999996795654,12|0,1:0|0:0,0:0:0:0:
426,346,321169,2,0,P|375:352|311:329,1,104.999996795654,4|0,1:0|0:0,0:0:0:0:
267,254,321364,2,0,P|217:247|161:208,1,104.999996795654,12|0,1:0|0:0,0:0:0:0:
17,130,321559,6,0,P|58:100|125:88,1,104.999996795654,4|0,1:0|0:0,0:0:0:0:
205,122,321754,2,0,P|253:103|320:109,1,104.999996795654,12|0,1:0|0:0,0:0:0:0:
512,75,321948,2,0,P|461:82|405:121,1,104.999996795654,4|0,1:0|0:0,0:0:0:0:
336,210,322143,2,0,P|289:231|245:283,1,104.999996795654,12|0,1:0|0:0,0:0:0:0:
91,383,322338,6,0,P|135:355|187:348,1,104.999996795654,4|0,1:0|0:0,0:0:0:0:
322,355,322532,2,0,P|346:309|387:276,1,104.999996795654,12|0,1:0|0:0,0:0:0:0:
508,142,322728,2,0,P|455:144|407:124,1,104.999996795654,4|0,1:0|0:0,0:0:0:0:
293,50,322922,2,0,P|249:77|197:85,1,104.999996795654,12|0,1:0|0:0,0:0:0:0:
59,125,323117,5,8,1:0:0:0:
101,205,323215,1,8,1:0:0:0:
187,228,323312,1,8,1:0:0:0:
275,217,323409,1,8,1:0:0:0:
354,173,323507,5,0,3:0:0:0:
367,206,323604,1,0,3:0:0:0:
364,242,323702,1,0,3:0:0:0:
351,275,323799,1,0,3:0:0:0:
284,336,323896,6,0,B|251:339|220:334|220:334|165:320|122:334|122:334|141:271|144:229|144:229|125:193|125:128,1,360,12|0,1:0|0:0,0:0:0:0:
219,41,324286,2,4,B|210:99|211:172|211:172|250:173|296:180|296:180|382:184|416:106,1,360,12|0,1:0|0:0,0:0:0:0:
372,23,324676,2,4,P|333:173|492:173,1,360,12|0,1:0|0:0,0:0:0:0:
477,314,325065,2,4,B|363:314|363:314|290:314|290:227|203:227|203:227|112:227,1,360,12|0,1:0|0:0,0:0:0:0:
130,308,325455,6,4,B|53:308|53:308|-11:308|-11:148|53:148|53:148|130:148,1,360,12|0,1:0|0:0,0:0:0:0:
27,60,325844,2,4,B|94:63|172:59|172:59|208:98|222:137|222:137|288:142|370:137,1,360,12|0,1:0|0:0,0:0:0:0:
460,13,326234,2,4,B|428:91|432:203|469:261|469:261|412:240|362:241,1,360,12|0,1:0|0:0,0:0:0:0:
389,343,326624,2,0,P|234:364|58:269,1,360,12|0,1:0|0:0,0:0:0:0:
89,52,327013,6,0,P|188:132|53:100,1,360,12|0,1:0|0:0,0:0:0:0:
85,47,327403,6,0,P|189:147|46:105,1,382.500007295609,12|0,1:0|0:0,0:0:0:0:
81,42,327793,6,0,P|187:163|39:120,1,404.999987640381,12|0,1:0|0:0,0:0:0:0:
77,37,328182,6,0,P|191:169|39:149,1,427.499988584519,12|0,1:0|0:0,0:0:0:0:
460,244,328572,5,4,1:0:0:0:
205,362,328961,1,4,1:0:0:0:
292,81,329351,1,4,1:0:0:0:
433,131,329546,5,8,1:0:0:0:
367,190,329643,1,8,1:0:0:0:
281,212,329741,1,8,1:0:0:0:
194,193,329838,1,8,1:0:0:0:
114,151,329935,1,8,1:0:0:0:
30,136,330033,1,8,1:0:0:0:
77,121,337923,6,0,L|199:106,1,104.999996795654,0|0,1:0|0:0,0:0:0:0:
367,157,338117,1,12,1:0:0:0:
449,178,338215,1,0,1:0:0:0:
470,261,338312,1,4,1:0:0:0:
410,321,338410,1,0,1:0:0:0:
328,298,338507,2,0,L|206:313,1,104.999996795654,12|0,1:0|0:0,0:0:0:0:
79,356,338702,2,0,P|92:304|84:253,1,104.999996795654,4|0,1:0|0:0,0:0:0:0:
31,148,338896,2,0,P|83:161|134:153,1,104.999996795654,12|0,1:0|0:0,0:0:0:0:
376,30,339091,2,0,P|282:69|257:167,1,209.999993591309,4|12,1:0|1:0,0:0:0:0:
200,378,339481,6,0,P|210:329|198:256,1,104.999996795654,4|0,1:0|0:0,0:0:0:0:
155,55,339676,1,12,1:0:0:0:
73,76,339774,1,0,1:0:0:0:
52,159,339871,1,4,1:0:0:0:
112,219,339969,1,0,1:0:0:0:
194,196,340066,2,0,L|316:211,1,104.999996795654,12|0,1:0|0:0,0:0:0:0:
396,35,340260,2,0,P|381:85|391:147,1,104.999996795654,4|0,1:0|0:0,0:0:0:0:
501,249,340455,2,0,P|449:242|399:257,1,104.999996795654,12|0,1:0|0:0,0:0:0:0:
260,340,340650,2,0,P|161:305|54:351,1,209.999993591309,4|12,1:0|1:0,0:0:0:0:
54,170,341039,6,0,L|169:157,1,104.999996795654,4|0,1:0|0:0,0:0:0:0:
356,93,341234,1,12,1:0:0:0:
438,114,341332,1,0,1:0:0:0:
459,197,341429,1,4,1:0:0:0:
399,257,341527,1,0,1:0:0:0:
317,234,341624,2,0,L|195:249,1,104.999996795654,12|0,1:0|0:0,0:0:0:0:
87,336,341818,2,0,L|209:351,1,104.999996795654,4|0,1:0|0:0,0:0:0:0:
329,338,342013,2,0,L|314:216,1,104.999996795654,12|0,1:0|0:0,0:0:0:0:
215,120,342208,2,0,L|337:105,1,104.999996795654,4|0,1:0|0:0,0:0:0:0:
455,29,342403,2,0,L|447:139,1,104.999996795654,12|0,1:0|0:0,0:0:0:0:
469,274,342598,6,0,B|421:252|421:252|346:243,1,104.999996795654,4|0,1:0|0:0,0:0:0:0:
263,325,342792,2,0,B|232:281|232:281|171:236,1,104.999996795654,12|0,1:0|0:0,0:0:0:0:
63,250,342987,2,0,B|58:197|58:197|28:127,1,104.999996795654,4|0,1:0|0:0,0:0:0:0:
144,26,343182,2,0,B|148:78|148:78|178:148,1,104.999996795654,12|0,1:0|0:0,0:0:0:0:
260,220,343377,1,4,1:0:0:0:
260,220,343474,2,0,L|246:330,1,104.999996795654,8|0,1:0|0:0,0:0:0:0:
383,266,343669,5,0,1:0:0:0:
382,183,343766,1,0,1:0:0:0:
331,118,343864,1,8,1:0:0:0:
251,97,343961,1,8,1:0:0:0:
175,129,344059,1,8,1:0:0:0:
135,201,344156,6,0,B|137:251|110:322|110:322|168:318|311:347|311:347|405:326,1,360,12|0,1:0|0:0,0:0:0:0:
471,264,344546,2,0,B|413:233|343:276|234:251|234:251|264:185|264:185|337:188,1,360,12|0,1:0|0:0,0:0:0:0:
259,103,344935,2,0,B|224:105|201:105|201:105|180:169|153:214|153:214|67:207|67:207|94:148|111:93,1,360,12|0,1:0|0:0,0:0:0:0:
40,52,345325,2,0,B|103:29|229:19|292:29|292:29|339:69|380:105,1,360,12|0,1:0|0:0,0:0:0:0:
483,55,345715,6,0,B|443:108|417:239|457:326|457:326|367:340|319:272,1,360,12|0,1:0|0:0,0:0:0:0:
350,235,346104,2,0,B|286:244|249:315|278:383|278:383|223:330|154:354|85:287,1,360,12|0,1:0|0:0,0:0:0:0:
35,193,346494,2,0,B|81:198|124:242|194:242|194:242|194:140|67:121,1,360,12|0,1:0|0:0,0:0:0:0:
77,36,346883,2,0,B|167:45|257:36|257:36|333:36|333:159|259:159|259:159|214:159,1,360,12|0,1:0|0:0,0:0:0:0:
314,241,347273,6,0,B|369:228|391:121|424:84|424:84|462:160|492:244,1,360,12|0,1:0|0:0,0:0:0:0:
423,301,347663,2,0,B|321:321|251:358|251:358|170:331|56:324,1,360,12|0,1:0|0:0,0:0:0:0:
26,179,348052,2,0,P|176:212|135:69,1,360,12|0,1:0|0:0,0:0:0:0:
486,179,348442,2,0,P|336:212|377:69,1,360,12|0,1:0|0:0,0:0:0:0:
467,348,348831,5,4,1:0:0:0:
45,348,349221,1,4,1:0:0:0:
254,379,349611,1,8,1:0:0:0:
254,379,349708,1,0,1:0:0:0:
254,343,349806,5,8,1:0:0:0:
254,306,349903,1,8,1:0:0:0:
254,270,350000,1,8,1:0:0:0:
254,233,350098,1,8,1:0:0:0:
254,197,350195,1,8,1:0:0:0:
254,161,350293,1,8,1:0:0:0:
254,124,350390,5,2,0:0:0:0:
264,129,350487,1,0,0:0:0:0:
274,134,350585,1,0,0:0:0:0:
342,139,350682,5,2,0:0:0:0:
339,150,350780,1,0,0:0:0:0:
337,161,350877,1,0,0:0:0:0:
335,172,350974,1,0,0:0:0:0:
301,221,351072,5,2,0:0:0:0:
312,224,351169,1,0,0:0:0:0:
323,226,351267,1,0,0:0:0:0:
334,228,351364,1,0,0:0:0:0:
393,266,351461,5,2,0:0:0:0:
396,253,351559,1,0,0:0:0:0:
398,241,351656,1,0,0:0:0:0:
400,229,351754,1,0,0:0:0:0:
406,145,351851,5,2,0:0:0:0:
419,147,351948,1,0,0:0:0:0:
432,149,352046,1,0,0:0:0:0:
446,152,352143,1,0,0:0:0:0:
485,211,352241,5,2,0:0:0:0:
487,223,352338,1,0,0:0:0:0:
489,235,352435,1,0,0:0:0:0:
492,248,352533,1,0,0:0:0:0:
457,295,352630,5,2,0:0:0:0:
455,307,352728,1,0,0:0:0:0:
453,319,352825,1,0,0:0:0:0:
450,332,352922,1,0,0:0:0:0:
416,366,353020,5,2,0:0:0:0:
410,370,353117,1,0,0:0:0:0:
405,374,353215,1,0,0:0:0:0:
400,379,353312,1,0,0:0:0:0:
395,383,353409,1,0,0:0:0:0:
358,380,353507,5,2,0:0:0:0:
