osu file format v14

[General]
AudioFilename: audio.mp3
AudioLeadIn: 0
PreviewTime: 189
Countdown: 1
SampleSet: Soft
StackLeniency: 0.7
Mode: 0
LetterboxInBreaks: 0
WidescreenStoryboard: 1

[Editor]
Bookmarks: 10268,20111,30111,40268,60268,80268,100268,110111,120111,130111,140268,150268,160268,180268,190111,200111,220268,240111,250111,260111,270111,280268,290268
DistanceSpacing: 1.6
BeatDivisor: 4
GridSize: 32
TimelineZoom: 2.399999

[Metadata]
Title:Sacrifice
TitleUnicode:Sacrifice
Artist:Meramipop
ArtistUnicode:めらみぽっぷ
Creator:Lasse
Version:Lunatic
Source:東方妖々夢 ~ Perfect Cherry Blossom.
Tags:Touhou ZUN 魂魄妖夢 Youmu Konpaku Stage 5 東方妖々夢 ~ Ancient Temple CROWS'CLAW 鷹 Taka feat. Merami 追憶のサクラメント tsuioku no sacrament sakuramento crowsclaw
BeatmapID:1817769
BeatmapSetID:869801

[Difficulty]
HPDrainRate:6
CircleSize:4
OverallDifficulty:8
ApproachRate:9
SliderMultiplier:0.999999999999999
SliderTickRate:0.5

[Events]
//Background and Video events
0,0,"dab.jpg",0,0
//Break Periods
2,220268,239043
//Storyboard Layer 0 (Background)
//Storyboard Layer 1 (Fail)
//Storyboard Layer 2 (Pass)
//Storyboard Layer 3 (Foreground)
//Storyboard Sound Samples

[TimingPoints]
268,312.5,4,2,1,35,1,0
268,-100,4,2,1,35,0,0
10268,-90.9090909090909,4,2,1,40,0,0
12455,-90.9090909090909,4,2,1,30,0,0
12768,-90.9090909090909,4,2,1,40,0,0
14955,-90.9090909090909,4,2,1,30,0,0
15268,-90.9090909090909,4,2,1,40,0,0
17455,-90.9090909090909,4,2,1,30,0,0
17768,-90.9090909090909,4,2,1,42,0,0
18705,-90.9090909090909,4,2,1,44,0,0
19643,-200,4,2,1,46,0,0
19955,-200,4,2,1,5,0,0
20111,-69.4444444444444,4,1,1,65,0,0
40268,-100,4,2,1,40,0,0
42455,-100,4,2,1,30,0,0
42768,-100,4,2,1,40,0,0
44955,-100,4,2,1,30,0,0
45268,-100,4,2,1,40,0,0
47455,-100,4,2,1,30,0,0
47768,-100,4,2,1,40,0,0
48080,-100,4,2,1,30,0,0
48393,-100,4,2,1,40,0,0
49955,-100,4,2,1,30,0,0
50268,-100,4,2,1,40,0,0
52455,-100,4,2,1,30,0,0
52768,-100,4,2,1,40,0,0
54955,-100,4,2,1,30,0,0
55268,-100,4,2,1,40,0,0
57455,-100,4,2,1,30,0,0
57768,-100,4,2,1,40,0,0
58705,-100,4,2,1,30,0,0
59018,-100,4,2,1,42,0,0
59643,-100,4,2,1,46,0,0
59955,-100,4,2,1,42,0,0
60268,-90.9090909090909,4,2,1,46,0,0
67455,-90.9090909090909,4,2,1,40,0,0
67768,-90.9090909090909,4,2,1,46,0,0
68080,-90.9090909090909,4,2,1,40,0,0
68393,-90.9090909090909,4,2,1,46,0,0
70111,-90.9090909090909,4,2,1,40,0,0
70268,-90.9090909090909,4,2,1,46,0,0
72455,-90.9090909090909,4,2,1,40,0,0
72768,-90.9090909090909,4,2,1,46,0,0
77768,-90.9090909090909,4,2,1,48,0,0
78393,-90.9090909090909,4,2,1,50,0,0
79018,-90.9090909090909,4,2,1,52,0,0
79643,-90.9090909090909,4,2,1,54,0,0
79955,-90.9090909090909,4,2,1,56,0,0
80268,-74.6268656716418,4,1,1,60,0,0
97768,-74.6268656716418,4,1,1,65,0,0
99330,-100,4,2,1,50,0,0
99643,-100,4,2,1,30,0,0
100268,-62.5,4,1,1,70,0,1
109799,-62.5,4,1,1,70,0,0
110111,-62.5,4,1,1,70,0,1
119096,-62.5,4,2,1,5,0,1
119174,-62.5,4,1,1,70,0,1
120111,-69.4444444444444,4,1,1,65,0,0
140268,-90.9090909090909,4,2,1,46,0,0
147455,-90.9090909090909,4,2,1,40,0,0
147768,-90.9090909090909,4,2,1,46,0,0
148080,-90.9090909090909,4,2,1,40,0,0
148393,-90.9090909090909,4,2,1,46,0,0
150111,-90.9090909090909,4,2,1,40,0,0
150268,-84.7457627118644,4,2,1,48,0,0
152455,-84.7457627118644,4,2,1,42,0,0
152768,-84.7457627118644,4,2,1,50,0,0
155268,-84.7457627118644,4,2,1,52,0,0
157768,-84.7457627118644,4,2,1,54,0,0
158393,-84.7457627118644,4,2,1,55,0,0
159018,-84.7457627118644,4,2,1,56,0,0
159486,-84.7457627118644,4,2,1,57,0,0
159643,-84.7457627118644,4,2,1,58,0,0
159955,-84.7457627118644,4,2,1,56,0,0
160268,-74.6268656716418,4,1,1,60,0,0
179330,-83.3333333333333,4,2,1,50,0,0
180268,-58.8235294117647,4,1,1,72,0,1
189799,-58.8235294117647,4,1,1,72,0,0
190111,-58.8235294117647,4,1,1,72,0,1
199096,-58.8235294117647,4,2,1,5,0,1
199174,-58.8235294117647,4,1,1,72,0,1
200111,-66.6666666666667,4,1,1,65,0,0
200580,-66.6666666666667,4,2,1,48,0,0
200736,-66.6666666666667,4,1,1,65,0,0
215033,-66.6666666666667,4,2,1,5,0,0
215111,-62.5,4,2,1,70,0,0
219643,-71.4285714285714,4,2,1,65,0,0
219799,-71.4285714285714,4,2,1,60,0,0
219955,-71.4285714285714,4,2,1,55,0,0
239643,-71.4285714285714,4,2,1,70,0,0
240111,-55.5555555555556,4,1,1,75,0,1
249799,-55.5555555555556,4,1,1,75,0,0
250111,-55.5555555555556,4,1,1,75,0,1
259096,-55.5555555555556,4,2,1,5,0,1
259174,-55.5555555555556,4,1,1,75,0,1
260111,-69.4444444444444,4,1,1,65,0,0
280268,-341.997264021888,4,2,1,60,0,0
280346,-341.997264021888,4,2,2,60,0,0
280580,-333.333333333333,4,2,2,60,0,0
280893,-333.333333333333,4,2,3,55,0,0
281518,-333.333333333333,4,2,2,50,0,0
282143,-333.333333333333,4,2,3,45,0,0
282768,-333.333333333333,4,2,2,40,0,0
283393,-333.333333333333,4,2,3,35,0,0
284018,-333.333333333333,4,2,2,30,0,0
284643,-333.333333333333,4,2,3,25,0,0
285268,-333.333333333333,4,2,2,20,0,0
285893,-333.333333333333,4,2,3,15,0,0
286518,-333.333333333333,4,2,2,10,0,0
287768,-333.333333333333,4,2,3,5,0,0
290268,-333.333333333333,4,2,1,5,0,0

[Colours]
Combo1 : 255,165,165
Combo2 : 170,210,210
Combo3 : 255,180,200
Combo4 : 200,230,150

[HitObjects]
371,84,268,6,0,B|442:85|424:125|488:170,1,150,2|0,0:0|0:0,0:0:0:0:
337,269,1205,2,0,B|266:270|284:310|220:355,1,150,2|0,0:0|0:0,0:0:0:0:
107,315,1986,1,0,0:0:0:0:
107,315,2143,2,0,L|96:199,1,99.9999999999999,2|0,0:0|0:0,0:0:0:0:
109,40,2768,6,0,P|68:101|0:131,1,150,2|0,0:0|0:0,0:0:0:0:
155,223,3705,2,0,B|234:233|205:276|275:304,1,150,2|0,0:0|0:0,0:0:0:0:
382,359,4486,1,0,0:0:0:0:
382,359,4643,2,0,P|372:300|385:254,1,99.9999999999999,2|0,0:0|0:0,0:0:0:0:
490,163,5268,6,0,L|341:171,1,150,2|0,0:0|0:0,0:0:0:0:
186,76,6205,2,0,P|262:58|312:2,1,150,2|0,0:0|0:0,0:0:0:0:
253,119,6986,1,0,0:0:0:0:
253,119,7143,2,0,P|237:164|245:232,1,99.9999999999999,2|0,0:0|0:0,0:0:0:0:
336,286,7768,6,0,B|263:283|285:327|212:363,1,150,2|0,0:0|0:0,0:0:0:0:
44,301,8705,2,0,L|35:133,1,150,2|0,0:0|0:0,0:0:0:0:
4,35,9486,1,0,0:0:0:0:
4,35,9643,2,0,P|46:59|111:59,1,99.9999999999999,2|0,0:0|0:0,0:0:0:0:
231,8,10268,6,0,L|220:143,1,110.000003356934,2|0,0:2|0:0,0:0:0:0:
187,186,10736,2,0,P|162:196|123:192,1,55.0000016784668,2|0,0:0|1:0,0:0:0:0:
269,270,11205,1,2,1:2:0:0:
269,270,11361,2,0,L|392:292,1,110.000003356934,0|0,3:0|0:0,0:0:0:0:
453,276,11830,2,0,P|473:225|465:171,2,110.000003356934,0|0|2,3:2|1:0|2:3,0:0:0:0:
320,356,12768,6,0,L|192:359,1,110.000003356934,2|0,2:0|0:0,0:0:0:0:
150,309,13236,2,0,L|140:246,1,55.0000016784668,2|0,0:0|1:0,0:0:0:0:
16,164,13705,1,0,1:0:0:0:
16,164,13861,2,0,P|72:181|127:173,1,110.000003356934,0|0,3:0|0:0,0:0:0:0:
172,115,14330,1,0,3:0:0:0:
250,281,14643,5,2,1:2:0:0:
334,287,14955,1,2,2:3:0:0:
334,287,15111,1,2,2:3:0:0:
417,350,15268,6,0,P|409:302|438:224,1,110.000003356934,2|0,0:0|0:0,0:0:0:0:
481,191,15736,2,0,P|490:166|486:125,1,55.0000016784668,2|0,2:2|1:0,0:0:0:0:
352,67,16205,1,0,1:0:0:0:
352,67,16361,2,0,P|288:76|234:63,1,110.000003356934,0|0,3:0|0:0,0:0:0:0:
186,15,16830,2,0,L|194:133,2,110.000003356934,0|0|2,3:0|1:0|0:3,0:0:0:0:
52,91,17768,6,0,L|44:209,1,110.000003356934,2|0,0:0|0:0,0:0:0:0:
72,272,18236,2,0,P|98:280|135:280,1,55.0000016784668,2|0,0:0|1:0,0:0:0:0:
260,206,18705,1,0,1:0:0:0:
260,206,18861,2,0,P|326:189|388:199,1,110.000003356934,0|0,3:0|0:0,0:0:0:0:
426,242,19330,2,0,L|441:313,1,55.0000016784668,0|0,3:0|0:0,0:0:0:0:
488,185,19643,6,2,P|494:167|492:118,1,62.4999999999999,0|0,1:0|0:0,0:1:0:0:
480,101,20111,6,2,B|426:87|426:87|399:103|399:103|332:106,1,144.000003515625,4|2,0:1|0:2,0:1:0:0:
241,207,20580,2,0,B|250:169|250:169|221:125|235:67,1,144.000003515625,2|8,0:1|0:0,0:0:0:0:
374,189,21049,2,0,P|385:229|389:277,1,72.0000017578125,2|0,0:1|0:0,0:0:0:0:
248,351,21361,5,2,0:2:0:0:
192,293,21518,2,0,L|116:279,1,72.0000017578125,2|0,0:0|0:0,0:0:0:0:
71,88,21830,5,2,3:3:0:0:
148,77,21986,1,2,3:3:0:0:
51,73,22143,5,10,0:2:0:0:
12,172,22299,1,2,0:2:0:0:
22,254,22455,5,2,0:3:0:0:
181,249,22611,6,2,B|113:204|167:181|99:137,1,144.000003515625,4|2,0:3|0:2,0:1:0:0:
272,96,23080,2,0,B|347:66|299:33|375:4,1,144.000003515625,2|8,0:1|0:0,0:0:0:0:
506,208,23549,2,0,L|432:188,1,72.0000017578125,2|0,0:1|0:0,0:0:0:0:
310,348,23861,5,2,0:2:0:0:
371,296,24018,2,0,L|447:282,1,72.0000017578125,2|0,0:0|0:0,0:0:0:0:
284,144,24330,5,2,3:3:0:0:
257,219,24486,1,2,3:3:0:0:
191,134,24643,5,10,0:2:0:0:
294,118,24799,1,2,0:2:0:0:
358,168,24955,5,2,0:3:0:0:
238,41,25111,6,2,P|178:31|92:28,1,144.000003515625,4|2,0:2|0:2,0:1:0:0:
0,197,25580,2,0,P|16:129|81:105,1,144.000003515625,2|8,0:1|0:0,0:0:0:0:
132,235,26049,2,0,L|121:330,1,72.0000017578125,2|0,0:1|0:0,0:0:0:0:
284,371,26361,5,2,0:2:0:0:
339,314,26518,2,0,L|415:300,1,72.0000017578125,2|0,0:0|0:0,0:0:0:0:
512,133,26830,5,2,3:3:0:0:
437,159,26986,1,2,3:3:0:0:
427,63,27143,5,10,0:2:0:0:
403,165,27299,1,2,0:2:0:0:
332,213,27455,5,2,0:3:0:0:
243,125,27611,6,2,P|242:77|155:49,1,144.000003515625,4|2,0:3|0:2,0:1:0:0:
92,9,28080,1,2,3:3:0:0:
120,124,28236,1,2,3:3:0:0:
110,216,28393,5,10,0:2:0:0:
103,137,28549,1,2,0:2:0:0:
162,45,28705,5,2,0:3:0:0:
311,208,28861,5,6,0:2:0:0:
388,279,29018,2,0,L|463:273,1,72.0000017578125,2|8,0:0|0:0,0:0:0:0:
206,352,29330,2,0,L|130:357,1,72.0000017578125,2|0,0:1|0:0,0:0:0:0:
2,154,29643,5,10,3:1:0:0:
168,208,29799,1,2,3:3:0:0:
27,251,29955,1,8,3:3:0:0:
54,334,30111,6,2,L|80:175,1,144.000003515625,4|2,0:1|0:2,0:1:0:0:
183,37,30580,2,0,P|161:74|56:76,1,144.000003515625,2|8,0:1|0:0,0:0:0:0:
238,156,31049,2,0,P|268:158|317:150,1,72.0000017578125,2|0,0:1|0:0,0:0:0:0:
512,43,31361,5,2,0:2:0:0:
441,78,31518,2,0,P|411:80|362:72,1,72.0000017578125,2|0,0:0|0:0,0:0:0:0:
196,9,31830,5,2,3:3:0:0:
206,87,31986,1,2,3:3:0:0:
172,0,32143,5,10,0:2:0:0:
148,140,32299,1,2,0:2:0:0:
96,202,32455,5,2,0:3:0:0:
223,84,32611,6,2,B|304:93|266:138|346:146,1,144.000003515625,4|2,0:3|0:2,0:1:0:0:
207,246,33080,2,0,B|125:255|163:300|83:308,1,144.000003515625,2|8,0:1|0:0,0:0:0:0:
286,365,33549,2,0,L|363:377,1,72.0000017578125,2|0,0:1|0:0,0:0:0:0:
512,250,33861,5,2,0:2:0:0:
458,190,34018,2,0,L|449:111,1,72.0000017578125,2|0,0:0|0:0,0:0:0:0:
343,21,34330,5,2,3:3:0:0:
324,97,34486,1,2,3:3:0:0:
242,19,34643,5,10,0:2:0:0:
359,0,34799,1,2,0:2:0:0:
420,48,34955,5,2,0:3:0:0:
295,116,35111,6,2,B|248:133|248:133|226:162|226:162|172:184,1,144.000003515625,4|2,0:2|0:2,0:1:0:0:
0,69,35580,2,0,P|44:58|109:126,1,144.000003515625,2|8,0:1|0:0,0:0:0:0:
75,289,36049,2,0,P|41:283|0:280,1,72.0000017578125,2|0,0:1|0:0,0:0:0:0:
201,369,36361,5,2,0:2:0:0:
265,320,36518,2,0,P|269:283|279:234,1,72.0000017578125,2|0,0:0|0:0,0:0:0:0:
409,104,36830,5,2,3:3:0:0:
435,179,36986,1,2,3:3:0:0:
416,71,37143,5,10,0:2:0:0:
351,162,37299,1,2,0:2:0:0:
269,163,37455,5,2,0:3:0:0:
434,201,37611,6,2,P|491:237|480:304,1,144.000003515625,4|2,0:3|0:2,0:1:0:0:
463,382,38080,1,2,3:3:0:0:
386,273,38236,1,2,3:3:0:0:
339,341,38393,5,10,0:2:0:0:
218,325,38549,1,2,0:2:0:0:
159,213,38705,5,2,0:3:0:0:
49,81,38861,5,6,0:2:0:0:
143,122,39018,2,0,P|179:128|238:126,1,72.0000017578125,2|8,0:0|0:0,0:0:0:0:
71,281,39330,2,0,P|35:275|-24:277,1,72.0000017578125,2|0,3:1|3:0,0:0:0:0:
0,358,40268,6,0,L|208:343,1,200,2|0,3:2|1:0,0:0:0:0:
353,374,41205,1,0,1:0:0:0:
353,374,41361,2,0,P|339:326|347:275,1,99.9999999999999,0|0,3:0|1:0,0:0:0:0:
400,218,41830,1,2,3:2:0:0:
404,208,42143,1,2,1:2:0:0:
408,199,42455,2,0,L|465:178,1,50,2|2,0:3|0:3,0:0:0:0:
496,92,42768,6,0,P|420:49|310:50,1,200,2|0,3:2|1:0,0:0:0:0:
232,189,43705,1,0,1:2:0:0:
232,189,43861,1,0,3:0:0:0:
135,79,44174,1,0,1:0:0:0:
135,79,44330,2,0,P|189:84|238:64,1,99.9999999999999,2|2,3:2|1:2,0:0:0:0:
81,11,44955,1,2,0:3:0:0:
81,11,45111,1,2,0:3:0:0:
25,69,45268,6,0,L|41:275,1,200,2|0,3:2|1:0,0:0:0:0:
172,358,46205,1,0,1:0:0:0:
172,358,46361,2,0,P|218:338|280:343,1,99.9999999999999,0|0,3:0|1:0,0:0:0:0:
341,368,46830,1,2,3:2:0:0:
351,365,47143,1,2,1:2:0:0:
361,362,47455,1,2,0:3:0:0:
439,378,47611,1,2,0:3:0:0:
484,311,47768,6,0,L|496:203,2,99.9999999999999,2|2|2,3:2|2:0|1:2,0:0:0:0:
341,368,48705,1,2,1:2:0:0:
341,368,48861,1,2,3:2:0:0:
230,251,49174,1,0,1:0:0:0:
230,251,49330,2,0,P|177:234|114:236,1,99.9999999999999,2|2,3:2|1:2,0:0:0:0:
22,117,49955,1,2,0:3:0:0:
22,117,50111,1,2,0:3:0:0:
93,153,50268,6,0,P|195:149|302:117,1,200,2|0,3:2|1:0,0:0:0:0:
413,22,51205,1,0,1:0:0:0:
413,22,51361,2,0,P|395:69|399:125,1,99.9999999999999,0|0,3:0|1:0,0:0:0:0:
459,169,51830,1,2,3:2:0:0:
462,179,52143,1,2,1:2:0:0:
465,189,52455,2,0,L|458:239,1,50,2|2,0:3|0:3,0:0:0:0:
510,318,52768,6,0,P|452:277|310:258,1,200,2|0,3:2|1:0,0:0:0:0:
185,329,53705,1,0,1:2:0:0:
185,329,53861,1,0,3:0:0:0:
43,254,54174,1,0,1:0:0:0:
43,254,54330,2,0,P|37:200|50:142,1,99.9999999999999,2|2,3:2|1:2,0:0:0:0:
143,28,54955,1,2,0:3:0:0:
143,28,55111,1,2,0:3:0:0:
200,84,55268,6,0,P|292:110|411:96,1,200,2|0,3:2|1:0,0:0:0:0:
275,207,56205,1,0,1:0:0:0:
275,207,56361,2,0,L|152:197,1,99.9999999999999,0|0,3:0|1:0,0:0:0:0:
125,262,56830,1,2,3:2:0:0:
119,254,57143,1,2,1:2:0:0:
113,246,57455,1,2,0:3:0:0:
63,308,57611,1,2,0:3:0:0:
129,353,57768,6,0,L|242:342,1,99.9999999999999,2|0,3:2|0:0,0:0:0:0:
495,257,58393,2,0,L|382:246,1,99.9999999999999,2|2,1:2|0:3,0:0:0:0:
344,308,58861,1,2,0:3:0:0:
288,131,59018,5,2,3:2:0:0:
392,107,59174,1,0,1:0:0:0:
284,102,59330,1,8,3:3:0:0:
284,102,59643,5,10,1:2:0:0:
373,119,59799,1,2,3:2:0:0:
240,15,59955,1,8,3:3:0:0:
90,107,60268,6,0,L|100:220,1,110.000003356934,4|0,3:3|0:0,0:0:0:0:
141,293,60736,2,0,P|162:303|202:301,1,55.0000016784668,2|0,0:0|1:0,0:0:0:0:
204,293,61205,2,0,P|178:282|151:282,1,55.0000016784668,2|0,0:0|3:0,0:0:0:0:
14,377,61830,5,2,3:2:0:0:
11,244,62143,1,2,1:2:0:0:
8,111,62455,1,2,0:0:0:0:
141,38,62768,6,0,B|201:34|183:63|246:63,1,110.000003356934,2|0,3:2|2:0,0:0:0:0:
330,39,63236,2,0,P|359:27|391:26,1,55.0000016784668,2|0,0:0|1:0,0:0:0:0:
395,34,63705,2,0,L|401:100,1,55.0000016784668,2|0,0:0|3:0,0:0:0:0:
512,216,64330,5,2,3:2:0:0:
380,201,64643,1,2,1:2:0:0:
304,308,64955,1,2,0:0:0:0:
222,192,65268,6,0,B|212:160|212:160|225:121|217:84,1,110.000003356934,2|0,3:2|0:2,0:0:0:0:
156,22,65736,2,0,L|90:11,1,55.0000016784668,2|0,0:2|1:2,0:0:0:0:
94,26,66205,2,0,L|39:26,1,55.0000016784668,2|0,0:2|3:2,0:0:0:0:
0,201,66830,5,2,3:2:0:0:
126,234,67143,1,2,1:2:0:0:
257,213,67455,1,2,0:3:0:0:
257,213,67611,1,2,0:3:0:0:
307,272,67768,6,0,L|315:161,2,110.000003356934,2|2|2,3:2|2:2|1:2,0:0:0:0:
507,349,68705,1,2,2:2:0:0:
439,374,68861,1,2,3:2:0:0:
307,272,69330,5,2,3:2:0:0:
305,287,69643,1,2,1:2:0:0:
249,346,69799,1,2,3:2:0:0:
149,362,69955,2,0,L|89:337,1,55.0000016784668,10|2,3:3|0:3,0:0:0:0:
7,384,70268,6,0,L|18:273,1,110.000003356934,2|0,3:2|0:2,0:0:0:0:
62,199,70736,2,0,P|26:190|-6:170,1,55.0000016784668,2|0,0:2|1:2,0:0:0:0:
13,167,71205,2,0,P|38:157|65:153,1,55.0000016784668,2|0,0:2|3:2,0:0:0:0:
239,209,71830,5,2,3:2:0:0:
366,243,72143,1,2,1:2:0:0:
477,172,72455,1,2,2:3:0:0:
477,172,72611,1,2,2:3:0:0:
443,102,72768,6,0,B|391:87|389:115|334:109,1,110.000003356934,2|0,3:2|2:2,0:0:0:0:
255,73,73236,2,0,P|256:43|253:8,1,55.0000016784668,2|0,0:2|1:2,0:0:0:0:
245,6,73705,2,0,L|175:0,1,55.0000016784668,2|0,0:2|3:2,0:0:0:0:
12,52,74330,5,2,3:2:0:0:
101,149,74643,1,2,1:2:0:0:
131,277,74955,1,2,0:2:0:0:
263,348,75268,6,0,L|384:342,1,110.000003356934,2|0,3:2|0:2,0:0:0:0:
454,378,75736,2,0,P|461:345|460:321,1,55.0000016784668,2|0,0:2|1:2,0:0:0:0:
455,309,76205,2,0,P|448:276|449:252,1,55.0000016784668,2|0,0:2|3:2,0:0:0:0:
512,108,76830,5,2,3:2:0:0:
390,159,77143,1,2,1:2:0:0:
349,86,77455,5,8,3:3:0:0:
341,282,77768,5,2,3:2:0:0:
183,354,78080,1,0,1:2:0:0:
311,196,78393,5,10,2:2:0:0:
216,150,78705,1,8,3:3:0:0:
0,235,79018,5,2,1:2:0:0:
109,290,79174,1,2,3:3:0:0:
239,235,79330,1,8,3:3:0:0:
131,122,79486,5,2,0:2:0:0:
131,122,79564,1,2,0:2:0:0:
131,122,79643,1,8,1:2:0:0:
154,217,79799,1,8,3:3:0:0:
225,56,79955,5,10,1:2:0:0:
105,20,80111,1,2,1:2:0:0:
313,32,80268,5,4,0:1:0:0:
331,30,80580,6,0,P|342:66|341:110,1,66.9999968307496,2|0,0:2|0:0,0:0:0:0:
443,210,80893,2,0,P|444:176|455:144,1,66.9999968307496,10|0,0:0|0:0,0:0:0:0:
512,88,81205,1,2,0:3:0:0:
492,297,81361,6,0,P|438:257|373:248,1,133.999993661499,4|0,0:3|0:0,0:0:0:0:
248,199,81830,2,0,L|240:128,1,66.9999968307496,2|0,0:2|0:0,0:0:0:0:
164,281,82143,2,0,L|171:351,1,66.9999968307496,10|0,0:1|0:0,0:0:0:0:
239,381,82455,1,2,0:3:0:0:
137,202,82611,6,0,B|74:240|104:261|53:304,1,133.999993661499,4|0,0:2|0:0,0:0:0:0:
239,381,83080,2,0,L|314:364,1,66.9999968307496,2|0,0:2|0:0,0:0:0:0:
277,183,83393,2,0,L|202:166,1,66.9999968307496,10|0,0:0|0:0,0:0:0:0:
147,125,83705,1,2,0:3:0:0:
319,251,83861,6,0,B|308:209|308:209|346:104,1,133.999993661499,4|0,0:3|0:0,0:0:0:0:
498,37,84330,2,0,B|493:69|493:69|509:117,1,66.9999968307496,2|0,0:2|0:0,0:0:0:0:
373,20,84643,5,10,3:1:0:0:
296,1,84799,1,2,3:2:0:0:
204,105,84955,5,2,3:3:0:0:
315,78,85111,1,10,3:2:0:0:
132,8,85268,5,4,0:1:0:0:
113,6,85580,6,0,P|100:36|98:70,1,66.9999968307496,2|0,0:2|0:0,0:0:0:0:
249,224,85893,2,0,P|261:193|263:159,1,66.9999968307496,10|0,0:0|0:0,0:0:0:0:
204,105,86205,1,2,0:3:0:0:
323,271,86361,6,0,P|377:256|485:255,1,133.999993661499,4|0,0:3|0:0,0:0:0:0:
282,358,86830,2,0,L|206:350,1,66.9999968307496,2|0,0:2|0:0,0:0:0:0:
22,346,87143,5,10,3:1:0:0:
124,380,87299,1,10,3:3:0:0:
51,241,87455,1,10,3:2:0:0:
228,257,87611,6,0,P|292:241|351:209,1,133.999993661499,4|0,0:2|0:0,0:0:0:0:
277,45,88080,2,0,P|272:81|261:116,1,66.9999968307496,2|0,0:2|0:0,0:0:0:0:
140,189,88393,5,10,3:1:0:0:
119,102,88549,1,10,3:3:0:0:
25,211,88705,1,10,3:2:0:0:
2,60,88861,6,2,P|51:100|121:102,1,133.999993661499,4|0,0:3|0:0,0:1:0:0:
353,19,89330,2,2,L|341:93,1,66.9999968307496,2|0,0:2|0:0,0:1:0:0:
498,250,89643,5,10,3:1:0:0:
400,178,89799,1,8,3:2:0:0:
336,359,89955,6,2,P|416:346|497:325,1,133.999993661499,8|4,0:3|0:1,0:1:0:0:
467,333,90580,6,0,P|422:325|397:316,1,66.9999968307496,2|0,0:2|0:0,0:0:0:0:
335,193,90893,2,0,P|380:185|405:176,1,66.9999968307496,10|0,0:0|0:0,0:0:0:0:
447,113,91205,1,2,0:3:0:0:
299,27,91361,6,0,B|226:22|246:64|184:86,1,133.999993661499,4|0,0:3|0:0,0:0:0:0:
0,134,91830,2,0,L|81:142,1,66.9999968307496,2|0,0:2|0:0,0:0:0:0:
189,289,92143,2,0,P|171:247|169:201,1,66.9999968307496,10|0,0:0|0:0,0:0:0:0:
216,163,92455,1,2,0:3:0:0:
251,358,92611,6,0,P|187:329|114:331,1,133.999993661499,4|0,0:2|0:0,0:0:0:0:
287,205,93080,2,0,P|325:192|356:186,1,66.9999968307496,2|0,0:2|0:0,0:0:0:0:
184,62,93393,2,0,P|146:49|115:43,1,66.9999968307496,10|0,0:1|0:0,0:0:0:0:
49,79,93705,1,2,0:3:0:0:
215,150,93861,6,0,P|212:84|247:27,1,133.999993661499,4|0,0:3|0:0,0:0:0:0:
351,186,94330,2,0,L|345:265,1,66.9999968307496,2|0,0:2|0:0,0:0:0:0:
504,148,94643,5,10,3:1:0:0:
423,99,94799,1,2,3:2:0:0:
483,169,94955,1,10,3:3:0:0:
451,88,95111,1,10,3:2:0:0:
439,241,95268,5,4,0:1:0:0:
442,258,95580,6,0,P|473:271|507:273,1,66.9999968307496,2|0,0:2|0:0,0:0:0:0:
423,99,95893,2,0,P|392:86|358:84,1,66.9999968307496,10|0,0:0|0:0,0:0:0:0:
284,107,96205,1,2,0:3:0:0:
129,4,96361,6,0,L|139:161,1,133.999993661499,4|0,0:3|0:0,0:0:0:0:
31,253,96830,2,0,L|7:191,1,66.9999968307496,2|0,0:2|0:0,0:0:0:0:
200,277,97143,5,10,3:1:0:0:
241,198,97299,1,2,3:2:0:0:
170,283,97455,5,10,3:3:0:0:
242,361,97611,1,2,3:2:0:0:
258,173,97768,5,4,0:2:0:0:
66,371,98080,1,8,0:0:0:0:
10,108,98393,5,8,0:0:0:0:
142,152,98549,1,0,0:0:0:0:
270,43,98705,5,8,0:3:0:0:
105,54,98861,1,0,0:0:0:0:
203,219,99018,5,8,0:0:0:0:
286,20,99174,5,8,0:3:0:0:
365,83,99330,6,2,L|358:187,1,99.9999999999999,2|0,3:2|0:0,0:1:0:0:
284,209,100268,6,0,P|332:188|381:182,1,79.9999999999999,4|0,0:1|0:0,0:0:0:0:
225,350,100580,2,0,P|185:357|145:355,1,79.9999999999999,2|0,0:2|0:0,0:0:0:0:
338,275,100893,2,0,B|427:286|390:329|464:365,1,160,10|0,0:1|0:0,0:0:0:0:
322,191,101361,6,0,P|260:143|265:67,1,160,4|0,0:3|0:0,0:0:0:0:
315,3,101830,1,2,3:3:0:0:
125,132,101986,1,2,3:3:0:0:
17,88,102143,2,0,L|185:74,1,160,10|0,0:0|0:0,0:0:0:0:
36,216,102611,6,0,P|-4:254|35:361,1,160,4|0,0:2|0:0,0:0:0:0:
220,384,103080,2,0,L|227:301,1,79.9999999999999,2|0,0:2|0:0,0:0:0:0:
373,194,103393,1,10,0:1:0:0:
479,295,103549,2,0,P|442:288|404:270,1,79.9999999999999,2|0,0:2|0:0,0:0:0:0:
228,145,103861,6,0,B|308:131|286:87|373:86,1,160,4|0,0:3|0:0,0:0:0:0:
211,19,104330,2,0,P|168:12|120:7,1,79.9999999999999,2|0,0:3|0:3,0:0:0:0:
83,204,104643,5,10,3:1:0:0:
228,145,104799,1,2,3:3:0:0:
373,86,104955,1,8,0:3:0:0:
512,200,105111,6,0,B|437:191|457:247|377:281,1,160,4|0,0:1|0:0,0:0:0:0:
234,361,105580,2,0,L|224:264,1,79.9999999999999,2|0,0:2|0:0,0:0:0:0:
4,167,105893,2,0,B|79:158|59:214|139:248,1,160,10|0,0:1|0:0,0:0:0:0:
419,71,106361,6,0,B|358:86|358:86|331:114|331:114|246:142,1,160,4|0,0:3|0:0,0:0:0:0:
206,206,106830,1,2,3:3:0:0:
137,54,106986,1,2,3:3:0:0:
137,154,107143,5,10,3:1:0:0:
0,224,107299,1,2,3:2:0:0:
73,382,107455,5,10,3:3:0:0:
0,349,107611,2,0,B|83:340|63:298|146:292,1,160,4|0,0:2|0:0,0:0:0:0:
293,121,108080,5,2,3:2:0:0:
293,121,108236,1,2,3:2:0:0:
496,169,108393,6,0,P|474:202|443:227,1,79.9999999999999,12|0,3:2|3:0,0:0:0:0:
383,28,108705,2,0,P|422:31|460:45,1,79.9999999999999,2|0,3:3|3:0,0:0:0:0:
239,185,109018,5,10,0:0:0:0:
187,65,109174,1,0,0:0:0:0:
106,265,109330,1,10,0:3:0:0:
65,158,109486,1,0,0:0:0:0:
6,225,109643,5,10,0:2:0:0:
0,32,109799,1,10,0:2:0:0:
0,32,110111,6,0,B|57:43|57:43|87:69|87:69|151:84,1,160,4|0,0:1|0:0,0:0:0:0:
352,35,110580,2,0,B|310:29|310:29|265:8,1,79.9999999999999,2|0,0:2|0:0,0:0:0:0:
414,187,110893,2,0,P|457:121|448:43,1,160,10|0,0:0|0:0,0:0:0:0:
263,155,111361,6,0,B|253:215|253:215|265:254|265:254|257:311,1,160,4|0,0:3|0:0,0:0:0:0:
317,380,111830,1,2,3:3:0:0:
136,309,111986,1,2,3:3:0:0:
32,369,112143,2,0,L|195:358,1,160,10|0,0:0|0:0,0:0:0:0:
393,239,112611,6,0,B|313:216|342:165|261:154,1,160,4|0,0:2|0:0,0:0:0:0:
425,98,113080,2,0,P|471:83|533:78,1,79.9999999999999,2|0,0:2|0:0,0:0:0:0:
260,6,113393,1,10,0:1:0:0:
177,46,113549,2,0,P|142:42|91:31,1,79.9999999999999,2|0,0:2|0:0,0:0:0:0:
307,128,113861,6,0,B|352:153|352:153|369:199|369:199|418:231,1,160,4|0,0:3|0:0,0:0:0:0:
240,370,114330,2,0,L|227:268,1,79.9999999999999,2|0,0:3|0:3,0:0:0:0:
101,51,114643,5,10,3:1:0:0:
71,200,114799,1,2,3:3:0:0:
42,349,114955,1,8,0:3:0:0:
11,131,115111,6,0,B|91:129|62:180|144:207,1,160,4|0,0:1|0:0,0:0:0:0:
312,83,115580,2,0,L|316:-21,1,79.9999999999999,2|0,0:2|0:0,0:0:0:0:
512,133,115893,2,0,B|432:131|461:182|379:209,1,160,10|0,0:1|0:0,0:0:0:0:
214,378,116361,6,0,L|200:206,1,160,4|0,0:3|0:0,0:0:0:0:
172,133,116830,1,2,3:3:0:0:
292,312,116986,1,2,3:3:0:0:
294,223,117143,5,10,3:1:0:0:
92,243,117299,1,2,3:2:0:0:
79,32,117455,5,10,3:2:0:0:
0,41,117611,2,0,B|45:52|45:52|86:101|86:101|134:119,1,160,4|0,0:2|0:0,0:0:0:0:
364,75,118080,5,10,0:0:0:0:
297,12,118236,1,0,0:0:0:0:
278,189,118393,5,10,0:1:0:0:
404,157,118549,1,0,0:0:0:0:
224,59,118705,5,10,0:1:0:0:
22,45,118861,6,2,L|170:31,1,120,2|0,0:3|2:1,0:1:0:0:
156,21,119174,5,10,3:2:0:0:
104,155,119330,1,8,3:3:0:0:
137,278,119486,1,8,3:3:0:0:
326,334,119643,5,10,3:1:0:0:
410,237,119799,1,8,3:3:0:0:
396,93,119955,1,8,3:3:0:0:
486,52,120111,6,2,L|333:34,1,144.000003515625,4|2,0:1|0:2,0:1:0:0:
234,225,120580,2,0,B|224:179|224:179|236:133|236:133|229:83,1,144.000003515625,2|8,0:1|0:0,0:0:0:0:
80,0,121049,2,0,L|70:84,1,72.0000017578125,2|0,0:1|0:0,0:0:0:0:
24,262,121361,5,2,0:2:0:0:
0,189,121518,2,0,P|35:184|71:184,1,72.0000017578125,2|0,0:0|0:0,0:0:0:0:
232,316,121830,5,2,3:3:0:0:
161,345,121986,1,2,3:3:0:0:
240,297,122143,5,10,0:2:0:0:
350,319,122299,1,2,0:2:0:0:
406,384,122455,5,2,0:3:0:0:
305,248,122611,6,2,B|274:175|311:192|273:108,1,144.000003515625,4|2,0:3|0:2,0:1:0:0:
442,18,123080,2,0,P|445:60|356:119,1,144.000003515625,2|8,0:1|0:0,0:0:0:0:
200,39,123549,2,0,L|274:18,1,72.0000017578125,2|0,0:1|0:0,0:0:0:0:
121,143,123861,5,2,0:2:0:0:
60,91,124018,2,0,L|72:14,1,72.0000017578125,2|0,0:0|0:0,0:0:0:0:
223,168,124330,5,2,3:3:0:0:
221,247,124486,1,2,3:3:0:0:
246,156,124643,5,10,0:2:0:0:
147,219,124799,1,2,0:2:0:0:
121,143,124955,5,2,0:3:0:0:
20,238,125111,6,2,B|8:292|8:292|16:322|16:322|3:377,1,144.000003515625,4|2,0:2|0:2,0:1:0:0:
147,219,125580,2,0,B|158:164|158:164|150:134|150:134|163:79,1,144.000003515625,2|8,0:1|0:0,0:0:0:0:
300,275,126049,2,0,L|311:370,1,72.0000017578125,2|0,0:1|0:0,0:0:0:0:
512,204,126361,5,2,0:2:0:0:
449,247,126518,2,0,P|415:244|373:233,1,72.0000017578125,2|0,0:0|0:0,0:0:0:0:
288,78,126830,5,2,3:3:0:0:
306,153,126986,1,2,3:3:0:0:
318,62,127143,5,10,0:2:0:0:
211,16,127299,1,2,0:2:0:0:
178,94,127455,5,2,0:3:0:0:
43,7,127611,6,2,L|55:172,1,144.000003515625,4|2,0:3|0:2,0:1:0:0:
0,208,128080,1,2,3:3:0:0:
94,306,128236,1,2,3:3:0:0:
152,237,128393,5,10,0:2:0:0:
89,287,128549,1,2,0:2:0:0:
190,362,128705,5,2,0:3:0:0:
409,332,128861,5,6,0:2:0:0:
308,327,129018,2,0,P|272:311|235:289,1,72.0000017578125,2|8,0:0|0:0,0:0:0:0:
373,175,129330,2,0,P|408:159|445:137,1,72.0000017578125,2|0,0:1|0:0,0:0:0:0:
246,2,129643,5,10,3:1:0:0:
196,168,129799,1,2,3:3:0:0:
140,51,129955,1,8,3:3:0:0:
69,97,130111,6,2,B|119:87|119:87|150:100|150:100|225:88,1,144.000003515625,4|2,0:1|0:2,0:1:0:0:
402,33,130580,2,0,P|370:23|316:113,1,144.000003515625,2|8,0:1|0:0,0:0:0:0:
433,225,131049,2,0,L|416:128,1,72.0000017578125,2|0,0:1|0:0,0:0:0:0:
294,297,131361,5,2,0:2:0:0:
355,347,131518,2,0,P|385:349|434:341,1,72.0000017578125,2|0,0:0|0:0,0:0:0:0:
275,218,131830,5,2,3:3:0:0:
219,273,131986,1,2,3:3:0:0:
205,143,132143,5,10,0:2:0:0:
286,201,132299,1,2,0:2:0:0:
366,195,132455,5,2,0:3:0:0:
251,78,132611,6,2,B|169:70|202:119|124:133,1,144.000003515625,4|2,0:3|0:2,0:1:0:0:
286,201,133080,2,0,B|367:193|334:242|412:256,1,144.000003515625,2|8,0:1|0:0,0:0:0:0:
232,365,133549,2,0,L|221:285,1,72.0000017578125,2|0,0:1|0:0,0:0:0:0:
0,231,133861,5,2,0:2:0:0:
49,293,134018,2,0,P|84:301|123:300,1,72.0000017578125,2|0,0:0|0:0,0:0:0:0:
262,194,134330,5,2,3:3:0:0:
186,217,134486,1,2,3:3:0:0:
276,213,134643,5,10,0:2:0:0:
322,120,134799,1,2,0:2:0:0:
302,39,134955,5,2,0:3:0:0:
377,195,135111,6,2,P|418:232|518:226,1,144.000003515625,4|2,0:2|0:2,0:1:0:0:
354,336,135580,2,0,P|304:361|209:329,1,144.000003515625,2|8,0:1|0:0,0:0:0:0:
127,233,136049,2,0,L|132:323,1,72.0000017578125,2|0,0:1|0:0,0:0:0:0:
0,104,136361,5,2,0:2:0:0:
70,140,136518,2,0,P|112:138|150:123,1,72.0000017578125,2|0,0:0|0:0,0:0:0:0:
324,20,136830,5,2,3:3:0:0:
244,9,136986,1,2,3:3:0:0:
336,41,137143,5,10,0:2:0:0:
450,26,137299,1,2,0:2:0:0:
508,80,137455,5,2,0:3:0:0:
397,227,137611,6,2,B|407:177|407:177|388:143|388:143|398:90,1,144.000003515625,4|2,0:3|0:2,0:1:0:0:
336,41,138080,1,2,3:3:0:0:
254,181,138236,1,2,3:3:0:0:
321,250,138393,5,10,0:2:0:0:
263,159,138549,1,2,0:2:0:0:
151,220,138705,5,2,0:3:0:0:
64,367,138861,5,6,0:2:0:0:
29,244,139018,2,0,P|12:204|-3:174,1,72.0000017578125,2|8,0:0|0:0,0:0:0:0:
192,101,139330,2,0,P|209:61|224:31,1,72.0000017578125,2|0,3:1|3:0,0:0:0:0:
307,27,139643,5,10,3:1:0:0:
113,142,139799,5,2,3:2:0:0:
44,94,139955,5,2,3:2:0:0:
0,178,140268,6,0,L|10:291,1,110.000003356934,4|0,3:3|0:0,0:0:0:0:
70,351,140736,2,0,P|99:352|131:340,1,55.0000016784668,2|0,0:0|1:0,0:0:0:0:
139,347,141205,2,0,P|157:326|181:311,1,55.0000016784668,2|0,0:0|3:0,0:0:0:0:
356,280,141830,5,2,3:2:0:0:
227,247,142143,1,2,1:2:0:0:
98,214,142455,1,2,0:0:0:0:
136,90,142768,6,0,L|259:71,1,110.000003356934,2|0,3:2|2:0,0:0:0:0:
330,33,143236,2,0,P|326:59|332:92,1,55.0000016784668,2|0,0:0|1:0,0:0:0:0:
342,98,143705,2,0,L|408:117,1,55.0000016784668,2|0,0:0|3:0,0:0:0:0:
512,229,144330,5,2,3:2:0:0:
474,102,144643,1,2,1:2:0:0:
342,98,144955,1,2,0:0:0:0:
258,234,145268,6,0,B|232:290|254:283|226:338,1,110.000003356934,2|0,3:2|0:2,0:0:0:0:
140,360,145736,2,0,L|130:294,1,55.0000016784668,2|0,0:2|1:2,0:0:0:0:
120,295,146205,2,0,L|129:222,1,55.0000016784668,2|0,0:2|3:2,0:0:0:0:
268,144,146830,5,2,3:2:0:0:
135,150,147143,1,2,1:2:0:0:
25,76,147455,1,2,0:3:0:0:
25,76,147611,1,2,0:3:0:0:
90,40,147768,6,0,B|149:28|140:57|215:43,2,110.000003356934,2|0|2,3:2|3:2|1:2,0:0:0:0:
19,156,148705,1,2,2:2:0:0:
38,229,148861,1,2,3:2:0:0:
137,358,149330,5,2,3:2:0:0:
142,344,149643,1,2,1:2:0:0:
212,301,149799,1,2,3:2:0:0:
312,311,149955,2,0,L|379:325,1,55.0000016784668,10|2,3:3|0:3,0:0:0:0:
466,381,150268,6,0,B|452:361|452:361|464:316|447:265,1,117.999995858765,2|0,3:2|0:2,0:0:0:0:
372,213,150736,2,0,P|345:210|310:194,1,58.9999979293823,2|0,0:2|1:2,0:0:0:0:
303,186,151205,2,0,P|329:180|359:165,1,58.9999979293823,2|0,0:2|3:2,0:0:0:0:
254,24,151830,5,2,3:2:0:0:
216,160,152143,1,2,1:2:0:0:
117,59,152455,1,2,2:3:0:0:
117,59,152611,1,2,2:3:0:0:
49,116,152768,6,0,B|51:238,1,117.999995858765,2|0,3:2|2:2,0:0:0:0:
85,324,153236,2,0,P|51:316|13:315,1,58.9999979293823,2|0,0:2|1:2,0:0:0:0:
17,328,153705,2,0,P|51:336|89:337,1,58.9999979293823,2|0,0:2|3:2,0:0:0:0:
226,260,154330,5,2,3:2:0:0:
141,145,154643,1,2,1:2:0:0:
209,21,154955,1,2,0:2:0:0:
313,136,155268,6,0,P|372:152|436:151,1,117.999995858765,2|0,3:2|0:2,0:0:0:0:
474,69,155736,2,0,P|464:33|464:6,1,58.9999979293823,2|0,0:2|1:2,0:0:0:0:
481,10,156205,2,0,P|489:37|488:66,1,58.9999979293823,2|0,0:2|3:2,0:0:0:0:
316,150,156830,5,2,3:2:0:0:
250,18,157143,1,2,1:2:0:0:
184,72,157455,5,8,3:3:0:0:
26,42,157768,5,2,3:2:0:0:
190,151,158080,1,0,1:2:0:0:
0,229,158393,5,10,2:2:0:0:
118,117,158705,1,8,3:3:0:0:
190,369,159018,5,2,1:2:0:0:
84,316,159174,1,2,3:3:0:0:
67,182,159330,1,8,3:3:0:0:
177,270,159486,5,2,0:2:0:0:
177,270,159564,1,2,0:2:0:0:
177,270,159643,1,8,1:2:0:0:
77,335,159799,1,8,3:3:0:0:
52,167,159955,5,10,1:2:0:0:
167,180,160111,1,2,1:2:0:0:
0,52,160268,5,4,0:1:0:0:
13,38,160580,6,0,P|45:41|85:52,1,66.9999968307496,2|0,0:2|0:0,0:0:0:0:
232,168,160893,2,0,P|199:176|166:179,1,66.9999968307496,10|0,0:0|0:0,0:0:0:0:
93,163,161205,1,2,0:3:0:0:
254,245,161361,6,0,P|319:262|409:268,1,133.999993661499,4|0,0:3|0:0,0:0:0:0:
512,169,161830,2,0,P|501:209|495:249,1,66.9999968307496,2|0,0:2|0:0,0:0:0:0:
417,87,162143,2,0,P|402:56|385:28,1,66.9999968307496,10|0,0:1|0:0,0:0:0:0:
309,7,162455,1,2,0:3:0:0:
209,109,162611,6,0,B|282:110|267:143|332:155,1,133.999993661499,4|0,0:2|0:0,0:0:0:0:
215,259,163080,2,0,L|133:269,1,66.9999968307496,2|0,0:2|0:0,0:0:0:0:
353,350,163393,2,0,L|435:360,1,66.9999968307496,10|0,0:0|0:0,0:0:0:0:
492,331,163705,1,2,0:3:0:0:
342,268,163861,6,0,B|269:281|300:321|233:342,1,133.999993661499,4|0,0:3|0:0,0:0:0:0:
123,240,164330,2,0,B|144:167,1,66.9999968307496,2|0,0:2|0:0,0:0:0:0:
268,27,164643,5,10,3:1:0:0:
285,104,164799,1,2,3:2:0:0:
399,32,164955,5,2,3:3:0:0:
285,10,165111,1,10,3:2:0:0:
407,131,165268,5,4,0:1:0:0:
424,123,165580,6,0,P|461:126|496:146,1,66.9999968307496,2|0,0:2|0:0,0:0:0:0:
307,234,165893,2,0,P|273:232|243:217,1,66.9999968307496,10|0,0:0|0:0,0:0:0:0:
193,157,166205,1,2,0:3:0:0:
347,299,166361,6,0,L|342:142,1,133.999993661499,4|0,0:3|0:0,0:0:0:0:
273,16,166830,2,0,P|269:51|254:85,1,66.9999968307496,2|0,0:2|0:0,0:0:0:0:
62,129,167143,5,10,3:1:0:0:
193,157,167299,1,10,3:3:0:0:
87,43,167455,1,10,3:2:0:0:
20,219,167611,6,0,B|33:257|33:257|29:301|29:301|47:359,1,133.999993661499,4|0,0:2|0:0,0:0:0:0:
235,276,168080,2,0,P|209:265|164:260,1,66.9999968307496,2|0,0:2|0:0,0:0:0:0:
326,349,168393,5,10,3:1:0:0:
367,273,168549,1,10,3:3:0:0:
456,370,168705,1,10,3:2:0:0:
485,245,168861,6,2,B|469:202|469:202|476:156|476:156|461:116,1,133.999993661499,4|0,0:3|0:0,0:1:0:0:
351,20,169330,2,2,B|354:54|354:54|339:94,1,66.9999968307496,2|0,0:2|0:0,0:1:0:0:
118,103,169643,5,10,3:1:0:0:
246,31,169799,1,8,3:2:0:0:
76,42,169955,6,2,L|210:97,1,133.999993661499,8|4,0:3|0:1,0:1:0:0:
199,93,170580,6,0,P|200:123|187:173,1,66.9999968307496,2|0,0:2|0:0,0:0:0:0:
30,257,170893,2,0,P|22:224|23:190,1,66.9999968307496,10|0,0:0|0:0,0:0:0:0:
75,133,171205,1,2,0:3:0:0:
212,167,171361,6,0,B|285:171|259:210|327:227,1,133.999993661499,4|0,0:3|0:0,0:0:0:0:
426,129,171830,2,0,P|418:96|415:63,1,66.9999968307496,2|0,0:2|0:0,0:0:0:0:
507,251,172143,2,0,P|504:284|496:316,1,66.9999968307496,10|0,0:0|0:0,0:0:0:0:
441,370,172455,1,2,0:3:0:0:
311,254,172611,6,0,P|375:249|427:308,1,133.999993661499,4|0,0:2|0:0,0:0:0:0:
314,158,173080,2,0,P|302:125|298:89,1,66.9999968307496,2|0,0:2|0:0,0:0:0:0:
221,237,173393,2,0,P|216:270|205:301,1,66.9999968307496,10|0,0:1|0:0,0:0:0:0:
144,353,173705,1,2,0:3:0:0:
40,265,173861,6,0,B|39:223|39:223|54:183|54:183|51:133,1,133.999993661499,4|0,0:3|0:0,0:0:0:0:
138,19,174330,2,0,P|143:48|158:89,1,66.9999968307496,2|0,0:2|0:0,0:0:0:0:
378,95,174643,5,10,3:1:0:0:
297,34,174799,1,2,3:2:0:0:
353,112,174955,1,10,3:3:0:0:
328,25,175111,1,10,3:2:0:0:
250,157,175268,5,4,0:1:0:0:
241,174,175580,6,0,P|207:175|171:164,1,66.9999968307496,2|0,0:2|0:0,0:0:0:0:
353,112,175893,2,0,P|387:111|423:122,1,66.9999968307496,10|0,0:0|0:0,0:0:0:0:
483,167,176205,1,2,0:3:0:0:
355,30,176361,6,0,B|286:27|299:75|235:85,1,133.999993661499,4|0,0:3|0:0,0:0:0:0:
77,151,176830,2,0,L|69:84,1,66.9999968307496,2|0,0:2|0:0,0:0:0:0:
219,264,177143,5,10,3:1:0:0:
327,227,177299,1,2,3:2:0:0:
194,244,177455,5,10,3:3:0:0:
327,341,177611,1,2,3:2:0:0:
370,139,177768,5,4,0:2:0:0:
220,365,178080,1,8,0:0:0:0:
484,289,178393,5,8,0:0:0:0:
327,227,178549,1,0,0:0:0:0:
342,45,178705,5,8,0:3:0:0:
421,210,178861,1,0,0:0:0:0:
215,208,179018,5,8,0:0:0:0:
361,139,179174,5,8,0:3:0:0:
321,35,179330,6,2,B|279:25|279:25|248:33|248:33|178:14,1,119.999996337891,2|8,3:2|1:0,0:1:0:0:
125,50,180268,6,0,P|162:31|204:21,1,85.0000016212463,4|0,0:1|0:0,0:0:0:0:
197,239,180580,2,0,P|155:229|116:210,1,85.0000016212463,2|0,0:2|0:0,0:0:0:0:
275,130,180893,2,0,B|338:146|338:146|361:174|361:174|426:194,1,170.000003242493,10|0,0:1|0:0,0:0:0:0:
272,34,181361,6,0,B|209:50|209:50|186:78|186:78|120:98,1,170.000003242493,4|0,0:3|0:0,0:0:0:0:
37,56,181830,1,2,3:3:0:0:
67,283,181986,1,2,3:3:0:0:
0,217,182143,2,0,B|84:212|48:262|160:302,1,170.000003242493,10|0,0:0|0:0,0:0:0:0:
375,380,182611,6,0,P|308:333|313:252,1,170.000003242493,4|0,0:2|0:0,0:0:0:0:
512,184,183080,2,0,P|498:224|497:266,1,85.0000016212463,2|0,0:2|0:0,0:0:0:0:
308,100,183393,1,10,0:1:0:0:
412,121,183549,2,0,P|439:117|502:84,1,85.0000016212463,2|0,0:2|0:0,0:0:0:0:
271,7,183861,6,0,B|250:189,1,170.000003242493,4|0,0:3|0:0,0:0:0:0:
162,330,184330,2,0,P|155:281|145:246,1,85.0000016212463,2|0,0:3|0:3,0:0:0:0:
25,124,184643,5,10,3:1:0:0:
176,159,184799,1,2,3:3:0:0:
328,194,184955,1,8,0:3:0:0:
427,51,185111,6,0,B|360:57|360:57|330:82|330:82|265:89,1,170.000003242493,4|0,0:1|0:0,0:0:0:0:
86,178,185580,2,0,P|100:146|101:84,1,85.0000016212463,2|0,0:2|0:0,0:0:0:0:
225,245,185893,2,0,B|288:268|288:268|310:300|310:300|370:323,1,170.000003242493,10|0,0:1|0:0,0:0:0:0:
512,129,186361,6,0,B|431:119|454:186|372:220,1,170.000003242493,4|0,0:3|0:0,0:0:0:0:
299,187,186830,1,2,3:3:0:0:
229,360,186986,1,2,3:3:0:0:
136,334,187143,5,10,3:1:0:0:
290,282,187299,1,2,3:2:0:0:
495,310,187455,5,10,3:3:0:0:
453,374,187611,2,0,B|464:191,1,170.000003242493,4|0,0:2|0:0,0:0:0:0:
268,84,188080,5,2,3:2:0:0:
268,84,188236,1,2,3:2:0:0:
74,200,188393,6,0,B|104:230|104:230|145:241,1,85.0000016212463,12|0,3:2|3:0,0:0:0:0:
143,18,188705,2,0,B|102:28|102:28|71:59,1,85.0000016212463,2|0,3:3|3:0,0:0:0:0:
288,175,189018,5,10,0:0:0:0:
337,38,189174,1,0,0:0:0:0:
435,236,189330,1,10,0:3:0:0:
476,118,189486,1,0,0:0:0:0:
512,198,189643,5,10,0:2:0:0:
418,15,189799,1,10,0:2:0:0:
418,15,190111,6,0,B|327:45|386:91|295:134,1,170.000003242493,4|0,0:1|0:0,0:0:0:0:
162,237,190580,2,0,L|145:149,1,85.0000016212463,2|0,0:2|0:0,0:0:0:0:
72,20,190893,2,0,B|166:11|131:77|232:79,1,170.000003242493,10|0,0:0|0:0,0:0:0:0:
58,159,191361,6,0,P|16:190|40:321,1,170.000003242493,4|0,0:3|0:0,0:0:0:0:
92,369,191830,1,2,3:3:0:0:
267,290,191986,1,2,3:3:0:0:
379,368,192143,2,0,B|318:353|318:353|276:370|276:370|202:354,1,170.000003242493,10|0,0:0|0:0,0:0:0:0:
349,178,192611,6,0,B|410:163|410:163|452:180|452:180|512:166,1,170.000003242493,4|0,0:2|0:0,0:0:0:0:
384,7,193080,2,0,P|375:43|348:84,1,85.0000016212463,2|0,0:2|0:0,0:0:0:0:
181,180,193393,1,10,0:1:0:0:
87,83,193549,2,0,P|122:72|171:75,1,85.0000016212463,2|0,0:2|0:0,0:0:0:0:
351,241,193861,6,0,B|257:247|292:298|194:312,1,170.000003242493,4|0,0:3|0:0,0:0:0:0:
49,366,194330,2,0,L|36:264,1,85.0000016212463,2|0,0:3|0:3,0:0:0:0:
87,83,194643,5,10,3:1:0:0:
232,120,194799,1,2,3:3:0:0:
379,159,194955,1,8,0:3:0:0:
283,30,195111,6,0,B|266:81|266:81|268:141|268:141|247:193,1,170.000003242493,4|0,0:1|0:0,0:0:0:0:
389,323,195580,2,0,L|480:338,1,85.0000016212463,2|0,0:2|0:0,0:0:0:0:
388,203,195893,2,0,B|301:235|348:266|259:308,1,170.000003242493,10|0,0:1|0:0,0:0:0:0:
268,115,196361,6,0,P|256:59|141:34,1,170.000003242493,4|0,0:3|0:0,0:0:0:0:
72,0,196830,1,2,3:3:0:0:
72,187,196986,1,2,3:3:0:0:
0,303,197143,5,10,3:1:0:0:
162,260,197299,1,2,3:2:0:0:
344,378,197455,5,10,3:2:0:0:
419,350,197611,2,0,B|366:332|366:332|335:287|335:287|276:267,1,170.000003242493,4|0,0:2|0:0,0:0:0:0:
52,225,198080,5,10,0:0:0:0:
82,326,198236,1,0,0:0:0:0:
142,182,198393,5,10,0:1:0:0:
14,110,198549,1,0,0:0:0:0:
178,33,198705,5,10,0:1:0:0:
336,139,198861,6,2,B|291:148|291:148|190:113,1,127.500002431869,2|0,0:3|2:1,0:1:0:0:
208,105,199174,5,10,3:2:0:0:
193,260,199330,1,8,3:3:0:0:
119,358,199486,1,8,3:3:0:0:
63,194,199643,5,10,3:1:0:0:
198,229,199799,1,8,3:3:0:0:
303,322,199955,1,8,3:3:0:0:
486,366,200111,5,6,0:0:0:0:
410,384,200268,2,2,B|389:368|379:348|379:348|390:327|386:297|386:297|359:277|334:231|351:166,1,225.000008583069,2|0,3:2|0:0,0:1:0:0:
410,20,200893,5,8,1:0:0:0:
449,88,201049,1,0,1:0:0:0:
395,36,201205,1,0,1:0:0:0:
466,74,201361,1,0,1:0:0:0:
512,158,201518,5,8,3:3:0:0:
509,172,201674,1,0,3:0:0:0:
506,186,201830,1,0,3:0:0:0:
503,200,201986,1,0,3:0:0:0:
359,263,202143,6,2,B|327:254|318:242|318:242|297:249|279:246|279:246|256:229|218:227,1,150.000005722046,10|0,0:2|0:0,0:1:0:0:
101,60,202611,6,2,B|133:51|142:39|142:39|163:46|181:43|181:43|204:26|241:24,1,150.000005722046,4|0,0:3|0:0,0:1:0:0:
110,155,203080,2,0,P|74:143|37:135,1,75.000002861023,2|0,0:1|0:0,0:1:0:0:
0,298,203393,5,8,0:0:0:0:
77,281,203549,1,0,0:0:0:0:
154,264,203705,1,0,0:0:0:0:
237,384,203861,6,0,L|245:298,1,75.000002861023,2|8,0:1|3:0,0:0:0:0:
286,243,204174,1,2,3:2:0:0:
446,339,204330,1,2,3:2:0:0:
499,280,204486,2,0,L|492:205,1,75.000002861023,2|8,1:1|0:0,0:0:0:0:
512,120,204799,5,2,3:2:0:0:
412,227,204955,1,2,3:2:0:0:
293,110,205111,6,2,B|325:112|347:109|347:109|366:122|366:122|403:125|433:148,1,150.000005722046,4|2,0:2|0:2,0:1:0:0:
294,257,205580,2,0,L|198:246,1,75.000002861023,2|0,0:1|0:0,0:0:0:0:
43,117,205893,1,10,0:2:0:0:
115,144,206049,2,0,P|148:138|199:116,1,75.000002861023,2|0,0:1|0:0,0:0:0:0:
421,50,206361,6,0,P|386:36|349:29,1,75.000002861023,2|8,0:2|3:3,0:0:0:0:
270,34,206674,1,2,3:2:0:0:
435,139,206830,2,0,P|471:131|506:118,1,75.000002861023,2|0,0:1|0:0,0:0:0:0:
270,34,207143,1,10,0:2:0:0:
222,98,207299,2,0,L|212:184,1,75.000002861023,2|0,0:0|0:0,0:0:0:0:
0,223,207611,6,2,B|27:220|46:212|46:212|59:225|77:241|77:241|109:247|146:275,1,150.000005722046,4|2,0:3|0:2,0:1:0:0:
308,341,208080,2,0,L|217:349,1,75.000002861023,2|0,0:1|0:0,0:0:0:0:
339,191,208393,5,10,0:1:0:0:
433,243,208549,1,2,0:3:0:0:
502,357,208705,1,10,0:2:0:0:
480,175,208861,6,2,B|472:154|476:134|476:134|472:121|472:121|502:83|492:15,1,150.000005722046,4|0,0:1|0:0,0:1:0:0:
262,12,209330,2,0,L|273:108,1,75.000002861023,2|0,0:1|0:0,0:0:0:0:
159,230,209643,5,10,0:1:0:0:
75,162,209799,1,2,0:2:0:0:
0,279,209955,1,10,0:2:0:0:
10,94,210111,6,2,B|41:103|68:102|68:102|85:122|85:122|122:128|170:146,1,150.000005722046,4|0,0:3|0:0,0:1:0:0:
269,86,210580,2,0,P|259:50|273:16,1,75.000002861023,2|0,0:0|0:0,0:0:0:0:
423,132,210893,5,8,0:0:0:0:
428,147,211049,1,0,0:0:0:0:
433,162,211205,1,0,0:0:0:0:
512,213,211361,5,2,3:2:0:0:
512,213,211439,1,2,3:2:0:0:
512,213,211518,1,2,3:2:0:0:
438,177,211674,1,0,3:0:0:0:
356,183,211830,1,0,3:0:0:0:
287,229,211986,1,0,3:0:0:0:
188,133,212143,6,0,B|175:109|175:109|181:83|174:44,1,75.000002861023,10|0,0:0|0:0,0:0:0:0:
0,39,212455,1,2,3:2:0:0:
21,33,212533,1,2,3:2:0:0:
42,30,212611,6,2,B|51:62|60:76|60:76|59:101|54:114|54:114|65:132|74:177,1,150.000005722046,4|0,3:2|0:0,0:1:0:0:
29,324,213080,2,0,P|-1:269|6:241,1,75.000002861023,2|0,0:2|0:0,0:0:0:0:
197,308,213393,2,0,P|192:344|167:372,1,75.000002861023,10|0,0:2|0:0,0:0:0:0:
163,175,213705,5,2,3:2:0:0:
264,228,213861,5,2,3:1:0:0:
411,139,214018,5,0,0:0:0:0:
334,151,214174,1,0,0:0:0:0:
410,162,214330,1,0,0:0:0:0:
337,130,214486,1,0,0:0:0:0:
357,224,214643,5,10,3:1:0:0:
404,63,214799,2,2,B|410:40|391:4|391:4|394:38|374:57,1,112.500004291534,2|0,3:2|2:0,0:1:0:0:
295,50,215111,6,2,L|197:36,1,79.9999999999999,4|0,3:3|2:1,0:1:0:0:
82,15,215424,1,2,2:2:0:0:
85,34,215502,1,2,2:2:0:0:
88,54,215580,1,2,2:2:0:0:
91,74,215658,1,2,2:2:0:0:
95,93,215736,1,2,2:2:0:0:
98,113,215814,1,2,2:2:0:0:
101,132,215893,6,2,L|83:216,1,79.9999999999999,10|2,0:2|0:2,0:1:0:0:
24,259,216127,1,2,0:2:0:0:
24,259,216205,2,2,P|24:303|62:354,1,79.9999999999999,2|2,0:2|0:2,0:1:0:0:
117,349,216439,1,2,0:2:0:0:
135,335,216518,6,2,P|157:325|185:324,3,40,2|2|2|2,2:2|0:2|0:2|0:2,0:1:0:0:
250,359,216830,1,2,0:2:0:0:
276,373,216908,1,2,0:2:0:0:
305,369,216986,1,2,0:2:0:0:
327,350,217064,1,2,0:2:0:0:
334,320,217143,6,2,L|344:221,1,79.9999999999999,10|2,0:0|0:0,0:1:0:0:
401,195,217377,1,2,0:0:0:0:
413,206,217455,1,10,0:1:0:0:
408,67,217611,6,2,P|372:51|318:46,1,79.9999999999999,4|0,3:3|0:0,0:1:0:0:
177,0,217924,1,2,0:0:0:0:
183,22,218002,1,2,0:0:0:0:
187,45,218080,6,0,L|174:90,3,40,10|2|2|2,0:1|0:0|0:0|0:0,0:0:0:0:
85,47,218393,2,0,L|68:-7,3,40,10|2|2|2,0:1|0:0|0:0|0:0,0:0:0:0:
7,101,218705,2,0,L|0:139,1,40,10|2,0:1|0:0,0:0:0:0:
77,231,218861,6,2,L|179:217,1,79.9999999999999,6|2,0:2|0:0,0:1:0:0:
233,226,219096,1,2,0:0:0:0:
240,245,219174,6,2,P|261:269|283:287,1,40,10|2,0:2|0:2,0:1:0:0:
337,188,219330,2,2,L|349:140,1,40,2|2,0:2|0:2,0:1:0:0:
404,285,219486,2,2,L|416:333,1,40,2|2,0:2|0:2,0:1:0:0:
497,170,219643,6,2,B|499:147|499:147|509:124|509:124|511:102,2,69.9999978637695,10|0|8,3:2|3:0|3:3,0:1:0:0:
0,206,239643,5,8,1:0:0:0:
137,92,239799,1,8,1:0:0:0:
166,269,239955,1,8,1:0:0:0:
101,188,240111,6,0,B|192:185|149:249|256:297,1,179.999994506836,4|0,0:1|0:0,0:0:0:0:
402,367,240580,2,0,L|406:275,1,89.999997253418,2|0,0:2|0:0,0:0:0:0:
503,100,240893,2,0,B|412:97|455:161|348:209,1,179.999994506836,10|0,0:0|0:0,0:0:0:0:
130,92,241361,6,0,L|317:74,1,179.999994506836,4|0,0:3|0:0,0:0:0:0:
387,16,241830,1,2,3:3:0:0:
426,259,241986,1,2,3:3:0:0:
512,213,242143,2,0,L|325:195,1,179.999994506836,10|0,0:0|0:0,0:0:0:0:
142,367,242611,6,0,P|217:325|223:239,1,179.999994506836,4|0,0:2|0:0,0:0:0:0:
45,172,243080,2,0,P|53:204|54:274,1,89.999997253418,2|0,0:2|0:0,0:0:0:0:
224,81,243393,1,10,0:1:0:0:
119,90,243549,2,0,P|72:76|33:50,1,89.999997253418,2|0,0:2|0:0,0:0:0:0:
293,0,243861,6,0,B|354:89|301:78|357:169,1,179.999994506836,4|0,0:3|0:0,0:0:0:0:
512,281,244330,2,0,P|473:267|415:263,1,89.999997253418,2|0,0:3|0:3,0:0:0:0:
235,366,244643,5,10,3:1:0:0:
279,223,244799,1,2,3:3:0:0:
326,78,244955,1,8,0:3:0:0:
183,10,245111,6,0,B|189:66|189:66|166:129|166:129|174:186,1,179.999994506836,4|0,0:1|0:0,0:0:0:0:
58,330,245580,2,0,P|33:293|28:238,1,89.999997253418,2|0,0:2|0:0,0:0:0:0:
216,289,245893,2,0,B|314:291|266:345|380:364,1,179.999994506836,10|0,0:1|0:0,0:0:0:0:
289,201,246361,6,0,P|264:149|350:57,1,179.999994506836,4|0,0:3|0:0,0:0:0:0:
405,1,246830,1,2,3:3:0:0:
440,179,246986,1,2,3:3:0:0:
512,131,247143,5,10,3:1:0:0:
358,247,247299,1,2,3:2:0:0:
512,337,247455,5,10,3:3:0:0:
447,378,247611,2,0,B|475:286|423:287|454:198,1,179.999994506836,4|0,0:2|0:0,0:0:0:0:
396,36,248080,5,2,3:2:0:0:
396,36,248236,1,2,3:2:0:0:
220,198,248393,6,0,P|266:203|317:175,1,89.999997253418,12|0,3:2|3:0,0:0:0:0:
156,23,248705,2,0,P|111:17|70:35,1,89.999997253418,2|0,3:3|3:0,0:0:0:0:
0,252,249018,5,10,0:0:0:0:
84,136,249174,1,0,0:0:0:0:
194,324,249330,1,10,0:3:0:0:
220,198,249486,1,0,0:0:0:0:
269,270,249643,5,10,0:2:0:0:
206,51,249799,1,10,0:2:0:0:
206,51,250111,6,0,B|304:56|252:121|350:144,1,179.999994506836,4|0,0:1|0:0,0:0:0:0:
188,242,250580,2,0,L|72:222,1,89.999997253418,2|0,0:2|0:0,0:0:0:0:
309,347,250893,2,0,L|509:340,1,179.999994506836,10|0,0:0|0:0,0:0:0:0:
325,223,251361,6,0,P|268:163|295:66,1,179.999994506836,4|0,0:3|0:0,0:0:0:0:
371,29,251830,1,2,3:3:0:0:
184,81,251986,1,2,3:3:0:0:
86,0,252143,2,0,P|148:53|132:153,1,179.999994506836,10|0,0:0|0:0,0:0:0:0:
4,284,252611,6,0,B|110:264|57:333|192:368,1,179.999994506836,4|0,0:2|0:0,0:0:0:0:
279,180,253080,2,0,P|287:128|306:83,1,89.999997253418,2|0,0:2|0:0,0:0:0:0:
317,291,253393,1,10,0:1:0:0:
407,360,253549,2,0,P|456:379|504:385,1,89.999997253418,2|0,0:2|0:0,0:0:0:0:
507,137,253861,6,0,B|408:124|455:193|326:230,1,179.999994506836,4|0,0:3|0:0,0:0:0:0:
202,323,254330,2,0,P|198:278|186:209,1,89.999997253418,2|0,0:3|0:3,0:0:0:0:
54,39,254643,5,10,3:1:0:0:
33,187,254799,1,2,3:3:0:0:
9,337,254955,1,8,0:3:0:0:
119,145,255111,6,0,P|149:94|292:105,1,179.999994506836,4|0,0:1|0:0,0:0:0:0:
335,227,255580,2,0,L|331:325,1,89.999997253418,2|0,0:2|0:0,0:0:0:0:
510,181,255893,2,0,P|455:113|369:116,1,179.999994506836,10|0,0:1|0:0,0:0:0:0:
161,232,256361,6,0,B|224:217|224:217|277:237|277:237|334:226,1,179.999994506836,4|0,0:3|0:0,0:0:0:0:
416,292,256830,1,2,3:3:0:0:
369,115,256986,1,2,3:3:0:0:
290,4,257143,5,10,3:1:0:0:
257,175,257299,1,2,3:2:0:0:
73,242,257455,5,10,3:2:0:0:
0,212,257611,2,0,B|60:196|60:196|95:154|95:154|155:139,1,179.999994506836,4|0,0:2|0:0,0:0:0:0:
379,37,258080,5,10,0:0:0:0:
274,0,258236,1,0,0:0:0:0:
332,129,258393,5,10,0:1:0:0:
498,66,258549,1,0,0:0:0:0:
406,246,258705,5,10,0:1:0:0:
509,350,258861,6,2,L|491:203,1,134.999995880127,2|0,0:3|2:1,0:1:0:0:
504,203,259174,5,10,3:2:0:0:
344,155,259330,1,8,3:3:0:0:
239,231,259486,1,8,3:3:0:0:
132,109,259643,5,10,3:1:0:0:
262,108,259799,1,8,3:3:0:0:
409,202,259955,1,8,3:3:0:0:
479,117,260111,6,2,B|436:121|436:121|399:147|399:147|344:155,1,144.000003515625,4|2,0:1|0:2,0:1:0:0:
220,291,260580,2,0,B|206:250|206:250|215:202|215:202|198:151,1,144.000003515625,2|8,0:1|0:0,0:0:0:0:
68,25,261049,2,0,L|40:111,1,72.0000017578125,2|0,0:1|0:0,0:0:0:0:
122,291,261361,5,2,0:2:0:0:
73,228,261518,2,0,P|40:217|-3:214,1,72.0000017578125,2|0,0:0|0:0,0:0:0:0:
218,136,261830,5,2,3:3:0:0:
300,90,261986,1,2,3:3:0:0:
205,110,262143,5,10,0:2:0:0:
213,237,262299,1,2,0:2:0:0:
274,295,262455,5,2,0:3:0:0:
137,183,262611,6,2,B|59:208|105:245|28:269,1,144.000003515625,4|2,0:3|0:2,0:1:0:0:
188,356,263080,2,0,P|261:349|350:351,1,144.000003515625,2|8,0:1|0:0,0:0:0:0:
465,242,263549,2,0,P|427:235|391:222,1,72.0000017578125,2|0,0:1|0:0,0:0:0:0:
310,46,263861,5,2,0:2:0:0:
378,85,264018,2,0,P|422:82|454:71,1,72.0000017578125,2|0,0:0|0:0,0:0:0:0:
229,7,264330,5,2,3:3:0:0:
218,103,264486,1,2,3:3:0:0:
198,10,264643,5,10,0:2:0:0:
244,115,264799,1,2,0:2:0:0:
232,197,264955,5,2,0:3:0:0:
141,77,265111,6,2,P|116:36|20:28,1,144.000003515625,4|2,0:2|0:2,0:1:0:0:
0,217,265580,2,0,P|68:196|140:192,1,144.000003515625,2|8,0:1|0:0,0:0:0:0:
269,298,266049,2,0,L|254:400,1,72.0000017578125,2|0,0:1|0:0,0:0:0:0:
476,245,266361,5,2,0:2:0:0:
455,168,266518,2,0,P|421:145|381:130,1,72.0000017578125,2|0,0:0|0:0,0:0:0:0:
192,113,266830,5,2,3:3:0:0:
221,188,266986,1,2,3:3:0:0:
209,94,267143,5,10,0:2:0:0:
107,40,267299,1,2,0:2:0:0:
30,83,267455,5,2,0:3:0:0:
203,9,267611,6,2,B|251:19|251:19|285:49|285:49|333:63,1,144.000003515625,4|2,0:3|0:2,0:1:0:0:
398,17,268080,1,2,3:3:0:0:
442,159,268236,1,2,3:3:0:0:
512,216,268393,5,10,0:2:0:0:
446,136,268549,1,2,0:2:0:0:
318,158,268705,5,2,0:3:0:0:
220,312,268861,5,6,0:2:0:0:
127,349,269018,2,0,P|91:344|51:329,1,72.0000017578125,2|8,0:0|0:0,0:0:0:0:
159,167,269330,2,0,P|192:155|228:150,1,72.0000017578125,2|0,0:1|0:0,0:0:0:0:
460,201,269643,5,10,3:1:0:0:
343,149,269799,1,2,3:3:0:0:
448,11,269955,1,8,3:3:0:0:
512,86,270111,6,2,B|464:79|464:79|435:55|435:55|377:47,1,144.000003515625,4|2,0:1|0:2,0:1:0:0:
261,226,270580,2,0,B|243:181|243:181|248:144|248:144|227:89,1,144.000003515625,2|8,0:1|0:0,0:0:0:0:
402,225,271049,2,0,L|482:216,1,72.0000017578125,2|0,0:1|0:0,0:0:0:0:
308,333,271361,5,2,0:2:0:0:
235,366,271518,2,0,L|154:353,1,72.0000017578125,2|0,0:0|0:0,0:0:0:0:
59,226,271830,5,2,3:3:0:0:
135,206,271986,1,2,3:3:0:0:
55,249,272143,5,10,0:2:0:0:
123,121,272299,1,2,0:2:0:0:
208,142,272455,5,2,0:3:0:0:
118,14,272611,6,2,B|38:25|75:68|4:94,1,144.000003515625,4|2,0:3|0:2,0:1:0:0:
135,206,273080,2,0,B|214:217|177:260|248:286,1,144.000003515625,2|8,0:1|0:0,0:0:0:0:
399,151,273549,2,0,P|403:115|415:71,1,72.0000017578125,2|0,0:1|0:0,0:0:0:0:
512,323,273861,5,2,0:2:0:0:
458,264,274018,2,0,P|427:249|380:240,1,72.0000017578125,2|0,0:0|0:0,0:0:0:0:
176,322,274330,5,2,3:3:0:0:
247,286,274486,1,2,3:3:0:0:
152,300,274643,5,10,0:2:0:0:
81,374,274799,1,2,0:2:0:0:
0,384,274955,5,2,0:3:0:0:
35,227,275111,6,2,B|107:222|77:275|152:299,1,144.000003515625,4|2,0:2|0:2,0:1:0:0:
295,137,275580,2,0,B|222:132|252:185|177:209,1,144.000003515625,2|8,0:1|0:0,0:0:0:0:
327,315,276049,2,0,P|314:279|311:235,1,72.0000017578125,2|0,0:1|0:0,0:0:0:0:
453,86,276361,5,2,0:2:0:0:
500,149,276518,2,0,P|495:184|483:218,1,72.0000017578125,2|0,0:0|0:0,0:0:0:0:
314,57,276830,5,2,3:3:0:0:
387,28,276986,1,2,3:3:0:0:
299,37,277143,5,10,0:2:0:0:
248,154,277299,1,2,0:2:0:0:
284,230,277455,5,2,0:3:0:0:
217,65,277611,6,2,P|173:26|86:40,1,144.000003515625,4|2,0:3|0:2,0:1:0:0:
21,6,278080,1,2,3:3:0:0:
0,195,278236,1,2,3:3:0:0:
81,154,278393,5,10,0:2:0:0:
152,263,278549,1,2,0:2:0:0:
279,308,278705,5,2,0:3:0:0:
491,210,278861,5,6,0:2:0:0:
394,246,279018,2,0,P|358:240|309:216,1,72.0000017578125,2|8,0:0|0:0,0:0:0:0:
184,134,279330,2,0,P|220:128|269:104,1,72.0000017578125,2|0,3:1|3:0,0:0:0:0:
124,2,279643,5,10,3:1:0:0:
99,245,279799,1,2,3:2:0:0:
0,71,279955,1,2,3:2:0:0:
267,214,280268,6,2,B|323:191|343:132|318:73|269:48|215:49|167:82|149:125|144:174|155:231|185:269|213:295|213:295|245:325|241:352|241:352|199:321|136:301|75:325|75:325|40:338|-7:322|-24:253|21:221|60:208|101:247,1,935.680029011562,4|0,3:1|0:0,2:2:0:0:
