osu file format v14

[General]
AudioFilename: audio.mp3
AudioLeadIn: 0
PreviewTime: 21026
Countdown: 0
SampleSet: Soft
StackLeniency: 0.7
Mode: 0
LetterboxInBreaks: 0
WidescreenStoryboard: 0

[Editor]
DistanceSpacing: 1.2
BeatDivisor: 6
GridSize: 32
TimelineZoom: 2.899999

[Metadata]
Title:Paranoid Girl
TitleUnicode:パラノイドガール
Artist:Meramipop
ArtistUnicode:めらみぽっぷ
Creator:Hailie
Version:Extra Stage
Source:東方地霊殿 ~ Subterranean Animism.
Tags:Diao Ye Zong 凋叶棕 RD-Sounds Comiket 91 C91 Void 虚 Extra stage Theme Eastern Palace of the Earth Spirits Touhou ZUN -utsuro- 上海アリス幻樂団 ラストリモート Last Remote Koishi Komeiji 古明地 こいし 東方Project
BeatmapID:1653137
BeatmapSetID:787665

[Difficulty]
HPDrainRate:6
CircleSize:4
OverallDifficulty:9
ApproachRate:9
SliderMultiplier:1.85
SliderTickRate:1

[Events]
//Background and Video events
0,0,"top.jpg",0,0
//Break Periods
//Storyboard Layer 0 (Background)
//Storyboard Layer 1 (Fail)
//Storyboard Layer 2 (Pass)
//Storyboard Layer 3 (Foreground)
//Storyboard Sound Samples

[TimingPoints]
471,331.491712707182,4,2,1,40,1,0
471,-333.333333333334,4,2,1,40,0,0
5759,-166.666666666667,4,2,1,50,0,0
11063,-125,4,2,1,50,0,0
16367,-100,4,2,1,55,0,0
18522,-500,4,2,1,55,0,0
19019,-100,4,2,1,55,0,0
21671,-100,4,2,1,60,0,0
32279,-125,4,2,1,60,0,0
34931,-125,4,2,1,50,0,0
45538,-125,4,2,1,60,0,0
50511,-333.333333333333,4,2,1,60,0,0
50774,-333.333333333333,4,2,1,5,0,0
50842,-125,4,2,1,60,0,0
58798,-250,4,2,1,60,0,0
58964,-250,4,2,2,40,0,0
61450,-166.666666666667,4,2,2,40,0,0
64102,-125,4,2,2,40,0,0
66754,-100,4,2,1,60,0,0
69074,-1000,4,2,1,60,0,0
69338,-1000,4,2,1,5,0,0
69421,-71.4285714285714,4,2,1,75,0,1
69752,-71.4285714285714,4,2,1,75,0,0
79682,-1000,4,2,1,75,0,0
79946,-1000,4,2,1,5,0,0
80014,-71.4285714285714,4,2,1,75,0,0
90621,-250,4,2,1,50,0,0
98577,-142.857142857143,4,2,1,50,0,0
100897,-500,4,2,1,50,0,0
101229,-125,4,2,1,50,0,0
103647,-125,4,2,1,5,0,0
103730,-125,4,2,1,50,0,0
106299,-125,4,2,1,5,0,0
106382,-125,4,2,1,50,0,0
109185,-100,4,2,1,50,0,0
113163,-166.666666666667,4,2,1,40,0,0
113494,-166.666666666667,4,2,2,50,0,0
120621,-166.666666666667,4,2,1,50,0,0
121118,-100,4,2,1,60,0,0
126091,-285.714285714286,4,2,1,60,0,0
126354,-285.714285714286,4,2,1,5,0,0
126422,-100,4,2,1,60,0,0
134378,-250,4,2,1,60,0,0
134710,-250,4,2,2,40,0,0
137030,-166.666666666667,4,2,2,40,0,0
139682,-125,4,2,2,40,0,0
142334,-100,4,2,1,60,0,0
144654,-200,4,2,1,60,0,0
147306,-500,4,2,1,60,0,0
147570,-500,4,2,1,5,0,0
147653,-68.9655172413793,4,2,1,75,0,1
147984,-68.9655172413793,4,2,1,75,0,0
157914,-500,4,2,1,75,0,0
158178,-500,4,2,1,5,0,0
158246,-68.9655172413793,4,2,1,75,0,0
168853,-86.9565217391304,4,2,1,65,0,0
184765,-80,4,2,1,70,0,0
195373,-100,4,2,1,60,0,0
216588,-250,4,2,2,50,0,0
224544,-166.666666666667,4,2,1,55,0,0
225207,-125,4,2,1,55,0,0
225870,-100,4,2,1,55,0,0
227196,-200,4,2,1,40,0,0
248411,-83.3333333333333,4,2,1,70,0,0
250732,-400,4,2,1,70,0,0
250995,-400,4,2,1,5,0,0
251078,-64.5161290322581,4,2,1,85,0,1
261354,-400,4,2,1,85,0,0
261603,-400,4,2,1,5,0,0
261686,-64.5161290322581,4,2,1,85,0,1
271962,-64.5161290322581,4,2,1,85,0,0
272294,-74.0740740740741,4,2,1,75,0,1
272625,-74.0740740740741,4,2,1,75,0,0
293494,-250,4,2,1,55,0,0
299461,-100,4,2,1,55,0,0
303951,-100,4,2,1,45,0,0
304117,-100,4,2,1,35,0,0
304448,-100,4,2,1,25,0,0
304614,-100,4,2,1,15,0,0

[Colours]
Combo1 : 84,166,2
Combo2 : 255,128,64
Combo3 : 128,0,64
Combo4 : 254,48,100

[HitObjects]
431,6,471,6,0,P|452:175|236:147,1,443.999986450196,2|2,0:0|0:0,0:0:0:0:
239,155,3454,6,0,P|188:232|138:72,1,374.624988567353,2|0,0:0|0:0,0:0:0:0:
213,63,5774,6,0,P|228:34|271:16,1,73.9999977416993,6|0,0:0|0:0,0:0:0:0:
239,155,6106,2,0,P|207:159|167:156,1,55.4999983062745,2|0,0:0|0:0,0:0:0:0:
307,87,6437,1,2,0:0:0:0:
413,146,6603,1,2,0:0:0:0:
391,245,6769,2,0,P|395:273|382:328,1,73.9999977416993,2|0,0:0|0:0,0:0:0:0:
293,342,7100,2,0,P|267:355|215:359,1,73.9999977416993,2|0,0:0|0:0,0:0:0:0:
234,259,7432,2,0,P|265:248|319:250,1,73.9999977416993,2|0,0:0|0:0,0:0:0:0:
391,245,7763,1,2,0:0:0:0:
469,182,7929,1,2,0:0:0:0:
461,91,8095,1,2,0:0:0:0:
389,31,8261,1,2,0:0:0:0:
294,13,8426,6,0,P|305:47|304:87,1,73.9999977416993,2|0,0:0|0:0,0:0:0:0:
226,146,8758,2,0,P|216:112|227:65,1,73.9999977416993,2|0,0:0|0:0,0:0:0:0:
265,213,9089,1,2,0:0:0:0:
157,166,9255,1,2,0:0:0:0:
92,229,9421,2,0,P|67:234|31:229,1,55.4999983062745,2|0,0:0|0:0,0:0:0:0:
69,125,9752,1,2,0:0:0:0:
92,229,9918,1,2,0:0:0:0:
188,204,10084,1,2,0:0:0:0:
268,254,10250,1,0,0:0:0:0:
373,198,10415,2,0,P|368:221|371:254,1,55.4999983062745,2|0,0:0|0:0,0:0:0:0:
461,185,10747,2,0,P|460:158|454:116,1,55.4999983062745,2|0,0:0|0:0,0:0:0:0:
340,40,11078,6,0,P|294:45|230:36,1,98.6666666666667,6|2,0:0|0:0,0:0:0:0:
134,53,11410,1,2,0:0:0:0:
243,40,11575,1,0,0:0:0:0:
359,66,11741,2,0,P|395:62|435:56,1,74,2|2,0:0|0:0,0:0:0:0:
452,146,12073,1,2,0:0:0:0:
452,146,12156,1,2,0:0:0:0:
452,146,12404,2,0,P|457:192|455:228,1,74,2|0,0:0|0:0,0:0:0:0:
362,325,12736,2,0,P|346:264|360:213,1,111,2|2,0:0|0:0,0:0:0:0:
316,187,13067,1,2,0:0:0:0:
202,228,13233,1,2,0:0:0:0:
104,179,13399,1,2,0:0:0:0:
211,99,13564,1,2,0:0:0:0:
316,187,13730,6,0,L|415:146,1,98.6666666666667,6|2,0:0|0:0,0:0:0:0:
351,268,14062,2,0,L|266:297,1,74,2|0,0:0|0:0,0:0:0:0:
235,312,14310,1,0,0:0:0:0:
235,312,14393,1,2,0:0:0:0:
123,246,14559,1,2,0:0:0:0:
202,142,14725,1,2,0:0:0:0:
100,78,14890,1,2,0:0:0:0:
23,167,15056,1,2,0:0:0:0:
14,181,15139,2,0,P|3:174|-4:168,4,18.5,2|2|2|2|2,0:0|0:0|0:0|0:0|0:0,0:0:0:0:
153,227,15388,1,2,0:0:0:0:
183,221,15470,1,0,0:0:0:0:
213,229,15553,2,0,P|252:233|313:227,1,74,0|2,0:0|0:0,0:0:0:0:
320,206,15802,1,2,0:0:0:0:
490,323,16106,1,2,0:0:0:0:
467,25,16382,6,0,P|429:60|429:112,1,92.5,8|0,1:3|0:0,0:0:0:0:
460,240,16714,2,0,P|483:203|480:143,1,92.5,8|8,0:1|0:1,0:0:0:0:
425,99,17045,1,8,0:1:0:0:
408,99,17377,1,8,0:1:0:0:
259,316,17708,6,0,P|212:314|161:271,1,92.5,8|8,0:1|0:1,0:0:0:0:
335,252,18040,2,0,P|375:261|428:311,1,92.5,8|8,0:1|0:1,0:0:0:0:
255,157,18537,6,0,L|255:110,1,46.25,10|0,3:0|0:0,0:0:0:0:
352,65,19034,5,8,0:1:0:0:
144,161,19200,1,8,0:1:0:0:
352,65,19366,1,8,0:1:0:0:
70,68,19531,1,8,0:1:0:0:
383,119,19697,6,0,B|368:80|368:80|379:19,1,92.5,8|0,0:1|0:0,0:0:0:0:
432,202,20029,2,0,L|422:298,1,92.5,8|0,0:1|0:0,0:0:0:0:
248,364,20360,5,8,0:1:0:0:
499,257,20526,1,8,0:1:0:0:
248,364,20691,1,8,0:1:0:0:
499,257,20857,1,12,0:1:0:0:
166,180,21189,5,12,1:3:0:0:
196,169,21272,1,8,1:0:0:0:
216,144,21354,1,8,1:0:0:0:
227,113,21437,1,8,1:0:0:0:
221,81,21520,1,12,1:3:0:0:
203,55,21603,1,8,1:0:0:0:
180,31,21686,6,0,P|192:82|344:109,1,185,12|0,0:1|1:3,0:0:0:0:
468,46,22183,2,0,P|425:33|361:53,1,92.5,2|2,0:0|0:0,0:0:0:0:
358,284,22515,1,8,1:3:0:0:
358,284,22846,1,0,0:0:0:0:
358,284,23012,2,0,B|385:221|385:221|355:113,1,138.75,2|0,0:0|0:0,0:0:0:0:
273,279,23343,2,0,L|282:380,1,92.5,0|2,1:3|0:0,0:0:0:0:
180,212,23675,2,0,L|175:99,1,92.5,8|8,1:3|1:3,0:0:0:0:
43,292,24006,1,8,1:3:0:0:
261,71,24338,6,0,P|312:97|400:24,1,185,4|0,0:3|1:3,0:0:0:0:
174,34,24835,2,0,P|125:56|94:92,1,92.5,2|2,0:0|0:0,0:0:0:0:
307,245,25167,1,8,1:3:0:0:
307,245,25498,1,0,0:0:0:0:
307,245,25664,2,0,L|176:237,1,92.5,2|8,0:0|1:3,0:0:0:0:
446,182,25995,2,0,L|349:154,1,92.5,8|2,1:3|0:0,0:0:0:0:
435,384,26493,1,8,1:3:0:0:
406,368,26575,1,8,0:1:0:0:
390,339,26658,1,8,1:3:0:0:
388,306,26741,1,8,0:1:0:0:
398,275,26824,1,8,3:1:0:0:
422,249,26907,1,8,0:1:0:0:
461,252,26990,6,0,P|464:153|394:89,1,185,12|8,1:0|1:0,0:0:0:0:
148,49,27487,2,0,P|183:81|247:90,1,92.5,2|8,0:0|1:0,0:0:0:0:
278,257,27819,2,0,P|298:211|290:144,1,92.5,4|8,0:3|1:0,0:0:0:0:
297,169,28316,2,0,P|278:241|285:275,1,92.5,12|0,0:1|0:0,0:0:0:0:
310,52,28647,1,8,1:0:0:0:
72,73,28813,2,0,L|193:61,1,92.5,12|8,0:3|1:0,0:0:0:0:
388,181,29145,2,0,L|263:164,1,92.5,4|8,0:3|1:0,0:0:0:0:
296,168,29642,6,0,P|147:189|113:193,1,185,12|8,1:0|1:0,0:0:0:0:
299,6,30139,2,0,P|280:51|285:96,1,92.5,2|8,0:0|1:0,0:0:0:0:
398,305,30470,2,0,P|408:261|404:213,1,92.5,4|8,0:3|1:0,0:0:0:0:
404,214,30968,5,14,0:1:0:0:
205,320,31133,1,4,0:3:0:0:
435,225,31299,1,8,1:0:0:0:
192,189,31465,1,12,0:3:0:0:
164,195,31631,1,8,1:0:0:0:
439,89,31796,1,4,0:3:0:0:
470,96,31962,1,8,1:0:0:0:
470,96,32294,6,0,L|473:183,1,74,12|8,3:3|1:0,0:0:0:0:
48,88,32791,1,12,3:0:0:0:
90,54,32957,2,0,L|90:139,1,74,8|0,1:0|0:0,0:0:0:0:
234,295,33288,1,12,3:3:0:0:
198,319,33454,2,0,L|198:242,1,74,8|0,1:0|0:0,0:0:0:0:
59,348,33785,1,12,3:0:0:0:
272,245,33951,2,0,L|188:245,1,74,8|8,1:0|1:0,0:0:0:0:
442,345,34283,1,8,1:0:0:0:
422,327,34366,1,0,0:0:0:0:
411,303,34448,1,0,1:0:0:0:
412,277,34531,1,0,1:0:0:0:
425,254,34614,1,8,1:0:0:0:
448,242,34697,1,0,1:0:0:0:
469,227,34780,1,0,1:0:0:0:
476,202,34863,1,0,1:0:0:0:
471,176,34946,5,2,0:0:0:0:
466,163,35111,1,2,0:0:0:0:
425,138,35443,1,2,0:0:0:0:
404,135,35609,1,2,0:0:0:0:
337,135,35940,1,2,0:0:0:0:
304,146,36106,1,2,0:0:0:0:
260,136,36769,6,0,L|259:174,2,24.6666666666667,2|2|2,0:0|0:0|0:0,0:0:0:0:
247,204,36990,5,2,0:0:0:0:
208,227,37100,5,2,0:0:0:0:
178,230,37183,1,2,0:0:0:0:
138,219,37266,1,2,0:0:0:0:
100,160,37377,1,2,0:0:0:0:
131,94,37487,1,2,0:0:0:0:
177,37,37598,6,0,P|154:104|85:133,1,148,4|2,0:1|0:0,0:0:0:0:
26,180,38095,2,0,P|74:109|158:97,1,148,4|2,0:3|0:0,0:0:0:0:
215,49,38592,2,0,L|114:43,1,74,8|0,0:1|0:0,0:0:0:0:
253,58,38924,1,4,0:3:0:0:
283,90,39089,1,4,0:3:0:0:
301,125,39421,2,0,P|311:209|276:275,1,148,4|2,0:3|0:0,0:0:0:0:
268,274,39835,1,2,0:0:0:0:
251,290,39918,1,8,0:1:0:0:
251,290,40084,5,2,0:0:0:0:
251,290,40250,2,0,P|181:266|110:310,1,148,4|2,0:3|0:0,0:0:0:0:
193,284,40747,2,0,P|254:315|338:282,1,148,4|2,0:3|0:0,0:0:0:0:
118,298,41244,2,0,L|101:214,1,74,8|2,0:1|0:0,0:0:0:0:
100,130,41575,2,0,L|100:183,1,37,12|0,0:3|0:0,0:0:0:0:
123,98,41741,1,4,0:3:0:0:
123,98,42073,6,0,B|221:117|206:69|277:69|330:92,1,185,4|0,0:3|0:0,0:0:0:0:
387,56,42570,2,0,P|373:98|382:158,1,74,8|2,0:1|0:0,0:0:0:0:
495,10,42901,1,4,0:0:0:0:
289,189,43233,6,0,B|242:161|186:193|186:193|227:159|213:133,1,148,2|2,0:0|0:0,0:0:0:0:
181,10,43896,2,0,L|199:112,1,74,8|2,0:1|0:0,0:0:0:0:
281,261,44227,2,0,P|289:223|286:175,1,74,4|4,0:3|0:3,0:0:0:0:
386,51,44559,2,0,P|381:85|391:151,1,74,2|4,0:0|0:3,0:0:0:0:
433,314,44890,2,0,L|437:293,6,18.5,2|2|2|2|2|2|2,0:0|0:0|0:0|0:0|0:0|0:0|0:0,0:0:0:0:
456,229,45222,1,8,0:1:0:0:
222,193,45388,1,8,0:1:0:0:
222,193,45470,1,4,1:3:0:0:
222,193,45553,6,0,P|188:220|138:247,1,74,12|0,3:3|1:0,0:0:0:0:
336,104,45885,1,8,1:0:0:0:
269,58,46051,2,0,P|292:43|347:11,1,74,12|0,3:0|1:0,0:0:0:0:
454,270,46382,1,8,1:0:0:0:
379,310,46548,2,0,L|377:223,1,74,12|0,3:3|0:0,0:0:0:0:
217,146,46879,1,2,0:0:0:0:
137,30,47045,2,0,L|138:110,1,74,12|0,3:3|1:0,0:0:0:0:
379,311,47377,1,8,1:0:0:0:
124,361,47542,1,8,1:0:0:0:
181,282,47708,1,8,1:0:0:0:
155,285,47791,1,0,1:1:0:0:
129,288,47874,1,0,1:1:0:0:
103,291,47957,1,0,1:1:0:0:
77,294,48040,1,0,1:1:0:0:
51,298,48122,1,0,1:1:0:0:
28,301,48205,6,0,P|58:224|39:142,1,148,12|2,1:0|0:0,0:0:0:0:
302,16,48703,2,0,P|240:32|171:91,1,148,4|2,0:3|0:0,0:0:0:0:
258,242,49200,1,8,1:0:0:0:
256,119,49366,1,2,0:0:0:0:
392,75,49531,1,4,0:3:0:0:
256,119,49697,2,0,L|161:137,1,74,4|0,3:0|0:0,0:0:0:0:
12,179,50029,2,0,P|111:124|171:165,1,185,4|0,0:3|0:0,0:0:0:0:
221,246,50526,6,0,L|220:203,1,41.6249987297059,8|0,0:1|0:0,0:0:0:0:
221,246,50857,5,12,1:0:0:0:
293,61,51023,2,0,P|314:94|348:112,1,74,0|2,0:0|0:0,0:0:0:0:
478,249,51354,2,0,P|478:204|460:144,1,74,4|2,0:3|0:0,0:0:0:0:
384,42,51686,1,2,0:0:0:0:
158,29,51852,2,0,L|241:20,1,74,8|2,1:0|0:0,0:0:0:0:
68,51,52183,1,4,0:3:0:0:
384,42,52349,1,4,3:0:0:0:
384,42,52680,2,0,L|291:82,1,74,4|2,0:3|0:0,0:0:0:0:
184,149,53012,1,2,0:0:0:0:
98,343,53178,1,8,0:1:0:0:
177,265,53343,1,0,1:1:0:0:
210,231,53426,1,0,1:0:0:0:
285,205,53509,5,12,1:0:0:0:
285,205,53841,2,0,P|227:233|189:242,1,74,2|4,0:0|0:3,0:0:0:0:
317,120,54172,2,0,P|357:106|402:100,1,74,2|2,0:0|0:0,0:0:0:0:
502,12,54504,1,8,1:0:0:0:
285,205,54835,2,0,L|285:294,1,74,4|4,0:3|3:0,0:0:0:0:
388,100,55167,2,0,P|388:58|383:11,1,74,2|4,0:0|0:3,0:0:0:0:
496,193,55498,2,0,P|452:190|396:191,1,74,2|2,0:0|0:1,0:0:0:0:
190,114,55830,1,8,0:1:0:0:
471,118,55995,1,0,1:1:0:0:
184,157,56161,6,0,L|181:242,1,74,12|0,3:3|1:0,0:0:0:0:
354,92,56493,1,8,1:0:0:0:
435,113,56658,2,0,L|438:35,1,74,12|0,3:0|1:0,0:0:0:0:
345,313,56990,1,8,1:0:0:0:
265,264,57156,2,0,L|259:173,1,74,12|0,3:3|0:0,0:0:0:0:
0,65,57653,1,12,3:3:0:0:
53,139,57819,2,0,L|144:139,1,74,0|8,1:0|1:0,0:0:0:0:
432,126,58150,1,8,1:0:0:0:
124,95,58316,1,8,1:0:0:0:
135,71,58399,1,0,1:1:0:0:
158,60,58482,1,0,1:1:0:0:
183,60,58564,1,0,1:1:0:0:
203,75,58647,1,0,1:1:0:0:
217,101,58730,1,0,1:1:0:0:
217,101,58813,6,2,L|236:146,1,37,6|2,3:0|0:0,0:0:0:0:
184,187,59145,1,2,0:0:0:0:
194,206,59310,1,2,0:0:0:0:
203,225,59476,1,2,0:0:0:0:
214,242,59808,1,2,0:0:0:0:
223,261,59973,2,0,L|260:337,1,74,2|2,0:0|3:0,0:0:0:0:
302,330,60470,1,2,0:0:0:0:
344,307,60636,1,2,3:0:0:0:
388,283,60802,1,2,0:0:0:0:
429,261,60968,1,2,0:0:0:0:
470,240,61133,1,2,0:0:0:0:
470,240,61465,6,0,L|427:175,1,55.4999983062745,6|2,0:0|0:0,0:0:0:0:
401,138,61796,1,2,0:0:0:0:
346,138,61962,1,2,0:0:0:0:
295,138,62128,1,2,0:0:0:0:
240,137,62294,1,2,0:0:0:0:
188,137,62459,1,2,0:0:0:0:
140,139,62625,2,0,P|98:144|76:71,1,110.999996612549,2|2,3:0|3:0,0:0:0:0:
161,63,63122,1,2,0:0:0:0:
244,62,63288,1,2,3:0:0:0:
323,62,63454,1,2,0:0:0:0:
399,62,63620,1,2,0:3:0:0:
478,67,63785,1,2,0:0:0:0:
478,67,64117,6,0,L|478:146,1,74,6|2,0:0|0:0,0:0:0:0:
474,227,64448,1,2,0:0:0:0:
381,229,64614,1,2,0:3:0:0:
282,229,64780,1,2,0:0:0:0:
185,228,64946,1,2,0:0:0:0:
93,228,65111,1,2,0:0:0:0:
0,234,65277,2,0,P|54:225|111:294,1,148,2|2,0:3|0:3,0:0:0:0:
203,369,65774,1,2,0:0:0:0:
310,295,65940,1,2,0:3:0:0:
276,171,66106,1,2,0:0:0:0:
148,158,66272,1,2,3:3:0:0:
110,289,66437,1,2,0:0:0:0:
134,116,66603,1,2,0:3:0:0:
332,3,66769,6,0,P|302:55|277:165,1,138.75,6|0,3:0|0:0,0:0:0:0:
219,259,67100,2,0,L|215:158,1,92.5,6|0,3:0|0:0,0:0:0:0:
468,19,67432,1,2,0:0:0:0:
468,19,67763,2,0,L|300:40,1,138.75,8|0,1:0|0:0,0:0:0:0:
129,42,68095,1,8,1:0:0:0:
285,146,68261,1,8,1:0:0:0:
503,196,68426,1,8,1:0:0:0:
117,375,68592,1,12,1:0:0:0:
445,156,68924,1,8,1:0:0:0:
455,144,69006,1,4,0:3:0:0:
431,175,69089,6,0,L|421:188,1,13.875,12|0,0:3|0:0,0:0:0:0:
190,323,69421,2,0,P|236:254|406:182,1,258.999992095948,4|8,1:0|1:0,0:0:0:0:
202,25,69918,2,0,P|215:89|199:161,1,129.499996047974,2|4,0:0|0:3,0:0:0:0:
460,247,70250,1,0,3:0:0:0:
347,279,70415,2,0,L|477:279,1,129.499996047974,8|2,1:0|0:0,0:0:0:0:
234,350,70747,2,0,P|178:318|233:139,1,258.999992095948,4|8,3:0|1:0,0:0:0:0:
97,338,71244,1,4,0:3:0:0:
272,73,71410,2,0,P|290:152|242:213,1,129.499996047974,2|4,0:0|0:3,0:0:0:0:
401,8,71741,1,8,1:0:0:0:
272,73,71907,1,2,0:0:0:0:
460,222,72073,6,0,L|238:187,1,194.249994071961,4|0,3:1|0:0,0:0:0:0:
155,257,72404,1,8,1:0:0:0:
7,73,72570,2,0,P|59:97|132:100,1,129.499996047974,2|4,0:0|0:3,0:0:0:0:
415,46,72901,1,0,3:0:0:0:
206,24,73067,1,8,1:0:0:0:
324,230,73233,1,2,0:0:0:0:
287,264,73399,2,0,P|277:189|124:102,1,258.999992095948,4|8,3:3|1:0,0:0:0:0:
434,105,73896,1,4,0:3:0:0:
364,141,74062,1,8,1:0:0:0:
265,101,74227,1,8,1:0:0:0:
64,77,74393,5,8,1:0:0:0:
265,101,74559,1,4,3:3:0:0:
378,331,74725,2,0,P|341:286|326:197,1,129.499996047974,4|2,3:1|0:0,0:0:0:0:
317,38,75056,1,8,1:0:0:0:
64,77,75222,2,0,P|130:90|186:17,1,129.499996047974,2|4,0:0|0:3,0:0:0:0:
176,54,75719,2,0,L|195:205,1,129.499996047974,8|2,1:0|0:0,0:0:0:0:
493,307,76051,2,0,P|457:248|266:233,1,258.999992095948,4|8,3:0|1:0,0:0:0:0:
77,276,76548,1,4,0:3:0:0:
25,196,76714,2,0,L|102:194,1,64.7499980239869,2|0,0:0|0:0,0:0:0:0:
370,99,76879,2,0,L|209:113,1,129.499996047974,4|8,0:3|1:0,0:0:0:0:
240,110,77377,6,0,P|375:63|495:139,1,258.999992095948,4|8,3:1|1:0,0:0:0:0:
189,184,77874,2,0,P|159:133|167:56,1,129.499996047974,2|4,0:0|0:3,0:0:0:0:
417,168,78205,2,0,P|431:225|418:295,1,129.499996047974,8|4,1:0|3:3,0:0:0:0:
235,106,78537,1,12,0:1:0:0:
240,110,78868,1,8,1:0:0:0:
269,144,78951,1,0,1:0:0:0:
309,164,79034,1,8,1:0:0:0:
353,171,79117,1,0,1:0:0:0:
398,166,79200,1,4,0:3:0:0:
439,150,79283,1,0,1:0:0:0:
443,104,79366,2,0,P|345:168|322:249,1,194.249994071961,14|0,0:3|0:0,0:0:0:0:
334,365,79697,6,0,L|333:348,1,13.875,14|0,3:3|0:0,0:0:0:0:
265,163,80029,2,0,B|142:141|155:233|56:234|-2:183,1,258.999992095948,4|8,1:0|1:0,0:0:0:0:
276,75,80526,2,0,P|317:83|394:135,1,129.499996047974,2|4,0:0|0:3,0:0:0:0:
112,16,80857,1,0,3:0:0:0:
31,78,81023,2,0,L|176:78,1,129.499996047974,8|2,1:0|0:0,0:0:0:0:
45,320,81354,2,0,P|75:235|17:62,1,258.999992095948,4|8,3:0|1:0,0:0:0:0:
305,27,81852,1,4,0:3:0:0:
411,26,82017,2,0,P|340:84|307:111,1,129.499996047974,2|4,0:0|0:3,0:0:0:0:
404,324,82349,1,8,1:0:0:0:
310,107,82515,1,2,0:0:0:0:
212,351,82680,6,0,P|309:278|287:140,1,258.999992095948,4|8,3:1|1:0,0:0:0:0:
0,37,83178,2,0,L|153:95,1,129.499996047974,2|4,0:0|0:3,0:0:0:0:
426,33,83509,2,0,L|340:71,1,64.7499980239869,0|0,3:0|0:0,0:0:0:0:
167,47,83675,1,8,1:0:0:0:
387,103,83841,1,2,0:0:0:0:
384,376,84006,2,0,B|394:251|305:283|263:205|300:146,1,258.999992095948,4|8,3:3|1:0,0:0:0:0:
58,362,84504,2,0,L|193:258,1,129.499996047974,4|8,0:3|1:0,0:0:0:0:
368,113,84835,1,8,1:0:0:0:
267,197,85001,1,8,1:0:0:0:
160,282,85167,1,4,3:3:0:0:
471,29,85332,6,0,P|380:148|457:251,1,258.999992095948,4|8,3:1|1:0,0:0:0:0:
135,122,85830,2,0,L|301:139,1,129.499996047974,2|4,0:0|0:3,0:0:0:0:
42,358,86161,2,0,P|62:305|56:222,1,129.499996047974,0|8,3:0|1:0,0:0:0:0:
306,24,86493,2,0,P|208:75|201:180,1,194.249994071961,2|0,0:0|0:0,0:0:0:0:
392,147,86824,2,0,L|250:133,1,129.499996047974,2|8,0:0|1:0,0:0:0:0:
66,87,87156,1,4,0:3:0:0:
334,292,87321,1,2,0:0:0:0:
122,27,87487,1,4,0:3:0:0:
12,152,87653,1,8,1:0:0:0:
12,152,87984,5,4,3:1:0:0:
439,288,88316,1,8,1:0:0:0:
36,165,88482,1,4,0:3:0:0:
49,171,88564,1,4,0:3:0:0:
63,178,88647,1,4,0:3:0:0:
424,305,88813,1,8,1:0:0:0:
346,285,88896,1,8,0:1:0:0:
275,259,88979,1,8,3:1:0:0:
205,236,89062,1,8,0:1:0:0:
132,212,89145,1,12,0:1:0:0:
63,178,89227,1,8,0:1:0:0:
3,130,89310,6,0,L|79:156,1,64.7499980239869,12|0,1:0|0:0,0:0:0:0:
337,306,89476,2,0,L|196:260,1,129.499996047974,4|0,3:3|0:0,0:0:0:0:
426,60,89808,1,14,1:0:0:0:
82,380,90139,1,4,3:0:0:0:
82,380,90222,1,4,3:0:0:0:
82,380,90305,1,4,3:0:0:0:
82,380,90388,1,4,3:0:0:0:
82,380,90470,1,4,3:0:0:0:
82,380,90553,1,4,3:0:0:0:
82,380,90636,5,6,3:2:0:0:
116,361,90968,1,0,0:0:0:0:
122,349,91133,1,0,3:0:0:0:
191,324,91299,1,2,0:0:0:0:
205,342,91631,1,8,0:1:0:0:
278,311,91796,1,2,0:0:0:0:
337,257,91962,1,0,3:0:0:0:
411,292,92128,1,0,0:0:0:0:
411,292,92459,2,0,L|435:333,1,37,0|2,3:3|0:0,0:0:0:0:
337,257,92957,1,8,0:1:0:0:
337,257,93288,5,2,0:3:0:0:
262,230,93620,1,0,0:0:0:0:
255,253,93785,1,4,0:3:0:0:
160,218,93951,1,2,0:0:0:0:
144,256,94283,1,8,0:1:0:0:
38,262,94448,1,2,0:0:0:0:
5,179,94614,1,4,0:3:0:0:
79,127,94780,1,0,3:0:0:0:
88,97,95111,1,0,3:0:0:0:
192,131,95277,1,2,0:0:0:0:
288,88,95609,1,8,0:1:0:0:
478,36,95940,6,0,L|431:25,1,37,4|0,0:1|0:0,0:0:0:0:
381,93,96272,1,0,0:0:0:0:
397,122,96437,1,4,0:3:0:0:
490,159,96603,1,2,0:0:0:0:
498,200,96935,1,8,0:1:0:0:
424,276,97100,1,2,0:0:0:0:
339,257,97266,1,4,0:3:0:0:
335,346,97432,1,0,3:0:0:0:
352,374,97763,1,0,3:0:0:0:
249,326,97929,1,2,0:0:0:0:
152,364,98261,1,8,0:1:0:0:
64,134,98426,1,8,0:1:0:0:
64,134,98509,1,0,1:0:0:0:
64,134,98592,6,0,L|54:43,1,64.7499980239869,4|4,3:0|3:1,0:0:0:0:
80,287,98924,1,8,0:1:0:0:
162,223,99089,2,0,L|152:303,1,64.7499980239869,4|2,0:3|0:0,0:0:0:0:
278,61,99421,1,8,0:1:0:0:
236,138,99587,1,8,0:1:0:0:
361,315,99752,1,4,3:3:0:0:
361,315,100084,5,2,0:0:0:0:
436,247,100250,1,8,0:1:0:0:
397,142,100415,1,8,0:1:0:0:
288,156,100581,1,8,0:1:0:0:
265,254,100747,1,8,1:1:0:0:
265,254,100830,1,8,0:1:0:0:
276,231,100912,2,0,L|287:229,3,9.25,2|2|2|2,0:1|1:2|1:2|1:2,0:0:0:0:
265,254,101244,6,0,P|183:301|153:316,1,111,6|0,0:0|0:0,0:0:0:0:
99,358,101575,2,0,P|123:323|150:263,1,74,2|4,0:0|0:3,0:0:0:0:
110,204,101907,2,0,P|85:239|62:282,1,74,2|2,0:0|0:0,0:0:0:0:
186,205,102238,1,8,0:1:0:0:
186,205,102404,2,0,P|200:169|219:112,1,74,8|4,0:3|0:3,0:0:0:0:
232,36,102736,1,2,0:0:0:0:
232,36,102901,2,0,P|273:50|324:62,1,74,2|4,0:0|0:3,0:0:0:0:
404,51,103233,2,0,P|439:55|497:58,1,74,2|2,0:0|0:0,0:0:0:0:
303,208,103564,2,0,L|322:150,1,37,8|0,1:0|0:0,0:0:0:0:
254,358,103896,6,0,P|255:317|253:258,1,74,6|2,0:0|0:0,0:0:0:0:
207,191,104227,2,0,P|188:161|166:115,1,74,2|4,0:0|0:3,0:0:0:0:
0,99,104559,2,0,L|78:82,1,74,2|2,0:0|0:0,0:0:0:0:
157,53,104890,1,8,0:1:0:0:
207,191,105056,2,0,L|111:173,1,74,2|4,0:0|0:3,0:0:0:0:
293,297,105388,1,0,1:0:0:0:
205,292,105553,1,2,0:0:0:0:
438,239,105719,1,4,1:3:0:0:
350,229,105885,1,2,0:0:0:0:
491,143,106051,1,8,0:1:0:0:
370,198,106216,2,0,L|337:246,1,37,12|0,1:0|0:0,0:0:0:0:
132,353,106548,5,2,0:0:0:0:
82,273,106714,1,2,0:0:0:0:
162,107,106879,1,2,0:0:0:0:
116,201,107045,1,4,0:3:0:0:
58,64,107211,1,2,0:0:0:0:
162,107,107377,1,2,0:0:0:0:
257,49,107542,1,8,1:1:0:0:
353,93,107708,1,8,0:3:0:0:
353,93,107874,1,4,0:3:0:0:
353,93,108040,2,0,L|418:38,1,74,0|2,1:0|0:0,0:0:0:0:
257,49,108371,1,4,0:3:0:0:
276,143,108537,2,0,L|208:192,1,74,8|2,0:3|0:0,0:0:0:0:
409,45,108868,1,8,1:1:0:0:
469,193,109034,1,8,0:1:0:0:
469,193,109117,1,0,1:0:0:0:
469,193,109200,6,0,P|455:260|447:310,1,92.5,6|4,0:0|0:3,0:0:0:0:
419,298,109448,1,0,0:0:0:0:
384,223,109531,2,0,P|391:177|399:121,1,92.5,8|4,0:1|0:3,0:0:0:0:
183,71,109863,1,2,0:0:0:0:
356,69,110029,1,0,1:0:0:0:
259,0,110194,1,8,1:1:0:0:
102,182,110360,2,0,P|141:107|55:42,1,185,4|2,0:3|0:0,0:0:0:0:
183,71,110857,1,8,1:0:0:0:
255,97,111023,1,4,1:3:0:0:
324,124,111189,1,8,0:1:0:0:
394,150,111354,1,8,0:1:0:0:
422,165,111437,1,0,1:0:0:0:
442,184,111520,1,8,1:0:0:0:
456,207,111603,1,0,1:0:0:0:
467,232,111686,1,0,1:0:0:0:
470,259,111769,1,0,1:0:0:0:
470,286,111852,5,2,0:0:0:0:
470,286,112846,6,0,L|456:169,1,92.5,2|0,0:0|0:0,0:0:0:0:
471,308,113178,6,0,P|413:300|355:319,1,110.999996612549,2|2,3:2|0:0,0:0:0:0:
328,289,113675,2,0,P|388:295|441:270,1,110.999996612549,2|2,0:0|0:0,0:0:0:0:
509,264,114172,1,0,0:0:0:0:
464,225,114338,2,0,L|393:244,1,55.4999983062745,2|0,0:3|0:0,0:0:0:0:
445,199,114669,2,0,L|508:184,1,55.4999983062745,2|0,0:0|0:0,0:0:0:0:
426,171,115001,2,0,P|373:189|315:180,1,110.999996612549,2|2,0:0|0:0,0:0:0:0:
304,172,115415,1,2,0:0:0:0:
296,167,115498,1,2,0:0:0:0:
296,167,115664,5,2,0:0:0:0:
296,167,115830,2,0,P|240:176|167:167,1,110.999996612549,2|2,0:3|0:0,0:0:0:0:
188,196,116327,2,0,P|244:187|305:199,1,110.999996612549,2|2,0:0|0:0,0:0:0:0:
369,199,116824,1,2,0:0:0:0:
441,188,116990,1,2,0:0:0:0:
476,124,117156,2,0,L|470:178,1,27.7499991531372,6|0,0:3|0:0,0:0:0:0:
457,104,117321,2,0,P|456:75|470:29,1,55.4999983062745,2|0,0:0|0:0,0:0:0:0:
397,26,117653,1,2,0:0:0:0:
357,37,117819,2,0,L|332:47,7,27.7499991531372,2|2|2|2|2|2|2|0,0:0|0:0|0:0|0:0|0:0|0:0|0:0|0:0,0:0:0:0:
307,61,118482,1,2,0:0:0:0:
222,34,118647,1,0,0:0:0:0:
132,52,118813,6,0,B|112:90|112:90|88:74|91:47,1,83.2499974594117,2|0,0:0|0:0,0:0:0:0:
55,49,119145,2,0,P|45:77|47:119,1,55.4999983062745,2|0,0:0|0:0,0:0:0:0:
89,192,119476,2,0,P|75:220|35:251,1,83.2499974594117,2|0,0:0|0:0,0:0:0:0:
16,275,119808,2,0,P|46:272|76:284,1,55.4999983062745,2|0,0:0|0:0,0:0:0:0:
146,282,120139,1,2,0:0:0:0:
214,318,120305,1,2,0:0:0:0:
289,292,120470,2,0,L|298:305,2,13.8749995765686,2|2|2,0:0|0:0|0:0,0:0:0:0:
271,268,120636,1,8,0:1:0:0:
271,268,120719,1,8,0:1:0:0:
295,249,120802,1,8,1:1:0:0:
399,106,120968,1,8,0:1:0:0:
399,106,121051,1,0,1:1:0:0:
430,92,121133,6,0,L|433:-7,1,92.5,12|0,3:3|1:0,0:0:0:0:
398,2,121382,1,0,3:0:0:0:
398,2,121465,1,8,1:0:0:0:
122,44,121631,2,0,L|122:149,1,92.5,12|0,3:0|1:0,0:0:0:0:
166,166,121879,1,0,1:0:0:0:
166,166,121962,1,8,1:0:0:0:
433,304,122128,2,0,L|430:211,1,92.5,12|0,3:3|0:0,0:0:0:0:
393,187,122377,1,0,1:0:0:0:
393,187,122459,1,4,0:3:0:0:
51,276,122625,1,8,1:0:0:0:
89,282,122708,1,0,1:1:0:0:
132,268,122791,1,4,1:2:0:0:
167,236,122874,1,0,1:1:0:0:
191,196,122957,1,0,1:1:0:0:
216,150,123040,1,0,1:1:0:0:
261,105,123122,1,12,1:0:0:0:
326,89,123205,1,8,0:1:0:0:
382,110,123288,1,8,1:1:0:0:
191,196,123454,1,8,1:1:0:0:
458,87,123620,1,8,0:1:0:0:
434,302,123785,6,0,P|348:279|303:178,1,185,12|2,1:0|0:0,0:0:0:0:
358,20,124283,2,0,P|385:68|387:109,1,92.5,4|2,0:3|0:0,0:0:0:0:
428,212,124614,1,2,0:0:0:0:
352,121,124780,1,8,1:0:0:0:
323,15,124946,1,2,0:0:0:0:
245,188,125111,1,4,0:3:0:0:
121,161,125277,2,0,L|242:145,1,92.5,4|0,3:0|0:0,0:0:0:0:
428,212,125609,2,0,P|328:230|356:333,1,231.25,4|0,0:3|0:0,0:0:0:0:
427,354,126106,6,0,P|431:325|419:296,1,48.5624985179902,8|0,0:1|0:0,0:0:0:0:
427,354,126437,5,12,1:0:0:0:
428,212,126603,1,0,0:0:0:0:
512,120,126769,1,2,0:0:0:0:
323,194,126935,2,0,P|273:216|228:209,1,92.5,4|2,0:3|0:0,0:0:0:0:
129,289,127266,1,2,0:0:0:0:
31,150,127432,2,0,P|67:131|144:132,1,92.5,8|2,1:0|0:0,0:0:0:0:
348,106,127763,1,4,0:3:0:0:
112,36,127929,1,4,3:0:0:0:
112,36,128261,2,0,L|201:63,1,92.5,4|2,0:3|0:0,0:0:0:0:
348,106,128592,1,2,0:0:0:0:
342,332,128758,1,8,0:1:0:0:
306,226,128924,1,0,1:1:0:0:
307,176,129006,1,0,1:0:0:0:
348,106,129089,5,12,1:0:0:0:
348,106,129421,2,0,L|379:0,1,92.5,2|4,0:0|0:3,0:0:0:0:
192,149,129752,2,0,L|216:254,1,92.5,2|2,0:0|0:0,0:0:0:0:
89,105,130084,1,8,1:0:0:0:
272,297,130415,2,0,P|315:289|376:304,1,92.5,4|4,0:3|3:0,0:0:0:0:
158,144,130747,2,0,P|115:154|48:149,1,92.5,2|4,0:0|0:3,0:0:0:0:
293,7,131078,2,0,P|290:51|308:115,1,92.5,2|2,0:0|0:1,0:0:0:0:
471,277,131410,1,8,0:1:0:0:
204,156,131575,1,0,1:1:0:0:
204,156,131658,1,0,1:0:0:0:
162,187,131741,6,0,L|166:312,1,92.5,12|0,3:3|1:0,0:0:0:0:
330,78,132073,1,8,1:0:0:0:
421,112,132238,2,0,L|416:6,1,92.5,12|0,3:0|1:0,0:0:0:0:
251,287,132570,1,8,1:0:0:0:
151,241,132736,2,0,L|156:344,1,92.5,12|0,3:3|0:0,0:0:0:0:
406,48,133233,1,12,3:3:0:0:
478,130,133399,2,0,L|367:132,1,92.5,0|8,1:0|1:0,0:0:0:0:
167,69,133730,1,8,1:0:0:0:
390,243,133896,1,8,1:0:0:0:
359,232,133979,1,0,1:1:0:0:
339,203,134062,1,0,1:1:0:0:
339,170,134145,1,0,1:1:0:0:
355,142,134227,1,0,1:1:0:0:
385,131,134310,1,0,1:1:0:0:
424,123,134393,6,0,L|427:166,1,37,6|0,3:0|0:0,0:0:0:0:
378,212,134725,1,2,0:0:0:0:
378,230,134890,1,2,0:0:0:0:
379,248,135056,1,2,0:0:0:0:
379,266,135222,1,0,0:0:0:0:
379,284,135553,1,2,0:0:0:0:
379,303,135719,2,0,L|379:351,1,37,2|2,0:0|3:0,0:0:0:0:
340,375,136051,1,2,0:0:0:0:
290,377,136216,1,2,3:0:0:0:
242,379,136382,1,2,0:0:0:0:
196,381,136548,1,2,0:0:0:0:
150,384,136714,1,2,0:0:0:0:
150,384,137045,6,0,L|150:313,1,55.5,6|2,0:0|0:0,0:0:0:0:
131,251,137377,1,2,0:0:0:0:
162,233,137542,1,2,0:0:0:0:
195,215,137708,1,2,0:0:0:0:
232,194,137874,1,2,0:0:0:0:
268,173,138040,1,2,0:0:0:0:
338,123,138205,1,2,3:0:0:0:
404,73,138371,1,2,0:0:0:0:
321,31,138537,2,0,L|267:68,1,55.4999983062745,2|2,3:0|0:0,0:0:0:0:
208,108,138868,1,2,3:0:0:0:
141,152,139034,1,2,0:0:0:0:
74,190,139200,1,2,0:3:0:0:
9,230,139366,1,2,0:0:0:0:
9,230,139697,6,0,L|49:297,1,74,6|2,0:0|0:0,0:0:0:0:
94,372,140029,1,2,0:0:0:0:
176,323,140194,1,2,0:3:0:0:
255,271,140360,1,2,0:0:0:0:
336,213,140526,1,2,0:0:0:0:
416,162,140691,1,2,0:0:0:0:
512,114,140857,2,0,P|443:131|387:188,1,148,2|2,0:3|0:3,0:0:0:0:
227,137,141354,1,2,0:0:0:0:
389,183,141520,1,2,0:3:0:0:
227,137,141686,1,2,0:0:0:0:
293,290,141852,1,2,3:3:0:0:
323,95,142017,1,2,0:0:0:0:
293,290,142183,1,2,0:3:0:0:
235,29,142349,6,0,P|219:90|160:142,1,138.75,6|0,3:0|0:0,0:0:0:0:
124,274,142680,1,6,3:0:0:0:
99,255,142763,1,2,0:0:0:0:
85,216,142846,1,12,0:3:0:0:
235,29,143012,1,2,0:0:0:0:
235,29,143343,1,8,1:0:0:0:
512,315,143675,5,8,1:0:0:0:
335,192,143841,1,8,1:0:0:0:
235,29,144006,1,8,1:0:0:0:
5,328,144172,1,12,1:0:0:0:
5,328,144504,1,4,0:3:0:0:
5,328,144587,1,4,0:3:0:0:
43,303,144669,6,0,L|161:195,1,138.75,12|0,0:1|0:0,0:0:0:0:
165,232,145332,1,2,0:0:0:0:
213,231,145664,1,2,0:0:0:0:
258,249,145995,1,2,0:0:0:0:
302,256,146327,1,2,0:0:0:0:
354,231,146493,1,2,0:0:0:0:
403,257,146658,1,2,0:0:0:0:
452,222,146824,1,2,0:0:0:0:
262,54,146990,5,12,0:1:0:0:
466,242,147156,1,4,3:3:0:0:
452,222,147238,1,4,3:0:0:0:
484,269,147321,2,0,L|483:302,1,27.75,12|0,0:1|0:0,0:0:0:0:
262,54,147653,2,0,P|357:144|303:278,1,268.250008186341,4|8,1:0|1:0,0:0:0:0:
486,19,148150,2,0,P|455:62|450:152,1,134.12500409317,2|4,0:0|0:3,0:0:0:0:
182,217,148482,1,0,3:0:0:0:
116,284,148647,2,0,P|181:268|257:292,1,134.12500409317,8|2,1:0|0:0,0:0:0:0:
114,29,148979,2,0,P|115:145|-7:74,1,268.250008186341,4|8,3:0|1:0,0:0:0:0:
160,35,149476,1,4,0:3:0:0:
0,274,149642,2,0,P|-9:224|43:153,1,134.12500409317,2|4,0:0|0:3,0:0:0:0:
51,367,149973,1,8,1:0:0:0:
72,188,150139,1,2,0:0:0:0:
306,127,150305,6,0,B|198:107|232:173|146:172|103:146,1,201.187506139755,4|0,3:1|0:0,0:0:0:0:
199,50,150636,1,8,1:0:0:0:
382,178,150802,2,0,P|403:245|362:324,1,134.12500409317,2|4,0:0|0:3,0:0:0:0:
493,103,151133,1,0,3:0:0:0:
260,123,151299,1,8,1:0:0:0:
391,289,151465,1,2,0:0:0:0:
356,319,151631,2,0,P|250:280|155:405,1,268.250008186341,4|8,3:3|1:0,0:0:0:0:
62,105,152128,1,4,0:3:0:0:
48,184,152294,1,8,1:0:0:0:
108,274,152459,1,8,1:0:0:0:
0,32,152625,5,8,1:0:0:0:
108,274,152791,1,4,3:3:0:0:
363,153,152957,2,0,P|292:125|237:155,1,134.12500409317,4|2,3:1|0:0,0:0:0:0:
108,274,153288,1,8,1:0:0:0:
0,32,153454,2,0,P|46:69|121:50,1,134.12500409317,2|4,0:0|0:3,0:0:0:0:
115,54,153951,2,0,B|141:111|103:124|107:169|134:205,1,134.12500409317,8|2,1:0|0:0,0:0:0:0:
377,339,154283,2,0,P|289:294|392:177,1,268.250008186341,4|8,3:0|1:0,0:0:0:0:
447,0,154780,1,4,0:3:0:0:
497,74,154946,2,0,L|405:69,1,67.0625020465852,2|0,0:0|0:0,0:0:0:0:
171,98,155111,2,0,P|233:113|313:75,1,134.12500409317,4|8,0:3|1:0,0:0:0:0:
298,90,155609,6,0,P|270:207|400:251,1,268.250008186341,4|8,3:1|1:0,0:0:0:0:
211,55,156106,2,0,P|273:4|328:0,1,134.12500409317,2|4,0:0|0:3,0:0:0:0:
218,244,156437,2,0,P|160:274|72:247,1,134.12500409317,8|4,1:0|3:3,0:0:0:0:
332,51,156769,1,12,0:1:0:0:
332,51,157100,1,8,1:0:0:0:
332,95,157183,1,0,1:0:0:0:
350,136,157266,1,8,1:0:0:0:
379,170,157349,1,0,1:0:0:0:
417,191,157432,1,4,0:3:0:0:
463,195,157515,1,0,1:0:0:0:
500,159,157598,2,0,B|413:147|414:213|349:217|280:191,1,201.187506139755,14|0,0:3|0:0,0:0:0:0:
202,155,157929,6,0,L|202:123,1,27.75,14|0,3:3|0:0,0:0:0:0:
257,362,158261,2,0,P|211:292|29:323,1,268.250008186341,4|8,1:0|1:0,0:0:0:0:
61,40,158758,2,0,P|87:83|69:171,1,134.12500409317,2|4,0:0|0:3,0:0:0:0:
293,28,159089,1,0,3:0:0:0:
368,87,159255,2,0,P|303:71|216:94,1,134.12500409317,8|2,1:0|0:0,0:0:0:0:
460,299,159587,2,0,B|391:187|489:163|480:71|444:21,1,268.250008186341,4|8,3:0|1:0,0:0:0:0:
298,232,160084,1,4,0:3:0:0:
212,292,160250,2,0,P|273:291|341:248,1,134.12500409317,2|4,0:0|0:3,0:0:0:0:
143,37,160581,2,0,P|204:70|224:136,1,134.12500409317,8|2,1:0|0:0,0:0:0:0:
44,354,160912,6,0,P|25:281|156:166,1,268.250008186341,4|8,3:1|1:0,0:0:0:0:
404,17,161410,2,0,P|363:68|288:91,1,134.12500409317,2|4,0:0|0:3,0:0:0:0:
131,245,161741,2,0,P|154:217|201:188,1,67.0625020465852,0|0,3:0|0:0,0:0:0:0:
365,66,161907,1,8,1:0:0:0:
153,165,162073,1,2,0:0:0:0:
320,384,162238,2,0,P|255:294|93:330,1,268.250008186341,4|8,3:3|1:0,0:0:0:0:
19,43,162736,2,0,P|57:90|62:183,1,134.12500409317,4|8,0:3|1:0,0:0:0:0:
313,64,163067,1,8,1:0:0:0:
199,134,163233,1,8,1:0:0:0:
67,161,163399,1,4,3:3:0:0:
371,26,163564,6,0,B|325:150|425:134|453:223|393:309,1,268.250008186341,4|8,3:1|1:0,0:0:0:0:
184,359,164062,2,0,P|234:307|315:299,1,134.12500409317,2|4,0:0|0:3,0:0:0:0:
284,21,164393,2,0,P|304:92|280:166,1,134.12500409317,0|8,3:0|1:0,0:0:0:0:
12,213,164725,2,0,B|121:236|109:187|176:187|232:208,1,201.187506139755,2|0,0:0|0:0,0:0:0:0:
368,365,165056,2,0,P|322:307|270:241,1,134.12500409317,2|8,0:0|1:0,0:0:0:0:
109,66,165388,1,4,0:3:0:0:
284,259,165553,1,2,0:0:0:0:
42,129,165719,1,4,0:3:0:0:
173,10,165885,1,8,1:0:0:0:
173,10,166216,6,0,P|223:63|305:63,1,134.12500409317,4|2,3:1|0:0,0:0:0:0:
376,315,166548,2,0,P|378:250|338:179,1,134.12500409317,8|4,1:0|0:3,0:0:0:0:
173,10,166879,1,4,3:1:0:0:
395,182,167045,1,8,1:0:0:0:
125,25,167211,1,8,3:1:0:0:
378,230,167377,1,4,3:3:0:0:
55,34,167542,6,0,P|107:63|141:80,1,67.0625020465852,12|0,1:0|0:0,0:0:0:0:
279,243,167708,2,0,P|232:160|176:134,1,134.12500409317,4|0,3:3|0:0,0:0:0:0:
437,364,168040,1,14,1:0:0:0:
200,141,168371,1,4,3:0:0:0:
153,158,168454,1,12,3:0:0:0:
123,203,168537,1,4,3:0:0:0:
119,251,168620,1,12,3:0:0:0:
142,309,168703,1,4,3:0:0:0:
204,338,168785,1,12,3:0:0:0:
294,333,168868,5,12,1:1:0:0:
372,265,169034,2,0,P|411:278|487:260,1,106.375002028942,12|0,0:3|0:0,0:0:0:0:
200,141,169366,1,8,1:3:0:0:
133,83,169531,2,0,P|75:99|21:70,1,106.375002028942,4|0,0:3|0:0,0:0:0:0:
361,117,169863,1,8,1:3:0:0:
395,28,170029,2,0,P|442:47|499:24,1,106.375002028942,4|0,3:3|0:0,0:0:0:0:
265,201,170360,1,8,1:1:0:0:
33,82,170526,1,8,1:1:0:0:
48,350,170691,1,8,1:1:0:0:
139,52,170857,2,0,P|137:111|90:150,1,106.375002028942,4|2,1:3|0:0,0:0:0:0:
302,55,171189,1,2,0:0:0:0:
477,220,171354,1,4,0:3:0:0:
106,143,171520,5,12,1:1:0:0:
22,239,171686,2,0,P|74:222|125:246,1,106.375002028942,12|0,0:3|0:0,0:0:0:0:
430,317,172017,1,8,1:3:0:0:
477,220,172183,2,0,P|427:237|352:198,1,106.375002028942,4|0,0:3|0:0,0:0:0:0:
134,53,172515,1,8,1:3:0:0:
457,184,172680,1,4,3:3:0:0:
22,239,172846,5,2,0:0:0:0:
310,349,173012,1,8,1:1:0:0:
275,294,173095,1,0,1:0:0:0:
284,226,173178,1,8,1:1:0:0:
134,53,173343,1,8,1:1:0:0:
172,92,173426,1,0,1:0:0:0:
226,102,173509,1,4,1:3:0:0:
491,117,173675,1,8,1:0:0:0:
428,164,173758,1,8,1:0:0:0:
353,142,173841,1,8,1:0:0:0:
319,74,173924,1,0,1:0:0:0:
358,5,174006,1,8,3:1:0:0:
284,226,174172,6,0,P|227:243|204:293,1,106.375002028942,14|12,3:3|0:3,0:0:0:0:
93,104,174504,1,2,0:0:0:0:
205,281,174669,1,8,1:3:0:0:
176,85,174835,1,4,0:3:0:0:
284,226,175001,1,2,0:0:0:0:
226,152,175084,1,2,0:0:0:0:
176,85,175167,1,8,1:3:0:0:
362,221,175332,1,4,3:3:0:0:
428,32,175498,1,8,1:1:0:0:
329,298,175664,1,8,1:1:0:0:
428,32,175830,1,8,1:1:0:0:
362,221,175995,1,4,1:3:0:0:
129,16,176161,1,12,1:1:0:0:
294,65,176327,1,2,0:0:0:0:
26,97,176493,2,0,P|71:143|96:188,1,106.375002028942,4|0,0:3|0:0,0:0:0:0:
158,351,176824,6,0,L|126:229,1,106.375002028942,14|12,3:3|0:3,0:0:0:0:
350,372,177156,1,2,0:0:0:0:
131,248,177321,1,8,1:3:0:0:
368,178,177487,1,4,0:3:0:0:
165,177,177653,1,2,0:0:0:0:
368,178,177819,1,8,1:3:0:0:
144,64,177984,1,4,3:3:0:0:
441,37,178150,1,8,1:1:0:0:
158,145,178316,2,0,L|158:98,3,26.5937505072355,8|2|0|0,1:1|0:0|0:0|0:0,0:0:0:0:
106,197,178482,2,0,L|108:247,1,26.5937505072355,8|0,1:1|0:0,0:0:0:0:
37,269,178647,1,4,1:3:0:0:
288,315,178813,2,0,L|291:362,3,26.5937505072355,12|2|0|0,1:0|0:0|0:0|0:0,0:0:0:0:
344,267,178979,2,0,L|343:217,1,26.5937505072355,2|0,0:0|0:0,0:0:0:0:
424,171,179145,1,4,0:3:0:0:
155,109,179310,1,0,0:0:0:0:
448,353,179476,5,14,3:3:0:0:
325,128,179642,1,12,0:3:0:0:
89,176,179808,1,2,0:0:0:0:
448,353,179973,5,8,1:3:0:0:
325,128,180139,1,4,0:3:0:0:
89,176,180305,1,4,0:3:0:0:
327,96,180470,5,8,1:3:0:0:
61,176,180636,1,4,3:3:0:0:
350,345,180802,1,8,1:1:0:0:
109,59,180968,5,8,1:1:0:0:
193,340,181133,1,8,1:1:0:0:
198,37,181299,1,4,1:3:0:0:
30,332,181465,5,12,1:0:0:0:
272,166,181631,1,2,0:0:0:0:
0,206,181796,1,4,0:3:0:0:
198,37,181962,1,0,0:0:0:0:
367,178,182128,6,0,L|279:77,1,106.375002028942,14|12,3:3|0:3,0:0:0:0:
451,292,182459,2,0,L|445:165,1,106.375002028942,2|8,0:0|1:3,0:0:0:0:
190,105,182791,2,0,L|335:95,1,106.375002028942,4|2,0:3|0:0,0:0:0:0:
127,218,183122,1,8,1:3:0:0:
41,53,183288,1,4,3:3:0:0:
356,53,183454,1,8,1:1:0:0:
116,21,183620,5,8,1:1:0:0:
142,244,183785,1,8,1:1:0:0:
190,105,183951,1,4,0:3:0:0:
393,308,184117,1,12,1:0:0:0:
282,96,184283,1,8,1:0:0:0:
282,96,184366,1,0,3:0:0:0:
282,96,184448,1,8,1:1:0:0:
109,346,184614,1,4,3:0:0:0:
109,346,184697,1,4,3:0:0:0:
64,328,184780,6,0,P|67:274|36:207,1,115.625,12|2,1:0|0:0,0:0:0:0:
258,155,185111,1,8,1:0:0:0:
44,217,185277,1,2,0:0:0:0:
372,153,185443,1,4,0:3:0:0:
145,199,185609,1,0,3:0:0:0:
399,126,185774,1,8,1:0:0:0:
399,126,185857,1,2,0:0:0:0:
399,126,185940,1,2,0:0:0:0:
145,199,186106,6,0,L|121:76,1,115.625,4|2,0:3|0:0,0:0:0:0:
206,318,186437,1,8,1:0:0:0:
176,125,186603,1,4,0:3:0:0:
295,295,186769,1,2,0:0:0:0:
145,199,186935,1,4,0:3:0:0:
332,378,187100,2,0,L|295:239,1,115.625,8|0,1:0|1:0,0:0:0:0:
413,17,187432,6,0,P|406:94|433:158,1,115.625,4|2,3:1|0:0,0:0:0:0:
216,193,187763,1,8,1:0:0:0:
416,129,187929,1,2,0:0:0:0:
147,143,188095,1,4,0:3:0:0:
342,160,188261,1,0,3:0:0:0:
96,80,188426,1,8,1:0:0:0:
286,233,188592,1,2,0:0:0:0:
60,61,188758,5,4,3:3:0:0:
267,142,188924,1,4,0:3:0:0:
6,134,189089,1,8,1:0:0:0:
303,67,189255,1,4,0:3:0:0:
64,239,189421,1,8,1:0:0:0:
220,73,189587,1,8,1:0:0:0:
471,130,189752,1,8,1:0:0:0:
32,129,190084,6,0,P|55:182|64:239,1,115.625,4|2,3:1|0:0,0:0:0:0:
240,325,190415,1,8,1:0:0:0:
63,238,190581,1,2,0:0:0:0:
268,91,190747,1,4,0:3:0:0:
157,279,190912,1,0,3:0:0:0:
268,91,191078,1,8,1:0:0:0:
45,57,191244,1,2,0:0:0:0:
299,43,191410,5,4,3:0:0:0:
154,226,191575,1,2,0:0:0:0:
206,8,191741,1,8,1:0:0:0:
236,274,191907,1,4,0:3:0:0:
299,43,192073,1,2,0:0:0:0:
43,29,192238,1,4,0:3:0:0:
380,111,192404,2,0,L|267:53,1,115.625,8|2,1:0|0:0,0:0:0:0:
450,222,192736,5,4,3:1:0:0:
168,160,192901,1,2,0:0:0:0:
453,31,193067,1,8,1:0:0:0:
303,265,193233,1,2,0:0:0:0:
318,1,193399,1,4,0:3:0:0:
301,298,193564,1,8,1:0:0:0:
176,21,193730,1,4,3:3:0:0:
63,313,193896,1,12,0:1:0:0:
397,80,194062,1,2,1:2:0:0:
377,156,194145,1,2,1:2:0:0:
313,195,194227,1,8,1:0:0:0:
236,189,194310,1,0,1:0:0:0:
179,138,194393,1,8,1:0:0:0:
102,128,194476,1,0,1:0:0:0:
41,176,194559,1,4,0:3:0:0:
47,254,194642,1,0,1:0:0:0:
129,304,194725,6,0,P|188:283|229:151,1,173.4375,14|0,0:3|0:0,0:0:0:0:
377,0,195056,2,0,P|297:7|240:89,1,173.4375,14|0,3:3|0:0,0:0:0:0:
290,303,195388,2,0,P|248:267|244:166,1,138.75,4|0,1:0|0:0,0:0:0:0:
376,156,195719,5,8,1:0:0:0:
376,156,196051,2,0,L|488:158,1,92.5,4|0,0:3|3:0,0:0:0:0:
337,72,196382,1,8,1:0:0:0:
235,188,196548,2,0,P|249:137|146:100,1,185,2|2,0:0|0:0,0:0:0:0:
10,45,197045,1,8,1:0:0:0:
150,101,197211,1,4,0:3:0:0:
150,101,197294,1,0,0:0:0:0:
150,101,197377,2,0,L|166:225,1,92.5,2|4,0:0|0:3,0:0:0:0:
41,306,197708,2,0,L|50:198,1,92.5,8|2,1:0|0:0,0:0:0:0:
150,101,198040,6,0,P|104:109|42:96,1,92.5,4|2,3:1|0:0,0:0:0:0:
219,27,198371,2,0,P|265:21|324:28,1,92.5,8|2,1:0|0:0,0:0:0:0:
455,59,198703,1,4,0:3:0:0:
310,24,198868,1,0,3:0:0:0:
393,159,199034,2,0,L|378:44,1,92.5,8|2,1:0|0:0,0:0:0:0:
480,208,199366,1,4,3:3:0:0:
455,59,199531,1,4,0:3:0:0:
310,24,199697,1,8,1:0:0:0:
194,139,199863,2,0,L|323:134,1,92.5,4|8,0:3|1:0,0:0:0:0:
122,95,200194,1,8,1:0:0:0:
0,181,200360,1,8,1:0:0:0:
123,78,200526,1,4,3:3:0:0:
15,232,200691,5,4,3:1:0:0:
15,232,201023,2,0,L|28:343,1,92.5,8|2,1:0|0:0,0:0:0:0:
119,197,201354,1,4,0:3:0:0:
12,117,201520,1,0,3:0:0:0:
143,83,201686,1,8,1:0:0:0:
15,232,201852,2,0,P|111:263|117:345,1,185,2|2,0:0|0:0,0:0:0:0:
262,351,202349,1,8,1:0:0:0:
202,241,202515,1,4,0:3:0:0:
306,174,202680,2,0,P|296:221|309:274,1,92.5,2|4,0:0|0:3,0:0:0:0:
400,138,203012,2,0,P|401:89|381:22,1,92.5,8|2,1:0|0:0,0:0:0:0:
306,174,203343,6,0,L|191:179,1,92.5,4|2,3:1|0:0,0:0:0:0:
59,182,203675,1,8,1:0:0:0:
202,103,203841,1,2,0:0:0:0:
315,295,204006,1,4,0:3:0:0:
360,116,204172,2,0,L|463:114,1,92.5,8|4,1:0|3:3,0:0:0:0:
315,295,204504,1,12,0:1:0:0:
355,86,204669,1,2,0:0:0:0:
283,318,204835,1,8,1:0:0:0:
243,325,204918,1,0,1:0:0:0:
200,322,205001,1,8,1:0:0:0:
154,304,205084,1,0,1:0:0:0:
124,272,205167,1,4,0:3:0:0:
103,231,205250,1,0,1:0:0:0:
106,187,205332,1,14,0:3:0:0:
106,187,205664,1,14,3:3:0:0:
106,187,205995,6,0,P|122:103|31:18,1,185,4|8,1:0|1:0,0:0:0:0:
20,228,206493,2,0,P|37:276|94:313,1,92.5,2|4,0:0|0:3,0:0:0:0:
146,184,206824,1,0,3:0:0:0:
343,159,206990,2,0,P|306:138|255:135,1,92.5,8|2,1:0|0:0,0:0:0:0:
450,169,207321,2,0,L|447:50,1,92.5,4|2,3:0|0:0,0:0:0:0:
491,261,207653,1,8,1:0:0:0:
337,73,207819,2,0,P|354:130|273:218,1,185,4|4,0:3|0:3,0:0:0:0:
63,131,208316,2,0,B|102:136|102:136|144:119|144:119|209:131,1,138.75,8|0,1:0|0:0,0:0:0:0:
132,77,208647,5,4,3:1:0:0:
11,203,208813,2,0,P|26:261|51:311,1,92.5,2|8,0:0|1:0,0:0:0:0:
63,131,209145,1,2,0:0:0:0:
63,131,209227,1,0,0:0:0:0:
63,131,209310,1,4,0:3:0:0:
197,171,209476,1,0,3:0:0:0:
275,52,209642,1,8,1:0:0:0:
197,171,209808,2,0,B|144:163|111:178|111:178|82:208|50:220|0:209,1,185,2|0,0:0|0:0,0:0:0:0:
209,247,210305,2,0,L|331:255,1,92.5,8|4,1:0|0:3,0:0:0:0:
458,307,210636,1,8,1:0:0:0:
329,229,210802,1,8,1:0:0:0:
483,337,210968,1,8,1:0:0:0:
331,192,211133,1,4,3:3:0:0:
152,317,211299,5,4,3:1:0:0:
152,317,211631,2,0,P|96:310|35:327,1,92.5,8|2,1:0|0:0,0:0:0:0:
230,359,211962,1,4,0:3:0:0:
132,217,212128,2,0,P|190:227|250:206,1,92.5,0|8,3:0|1:0,0:0:0:0:
375,87,212459,2,0,L|371:168,1,46.25,2|0,0:0|0:0,0:0:0:0:
399,242,212625,1,4,3:0:0:0:
378,92,212791,1,2,0:0:0:0:
419,259,212957,2,0,L|395:362,1,92.5,8|4,1:0|0:3,0:0:0:0:
318,210,213288,1,2,0:0:0:0:
238,349,213454,1,4,0:3:0:0:
216,186,213620,2,0,B|200:128|226:99|226:99|176:116,1,138.75,8|0,1:0|0:0,0:0:0:0:
77,190,213951,6,0,P|146:183|224:186,1,138.75,4|0,3:1|0:0,0:0:0:0:
311,179,214283,1,8,1:0:0:0:
149,90,214448,1,2,0:0:0:0:
316,210,214614,1,4,0:3:0:0:
166,60,214780,1,8,1:0:0:0:
299,237,214946,2,0,P|259:256|233:258,1,46.25,4|0,3:3|0:0,0:0:0:0:
281,106,215111,2,0,P|351:83|411:101,1,138.75,12|0,0:1|0:0,0:0:0:0:
176,200,215443,2,0,B|187:138|165:59|165:59|120:105,1,185,10|4,1:0|0:3,0:0:0:0:
109,114,215857,2,0,L|68:121,2,23.125,0|0|14,1:0|0:0|0:3,0:0:0:0:
109,114,216437,1,2,0:0:0:0:
171,188,216603,6,0,L|193:272,1,74,2|0,0:0|0:0,0:0:0:0:
221,336,217100,1,2,0:0:0:0:
221,336,217183,1,0,0:0:0:0:
221,336,217266,2,0,P|271:321|285:317,1,55.5,2|0,0:3|0:0,0:0:0:0:
304,311,217598,1,2,0:0:0:0:
382,313,217763,2,0,P|419:264|486:161,1,185,2|2,0:3|0:0,0:0:0:0:
487,161,219089,5,2,0:0:0:0:
428,144,219255,2,0,P|375:146|350:145,1,74,6|0,0:0|0:0,0:0:0:0:
354,145,219918,2,0,L|275:149,1,74,2|2,0:3|0:0,0:0:0:0:
280,148,220415,2,0,B|201:145|187:206|148:213|106:202,1,185,2|2,0:3|0:0,0:0:0:0:
109,202,221741,5,2,0:0:0:0:
109,202,221907,2,0,P|84:232|57:262,1,74,6|0,0:0|0:0,0:0:0:0:
30,180,222404,1,2,0:0:0:0:
30,180,222570,2,0,L|56:146,1,37,2|2,0:0|0:0,0:0:0:0:
127,127,222901,1,2,0:0:0:0:
213,111,223067,2,0,P|281:138|399:108,1,185,2|2,0:0|0:0,0:0:0:0:
387,115,224559,6,0,L|380:40,1,55.4999983062745,0|0,3:0|0:0,0:0:0:0:
294,155,224890,2,0,L|296:228,1,55.4999983062745,0|0,3:0|0:0,0:0:0:0:
224,333,225222,2,0,L|221:234,1,74,0|0,3:0|0:0,0:0:0:0:
129,150,225553,2,0,L|129:244,1,74,4|0,3:0|0:0,0:0:0:0:
64,339,225885,1,8,3:1:0:0:
129,150,226051,1,8,3:1:0:0:
226,333,226216,1,8,3:1:0:0:
128,108,226382,1,8,3:1:0:0:
317,248,226548,1,8,3:1:0:0:
133,71,226714,1,8,0:1:0:0:
133,71,226796,1,8,0:1:0:0:
133,71,226879,2,0,L|133:232,1,138.75,0|0,3:0|0:0,3:0:0:0:
133,71,227211,5,2,0:0:0:0:
133,71,227708,2,0,L|235:71,1,92.5,2|0,0:0|0:0,0:0:0:0:
312,73,228205,1,2,0:0:0:0:
360,143,228371,1,2,0:0:0:0:
355,226,228537,2,0,P|348:273|326:313,1,92.5,2|0,0:0|0:0,0:0:0:0:
258,355,229034,1,2,0:0:0:0:
174,324,229200,2,0,P|136:314|78:323,1,92.5,2|2,0:0|0:0,0:0:0:0:
162,281,229697,1,0,0:0:0:0:
250,290,229863,2,0,P|301:318|346:315,1,92.5,2|0,0:0|0:0,0:0:0:0:
425,322,230360,2,0,P|424:274|431:223,1,92.5,2|2,0:0|0:0,0:0:0:0:
428,152,230857,1,2,0:0:0:0:
480,83,231023,1,2,0:0:0:0:
368,84,231189,2,0,B|292:77|305:120|264:125|224:115,1,138.75,2|2,0:0|0:0,0:0:0:0:
237,117,232017,1,2,0:0:0:0:
173,56,232183,1,2,0:0:0:0:
72,61,232349,6,0,P|29:91|24:95,1,46.25,2|0,0:0|0:0,0:0:0:0:
26,171,232680,1,2,0:0:0:0:
80,112,232846,1,2,0:0:0:0:
159,127,233012,1,2,0:0:0:0:
240,82,233178,2,0,P|286:92|302:98,1,46.25,2|0,0:0|0:0,0:0:0:0:
368,58,233509,2,0,P|402:64|432:58,1,46.25,2|0,0:0|0:0,0:0:0:0:
503,47,233841,1,2,0:0:0:0:
503,47,234172,2,0,P|502:86|506:108,1,46.25,2|0,0:0|0:0,0:0:0:0:
490,176,234504,1,2,0:0:0:0:
451,255,234669,2,0,L|458:311,1,46.25,2|0,0:0|0:0,0:0:0:0:
456,300,235167,6,0,P|417:303|396:300,1,46.25,2|0,0:0|0:0,0:0:0:0:
330,292,235498,1,2,0:0:0:0:
253,246,235664,2,0,P|218:245|192:251,1,46.25,2|0,0:0|0:0,0:0:0:0:
90,327,235995,1,2,0:0:0:0:
90,327,236327,2,0,P|125:265|40:208,1,185,2|2,0:0|0:0,0:0:0:0:
62,218,237321,1,2,0:0:0:0:
62,218,237404,1,2,0:0:0:0:
62,218,237487,1,2,0:0:0:0:
62,218,237819,6,0,P|90:194|107:134,1,92.5,2|0,0:0|0:0,0:0:0:0:
139,60,238316,2,0,P|168:57|202:61,1,46.25,2|0,0:0|0:0,0:0:0:0:
264,63,238647,2,0,P|291:70|329:67,1,46.25,2|0,0:0|0:0,0:0:0:0:
387,49,238979,1,2,0:0:0:0:
440,122,239145,2,0,P|451:150|444:224,1,92.5,2|0,0:0|0:0,0:0:0:0:
395,272,239642,1,2,0:0:0:0:
304,292,239808,2,0,P|264:291|237:296,1,46.25,2|2,0:0|0:0,0:0:0:0:
175,328,240139,2,0,L|125:329,1,46.25,2|0,0:0|0:0,0:0:0:0:
35,345,240470,6,0,P|22:312|22:241,1,92.5,2|0,0:0|0:0,0:0:0:0:
44,154,240968,1,2,0:0:0:0:
122,162,241133,1,2,0:0:0:0:
190,125,241299,1,2,0:0:0:0:
273,118,241465,1,2,0:0:0:0:
343,63,241631,1,2,0:0:0:0:
423,101,241796,2,0,L|424:59,5,23.125,2|2|2|2|2|0,0:0|0:0|0:0|0:0|0:0|0:0,0:0:0:0:
466,74,242294,1,2,0:0:0:0:
432,192,242625,1,2,0:0:0:0:
483,276,242791,1,2,0:0:0:0:
398,332,242957,6,0,P|348:350|266:318,1,138.75,2|0,0:0|0:0,0:0:0:0:
183,339,243620,2,0,P|145:337|127:341,1,46.25,2|0,0:0|0:0,0:0:0:0:
61,308,243951,1,2,0:0:0:0:
24,232,244117,1,2,0:0:0:0:
31,147,244283,1,2,0:0:0:0:
102,107,244448,2,0,L|149:104,1,46.25,2|2,0:0|0:0,0:0:0:0:
232,62,244780,2,0,L|287:52,1,46.25,2|2,0:0|0:0,0:0:0:0:
385,62,245111,1,2,0:0:0:0:
407,144,245277,1,2,0:0:0:0:
470,214,245443,1,2,0:0:0:0:
470,214,245774,5,2,0:0:0:0:
423,313,245940,1,2,0:0:0:0:
325,323,246106,2,0,L|263:303,1,46.25,2|2,0:0|0:0,0:0:0:0:
183,314,246437,2,0,P|137:315|125:319,1,46.25,2|0,0:0|0:0,0:0:0:0:
20,352,246769,1,2,0:0:0:0:
61,262,246935,1,2,0:0:0:0:
12,173,247100,2,0,L|-4:117,1,46.25,2|2,0:0|0:0,0:0:0:0:
225,15,247598,2,0,P|201:47|207:112,1,92.5,2|0,0:0|0:0,0:0:0:0:
295,203,248095,2,0,P|301:170|289:119,1,69.375,2|0,0:0|0:0,0:0:0:0:
437,230,248426,5,4,3:1:0:0:
273,19,248592,1,4,3:0:0:0:
273,19,248675,1,4,3:0:0:0:
273,19,248758,1,8,1:0:0:0:
339,285,248924,1,4,3:0:0:0:
339,285,249006,1,4,3:0:0:0:
339,285,249089,1,8,1:0:0:0:
142,104,249255,1,4,3:0:0:0:
142,104,249338,1,4,3:0:0:0:
142,104,249421,1,8,1:0:0:0:
416,33,249587,1,4,3:0:0:0:
416,33,249669,1,4,3:0:0:0:
416,33,249752,1,8,1:0:0:0:
140,229,249918,1,4,3:0:0:0:
140,229,250001,1,4,3:0:0:0:
140,229,250084,1,8,1:0:0:0:
499,114,250250,1,4,3:0:0:0:
499,114,250332,1,4,3:0:0:0:
499,114,250415,1,8,1:0:0:0:
204,319,250581,5,4,3:0:0:0:
221,298,250664,1,4,3:0:0:0:
188,344,250747,2,0,L|192:385,1,34.6875,10|0,1:3|0:0,0:0:0:0:
57,134,251078,2,0,P|131:235|19:293,1,286.750002187729,4|8,1:0|1:0,0:0:0:0:
247,46,251575,2,0,P|207:101|216:189,1,143.375001093864,2|4,0:0|0:3,0:0:0:0:
385,276,251907,1,0,3:0:0:0:
474,221,252073,2,0,B|405:242|405:242|329:213,1,143.375001093864,8|2,1:0|0:0,0:0:0:0:
27,290,252404,2,0,B|147:351|142:230|267:234|315:310,1,286.750002187729,4|8,3:0|1:0,0:0:0:0:
28,103,252901,1,4,0:3:0:0:
101,23,253067,2,0,P|78:92|105:173,1,143.375001093864,2|4,0:0|0:3,0:0:0:0:
296,287,253399,1,8,1:0:0:0:
95,158,253564,1,2,0:0:0:0:
325,16,253730,6,0,P|265:55|321:176,1,215.062501640797,4|0,3:1|0:0,0:0:0:0:
368,25,254062,1,8,1:0:0:0:
401,277,254227,2,0,P|328:244|248:258,1,143.375001093864,2|4,0:0|0:3,0:0:0:0:
22,320,254559,1,0,3:0:0:0:
63,96,254725,1,8,1:0:0:0:
251,195,254890,1,2,0:0:0:0:
243,138,255056,2,0,B|289:167|387:130|362:72|434:39|526:61,1,286.750002187729,4|8,3:3|1:0,0:0:0:0:
473,290,255553,1,4,0:3:0:0:
365,173,255719,1,8,1:0:0:0:
501,56,255885,1,8,1:0:0:0:
465,366,256051,1,8,1:0:0:0:
501,56,256216,1,4,3:3:0:0:
248,111,256382,6,0,P|281:155|375:169,1,143.375001093864,4|2,3:1|0:0,0:0:0:0:
129,207,256714,1,8,1:0:0:0:
0,28,256879,2,0,P|74:65|96:125,1,143.375001093864,2|4,0:0|0:3,0:0:0:0:
95,118,257377,2,0,B|116:185|73:195|97:258|133:288,1,143.375001093864,8|2,1:0|0:0,0:0:0:0:
368,353,257708,2,0,P|250:280|334:178,1,286.750002187729,4|8,3:0|1:0,0:0:0:0:
150,68,258205,1,4,0:3:0:0:
19,153,258371,2,0,L|128:154,1,71.6875005469322,4|4,3:0|3:0,0:0:0:0:
362,96,258537,1,4,0:3:0:0:
326,129,258620,1,4,3:0:0:0:
314,181,258703,1,8,1:0:0:0:
335,228,258785,1,4,3:0:0:0:
382,255,258868,1,8,1:0:0:0:
434,244,258951,1,4,1:3:0:0:
502,242,259034,5,4,3:1:0:0:
423,246,259117,1,8,1:0:0:0:
354,278,259200,1,8,0:1:0:0:
282,308,259283,1,8,0:1:0:0:
210,276,259366,1,8,3:1:0:0:
191,199,259448,1,8,0:1:0:0:
256,153,259531,1,8,0:1:0:0:
324,195,259614,1,8,0:1:0:0:
314,271,259697,1,4,0:3:0:0:
237,284,259780,1,8,0:1:0:0:
167,244,259863,1,8,1:0:0:0:
89,229,259946,1,8,0:1:0:0:
12,250,260029,1,4,3:3:0:0:
295,99,260194,1,12,0:1:0:0:
110,316,260360,1,6,0:3:0:0:
129,72,260526,5,8,1:0:0:0:
186,62,260609,1,0,1:0:0:0:
241,74,260691,1,8,1:0:0:0:
295,99,260774,1,0,1:0:0:0:
336,143,260857,1,4,0:3:0:0:
360,194,260940,1,0,1:0:0:0:
376,248,261023,2,0,P|447:281|492:158,1,215.062501640797,14|0,0:3|0:0,0:0:0:0:
291,230,261354,6,0,P|286:260|288:268,1,34.6875,14|0,3:3|0:0,0:0:0:0:
198,2,261686,2,0,B|241:112|132:139|142:232|201:315,1,286.750002187729,4|8,1:0|1:0,0:0:0:0:
391,43,262183,2,0,P|330:41|274:122,1,143.375001093864,2|4,0:0|0:3,0:0:0:0:
386,268,262515,1,0,3:0:0:0:
488,353,262680,2,0,B|456:297|456:297|494:207,1,143.375001093864,8|2,1:0|0:0,0:0:0:0:
165,337,263012,2,0,P|246:272|402:351,1,286.750002187729,4|8,3:0|1:0,0:0:0:0:
75,172,263509,1,4,0:3:0:0:
192,200,263675,2,0,P|142:248|41:241,1,143.375001093864,2|4,0:0|0:3,0:0:0:0:
235,72,264006,2,0,P|292:68|386:121,1,143.375001093864,8|2,1:0|0:0,0:0:0:0:
41,61,264338,6,0,P|-6:143|126:255,1,286.750002187729,4|8,3:1|1:0,0:0:0:0:
410,307,264835,2,0,P|331:285|239:302,1,143.375001093864,2|4,0:0|0:3,0:0:0:0:
43,320,265167,2,0,P|83:318|146:285,1,71.6875005469322,0|0,3:0|0:0,0:0:0:0:
324,259,265332,1,8,1:0:0:0:
55,287,265498,1,2,0:0:0:0:
39,1,265664,2,0,B|82:139|-29:121|-13:232|35:289,1,286.750002187729,4|8,3:3|1:0,0:0:0:0:
307,114,266161,2,0,P|240:102|161:135,1,143.375001093864,4|8,0:3|1:0,0:0:0:0:
454,166,266493,1,8,1:0:0:0:
288,82,266658,1,8,1:0:0:0:
119,146,266824,1,4,3:3:0:0:
501,161,266990,6,0,P|395:234|483:370,1,286.750002187729,4|8,3:1|1:0,0:0:0:0:
132,356,267487,2,0,P|205:331|284:349,1,143.375001093864,2|4,0:0|0:3,0:0:0:0:
20,196,267819,2,0,P|32:255|47:279,1,71.6875005469322,0|0,3:0|0:0,0:0:0:0:
171,82,267984,2,0,P|164:48|136:-14,1,71.6875005469322,8|0,1:0|0:0,0:0:0:0:
292,178,268150,2,0,P|195:155|109:225,1,215.062501640797,2|0,0:0|0:0,0:0:0:0:
320,208,268482,1,2,0:0:0:0:
151,13,268647,1,8,1:0:0:0:
77,295,268813,1,4,0:3:0:0:
281,54,268979,1,2,0:0:0:0:
77,295,269145,1,4,0:3:0:0:
77,295,269227,1,0,0:0:0:0:
77,295,269310,1,8,1:0:0:0:
77,295,269642,6,0,P|70:250|77:212,1,71.6875005469322,4|0,3:1|0:0,0:0:0:0:
221,69,269808,2,0,P|232:124|231:167,1,71.6875005469322,2|0,0:0|0:0,0:0:0:0:
452,220,269973,2,0,B|352:178|350:262|273:258|243:236,1,215.062501640797,8|0,1:0|0:0,0:0:0:0:
80,83,270305,1,4,3:1:0:0:
278,367,270470,2,0,B|235:306|235:306|249:229,1,143.375001093864,8|8,1:0|3:1,0:0:0:0:
469,122,270802,1,4,3:3:0:0:
118,155,270968,6,0,P|153:133|168:71,1,71.6875005469322,12|0,1:0|0:0,0:0:0:0:
157,342,271133,2,0,P|131:252|8:232,1,215.062501640797,4|0,3:3|0:0,0:0:0:0:
336,16,271465,2,0,P|279:36|416:173,1,358.437502734661,14|0,1:0|0:0,0:0:0:0:
62,126,271962,2,0,P|136:120|87:5,1,215.062501640797,12|0,1:0|0:0,0:0:0:0:
168,230,272294,2,0,B|198:251|224:250|258:238|275:207|275:207|301:179|335:170|371:178|402:207,1,249.750000952721,12|8,1:1|1:0,0:0:0:0:
151,326,272791,5,2,0:0:0:0:
151,326,272874,1,2,0:0:0:0:
151,326,272957,2,0,P|101:308|64:227,1,124.87500047636,4|0,0:3|3:0,0:0:0:0:
141,49,273288,2,0,P|156:79|158:133,1,62.4375002381802,8|0,1:0|0:0,0:0:0:0:
65,248,273454,2,0,P|60:216|77:161,1,62.4375002381802,2|0,0:0|0:0,0:0:0:0:
311,182,273620,2,0,P|249:169|190:187,1,124.87500047636,4|2,3:0|0:0,0:0:0:0:
354,120,273951,2,0,P|351:96|364:37,1,62.4375002381802,8|0,1:0|0:0,0:0:0:0:
464,219,274117,2,0,P|469:263|459:307,1,62.4375002381802,4|0,0:3|0:0,0:0:0:0:
311,182,274283,2,0,B|291:204|301:244|301:244|270:213|213:215|179:250,1,187.31250071454,2|0,0:0|0:0,0:0:0:0:
33,328,274614,2,0,P|98:344|162:312,1,124.87500047636,8|2,1:0|0:0,0:0:0:0:
6,116,274946,6,0,L|19:246,1,124.87500047636,4|2,3:1|0:0,0:0:0:0:
114,55,275277,2,0,P|95:121|122:171,1,124.87500047636,8|2,1:0|0:0,0:0:0:0:
310,64,275609,1,4,0:3:0:0:
153,179,275774,1,0,3:0:0:0:
376,145,275940,2,0,B|341:138|311:153|311:153|283:137|237:147,1,124.87500047636,8|2,1:0|0:0,0:0:0:0:
394,255,276272,1,4,3:3:0:0:
231,166,276437,2,0,P|218:227|251:310,1,124.87500047636,4|8,0:3|1:0,0:0:0:0:
376,145,276769,2,0,P|379:110|367:55,1,62.4375002381802,4|0,0:3|0:0,0:0:0:0:
214,132,276935,1,8,1:0:0:0:
420,57,277100,1,8,1:0:0:0:
289,220,277266,2,0,P|237:209|154:225,1,124.87500047636,8|4,1:0|3:3,0:0:0:0:
34,117,277598,6,0,P|31:157|44:196,1,62.4375002381802,6|0,3:1|0:0,0:0:0:0:
172,339,277763,2,0,P|184:286|148:195,1,124.87500047636,2|8,0:0|1:0,0:0:0:0:
155,53,278095,1,2,0:0:0:0:
162,65,278178,1,2,0:0:0:0:
183,92,278261,2,0,P|215:107|273:117,1,62.4375002381802,4|0,0:3|0:0,0:0:0:0:
384,72,278426,1,0,3:0:0:0:
399,77,278509,1,2,0:0:0:0:
423,100,278592,2,0,P|444:145|438:225,1,124.87500047636,8|2,1:0|0:0,0:0:0:0:
231,307,278924,2,0,P|306:259|413:301,1,187.31250071454,4|0,3:0|0:0,0:0:0:0:
234,353,279255,1,8,1:0:0:0:
141,171,279421,2,0,P|147:212|135:249,1,62.4375002381802,4|0,0:3|0:0,0:0:0:0:
16,115,279587,2,0,P|7:65|62:-16,1,124.87500047636,2|4,0:0|0:3,0:0:0:0:
224,100,279918,1,8,1:0:0:0:
406,59,280084,6,0,B|327:31|316:93|263:104|200:64,1,187.31250071454,2|0,0:0|0:0,0:0:0:0:
348,148,280415,2,0,P|378:151|431:143,1,62.4375002381802,2|0,0:0|0:0,0:0:0:0:
248,3,280581,2,0,P|218:-2|166:16,1,62.4375002381802,8|0,1:0|0:0,0:0:0:0:
210,232,280747,1,2,0:0:0:0:
210,232,281078,6,0,P|194:178|218:93,1,124.87500047636,8|4,1:0|3:3,0:0:0:0:
406,59,281410,1,12,0:1:0:0:
210,232,281575,1,2,0:1:0:0:
442,46,281741,1,8,1:0:0:0:
409,80,281824,1,0,1:0:0:0:
402,125,281907,1,8,1:0:0:0:
409,169,281990,1,0,1:0:0:0:
427,213,282073,1,4,0:3:0:0:
465,243,282156,1,0,1:0:0:0:
512,259,282238,2,0,P|412:265|354:363,1,187.31250071454,14|0,0:3|0:0,0:0:0:0:
203,364,282570,2,0,P|280:340|200:327,1,187.31250071454,14|0,3:3|0:0,0:0:0:0:
120,215,282901,6,0,P|108:149|124:83,1,124.87500047636,6|0,1:0|0:0,0:0:0:0:
236,13,283233,2,0,P|193:10|144:21,1,62.4375002381802,8|0,1:0|0:0,0:0:0:0:
0,95,283399,2,0,P|48:109|156:64,1,124.87500047636,2|4,0:0|0:3,0:0:0:0:
348,2,283730,2,0,B|367:68|320:114|320:114|371:132|386:197|341:238,1,249.750000952721,4|2,3:0|0:0,0:0:0:0:
417,290,284145,1,0,0:0:0:0:
256,303,284227,2,0,P|270:234|252:169,1,124.87500047636,4|2,3:0|0:0,0:0:0:0:
90,295,284559,1,8,1:0:0:0:
109,89,284725,2,0,P|92:145|114:219,1,124.87500047636,4|2,0:3|0:0,0:0:0:0:
286,56,285056,1,4,0:3:0:0:
69,65,285222,1,8,1:0:0:0:
59,298,285388,1,2,0:0:0:0:
298,212,285553,6,0,P|240:200|158:230,1,124.87500047636,6|2,3:1|0:0,0:0:0:0:
280,100,285885,1,8,1:0:0:0:
259,293,286051,1,2,0:0:0:0:
222,43,286216,1,4,0:3:0:0:
456,41,286382,1,0,3:0:0:0:
198,124,286548,1,8,1:0:0:0:
501,25,286714,2,0,P|468:91|499:209,1,187.31250071454,2|2,0:0|0:0,0:0:0:0:
480,346,287045,1,4,0:3:0:0:
469,323,287128,1,2,0:0:0:0:
436,301,287211,2,0,P|378:287|344:288,1,62.4375002381802,8|0,1:0|0:0,0:0:0:0:
216,332,287377,2,0,P|248:345|304:342,1,62.4375002381802,4|0,0:3|0:0,0:0:0:0:
71,365,287542,1,8,1:0:0:0:
282,256,287708,1,8,1:0:0:0:
62,209,287874,1,8,1:0:0:0:
283,91,288040,1,4,3:3:0:0:
45,49,288205,6,0,L|42:200,1,124.87500047636,6|2,3:1|0:0,0:0:0:0:
62,209,288454,1,0,0:0:0:0:
181,145,288537,2,0,L|169:60,1,62.4375002381802,8|0,1:0|0:0,0:0:0:0:
307,181,288703,2,0,L|301:261,1,62.4375002381802,2|0,0:0|0:0,0:0:0:0:
404,97,288868,2,0,P|350:108|258:74,1,124.87500047636,4|0,0:3|3:0,0:0:0:0:
472,167,289200,1,8,1:0:0:0:
392,335,289366,2,0,P|387:295|401:259,1,62.4375002381802,2|0,0:0|0:0,0:0:0:0:
482,71,289531,2,0,P|500:134|487:203,1,124.87500047636,4|2,3:0|0:0,0:0:0:0:
283,91,289863,1,8,1:0:0:0:
107,193,290029,2,0,P|146:198|201:190,1,62.4375002381802,4|0,0:3|0:0,0:0:0:0:
28,109,290194,2,0,B|35:161|6:185|9:217|20:247,1,124.87500047636,2|4,0:0|0:3,0:0:0:0:
25,254,290443,1,0,0:0:0:0:
43,265,290526,1,8,1:0:0:0:
204,343,290691,2,0,P|198:294|188:266,1,62.4375002381802,2|0,0:0|0:0,0:0:0:0:
219,134,290857,6,0,P|281:158|340:152,1,124.87500047636,6|2,3:1|0:0,0:0:0:0:
176,54,291189,2,0,P|129:53|96:60,1,62.4375002381802,8|0,1:0|0:0,0:0:0:0:
262,172,291354,2,0,P|297:178|354:165,1,62.4375002381802,4|0,0:3|0:0,0:0:0:0:
499,140,291520,1,4,3:1:0:0:
262,172,291686,1,8,1:0:0:0:
138,355,291852,2,0,P|137:309|152:267,1,62.4375002381802,8|0,3:1|0:0,0:0:0:0:
270,89,292017,2,0,P|275:129|271:169,1,62.4375002381802,4|0,3:3|0:0,0:0:0:0:
76,65,292183,5,12,1:0:0:0:
391,154,292349,1,4,3:3:0:0:
13,352,292680,2,0,L|166:305,1,124.87500047636,14|0,1:0|0:0,0:0:0:0:
450,329,293012,1,4,3:0:0:0:
378,307,293095,1,12,3:0:0:0:
337,246,293178,1,4,3:0:0:0:
338,171,293261,1,12,3:0:0:0:
381,112,293343,1,4,3:0:0:0:
459,90,293509,6,0,P|447:65|435:48,1,37,12|2,1:1|0:0,0:0:0:0:
375,17,293841,1,2,0:0:0:0:
300,20,294006,2,0,P|277:21|254:25,1,37,2|2,0:0|0:0,0:0:0:0:
178,52,294338,1,2,0:0:0:0:
123,117,294504,1,2,0:0:0:0:
92,202,294669,1,0,0:0:0:0:
126,312,294835,6,0,P|136:288|140:248,1,55.5,2|0,0:1|0:0,0:0:0:0:
198,188,295167,2,0,L|229:184,1,18.5,2|0,0:0|0:0,0:0:0:0:
339,120,295332,2,0,P|336:184|412:230,1,148,2|2,0:0|0:0,0:0:0:0:
478,299,296161,6,0,P|451:298|444:299,1,18.5,4|0,0:0|0:0,0:0:0:0:
412,315,296327,1,2,0:0:0:0:
328,318,296493,1,2,0:0:0:0:
235,325,296658,2,0,P|215:329|190:334,1,37,2|0,0:0|0:0,0:0:0:0:
149,329,296990,1,2,0:0:0:0:
118,249,297156,1,2,0:0:0:0:
213,213,297321,2,0,P|245:219|265:212,1,37,2|0,0:0|0:0,0:0:0:0:
279,179,297653,1,2,0:0:0:0:
269,91,297819,1,2,0:0:0:0:
191,39,297984,1,2,0:0:0:0:
293,62,298150,1,2,0:0:0:0:
377,53,298316,1,2,0:0:0:0:
467,30,298482,1,2,0:0:0:0:
383,78,298647,1,2,0:0:0:0:
211,98,298813,5,2,0:0:0:0:
206,93,298854,6,0,P|208:143|211:174,1,74,2|0,0:0|0:0,0:0:0:0:
215,191,299227,6,0,L|217:200,5,9.25,0|2|2|2|2|2,0:0|0:0|0:0|0:0|0:0|0:0,0:0:0:0:
242,239,299476,6,0,L|261:263,13,23.125,2|2|2|2|2|2|2|2|2|2|2|2|2|2,0:0|0:0|0:0|0:0|0:0|0:0|0:0|0:0|0:0|0:0|0:0|0:0|0:0|0:0,0:0:0:0:
328,268,300056,6,2,L|341:305,114,23.125
