osu file format v14

[General]
AudioFilename: audio.mp3
AudioLeadIn: 0
PreviewTime: 126555
Countdown: 0
SampleSet: Soft
StackLeniency: 0.7
Mode: 0
LetterboxInBreaks: 0
EpilepsyWarning: 1
WidescreenStoryboard: 1

[Editor]
DistanceSpacing: 1.2
BeatDivisor: 4
GridSize: 4
TimelineZoom: 1

[Metadata]
Title:Kaze no Uta
TitleUnicode:風の唄
Artist:Meramipop
ArtistUnicode:めらみぽっぷ
Creator:Telzzxs
Version:Normal
Source:東方風神録 ~ Mountain of Faith
Tags:秘封活動記録-祝 Kochiya Sanae meramipop 凋叶棕RD-Sounds 博麗神社秋季例大祭(第4回) 京都幻想劇団 touhou
BeatmapID:1590252
BeatmapSetID:755523

[Difficulty]
HPDrainRate:4
CircleSize:3.5
OverallDifficulty:5
ApproachRate:5.5
SliderMultiplier:1.4
SliderTickRate:1

[Events]
//Background and Video events
0,0,"bg.jpg",0,0
//Break Periods
2,49914,60924
2,84142,87855
//Storyboard Layer 0 (Background)
//Storyboard Layer 1 (Fail)
//Storyboard Layer 2 (Pass)
//Storyboard Layer 3 (Foreground)
//Storyboard Sound Samples

[TimingPoints]
215,750,4,2,1,40,1,0
51215,681.818181818182,4,2,1,40,1,0
62124,-100,4,2,2,40,0,0
89055,-100,4,2,1,40,0,0
113601,-100,4,2,3,60,0,0
126555,-100,4,2,1,40,0,1
148715,-100,4,2,3,60,0,1
150760,-100,4,2,1,40,0,0
155918,689.655172413793,4,2,1,40,1,0
156262,681.818181818182,4,2,1,40,1,0
157625,681.818181818182,4,2,1,40,1,0
158221,681.818181818182,4,2,1,40,1,0
158392,681.818181818182,4,2,1,40,1,0
159073,750,4,2,1,40,1,0
159823,779.220779220779,4,2,1,40,1,0
160602,1463.41463414634,4,2,1,40,1,0
161669,1547.58834150116,4,2,1,40,1,0
162085,1690.14084507042,4,2,1,40,1,0
162507,1500,4,2,1,40,1,0
164007,1675.97765363128,4,2,1,40,1,0
164425,1714.28571428571,4,2,1,40,1,0
164853,1935.48387096774,4,2,1,40,1,0
165336,1166.18075801749,4,2,1,40,1,0

[Colours]
Combo1 : 200,0,0
Combo2 : 0,200,0
Combo3 : 47,47,255
Combo4 : 200,0,200
Combo5 : 255,255,0

[HitObjects]
60,128,2465,6,0,P|128:112|204:156,1,140
356,108,3965,2,0,P|384:180|360:260,1,140
216,176,5465,1,0,0:0:0:0:
68,100,6215,6,0,B|68:180|68:180|120:224,1,140
260,132,7715,2,0,B|312:192|312:192|320:260,1,140
152,280,9215,2,0,P|124:248|112:204,3,70
152,148,10715,2,0,P|144:100|128:76,3,70
68,136,12215,5,0,0:0:0:0:
156,280,12965,1,0,0:0:0:0:
204,120,13715,2,0,P|224:196|276:244,1,140
320,80,15215,5,8,0:0:0:0:
448,188,15965,2,0,P|416:216|408:264,1,70
328,220,16715,2,8,P|320:264|328:292,1,70
252,328,17465,1,0,0:0:0:0:
92,272,18215,6,0,P|136:260|156:224,1,70
116,168,18965,2,0,P|136:136|132:96,1,70
52,108,19715,1,8,0:0:0:0:
216,76,20465,1,0,0:0:0:0:
368,148,21215,6,0,P|360:188|368:232,1,70
320,288,21965,2,0,P|272:292|232:320,1,70
176,272,22715,1,8,0:0:0:0:
88,128,23465,2,0,B|116:100|116:100|152:96,1,70
232,96,24215,6,0,P|216:140|220:176,1,70
300,172,24965,2,0,P|308:216|288:264,1,70
228,280,25715,1,8,0:0:0:0:
72,220,26465,1,0,0:0:0:0:
176,88,27215,5,8,0:0:0:0:
312,184,27965,1,0,0:0:0:0:
160,252,28715,1,8,0:0:0:0:
112,92,29465,2,0,P|164:92|204:76,1,70
264,108,30215,5,8,0:0:0:0:
404,200,30965,2,0,P|376:224|344:276,1,70
276,272,31715,2,0,P|232:260|208:232,1,70
164,176,32465,1,0,0:0:0:0:
312,100,33215,5,0,0:0:0:0:
172,196,33965,1,0,0:0:0:0:
316,280,34715,1,0,0:0:0:0:
444,172,35465,2,0,P|408:140|408:104,1,70
320,108,36215,6,8,L|300:184,1,70
220,196,36965,2,8,L|244:280,1,70
308,312,37715,1,0,0:0:0:0:
140,320,38465,1,0,0:0:0:0:
44,180,39215,5,8,0:0:0:0:
196,108,39965,1,0,0:0:0:0:
184,276,40715,2,0,B|220:296|220:296|264:292,2,70
296,152,42215,5,8,0:0:0:0:
140,88,42965,1,0,0:0:0:0:
104,252,43715,2,0,B|128:288|128:288|124:324,2,70
92,84,45215,5,8,0:0:0:0:
216,196,45965,1,0,0:0:0:0:
368,124,46715,2,0,B|372:180|372:180|412:272,1,140
368,332,47840,2,0,L|320:332,1,35
248,324,48402,2,0,B|196:324|188:268|292:336|272:116,1,245
140,84,62124,6,8,P|200:124|264:120,1,105
124,308,63487,1,0,0:0:0:0:
208,164,64169,1,0,0:0:0:0:
372,204,64851,6,8,P|304:244|292:312,1,140
156,200,66215,2,0,P|224:176|256:116,1,140
88,132,67578,5,8,0:0:0:0:
60,256,68090,1,8,0:0:0:0:
236,148,68942,2,0,P|228:208|272:284,1,140
408,268,70305,5,8,0:0:0:0:
356,152,70817,1,8,0:0:0:0:
152,200,71669,2,0,B|200:176|256:216|292:208,1,140
164,96,73033,5,8,0:0:0:0:
288,120,73544,1,8,0:0:0:0:
424,280,74396,2,0,P|344:248|300:192,1,140
144,180,75760,1,8,0:0:0:0:
204,292,76271,1,8,0:0:0:0:
192,84,77124,2,0,P|244:84|316:136,1,140
424,260,78487,5,8,0:0:0:0:
320,188,78999,1,8,0:0:0:0:
152,312,79851,2,0,P|132:236|152:160,1,140
292,100,81215,1,8,0:0:0:0:
392,180,81726,1,8,0:0:0:0:
196,256,82578,2,0,P|288:240|336:272,1,140
172,192,83942,1,4,0:0:0:0:
412,224,89055,5,0,0:0:0:0:
360,292,89396,2,8,P|288:272|200:300,1,140
116,156,90760,2,0,P|136:196|176:224,1,70
208,148,91442,2,0,P|264:112|288:116,1,70
348,128,92124,2,8,P|328:196|328:272,1,140
160,292,93487,2,0,P|188:224|196:152,1,140
256,100,94510,5,0,0:0:0:0:
340,84,94851,2,0,P|384:120|396:156,1,70
328,188,95533,2,0,P|304:224|308:252,1,70
248,308,96215,1,0,0:0:0:0:
176,264,96555,2,0,L|176:224,2,35
96,232,97237,1,0,0:0:0:0:
112,148,97578,6,0,P|128:112|160:92,1,70
236,96,98260,2,0,P|276:128|292:156,1,70
372,140,98942,1,4,0:0:0:0:
168,288,99965,5,0,0:0:0:0:
128,280,100135,1,0,0:0:0:0:
100,248,100305,2,8,P|128:180|192:140,1,140
344,96,101669,1,0,0:0:0:0:
412,148,102010,2,0,P|364:176|344:208,1,70
408,252,102692,1,0,0:0:0:0:
340,304,103033,5,8,0:0:0:0:
172,288,103715,2,0,P|172:224|220:152,1,140
468,152,105419,5,0,0:0:0:0:
432,172,105590,1,0,0:0:0:0:
392,180,105760,2,8,P|328:136|248:128,1,140
100,100,107124,2,0,P|104:136|136:180,1,70
124,248,107805,1,0,0:0:0:0:
184,308,108146,1,0,0:0:0:0:
264,284,108487,6,8,P|296:256|340:248,1,70
400,212,109169,2,8,P|396:160|380:136,1,70
320,96,109851,1,0,0:0:0:0:
236,88,110192,2,0,B|200:108|200:144|200:144|216:208|212:296,1,210
384,92,113601,6,0,P|396:112|388:136,1,35
392,164,113942,1,8,0:0:0:0:
228,128,114624,2,0,P|232:176|208:212,1,70
248,276,115305,2,8,P|284:312|308:308,1,70
376,280,115987,2,8,P|384:228|408:196,1,70
364,136,116669,6,8,L|212:136,1,140
176,204,117692,1,0,0:0:0:0:
128,272,118033,2,8,B|152:304|152:304|200:304,1,70
264,288,118715,2,0,P|308:260|332:216,1,70
368,180,119396,6,8,L|316:100,1,70
252,92,120078,1,0,0:0:0:0:
184,144,120419,2,8,P|208:176|256:180,1,70
300,236,121101,1,0,0:0:0:0:
228,280,121442,6,8,P|184:276|140:284,2,70
312,292,122465,1,0,0:0:0:0:
380,244,122805,1,8,0:0:0:0:
400,164,123146,1,0,0:0:0:0:
344,104,123487,2,8,P|268:88|184:112,1,140
52,160,124851,2,2,P|144:224|320:236,1,280
380,196,126555,6,4,P|376:164|340:124,2,70,0|4|0,0:0|0:0|0:0,0:0:0:0:
296,196,127578,1,4,0:0:0:0:
156,104,128260,2,0,P|144:144|148:184,1,70
212,220,128942,2,8,P|220:268|204:304,1,70
296,304,129624,5,8,0:0:0:0:
376,280,129965,1,0,0:0:0:0:
416,208,130305,2,8,P|416:172|396:136,1,70
324,108,130987,2,0,P|316:144|352:188,1,70
252,204,131669,1,4,0:0:0:0:
132,88,132351,6,8,L|84:172,1,70
120,232,133033,1,8,0:0:0:0:
280,180,133715,1,0,0:0:0:0:
428,256,134396,2,8,L|340:284,1,70
280,300,135078,2,8,L|184:328,1,70
152,264,135760,6,8,P|156:216|144:180,1,70
200,124,136442,2,8,P|240:96|260:60,1,70
328,120,137124,1,0,0:0:0:0:
392,176,137465,1,0,0:0:0:0:
420,256,137805,2,8,P|400:296|364:308,1,70
304,268,138487,5,4,0:0:0:0:
172,164,139169,2,0,P|232:108|304:112,1,140
448,156,140533,1,8,0:0:0:0:
284,184,141215,2,0,L|308:260,1,70
232,292,141896,2,0,L|148:320,1,70
120,244,142578,1,8,0:0:0:0:
76,172,142919,1,8,0:0:0:0:
120,100,143260,6,0,P|172:96|208:116,1,70
248,160,143942,2,0,P|296:168|340:160,1,70
392,132,144624,1,8,0:0:0:0:
332,288,145305,1,8,0:0:0:0:
252,316,145646,1,8,0:0:0:0:
184,264,145987,6,0,P|184:216|164:180,1,70
168,112,146669,1,4,0:0:0:0:
328,160,147351,1,0,0:0:0:0:
216,284,148033,1,0,0:0:0:0:
284,336,148374,1,0,0:0:0:0:
368,320,148715,2,2,B|400:244|332:104|360:36,1,280
196,88,150760,6,0,L|108:104,1,70
112,184,151442,2,0,L|196:192,1,70
264,208,152124,2,0,L|292:288,1,70
368,292,152805,2,0,L|404:220,1,70
392,144,153487,1,8,0:0:0:0:
232,96,154169,1,8,0:0:0:0:
72,144,154851,5,8,0:0:0:0:
172,280,155533,2,0,P|192:232|220:200,1,70
260,140,156262,1,8,0:0:0:0:
424,176,156943,1,0,0:0:0:0:
328,312,157625,5,8,0:0:0:0:
152,248,158391,1,0,0:0:0:0:
196,100,159073,1,8,0:0:0:0:
356,124,159823,1,0,0:0:0:0:
336,212,160602,6,0,B|296:252|276:296,1,70
216,256,162055,1,8,0:0:0:0:
148,196,162882,1,0,0:0:0:0:
148,112,163632,1,8,0:0:0:0:
216,72,164425,1,0,0:0:0:0:
256,192,165336,12,8,170000,0:0:0:0:
