osu file format v14

[General]
AudioFilename: audio.mp3
AudioLeadIn: 0
PreviewTime: 126555
Countdown: 0
SampleSet: Soft
StackLeniency: 0.7
Mode: 0
LetterboxInBreaks: 0
EpilepsyWarning: 1
WidescreenStoryboard: 1

[Editor]
DistanceSpacing: 0.8
BeatDivisor: 2
GridSize: 4
TimelineZoom: 1

[Metadata]
Title:Kaze no Uta
TitleUnicode:風の唄
Artist:Meramipop
ArtistUnicode:めらみぽっぷ
Creator:Telzzxs
Version:Easy
Source:東方風神録 ~ Mountain of Faith
Tags:秘封活動記録-祝 Kochiya Sanae meramipop 凋叶棕RD-Sounds 博麗神社秋季例大祭(第4回) 京都幻想劇団 touhou
BeatmapID:1590253
BeatmapSetID:755523

[Difficulty]
HPDrainRate:3
CircleSize:3
OverallDifficulty:3
ApproachRate:4
SliderMultiplier:1.2
SliderTickRate:1

[Events]
//Background and Video events
0,0,"bg.jpg",0,0
//Break Periods
2,49915,60804
2,84142,88076
//Storyboard Layer 0 (Background)
//Storyboard Layer 1 (Fail)
//Storyboard Layer 2 (Pass)
//Storyboard Layer 3 (Foreground)
//Storyboard Sound Samples

[TimingPoints]
215,750,4,2,1,40,1,0
51215,681.818181818182,4,2,1,40,1,0
127578,-100,4,2,1,40,0,1
150760,-100,4,2,1,40,0,0
155918,689.655172413793,4,2,1,40,1,0
156262,681.818181818182,4,2,1,40,1,0
157625,681.818181818182,4,2,1,40,1,0
158221,681.818181818182,4,2,1,40,1,0
158392,681.818181818182,4,2,1,40,1,0
159073,750,4,2,1,40,1,0
159823,779.220779220779,4,2,1,40,1,0
160602,1463.41463414634,4,2,1,40,1,0
161669,1547.58834150116,4,2,1,40,1,0
162085,1690.14084507042,4,2,1,35,1,0
162507,1500,4,2,1,35,1,0
164007,1675.97765363128,4,2,1,35,1,0
164425,1714.28571428571,4,2,1,35,1,0
164853,1935.48387096774,4,2,1,35,1,0
165336,1166.18075801749,4,2,1,35,1,0

[Colours]
Combo1 : 200,0,0
Combo2 : 0,200,0
Combo3 : 47,47,255
Combo4 : 200,0,200
Combo5 : 255,255,0

[HitObjects]
72,104,2465,6,0,B|104:84|180:116|208:108,1,120
276,144,3965,1,8,0:0:0:0:
372,156,4715,2,0,B|348:188|392:264|368:288,1,120
284,244,6215,1,0,0:0:0:0:
200,292,6965,1,0,0:0:0:0:
128,228,7715,2,0,P|144:164|200:156,1,120
280,124,9215,5,8,0:0:0:0:
376,140,9965,1,0,0:0:0:0:
372,236,10715,2,0,B|316:288|236:284,1,120
168,276,12215,2,0,P|176:212|160:148,1,120
112,76,13715,1,8,0:0:0:0:
204,108,14465,1,0,0:0:0:0:
296,136,15215,5,8,0:0:0:0:
340,220,15965,2,0,P|400:208|448:252,1,120
376,312,17465,1,0,0:0:0:0:
284,288,18215,2,8,P|268:208|224:180,1,120
196,272,19715,1,0,0:0:0:0:
132,200,20465,1,8,0:0:0:0:
172,112,21215,6,0,P|248:124|296:104,1,120
344,188,22715,2,0,P|324:272|336:320,1,120
236,284,24215,2,0,P|152:256|136:220,1,120
88,152,25715,1,8,0:0:0:0:
136,68,26465,1,0,0:0:0:0:
232,80,27215,6,8,B|252:180|392:148|408:240,1,240
320,272,29465,1,0,0:0:0:0:
224,256,30215,2,8,B|144:192|84:336|-12:232,1,240
56,172,32465,1,0,0:0:0:0:
140,124,33215,5,8,0:0:0:0:
232,144,33965,2,0,B|304:152|304:152|356:136,1,120
444,156,35465,1,8,0:0:0:0:
396,240,36215,2,0,P|400:324|364:344,1,120
292,300,37715,1,0,0:0:0:0:
196,312,38465,1,0,0:0:0:0:
168,220,39215,6,8,P|196:168|272:152,1,120
348,148,40715,2,0,P|316:216|252:228,1,120
184,208,42215,1,8,0:0:0:0:
132,128,42965,1,0,0:0:0:0:
36,144,43715,2,8,P|52:228|36:272,1,120
136,284,45215,5,8,0:0:0:0:
192,208,45965,1,0,0:0:0:0:
232,120,46715,2,0,B|292:152|292:152|356:136,1,120
388,152,47840,1,0,0:0:0:0:
464,212,48590,2,0,B|440:280|440:280|472:344,1,120
416,312,49715,1,4,0:0:0:0:
88,104,62124,6,0,B|152:64|240:168|332:128,1,240
384,208,64169,1,8,0:0:0:0:
312,272,64851,2,0,P|224:240|104:312,1,240
96,120,67578,6,0,L|204:192,1,120
248,104,68942,1,0,0:0:0:0:
340,80,69624,2,0,L|380:216,1,120
304,264,70987,1,8,0:0:0:0:
208,248,71669,2,0,P|220:208|192:128,1,120
104,116,73033,5,8,0:0:0:0:
84,208,73715,1,0,0:0:0:0:
176,240,74396,2,0,P|248:296|248:324,1,120
328,260,75760,1,8,0:0:0:0:
396,192,76442,1,0,0:0:0:0:
344,112,77124,2,0,P|268:96|224:48,1,120
144,84,78487,6,8,P|124:196|136:328,1,240
228,308,80533,1,0,0:0:0:0:
316,272,81215,2,8,P|380:208|408:220,1,120
404,116,82578,2,0,P|348:112|296:68,1,120
216,120,83942,1,12,0:0:0:0:
112,72,89396,6,8,B|128:96|104:168|124:196,1,120
152,280,90760,1,0,0:0:0:0:
240,316,91442,1,0,0:0:0:0:
320,264,92124,2,8,B|340:236|416:240|440:208,1,120
388,132,93487,1,8,0:0:0:0:
308,184,94169,1,0,0:0:0:0:
216,152,94851,6,8,P|164:108|136:48,1,120
56,112,96215,1,0,0:0:0:0:
104,196,96896,1,0,0:0:0:0:
148,284,97578,2,8,P|236:272|284:296,1,120
348,236,98942,2,0,P|396:180|388:132,1,120
304,100,100305,5,8,0:0:0:0:
216,60,100987,1,0,0:0:0:0:
136,116,101669,2,8,B|168:176|168:176|228:208,1,120
132,252,103033,1,8,0:0:0:0:
212,304,103715,1,0,0:0:0:0:
304,272,104396,2,0,B|312:212|312:212|356:168,1,120
432,116,105760,6,8,P|376:100|308:128,1,120
252,188,107124,2,0,P|200:208|132:164,1,120
68,124,108487,1,8,0:0:0:0:
80,220,109169,1,0,0:0:0:0:
124,304,109851,2,8,B|200:284|200:284|244:244,1,120
300,192,111215,1,8,0:0:0:0:
392,220,111896,1,4,0:0:0:0:
132,100,113942,5,8,0:0:0:0:
212,156,114624,1,0,0:0:0:0:
300,120,115305,1,8,0:0:0:0:
380,172,115987,1,0,0:0:0:0:
332,256,116669,2,8,B|240:276|220:304,1,120
124,296,118033,1,0,0:0:0:0:
100,204,118715,2,0,P|152:124|152:100,1,120
244,80,120078,5,8,0:0:0:0:
324,136,120760,1,0,0:0:0:0:
392,204,121442,2,8,P|368:304|376:332,1,120
276,300,122805,1,8,0:0:0:0:
188,264,123487,2,0,B|160:208|184:136,1,120
264,192,124851,1,4,0:0:0:0:
60,64,126555,6,8,B|96:92|100:120|100:120|132:136|168:132|168:132|196:156|200:180,1,180
132,244,128260,1,8,0:0:0:0:
224,272,128942,1,8,0:0:0:0:
304,216,129624,2,0,P|356:148|396:112,1,120
292,84,130987,1,8,0:0:0:0:
208,128,131669,1,8,0:0:0:0:
112,140,132351,6,0,P|104:240|128:272,1,120
184,316,133715,1,8,0:0:0:0:
276,292,134396,2,0,P|316:264|400:272,1,120
428,176,135760,2,8,P|404:104|416:52,1,120
316,76,137124,1,0,0:0:0:0:
232,120,137805,1,4,0:0:0:0:
164,188,138487,6,8,B|164:256|164:256|208:292,1,120
284,236,139851,1,0,0:0:0:0:
376,260,140533,1,0,0:0:0:0:
392,164,141215,2,8,P|328:96|328:48,1,120
236,104,142578,1,0,0:0:0:0:
140,124,143260,1,0,0:0:0:0:
108,216,143942,6,8,B|128:300|128:300|176:312,1,120
240,256,145305,1,8,0:0:0:0:
324,304,145987,1,0,0:0:0:0:
376,224,146669,5,8,0:0:0:0:
356,132,147351,2,0,B|296:100|280:40,1,120
256,136,148715,1,4,0:0:0:0:
56,344,150760,6,8,P|76:264|124:240,1,120
196,224,152124,1,0,0:0:0:0:
292,220,152805,2,0,P|348:200|376:140,1,120
332,64,154169,1,0,0:0:0:0:
236,76,154851,5,8,0:0:0:0:
164,140,155533,1,0,0:0:0:0:
164,244,156262,1,0,0:0:0:0:
256,224,156943,1,0,0:0:0:0:
328,288,157625,2,8,B|268:324|268:324|192:320,1,120
120,316,159073,1,0,0:0:0:0:
88,228,159823,1,0,0:0:0:0:
116,200,160602,6,8,P|132:168|164:148,1,60
168,116,162085,1,0,0:0:0:0:
208,84,162882,1,0,0:0:0:0:
252,100,163632,1,8,0:0:0:0:
288,120,164425,1,0,0:0:0:0:
256,192,165336,12,0,170000,0:0:0:0:
