osu file format v14

[General]
AudioFilename: audio.mp3
AudioLeadIn: 0
PreviewTime: 332235
Countdown: 0
SampleSet: Normal
StackLeniency: 0.7
Mode: 0
LetterboxInBreaks: 0
EpilepsyWarning: 1
WidescreenStoryboard: 1

[Editor]
Bookmarks: 2062,13160,24258,29114,52004,63102,68651,79749,85298,96397,107495,113044,118593,140790,162986,174085,179634,190732,196281,207379,218478,224027,229576,251772,273969,286455,293391,298940,304489,310038,321137,332235,354431,376628,382177,387726,393275,398825,409923,421021,426570
DistanceSpacing: 0.6
BeatDivisor: 4
GridSize: 8
TimelineZoom: 2

[Metadata]
Title:Karakurenai no Kage
TitleUnicode:からくれなゐの影
Artist:Meramipop
ArtistUnicode:めらみぽっぷ
Creator:1Computer
Version:Crimson Shadow
Source:東方Project
Tags:東方非想天則 ~ 超弩級ギニョルの謎を追え touhou hisoutensoku cpu last stage nuclear reactor fusion core unfound adventure unknown x rd-sounds 凋叶棕 diao ye zong hakurei reimu theme
BeatmapID:1711462
BeatmapSetID:485682

[Difficulty]
HPDrainRate:5
CircleSize:4
OverallDifficulty:8
ApproachRate:9.1
SliderMultiplier:2
SliderTickRate:1

[Events]
//Background and Video events
0,0,"reimu.png",0,0
//Break Periods
2,310238,320537
//Storyboard Layer 0 (Background)
//Storyboard Layer 1 (Fail)
//Storyboard Layer 2 (Pass)
//Storyboard Layer 3 (Foreground)
//Storyboard Sound Samples

[TimingPoints]
2062,346.820809248555,4,2,1,30,1,0
13160,-300,4,2,1,30,0,0
14200,-200,4,2,1,30,0,0
17322,-166.666666666667,4,2,1,30,0,0
18362,-200,4,2,1,30,0,0
18709,-300,4,2,1,40,0,0
19749,-200,4,2,1,40,0,0
20096,-166.666666666667,4,2,1,40,0,0
24258,-133.333333333333,4,2,1,50,0,0
29114,-100,4,2,1,50,0,0
29807,-133.333333333333,4,2,1,50,0,0
35356,-166.666666666667,4,2,1,50,0,0
36744,-133.333333333333,4,2,1,50,0,0
40212,-100,4,2,1,50,0,0
40905,-133.333333333333,4,2,1,50,0,0
46455,-166.666666666667,4,2,1,50,0,0
47842,-133.333333333333,4,2,1,50,0,0
51137,-200,4,2,1,50,0,0
51310,-133.333333333333,4,2,1,50,0,0
52004,-100,4,1,1,80,0,0
68651,-133.333333333333,4,2,1,50,0,0
79749,-83.3333333333333,4,1,1,50,0,0
80096,-66.6666666666667,4,1,1,50,0,0
81137,-83.3333333333333,4,1,1,50,0,0
82177,-66.6666666666667,4,1,1,50,0,0
82524,-83.3333333333333,4,1,1,50,0,0
82871,-66.6666666666667,4,1,1,50,0,0
83911,-100,4,1,1,50,0,0
85298,-100,4,1,1,80,0,0
87033,-83.3333333333333,4,1,1,80,0,0
87726,-100,4,1,1,80,0,0
89807,-83.3333333333333,4,1,1,80,0,0
90501,-100,4,1,1,80,0,0
92929,-66.6666666666667,4,1,1,80,0,0
93275,-100,4,1,1,80,0,0
96397,-133.333333333333,4,2,1,50,0,0
107495,-100,4,1,1,80,0,0
113044,-83.3333333333333,4,1,1,80,0,0
113391,-66.6666666666667,4,1,1,80,0,0
114431,-83.3333333333333,4,1,1,80,0,0
115472,-66.6666666666667,4,1,1,80,0,0
115819,-83.3333333333333,4,1,1,80,0,0
116166,-66.6666666666667,4,1,1,80,0,0
117206,-83.3333333333333,4,1,1,80,0,0
118593,-83.3333333333333,4,1,2,80,0,1
118940,-83.3333333333333,4,1,1,80,0,1
140443,-66.6666666666667,4,1,1,80,0,1
140790,-50,4,1,1,80,0,1
140963,-50,4,1,1,5,0,1
141483,-50,4,1,1,80,0,1
141657,-50,4,1,1,5,0,1
142177,-50,4,1,1,80,0,1
142351,-50,4,1,1,5,0,1
142871,-50,4,1,1,80,0,1
143044,-50,4,1,1,5,0,1
143564,-50,4,1,1,80,0,1
143738,-50,4,1,1,5,0,1
144258,-50,4,1,1,80,0,1
144431,-50,4,1,1,5,0,1
144778,-50,4,1,1,80,0,1
146512,-50,4,1,1,5,0,1
147033,-50,4,1,1,80,0,1
147206,-50,4,1,1,5,0,1
147726,-50,4,1,1,80,0,1
162986,-100,4,1,1,80,0,0
179634,-133.333333333333,4,2,1,50,0,0
190732,-83.3333333333333,4,1,1,80,0,0
191079,-66.6666666666667,4,1,1,80,0,0
192119,-83.3333333333333,4,1,1,80,0,0
192466,-66.6666666666667,4,1,1,80,0,0
193507,-83.3333333333333,4,1,1,80,0,0
193853,-66.6666666666667,4,1,1,80,0,0
194894,-83.3333333333333,4,1,1,80,0,0
196281,-100,4,1,1,80,0,0
205992,-83.3333333333333,4,1,1,80,0,0
207379,-133.333333333333,4,2,1,50,0,0
218478,-100,4,1,1,80,0,0
223940,-100,4,1,1,5,0,0
224027,-83.3333333333333,4,1,1,80,0,0
224374,-66.6666666666667,4,1,1,80,0,0
225414,-83.3333333333333,4,1,1,80,0,0
225761,-66.6666666666667,4,1,1,80,0,0
226801,-83.3333333333333,4,1,1,80,0,0
227148,-66.6666666666667,4,1,1,80,0,0
228189,-83.3333333333333,4,1,1,80,0,0
229576,-83.3333333333333,4,1,2,80,0,1
229923,-83.3333333333333,4,1,1,80,0,1
251772,-50,4,1,1,80,0,1
273969,-100,4,1,1,80,0,0
285067,-100,4,2,1,80,0,0
286021,-100,4,1,1,80,0,0
286455,-83.3333333333333,4,1,1,80,0,0
310038,-133.333333333333,4,2,1,50,0,0
330154,-83.3333333333333,4,2,1,50,0,0
332235,-83.3333333333333,4,1,2,80,0,1
332582,-83.3333333333333,4,1,1,80,0,1
354431,-50,4,1,1,80,0,1
354605,-50,4,1,1,5,0,1
355125,-50,4,1,1,80,0,1
355298,-50,4,1,1,5,0,1
355819,-50,4,1,1,80,0,1
355992,-50,4,1,1,5,0,1
356512,-50,4,1,1,80,0,1
356686,-50,4,1,1,5,0,1
357206,-50,4,1,1,80,0,1
357379,-50,4,1,1,5,0,1
357900,-50,4,1,1,80,0,1
358073,-50,4,1,1,5,0,1
358593,-50,4,1,1,80,0,1
360154,-50,4,1,1,5,0,1
360674,-50,4,1,1,80,0,1
360848,-50,4,1,1,5,0,1
361368,-50,4,1,1,80,0,1
376628,-100,4,1,1,80,0,0
421021,-333.333333333333,4,2,1,50,0,0
426657,-333.333333333333,4,2,1,40,0,0
427957,-333.333333333333,4,2,1,30,0,0
429345,-333.333333333333,4,2,1,20,0,0
432119,-333.333333333333,4,2,1,10,0,0
432640,-333.333333333333,4,2,1,50,0,0
433507,-333.333333333333,4,2,1,30,0,0
434894,-333.333333333333,4,2,1,10,0,0
436281,-333.333333333333,4,2,1,5,0,0

[Colours]
Combo1 : 255,83,0
Combo2 : 174,0,0
Combo3 : 255,207,17
Combo4 : 255,43,64

[HitObjects]
95,81,13160,6,0,B|190:98|251:36,1,166.666666666667,2|0,0:0|0:0,0:0:0:0:
298,103,14200,2,0,P|318:90|345:80,1,50,0|0,0:0|0:0,0:0:0:0:
435,95,14547,6,0,P|415:171|434:248,1,150,2|0,0:0|0:0,0:0:0:0:
281,197,15241,2,0,P|337:252|359:329,1,150,0|0,0:0|0:0,0:0:0:0:
512,359,15934,6,0,P|437:370|354:331,1,150,2|0,0:0|0:0,0:0:0:0:
292,222,16628,2,0,P|303:297|264:380,1,150,2|0,0:0|0:0,0:0:0:0:
42,207,17322,6,0,B|7:242|25:297|59:326|123:328|140:232|212:284|212:284|164:293,1,299.999990844727,2|0,0:0|0:0,0:0:0:0:
22,183,18362,2,0,P|11:157|13:112,1,50,0|0,0:0|0:0,0:0:0:0:
95,28,18709,6,0,B|121:86|114:135|114:135|126:99|159:85,1,166.666666666667,2|0,0:0|0:0,0:0:0:0:
220,150,19749,2,0,P|249:155|288:147,1,50,0|0,0:0|0:0,0:0:0:0:
335,0,20096,6,0,P|293:51|305:175,1,179.999994506836,2|0,0:0|0:0,0:0:0:0:
497,267,20790,2,0,P|446:225|322:237,1,179.999994506836,2|0,0:0|0:0,0:0:0:0:
239,265,21483,6,0,P|254:232|259:190,1,59.9999981689454,2|0,0:0|0:0,0:0:0:0:
198,143,21830,2,0,P|183:176|178:218,1,59.9999981689454,2|0,0:0|0:0,0:0:0:0:
288,132,22177,2,0,P|275:98|249:64,1,59.9999981689454,2|0,0:0|0:0,0:0:0:0:
151,287,22524,2,0,P|163:320|189:354,1,59.9999981689454,2|0,0:0|0:0,0:0:0:0:
146,119,22871,6,0,P|18:248|176:340,1,419.999987182618,2|0,0:0|0:0,0:0:0:0:
232,133,24258,5,2,0:0:0:0:
196,209,24431,1,0,0:0:0:0:
272,245,24605,1,0,0:0:0:0:
306,169,24778,1,0,0:0:0:0:
235,323,24952,2,0,P|271:330|308:322,1,75.0000028610231,0|0,0:0|0:0,0:0:0:0:
379,168,25298,2,0,P|342:160|305:168,1,75.0000028610231,0|0,0:0|0:0,0:0:0:0:
336,303,25645,5,2,0:0:0:0:
272,245,25818,1,0,0:0:0:0:
235,323,25992,1,0,0:0:0:0:
167,270,26165,1,0,0:0:0:0:
336,303,26339,5,2,0:0:0:0:
205,185,26512,1,0,0:0:0:0:
235,323,26686,1,0,0:0:0:0:
310,164,26859,1,0,0:0:0:0:
348,328,27033,6,0,P|384:335|421:327,1,75.0000028610231,2|0,0:0|0:0,0:0:0:0:
445,167,27379,2,0,P|414:187|393:218,1,75.0000028610231,2|0,0:0|0:0,0:0:0:0:
348,328,27726,1,2,0:0:0:0:
307,242,27899,1,0,0:0:0:0:
173,230,28073,1,0,0:0:0:0:
130,144,28246,1,0,0:0:0:0:
304,100,28420,5,2,0:0:0:0:
173,230,28593,1,0,0:0:0:0:
198,48,28767,1,0,0:0:0:0:
294,204,28940,1,0,0:0:0:0:
130,144,29114,2,0,P|84:239|230:302,1,300,2|0,0:0|0:0,0:0:0:0:
243,167,29807,6,0,P|262:238|227:302,1,150.000005722046,2|0,0:0|0:0,0:0:0:0:
85,242,30327,1,0,0:0:0:0:
139,353,30501,2,0,B|250:307|377:347,1,225.000008583069,0|0,0:0|0:0,0:0:0:0:
480,280,31194,6,0,P|409:267|344:187,1,150.000005722046,2|0,0:0|0:0,0:0:0:0:
348,59,31715,1,0,0:0:0:0:
419,181,31888,2,0,B|331:220|248:198|248:198|316:177,1,225.000008583069,0|0,0:0|0:0,0:0:0:0:
348,59,32582,6,0,P|349:128|271:191,1,150.000005722046,2|0,0:0|0:0,0:0:0:0:
174,132,33102,1,0,0:0:0:0:
348,59,33275,2,0,P|462:80|507:180,1,225.000008583069,0|0,0:0|0:0,0:0:0:0:
384,179,33969,6,0,B|322:188|309:243|309:243|288:220|262:219|262:219|144:289|31:239|31:239|92:228,1,450.000017166138,2|0,0:0|0:0,0:0:0:0:
245,178,35183,1,0,0:0:0:0:
117,125,35356,6,0,B|82:221|171:303,1,179.999994506836,2|0,0:0|0:0,0:0:0:0:
131,362,36050,2,0,B|199:290|304:307,1,179.999994506836,0|0,0:0|0:0,0:0:0:0:
414,222,36744,5,2,0:0:0:0:
425,304,36917,1,0,0:0:0:0:
342,317,37091,1,0,0:0:0:0:
332,234,37264,1,0,0:0:0:0:
497,288,37437,2,0,P|433:304|390:297,1,75.0000028610231,2|0,0:0|0:0,0:0:0:0:
332,234,37784,2,0,P|335:197|348:162,1,75.0000028610231,2|0,0:0|0:0,0:0:0:0:
484,107,38131,5,2,0:0:0:0:
413,18,38304,1,0,0:0:0:0:
347,161,38478,1,2,0:0:0:0:
334,47,38651,1,0,0:0:0:0:
251,113,38825,5,2,0:0:0:0:
347,161,38998,1,0,0:0:0:0:
241,214,39171,1,0,0:0:0:0:
337,262,39344,1,0,0:0:0:0:
240,91,39518,5,2,0:0:0:0:
112,244,39691,1,0,0:0:0:0:
125,49,39865,1,0,0:0:0:0:
241,214,40038,1,0,0:0:0:0:
285,2,40212,2,0,B|182:-18|61:57|61:57|151:45,1,300,2|0,0:0|0:0,0:0:0:0:
256,175,40905,6,0,P|250:102|195:53,1,150.000005722046,2|0,0:0|0:0,0:0:0:0:
147,168,41426,1,0,0:0:0:0:
178,274,41599,2,0,P|64:233|46:112,1,225.000008583069,0|0,0:0|0:0,0:0:0:0:
259,160,42293,6,0,P|238:231|179:274,1,150.000005722046,2|0,0:0|0:0,0:0:0:0:
147,168,42813,1,0,0:0:0:0:
213,40,42986,2,0,P|341:74|401:172,1,225.000008583069,0|0,0:0|0:0,0:0:0:0:
486,231,43680,6,0,P|405:253|343:325,1,150.000005722046,2|0,0:0|0:0,0:0:0:0:
473,361,44200,1,0,0:0:0:0:
337,338,44374,2,0,B|234:301|202:214|202:214|241:244,1,225.000008583069,0|0,0:0|0:0,0:0:0:0:
440,244,45067,6,0,B|417:225|409:205|409:205|365:204|330:220|330:220|261:126|118:99|118:99|144:111|164:155,1,450.000017166138,0|0,0:0|0:0,0:0:0:0:
155,262,46281,1,0,0:0:0:0:
13,213,46455,6,0,B|43:261|43:327|43:327|54:291|78:271,1,179.999994506836,2|0,0:0|0:0,0:0:0:0:
299,322,47148,2,0,B|234:292|185:372|109:330,1,179.999994506836,0|0,0:0|0:0,0:0:0:0:
149,141,47842,5,2,0:0:0:0:
118,223,48015,1,0,0:0:0:0:
85,78,48189,1,0,0:0:0:0:
19,213,48362,1,0,0:0:0:0:
5,126,48535,5,2,0:0:0:0:
149,141,48708,1,0,0:0:0:0:
19,213,48882,1,0,0:0:0:0:
118,223,49055,1,0,0:0:0:0:
91,53,49229,5,2,0:0:0:0:
218,169,49402,1,0,0:0:0:0:
163,18,49576,1,0,0:0:0:0:
118,223,49749,1,0,0:0:0:0:
245,158,49923,5,2,0:0:0:0:
157,91,50097,1,0,0:0:0:0:
199,234,50270,2,0,P|217:247|242:250,3,37.5000014305115,2|0|0|0,0:0|0:0|0:0|0:0,0:0:0:0:
282,247,50616,6,0,P|314:222|343:170,1,75.0000028610231,2|0,0:0|0:0,0:0:0:0:
337,150,50877,2,0,P|362:182|414:211,1,75.0000028610231,8|0,0:0|0:0,0:0:0:0:
427,202,51137,2,0,L|438:161,1,25,8|0,0:0|0:0,0:0:0:0:
446,90,51310,1,0,0:0:0:0:
409,64,51397,1,0,0:0:0:0:
365,58,51483,1,0,0:0:0:0:
321,66,51570,1,0,0:0:0:0:
286,94,51657,1,8,0:0:0:0:
252,123,51744,1,0,0:0:0:0:
211,138,51830,1,0,0:0:0:0:
166,136,51917,1,0,0:0:0:0:
125,108,52004,6,0,L|119:8,1,100,4|0,0:0|0:0,0:0:0:0:
363,162,52351,2,0,L|357:262,1,100,8|0,0:0|0:0,0:0:0:0:
406,15,52697,1,0,0:0:0:0:
471,168,52871,1,0,0:0:0:0:
474,217,52957,1,0,0:0:0:0:
452,262,53044,2,0,P|404:284|357:280,1,100,8|0,0:0|0:0,0:0:0:0:
198,162,53391,6,0,L|204:62,1,100
363,162,53738,2,0,L|357:262,1,100,8|0,0:0|0:0,0:0:0:0:
287,29,54085,1,0,0:0:0:0:
287,29,54171,1,0,0:0:0:0:
287,29,54258,2,0,L|283:88,1,50
195,191,54431,2,0,P|156:222|108:227,1,100,8|0,0:0|0:0,0:0:0:0:
208,80,54778,5,0,0:0:0:0:
24,200,54952,1,0,0:0:0:0:
288,148,55125,1,8,0:0:0:0:
288,148,55212,1,0,0:0:0:0:
288,148,55298,1,0,0:0:0:0:
8,210,55472,1,0,0:0:0:0:
193,90,55645,1,0,0:0:0:0:
94,251,55819,1,8,0:0:0:0:
94,251,55906,1,0,0:0:0:0:
94,251,55992,1,0,0:0:0:0:
61,73,56166,5,0,0:0:0:0:
119,262,56339,1,0,0:0:0:0:
269,140,56512,1,8,0:0:0:0:
283,91,56599,1,0,0:0:0:0:
270,42,56686,1,0,0:0:0:0:
147,274,56859,2,0,P|223:338|245:340,1,100
301,328,57119,1,0,0:0:0:0:
346,306,57206,1,8,0:0:0:0:
378,267,57293,1,0,0:0:0:0:
389,219,57379,1,0,0:0:0:0:
379,168,57466,1,0,0:0:0:0:
346,129,57553,6,0,P|334:70|348:16,1,100,4|0,0:0|0:0,0:0:0:0:
486,168,57900,2,0,P|498:227|484:281,1,100,8|0,0:0|0:0,0:0:0:0:
412,26,58246,1,0,0:0:0:0:
307,151,58420,1,0,0:0:0:0:
286,197,58507,1,0,0:0:0:0:
283,247,58593,2,0,L|299:374,1,100,8|0,0:0|0:0,0:0:0:0:
397,144,58940,6,0,L|409:44,1,100,0|0,0:0|0:0,0:0:0:0:
186,184,59287,2,0,L|286:197,1,100,8|0,0:0|0:0,0:0:0:0:
173,48,59634,1,0,0:0:0:0:
173,48,59720,1,0,0:0:0:0:
173,48,59807,2,0,L|129:103,1,50
73,194,59981,2,0,P|65:237|85:293,1,100,8|0,0:0|0:0,0:0:0:0:
282,262,60327,5,0,0:0:0:0:
182,72,60501,1,0,0:0:0:0:
153,339,60674,1,8,0:0:0:0:
153,339,60760,1,0,0:0:0:0:
153,339,60847,1,0,0:0:0:0:
210,73,61021,1,0,0:0:0:0:
280,228,61194,1,0,0:0:0:0:
94,178,61368,1,8,0:0:0:0:
94,178,61454,1,0,0:0:0:0:
94,178,61541,1,0,0:0:0:0:
303,241,61715,5,0,0:0:0:0:
234,70,61888,1,0,0:0:0:0:
183,362,62062,1,8,0:0:0:0:
133,356,62149,1,0,0:0:0:0:
91,329,62235,1,0,0:0:0:0:
252,78,62408,2,0,P|274:122|274:171,1,100,0|0,0:0|0:0,0:0:0:0:
228,235,62668,1,0,0:0:0:0:
181,254,62755,1,8,0:0:0:0:
130,256,62842,1,0,0:0:0:0:
84,234,62929,1,0,0:0:0:0:
53,194,63015,1,0,0:0:0:0:
41,145,63102,5,8,0:0:0:0:
156,125,63275,1,0,0:0:0:0:
13,240,63449,2,0,B|20:190|20:190|40:145,1,100,8|0,0:0|0:0,0:0:0:0:
191,50,63796,1,0,0:0:0:0:
191,50,63969,1,0,0:0:0:0:
230,194,64142,2,0,B|223:244|223:244|201:296,1,100,8|0,0:0|0:0,0:0:0:0:
191,50,64489,5,0,0:0:0:0:
121,147,64663,1,0,0:0:0:0:
230,194,64836,2,0,B|275:175|275:175|316:144,1,100,8|0,0:0|0:0,0:0:0:0:
121,147,65183,1,0,0:0:0:0:
121,147,65356,1,0,0:0:0:0:
185,331,65530,2,0,B|234:335|234:335|284:326,1,100,8|0,0:0|0:0,0:0:0:0:
454,130,65877,5,0,0:0:0:0:
441,257,66050,1,0,0:0:0:0:
312,316,66223,2,0,B|266:297|266:297|225:266,1,100,8|0,0:0|0:0,0:0:0:0:
454,130,66570,2,0,B|460:179|460:179|454:229,1,100,0|0,0:0|0:0,0:0:0:0:
222,100,66917,2,0,B|261:69|261:69|307:49,1,100,8|0,0:0|0:0,0:0:0:0:
312,316,67264,5,0,0:0:0:0:
356,139,67611,1,0,0:0:0:0:
470,285,67957,1,0,0:0:0:0:
356,139,68131,1,0,0:0:0:0:
307,125,68218,1,0,0:0:0:0:
261,143,68304,1,8,0:0:0:0:
233,155,68391,1,0,0:0:0:0:
202,153,68478,1,0,0:0:0:0:
174,142,68564,1,0,0:0:0:0:
158,125,68651,6,0,P|155:79|184:29,1,75.0000028610231,4|0,0:0|0:0,0:0:0:0:
267,215,68998,2,0,P|270:169|241:119,1,75.0000028610231,0|0,0:0|0:0,0:0:0:0:
243,315,69345,2,0,P|240:269|269:219,1,75.0000028610231,0|0,0:0|0:0,0:0:0:0:
125,308,69692,2,0,P|83:287|54:237,1,75.0000028610231,8|0,0:0|0:0,0:0:0:0:
157,141,70038,6,0,P|158:178|144:212,1,75.0000028610231,0|0,0:0|0:0,0:0:0:0:
306,139,70385,2,0,P|268:170|223:177,1,75.0000028610231,0|0,0:0|0:0,0:0:0:0:
273,35,70732,2,0,P|304:73|311:118,1,75.0000028610231,0|0,0:0|0:0,0:0:0:0:
45,47,71079,1,8,0:0:0:0:
64,56,71426,6,0,P|49:99|64:155,1,75.0000028610231,0|0,0:0|0:0,0:0:0:0:
186,218,71772,2,0,P|156:183|100:168,1,75.0000028610231,0|0,0:0|0:0,0:0:0:0:
187,318,72119,2,0,P|202:275|187:219,1,75.0000028610231,0|0,0:0|0:0,0:0:0:0:
47,115,72466,1,8,0:0:0:0:
106,266,72640,1,0,0:0:0:0:
248,148,72813,6,0,P|240:186|212:227,1,75.0000028610231
314,37,73160,2,0,P|350:24|400:28,1,75.0000028610231,0|0,0:0|0:0,0:0:0:0:
499,148,73507,1,0,0:0:0:0:
490,183,73593,1,0,0:0:0:0:
473,217,73680,1,0,0:0:0:0:
447,246,73767,1,0,0:0:0:0:
415,264,73853,1,4,0:0:0:0:
215,163,74027,1,0,0:0:0:0:
212,124,74114,1,0,0:0:0:0:
222,87,74200,6,0,P|245:43|284:19,1,75.0000028610231,4|0,0:0|0:0,0:0:0:0:
390,98,74547,2,0,P|342:112|298:101,1,75.0000028610231,0|0,0:0|0:0,0:0:0:0:
493,99,74894,2,0,P|445:84|401:95,1,75.0000028610231,0|0,0:0|0:0,0:0:0:0:
463,299,75241,2,0,P|483:268|490:231,1,75.0000028610231,8|0,0:0|0:0,0:0:0:0:
390,98,75588,6,0,P|369:128|362:165,1,75.0000028610231,0|0,0:0|0:0,0:0:0:0:
444,319,75934,2,0,P|417:292|400:259,1,75.0000028610231
341,362,76281,2,0,P|303:365|268:353,1,75.0000028610231
117,252,76628,2,0,P|162:240|195:208,1,75.0000028610231,8|0,0:0|0:0,0:0:0:0:
279,41,76975,6,0,L|270:132,1,75.0000028610231
183,223,77322,2,0,L|175:148,1,75.0000028610231
280,25,77668,1,0,0:0:0:0:
185,242,77842,1,0,0:0:0:0:
380,160,78015,1,0,0:0:0:0:
171,121,78189,1,0,0:0:0:0:
365,159,78362,5,2,0:0:0:0:
185,124,78535,1,0,0:0:0:0:
309,274,78709,1,0,0:0:0:0:
293,54,78882,1,0,0:0:0:0:
311,293,79056,1,0,0:0:0:0:
279,309,79142,1,0,0:0:0:0:
244,318,79229,1,0,0:0:0:0:
207,313,79316,1,0,0:0:0:0:
174,295,79403,2,0,P|135:239|147:169,1,112.500004291535,8|0,0:0|0:0,0:0:0:0:
162,122,79749,6,0,P|189:206|173:294,1,179.999994506836
91,326,80096,2,0,B|201:289|201:289|332:293,1,225.000008583069,4|0,0:0|0:0,0:0:0:0:
366,354,80443,1,0,0:0:0:0:
441,226,80616,1,0,0:0:0:0:
478,18,80790,2,0,B|502:70|502:70|436:241,1,225.000008583069,4|0,0:0|0:0,0:0:0:0:
359,210,81137,6,0,B|443:200|488:277|488:277|430:246,1,179.999994506836
384,293,81483,1,4,0:0:0:0:
165,256,81657,1,0,0:0:0:0:
278,239,81830,1,0,0:0:0:0:
87,334,82004,1,0,0:0:0:0:
278,239,82177,2,0,B|199:318|199:318|87:334,1,225.000008583069,4|0,0:0|0:0,0:0:0:0:
5,322,82524,6,0,P|72:275|93:169,1,179.999994506836
19,151,82871,2,0,B|219:171|219:171|157:131,1,225.000008583069,4|0,0:0|0:0,0:0:0:0:
154,83,83218,1,0,0:0:0:0:
180,317,83391,1,0,0:0:0:0:
380,297,83564,2,0,B|180:317|180:317|200:303,1,225.000008583069,4|0,0:0|0:0,0:0:0:0:
229,232,83911,5,0,0:0:0:0:
441,200,84085,1,0,0:0:0:0:
237,220,84258,1,8,0:0:0:0:
339,61,84431,1,0,0:0:0:0:
339,61,84518,1,0,0:0:0:0:
339,61,84605,1,0,0:0:0:0:
229,232,84778,1,0,0:0:0:0:
183,251,84865,1,0,0:0:0:0:
132,251,84952,1,8,0:0:0:0:
87,233,85038,1,0,0:0:0:0:
52,197,85125,1,0,0:0:0:0:
32,152,85212,1,0,0:0:0:0:
26,102,85298,6,0,P|39:36|70:0,1,100,4|0,0:0|0:0,0:0:0:0:
77,17,85559,1,0,0:0:0:0:
77,36,85645,1,8,0:0:0:0:
158,116,85819,2,0,P|182:104|200:87,2,50,0|0|0,0:0|0:0|0:0,0:0:0:0:
177,229,86166,2,0,P|202:237|227:238,2,50,0|0|8,0:0|0:0|0:0,0:0:0:0:
329,264,86512,1,0,0:0:0:0:
328,244,86598,1,0,0:0:0:0:
328,223,86685,5,0,0:0:0:0:
435,280,86859,1,0,0:0:0:0:
428,319,86946,1,0,0:0:0:0:
395,347,87033,2,0,P|323:368|221:265,1,179.999994506836,2|0,0:0|0:0,0:0:0:0:
220,216,87379,2,0,B|200:375|200:375|182:335,1,179.999994506836,2|0,0:0|0:0,0:0:0:0:
137,290,87726,2,0,P|92:327|-7:294,1,150
64,251,88073,5,2,0:0:0:0:
211,158,88246,1,0,0:0:0:0:
192,181,88332,1,0,0:0:0:0:
166,196,88419,1,8,0:0:0:0:
185,32,88593,1,0,0:0:0:0:
214,36,88679,1,0,0:0:0:0:
240,51,88766,1,0,0:0:0:0:
89,118,88940,1,0,0:0:0:0:
78,90,89026,1,0,0:0:0:0:
78,60,89114,1,8,0:0:0:0:
166,196,89287,1,0,0:0:0:0:
177,224,89373,1,0,0:0:0:0:
177,254,89461,5,0,0:0:0:0:
277,218,89634,1,0,0:0:0:0:
271,256,89720,1,0,0:0:0:0:
281,297,89807,2,0,P|338:348|447:321,1,179.999994506836,2|0,0:0|0:0,0:0:0:0:
512,300,90154,2,0,B|377:274|377:274|418:264,1,179.999994506836,2|0,0:0|0:0,0:0:0:0:
486,210,90501,2,0,P|493:149|458:63,1,150
351,46,90848,6,0,P|403:60|442:107,1,100,2|0,0:0|0:0,0:0:0:0:
211,166,91194,2,0,P|225:114|273:75,1,100,8|0,0:0|0:0,0:0:0:0:
352,137,91541,2,0,P|338:189|291:228,1,100
203,265,91888,2,0,P|151:251|112:203,1,100,8|0,0:0|0:0,0:0:0:0:
30,141,92235,6,0,P|78:129|113:95,1,100
269,26,92582,2,0,P|232:59|219:106,1,100,8|0,0:0|0:0,0:0:0:0:
501,31,92929,2,0,B|430:100|325:105|325:105|384:58,1,225.000008583069,0|0,0:0|0:0,0:0:0:0:
363,60,93275,1,8,0:0:0:0:
301,201,93449,1,0,0:0:0:0:
279,167,93535,1,0,0:0:0:0:
242,150,93622,5,0,0:0:0:0:
189,264,93796,1,0,0:0:0:0:
75,211,93969,1,8,0:0:0:0:
128,97,94143,1,0,0:0:0:0:
74,230,94316,5,0,0:0:0:0:
208,272,94489,1,0,0:0:0:0:
12,313,94663,1,8,0:0:0:0:
236,282,94836,1,0,0:0:0:0:
75,211,95009,6,0,P|83:148|113:87,1,100,2|0,0:0|0:0,0:0:0:0:
236,282,95356,2,0,P|245:256|243:223,1,50,0|0,0:0|0:0,0:0:0:0:
113,97,95530,2,0,P|104:123|106:156,1,50,0|0,0:0|0:0,0:0:0:0:
252,294,95703,2,0,B|399:324|452:222|442:142|442:142|433:179|404:196,1,350,0|0,0:0|0:0,0:0:0:0:
368,127,96397,6,0,L|359:24,1,75.0000028610231,4|0,0:0|0:0,0:0:0:0:
300,8,96744,2,0,P|258:-4|217:3,1,75.0000028610231,0|0,0:0|0:0,0:0:0:0:
188,112,97090,2,0,P|224:105|255:84,1,75.0000028610231,0|0,0:0|0:0,0:0:0:0:
47,15,97437,2,0,P|25:45|17:81,1,75.0000028610231,8|0,0:0|0:0,0:0:0:0:
127,226,97784,6,0,L|106:155,1,75.0000028610231,0|0,0:0|0:0,0:0:0:0:
17,81,98131,2,0,L|3:162,1,75.0000028610231
188,112,98478,2,0,P|163:77|112:51,1,75.0000028610231,0|0,0:0|0:0,0:0:0:0:
45,271,98825,2,0,P|70:306|121:332,1,75.0000028610231,8|0,0:0|0:0,0:0:0:0:
218,243,99171,6,0,P|178:225|121:228,1,75.0000028610231,0|0,0:0|0:0,0:0:0:0:
303,307,99518,2,0,P|320:267|317:210,1,75.0000028610231,0|0,0:0|0:0,0:0:0:0:
256,100,99865,1,0,0:0:0:0:
218,243,100038,1,0,0:0:0:0:
317,36,100212,2,0,P|277:18|220:21,1,75.0000028610231,8|0,0:0|0:0,0:0:0:0:
141,60,100559,5,0,0:0:0:0:
256,100,100732,1,0,0:0:0:0:
128,53,100905,1,0,0:0:0:0:
245,178,101078,1,0,0:0:0:0:
113,47,101252,1,0,0:0:0:0:
191,234,101426,1,0,0:0:0:0:
156,219,101512,1,0,0:0:0:0:
118,216,101599,1,8,0:0:0:0:
81,223,101686,1,0,0:0:0:0:
48,241,101772,1,0,0:0:0:0:
24,270,101859,1,0,0:0:0:0:
7,303,101946,6,0,L|26:211,1,75.0000028610231
149,366,102293,2,0,P|112:374|75:369,1,75.0000028610231
189,206,102640,2,0,P|214:234|227:268,1,75.0000028610231
69,100,102986,2,0,L|53:26,1,75.0000028610231,8|0,0:0|0:0,0:0:0:0:
189,206,103333,6,0,P|225:214|262:209,1,75.0000028610231
361,81,103680,2,0,P|324:74|287:79,1,75.0000028610231
352,248,104027,2,0,P|359:211|354:174,1,75.0000028610231
265,378,104374,1,8,0:0:0:0:
196,273,104547,1,0,0:0:0:0:
107,361,104720,6,0,L|12:355,1,75.0000028610231
88,226,105067,1,0,0:0:0:0:
133,364,105241,1,0,0:0:0:0:
176,138,105414,2,0,L|191:54,1,75.0000028610231,0|0,0:0|0:0,0:0:0:0:
195,307,105761,2,0,L|182:234,1,75.0000028610231,8|0,0:0|0:0,0:0:0:0:
309,80,106108,6,0,P|279:102|260:133,1,75.0000028610231
318,301,106455,2,0,P|288:279|268:248,1,75.0000028610231
456,285,106801,1,0,0:0:0:0:
376,187,106975,1,0,0:0:0:0:
318,301,107148,2,0,P|283:315|246:317,1,75.0000028610231,8|0,0:0|0:0,0:0:0:0:
124,50,107495,6,0,L|155:187,1,100,4|0,0:0|0:0,0:0:0:0:
181,289,107842,1,8,0:0:0:0:
215,48,108015,1,0,0:0:0:0:
215,48,108102,1,0,0:0:0:0:
215,48,108189,1,0,0:0:0:0:
257,186,108362,1,0,0:0:0:0:
257,186,108449,1,0,0:0:0:0:
257,186,108535,1,8,0:0:0:0:
124,50,108709,1,0,0:0:0:0:
103,63,108796,1,0,0:0:0:0:
87,82,108882,6,0,P|62:135|69:186,1,100,0|0,0:0|0:0,0:0:0:0:
158,296,109229,1,8,0:0:0:0:
215,48,109403,1,8,0:0:0:0:
215,48,109490,1,0,0:0:0:0:
215,48,109577,1,0,0:0:0:0:
257,186,109750,1,0,0:0:0:0:
257,186,109837,1,0,0:0:0:0:
257,186,109923,1,0,0:0:0:0:
118,151,110096,1,0,0:0:0:0:
114,175,110183,1,0,0:0:0:0:
115,200,110270,5,4,0:0:0:0:
466,229,110616,1,4,0:0:0:0:
52,284,110963,1,4,0:0:0:0:
512,333,111310,1,4,0:0:0:0:
62,338,111657,5,4,0:0:0:0:
32,311,111744,1,0,0:0:0:0:
18,273,111830,1,0,0:0:0:0:
18,232,111917,1,0,0:0:0:0:
34,195,112004,1,8,0:0:0:0:
65,170,112090,1,0,0:0:0:0:
103,157,112177,1,0,0:0:0:0:
142,160,112264,1,0,0:0:0:0:
176,180,112351,1,0,0:0:0:0:
218,204,112437,1,0,0:0:0:0:
266,214,112524,1,0,0:0:0:0:
316,211,112611,1,0,0:0:0:0:
364,199,112697,2,0,P|411:157|376:49,1,150,8|0,0:0|0:0,0:0:0:0:
335,42,113044,6,0,P|313:121|414:214,1,179.999994506836
487,207,113391,2,0,B|373:220|373:220|238:275,1,225.000008583069,4|0,0:0|0:0,0:0:0:0:
200,233,113738,1,0,0:0:0:0:
186,68,113911,1,0,0:0:0:0:
144,286,114085,2,0,B|180:177|180:177|187:31,1,225.000008583069,4|0,0:0|0:0,0:0:0:0:
107,0,114431,6,0,P|144:50|106:190,1,179.999994506836
5,253,114778,1,4,0:0:0:0:
43,95,114952,1,0,0:0:0:0:
62,315,115125,1,0,0:0:0:0:
0,165,115298,1,0,0:0:0:0:
156,358,115472,2,0,B|358:326|358:326|309:311,1,225.000008583069,4|0,0:0|0:0,0:0:0:0:
281,267,115819,6,0,B|353:298|423:255|423:255|373:253,1,179.999994506836
432,230,116166,2,0,B|406:119|406:119|432:2,1,225.000008583069,4|0,0:0|0:0,0:0:0:0:
512,20,116512,1,0,0:0:0:0:
340,40,116686,1,0,0:0:0:0:
166,57,116859,2,0,B|341:40|341:40|280:72,1,225.000008583069,4|0,0:0|0:0,0:0:0:0:
254,125,117206,5,0,0:0:0:0:
157,358,117379,1,0,0:0:0:0:
110,195,117553,1,8,0:0:0:0:
320,348,117726,1,0,0:0:0:0:
368,348,117813,1,0,0:0:0:0:
409,326,117900,2,0,P|459:281|463:213,1,119.999996337891,0|0,0:0|0:0,0:0:0:0:
293,202,118246,1,8,0:0:0:0:
277,156,118333,1,0,0:0:0:0:
281,108,118420,1,0,0:0:0:0:
305,66,118507,1,0,0:0:0:0:
344,38,118593,6,0,P|413:28|467:58,1,119.999996337891,4|0,0:0|0:0,0:0:0:0:
387,238,118940,2,0,P|378:159|421:94,1,119.999996337891,8|0,0:0|0:0,0:0:0:0:
485,368,119287,1,0,0:0:0:0:
485,368,119374,1,0,0:0:0:0:
485,368,119460,1,0,0:0:0:0:
271,230,119634,2,0,P|350:221|415:264,1,119.999996337891,8|0,0:0|0:0,0:0:0:0:
142,358,119981,6,0,L|131:229,1,119.999996337891
261,111,120327,2,0,L|271:230,1,119.999996337891,8|0,0:0|0:0,0:0:0:0:
147,27,120674,1,0,0:0:0:0:
147,27,120761,1,0,0:0:0:0:
147,27,120848,1,0,0:0:0:0:
272,242,121021,2,0,P|247:309|183:341,1,119.999996337891,8|0,0:0|0:0,0:0:0:0:
83,120,121368,6,0,P|108:53|172:21,1,119.999996337891
332,129,121715,2,0,L|213:132,1,119.999996337891,8|0,0:0|0:0,0:0:0:0:
479,12,122062,1,0,0:0:0:0:
479,12,122148,1,0,0:0:0:0:
479,12,122235,1,0,0:0:0:0:
347,263,122408,2,0,L|350:143,1,119.999996337891,8|0,0:0|0:0,0:0:0:0:
462,333,122755,6,0,P|405:267|323:261,1,119.999996337891
196,345,123102,2,0,P|202:258|148:195,1,119.999996337891,8|0,0:0|0:0,0:0:0:0:
30,98,123449,1,4,0:0:0:0:
30,98,123535,1,0,0:0:0:0:
30,98,123622,1,0,0:0:0:0:
75,82,123709,1,0,0:0:0:0:
123,82,123796,1,8,0:0:0:0:
167,99,123882,1,0,0:0:0:0:
202,131,123969,1,0,0:0:0:0:
223,173,124056,1,0,0:0:0:0:
228,220,124142,6,0,P|238:289|277:351,1,119.999996337891,4|0,0:0|0:0,0:0:0:0:
483,158,124489,2,0,P|437:122|380:103,1,119.999996337891,8|0,0:0|0:0,0:0:0:0:
462,351,124836,1,0,0:0:0:0:
462,351,124923,1,0,0:0:0:0:
462,351,125009,1,0,0:0:0:0:
228,220,125183,2,0,P|170:232|119:263,1,119.999996337891,8|0,0:0|0:0,0:0:0:0:
364,142,125530,6,0,L|339:25,1,119.999996337891
228,220,125877,2,0,L|254:338,1,119.999996337891,8|0,0:0|0:0,0:0:0:0:
195,48,126223,1,0,0:0:0:0:
195,48,126310,1,0,0:0:0:0:
195,48,126397,1,0,0:0:0:0:
338,197,126570,2,0,P|267:228|198:200,1,119.999996337891,8|0,0:0|0:0,0:0:0:0:
0,151,126917,6,0,P|71:120|140:148,1,119.999996337891
367,330,127264,2,0,P|296:361|227:333,1,119.999996337891,8|0,0:0|0:0,0:0:0:0:
280,120,127611,1,0,0:0:0:0:
280,120,127698,1,0,0:0:0:0:
280,120,127785,1,0,0:0:0:0:
91,327,127957,2,0,P|65:242|96:185,1,119.999996337891,8|0,0:0|0:0,0:0:0:0:
374,350,128304,6,0,L|214:336,1,119.999996337891
460,225,128651,2,0,L|340:214,1,119.999996337891,8|0,0:0|0:0,0:0:0:0:
512,90,128998,1,4,0:0:0:0:
512,90,129085,1,0,0:0:0:0:
512,90,129171,1,0,0:0:0:0:
464,85,129258,1,0,0:0:0:0:
416,81,129345,1,8,0:0:0:0:
368,78,129431,1,0,0:0:0:0:
319,74,129518,1,0,0:0:0:0:
270,70,129605,1,0,0:0:0:0:
221,68,129692,6,0,L|73:57,1,119.999996337891,4|0,0:0|0:0,0:0:0:0:
288,280,130038,2,0,P|295:221|280:163,1,119.999996337891,8|0,0:0|0:0,0:0:0:0:
184,363,130385,1,0,0:0:0:0:
184,363,130472,1,0,0:0:0:0:
184,363,130559,1,0,0:0:0:0:
68,223,130732,2,0,L|187:231,1,119.999996337891,8|0,0:0|0:0,0:0:0:0:
303,373,131079,6,0,L|183:362,1,119.999996337891
327,142,131426,2,0,P|369:182|380:240,1,119.999996337891,8|0,0:0|0:0,0:0:0:0:
189,105,131772,1,0,0:0:0:0:
189,105,131859,1,0,0:0:0:0:
189,105,131946,1,0,0:0:0:0:
183,362,132119,2,0,P|140:321|128:263,1,119.999996337891,8|0,0:0|0:0,0:0:0:0:
322,79,132466,6,0,P|324:138|295:189,1,119.999996337891
34,58,132813,2,0,P|94:57|145:86,1,119.999996337891,8|0,0:0|0:0,0:0:0:0:
196,328,133160,1,0,0:0:0:0:
196,328,133246,1,0,0:0:0:0:
196,328,133333,1,0,0:0:0:0:
6,168,133507,2,0,P|5:108|34:57,1,119.999996337891,8|0,0:0|0:0,0:0:0:0:
52,383,133853,6,0,L|19:232,1,119.999996337891
161,59,134200,1,8,0:0:0:0:
268,360,134374,1,0,0:0:0:0:
170,81,134547,1,0,0:0:0:0:
445,235,134720,1,0,0:0:0:0:
485,209,134807,1,0,0:0:0:0:
509,167,134894,1,8,0:0:0:0:
510,118,134981,1,0,0:0:0:0:
487,76,135067,1,0,0:0:0:0:
447,48,135154,1,0,0:0:0:0:
398,44,135241,6,0,B|423:127|369:225|369:225|371:191|343:154,1,239.999992675781,4|8,0:0|0:0,0:0:0:0:
205,17,135761,1,0,0:0:0:0:
46,212,135934,1,0,0:0:0:0:
30,166,136021,1,0,0:0:0:0:
34,118,136108,1,0,0:0:0:0:
203,37,136281,1,8,0:0:0:0:
66,232,136455,1,0,0:0:0:0:
277,303,136628,6,0,P|339:296|403:252,1,119.999996337891,4|0,0:0|0:0,0:0:0:0:
456,87,136975,1,8,0:0:0:0:
490,376,137148,1,0,0:0:0:0:
304,198,137322,1,0,0:0:0:0:
314,151,137408,1,0,0:0:0:0:
351,121,137495,1,0,0:0:0:0:
332,335,137668,1,8,0:0:0:0:
253,9,137842,1,0,0:0:0:0:
204,286,138015,6,0,B|190:343|206:391|206:391|217:350,1,119.999996337891,4|0,0:0|0:0,0:0:0:0:
309,92,138362,2,0,B|323:35|307:-13|307:-13|296:28,1,119.999996337891,4|0,0:0|0:0,0:0:0:0:
405,245,138709,2,0,B|462:259|510:243|510:243|469:232,1,119.999996337891,4|0,0:0|0:0,0:0:0:0:
107,139,139056,2,0,B|50:125|2:141|2:141|43:152,1,119.999996337891,4|0,0:0|0:0,0:0:0:0:
405,42,139403,5,4,0:0:0:0:
496,239,139576,1,0,0:0:0:0:
496,287,139663,1,0,0:0:0:0:
477,330,139749,1,8,0:0:0:0:
443,364,139836,1,0,0:0:0:0:
398,381,139923,1,0,0:0:0:0:
350,381,140009,1,0,0:0:0:0:
305,362,140096,2,0,B|251:301|278:209|278:209|282:254|303:277,1,179.999994506836,4|0,0:0|0:0,0:0:0:0:
350,207,140443,2,0,P|256:203|186:59,1,225.000008583069,8|0,0:0|0:0,0:0:0:0:
139,52,140790,6,0,B|159:223|159:223|167:173,1,200,4|0,0:0|0:0,0:0:0:0:
373,52,141483,2,0,B|353:223|353:223|345:173,1,200,4|0,0:0|0:0,0:0:0:0:
56,21,142177,6,0,B|76:192|76:192|84:142,1,200,4|0,0:0|0:0,0:0:0:0:
456,21,142871,2,0,B|436:192|436:192|428:142,1,200,4|0,0:0|0:0,0:0:0:0:
0,0,143564,6,0,B|20:171|20:171|28:121,1,200,4|0,0:0|0:0,0:0:0:0:
512,0,144258,2,0,B|492:171|492:171|484:121,1,200,4|0,0:0|0:0,0:0:0:0:
78,94,144778,6,0,P|129:2|244:35,1,200,0|4,0:0|0:0,0:0:0:0:
187,249,145125,2,0,B|167:78|167:78|159:128,1,200
152,340,145472,1,0,0:0:0:0:
110,307,145559,1,0,0:0:0:0:
91,258,145645,1,0,0:0:0:0:
99,206,145732,1,0,0:0:0:0:
135,167,145819,1,0,0:0:0:0:
153,121,145905,1,0,0:0:0:0:
146,71,145992,2,0,B|126:242|126:242|118:192,1,200,8|0,0:0|0:0,0:0:0:0:
22,36,146339,6,0,L|284:24,1,200,4|0,0:0|0:0,0:0:0:0:
500,138,147033,2,0,L|238:126,1,200,4|0,0:0|0:0,0:0:0:0:
16,232,147726,6,0,L|278:220,1,200,4|0,0:0|0:0,0:0:0:0:
476,122,148073,2,0,B|303:130|303:130|378:141,1,200,8|0,0:0|0:0,0:0:0:0:
497,338,148420,2,0,L|235:326,1,200,4|0,0:0|0:0,0:0:0:0:
361,211,148767,2,0,B|188:218|188:218|263:230,1,200,8|0,0:0|0:0,0:0:0:0:
447,252,149114,6,0,P|433:148|327:122,1,200,4|0,0:0|0:0,0:0:0:0:
207,279,149460,2,0,P|302:287|360:211,1,200,8|0,0:0|0:0,0:0:0:0:
234,25,149807,2,0,B|261:201|261:201|223:154,1,200,4|0,0:0|0:0,0:0:0:0:
30,79,150154,2,0,B|3:255|3:255|41:208,1,200,4|0,0:0|0:0,0:0:0:0:
233,24,150501,6,0,P|134:7|41:52,1,200,4|0,0:0|0:0,0:0:0:0:
320,171,150848,1,8,0:0:0:0:
16,237,151021,1,0,0:0:0:0:
49,273,151108,1,0,0:0:0:0:
96,288,151194,1,0,0:0:0:0:
145,279,151281,1,0,0:0:0:0:
195,280,151368,1,0,0:0:0:0:
239,304,151455,1,0,0:0:0:0:
268,344,151541,1,8,0:0:0:0:
279,295,151628,1,0,0:0:0:0:
321,267,151715,1,0,0:0:0:0:
370,270,151801,1,0,0:0:0:0:
409,300,151888,6,0,B|429:344|395:361|395:361|346:293|264:292,1,200,4|0,0:0|0:0,0:0:0:0:
173,384,152235,1,8,0:0:0:0:
173,384,152408,1,0,0:0:0:0:
355,113,152582,2,0,P|407:221|406:313,1,200,4|0,0:0|0:0,0:0:0:0:
135,74,152929,1,8,0:0:0:0:
188,260,153102,1,0,0:0:0:0:
188,260,153189,1,0,0:0:0:0:
188,260,153275,6,0,P|136:152|137:60,1,200,4|0,0:0|0:0,0:0:0:0:
331,288,153622,1,8,0:0:0:0:
466,149,153796,1,0,0:0:0:0:
466,149,153882,1,0,0:0:0:0:
466,149,153969,2,0,P|398:248|318:293,1,200,4|0,0:0|0:0,0:0:0:0:
49,130,154316,1,8,0:0:0:0:
10,326,154489,1,0,0:0:0:0:
10,326,154576,1,0,0:0:0:0:
10,326,154663,6,0,L|52:120,1,200,4|0,0:0|0:0,0:0:0:0:
174,380,155009,1,8,0:0:0:0:
295,133,155183,1,0,0:0:0:0:
295,133,155270,1,0,0:0:0:0:
295,133,155356,2,0,L|335:329,1,200,4|0,0:0|0:0,0:0:0:0:
234,39,155703,1,8,0:0:0:0:
281,22,155790,1,0,0:0:0:0:
330,26,155877,1,0,0:0:0:0:
372,51,155963,1,0,0:0:0:0:
401,91,156050,6,0,P|395:198|299:247,1,200,4|0,0:0|0:0,0:0:0:0:
48,205,156397,1,8,0:0:0:0:
295,133,156570,1,0,0:0:0:0:
347,133,156657,1,0,0:0:0:0:
395,156,156744,1,0,0:0:0:0:
426,197,156830,1,0,0:0:0:0:
438,248,156917,1,0,0:0:0:0:
424,298,157004,1,0,0:0:0:0:
390,336,157090,2,0,P|320:359|209:270,1,200,8|0,0:0|0:0,0:0:0:0:
494,284,157437,6,0,P|417:224|323:245,1,200,4|0,0:0|0:0,0:0:0:0:
187,370,157784,1,8,0:0:0:0:
187,370,157957,1,0,0:0:0:0:
319,215,158131,2,0,B|333:129|314:38|314:38|299:96,1,200,4|0,0:0|0:0,0:0:0:0:
198,360,158478,1,8,0:0:0:0:
72,48,158651,1,0,0:0:0:0:
72,48,158738,1,0,0:0:0:0:
72,48,158825,6,0,B|58:134|77:225|77:225|92:167,1,200,4|0,0:0|0:0,0:0:0:0:
183,0,159171,1,8,0:0:0:0:
0,293,159345,1,0,0:0:0:0:
0,293,159431,1,0,0:0:0:0:
0,293,159518,2,0,P|71:324|169:256,1,200,4|0,0:0|0:0,0:0:0:0:
234,101,159865,1,8,0:0:0:0:
401,71,160038,1,0,0:0:0:0:
401,71,160125,1,0,0:0:0:0:
401,71,160212,6,0,P|330:40|232:108,1,200,4|0,0:0|0:0,0:0:0:0:
373,341,160559,1,8,0:0:0:0:
334,144,160732,1,0,0:0:0:0:
334,144,160819,1,0,0:0:0:0:
334,144,160905,1,0,0:0:0:0:
373,341,161079,2,0,L|334:144,1,200,0|8,0:0|0:0,0:0:0:0:
120,220,161426,2,0,L|159:23,1,200,0|8,0:0|0:0,0:0:0:0:
31,342,161772,6,0,P|50:187|125:229,1,300,0|8,0:0|0:0,0:0:0:0:
151,257,162119,1,0,0:0:0:0:
194,286,162206,1,0,0:0:0:0:
246,288,162293,1,0,0:0:0:0:
293,265,162379,1,0,0:0:0:0:
320,220,162466,1,0,0:0:0:0:
321,167,162553,1,0,0:0:0:0:
295,123,162640,2,0,P|371:229|469:180,1,200,8|0,0:0|0:0,0:0:0:0:
394,37,162986,6,0,L|384:136,1,100,4|0,0:0|0:0,0:0:0:0:
512,379,163333,2,0,L|502:279,1,100,8|0,0:0|0:0,0:0:0:0:
383,136,163680,1,0,0:0:0:0:
331,314,163853,1,0,0:0:0:0:
287,352,163940,1,0,0:0:0:0:
236,351,164027,2,0,P|192:326|173:280,1,100,8|0,0:0|0:0,0:0:0:0:
293,56,164374,6,0,P|293:106|263:146,1,100
10,155,164720,2,0,P|53:129|102:135,1,100,8|0,0:0|0:0,0:0:0:0:
0,300,165067,1,0,0:0:0:0:
0,300,165154,1,0,0:0:0:0:
0,300,165241,2,0,L|69:303,1,50
138,360,165414,2,0,L|262:368,1,100,8|0,0:0|0:0,0:0:0:0:
399,333,165761,5,0,0:0:0:0:
146,252,165934,1,0,0:0:0:0:
397,245,166108,1,8,0:0:0:0:
397,245,166194,1,0,0:0:0:0:
397,245,166281,1,0,0:0:0:0:
164,254,166455,1,0,0:0:0:0:
378,329,166628,1,0,0:0:0:0:
249,202,166801,1,8,0:0:0:0:
249,202,166888,1,0,0:0:0:0:
249,202,166975,1,0,0:0:0:0:
356,322,167148,5,0,0:0:0:0:
153,152,167322,1,0,0:0:0:0:
390,149,167495,1,0,0:0:0:0:
408,196,167581,1,0,0:0:0:0:
397,245,167668,1,0,0:0:0:0:
147,244,167842,2,0,P|134:194|154:149,1,100,8|0,0:0|0:0,0:0:0:0:
215,102,168102,1,0,0:0:0:0:
257,128,168189,1,8,0:0:0:0:
306,133,168275,1,0,0:0:0:0:
354,119,168362,1,0,0:0:0:0:
390,84,168449,1,0,0:0:0:0:
402,36,168535,6,0,P|336:41|285:81,1,100,4|0,0:0|0:0,0:0:0:0:
355,261,168882,2,0,P|420:255|471:215,1,100,8|0,0:0|0:0,0:0:0:0:
175,126,169229,1,0,0:0:0:0:
243,312,169403,1,0,0:0:0:0:
289,294,169489,1,0,0:0:0:0:
324,258,169576,2,0,P|352:176|348:132,1,100,8|0,0:0|0:0,0:0:0:0:
146,31,169923,6,0,P|152:80|174:125,1,100
363,3,170270,2,0,P|314:9|269:31,1,100,8|0,0:0|0:0,0:0:0:0:
488,34,170616,1,0,0:0:0:0:
488,34,170703,1,0,0:0:0:0:
488,34,170790,2,0,L|477:97,1,50
391,129,170963,2,0,L|409:260,1,100,8|0,0:0|0:0,0:0:0:0:
201,208,171310,5,0,0:0:0:0:
405,251,171483,1,0,0:0:0:0:
143,301,171657,1,8,0:0:0:0:
143,301,171743,1,0,0:0:0:0:
143,301,171830,1,0,0:0:0:0:
388,257,172004,1,0,0:0:0:0:
158,296,172177,1,0,0:0:0:0:
293,189,172351,1,8,0:0:0:0:
293,189,172437,1,0,0:0:0:0:
293,189,172524,1,0,0:0:0:0:
284,366,172697,5,0,0:0:0:0:
223,114,172871,1,0,0:0:0:0:
104,301,173044,1,8,0:0:0:0:
58,322,173131,1,0,0:0:0:0:
9,305,173218,1,0,0:0:0:0:
223,114,173391,2,0,P|224:165|195:208,1,100,8|0,0:0|0:0,0:0:0:0:
121,221,173651,1,0,0:0:0:0:
72,208,173738,1,8,0:0:0:0:
37,171,173825,1,0,0:0:0:0:
25,122,173911,1,0,0:0:0:0:
38,73,173998,1,0,0:0:0:0:
76,40,174085,5,4,0:0:0:0:
140,121,174258,1,0,0:0:0:0:
239,119,174431,2,0,B|188:112|188:112|140:120,1,100,8|0,0:0|0:0,0:0:0:0:
189,221,174778,1,0,0:0:0:0:
189,221,174952,1,0,0:0:0:0:
143,319,175125,2,0,B|193:325|193:325|241:317,1,100,8|0,0:0|0:0,0:0:0:0:
306,215,175472,5,0,0:0:0:0:
403,158,175645,1,0,0:0:0:0:
404,257,175819,2,0,B|410:206|410:206|402:158,1,100,8|0,0:0|0:0,0:0:0:0:
343,364,176166,1,0,0:0:0:0:
343,364,176339,1,0,0:0:0:0:
492,176,176512,2,0,B|484:125|484:125|465:80,1,100,8|0,0:0|0:0,0:0:0:0:
335,54,176859,5,0,0:0:0:0:
292,215,177033,1,0,0:0:0:0:
149,260,177206,2,0,B|98:252|98:252|54:233,1,100,8|0,0:0|0:0,0:0:0:0:
292,215,177553,1,0,0:0:0:0:
292,215,177727,1,0,0:0:0:0:
120,142,177900,2,0,B|80:113|80:113|49:73,1,100,8|0,0:0|0:0,0:0:0:0:
346,50,178246,5,0,0:0:0:0:
381,225,178593,1,0,0:0:0:0:
211,168,178940,1,0,0:0:0:0:
381,225,179114,1,0,0:0:0:0:
386,274,179200,1,0,0:0:0:0:
364,319,179287,1,8,0:0:0:0:
322,347,179374,1,0,0:0:0:0:
272,350,179460,1,0,0:0:0:0:
226,329,179547,1,0,0:0:0:0:
204,297,179634,6,0,P|197:250|206:207,1,75.0000028610231,4|0,0:0|0:0,0:0:0:0:
290,173,179981,2,0,P|297:220|288:263,1,75.0000028610231,8|0,0:0|0:0,0:0:0:0:
126,226,180327,2,0,P|173:219|216:228,1,75.0000028610231
86,354,180674,2,0,P|39:361|-4:352,1,75.0000028610231
39,198,181021,6,0,P|35:235|42:271,1,75.0000028610231
131,232,181368,1,8,0:0:0:0:
131,232,181541,1,0,0:0:0:0:
278,169,181715,2,0,P|254:197|223:219,1,75.0000028610231
278,24,182062,1,8,0:0:0:0:
284,42,182408,6,0,P|316:61|352:70,1,75.0000028610231
510,99,182755,2,0,P|477:118|441:127,1,75.0000028610231,8|0,0:0|0:0,0:0:0:0:
351,156,183102,2,0,P|360:192|379:224,1,75.0000028610231,0|0,2:0|0:0,0:0:0:0:
246,220,183449,2,0,P|226:252|217:288,1,75.0000028610231,0|0,2:0|0:0,0:0:0:0:
369,310,183796,6,0,P|336:290|300:281,1,75.0000028610231,0|0,2:0|0:0,0:0:0:0:
429,379,184142,2,0,P|448:347|458:311,1,75.0000028610231,8|0,2:0|0:0,0:0:0:0:
315,141,184489,1,0,0:0:0:0:
292,172,184576,1,0,0:0:0:0:
282,209,184663,1,0,0:0:0:0:
285,247,184749,1,0,0:0:0:0:
300,281,184836,1,8,0:0:0:0:
482,283,185009,1,0,0:0:0:0:
503,251,185096,1,0,0:0:0:0:
512,214,185183,6,0,P|508:176|494:142,1,75.0000028610231,4|0,2:0|0:0,0:0:0:0:
343,72,185530,2,0,P|323:104|314:140,1,75.0000028610231,8|0,2:0|0:0,0:0:0:0:
374,213,185877,2,0,P|393:180|402:144,1,75.0000028610231,0|0,2:0|0:0,0:0:0:0:
374,313,186223,2,0,P|410:303|442:284,1,75.0000028610231,8|0,2:0|0:0,0:0:0:0:
270,225,186570,6,0,P|234:235|202:254,1,75.0000028610231,0|0,2:0|0:0,0:0:0:0:
111,354,186917,2,0,P|75:344|43:325,1,75.0000028610231,8|0,2:0|0:0,0:0:0:0:
113,174,187264,2,0,P|119:210|115:247,1,75.0000028610231,0|0,2:0|0:0,0:0:0:0:
26,27,187611,1,0,0:0:0:0:
35,39,187957,6,0,L|119:37,1,75.0000028610231
296,138,188304,2,0,L|212:136,1,75.0000028610231,8|0,0:0|0:0,0:0:0:0:
59,127,188651,1,0,0:0:0:0:
214,58,188825,1,0,0:0:0:0:
124,201,188998,1,8,0:0:0:0:
109,37,189171,1,0,0:0:0:0:
126,214,189345,5,0,0:0:0:0:
107,24,189518,1,0,0:0:0:0:
174,303,189692,1,8,0:0:0:0:
214,73,189865,1,0,0:0:0:0:
149,320,190038,1,0,0:0:0:0:
111,322,190125,1,0,0:0:0:0:
74,313,190212,1,0,0:0:0:0:
44,289,190298,1,0,0:0:0:0:
24,257,190385,2,0,L|22:195,3,37.5000014305115,8|0|0|0,0:0|0:0|0:0|0:0,0:0:0:0:
22,178,190732,6,0,P|109:138|142:33,1,179.999994506836
36,28,191079,2,0,B|143:63|143:63|274:59,1,225.000008583069,4|0,0:0|0:0,0:0:0:0:
325,105,191426,1,0,0:0:0:0:
195,161,191599,1,0,0:0:0:0:
216,341,191772,2,0,B|195:161|195:161|182:231,1,225.000008583069,4|0,0:0|0:0,0:0:0:0:
51,340,192119,6,0,P|109:311|230:357,1,179.999994506836
295,290,192466,1,0,0:0:0:0:
402,93,192640,1,0,0:0:0:0:
381,367,192813,1,0,0:0:0:0:
304,148,192986,1,0,0:0:0:0:
504,127,193160,2,0,P|446:98|297:156,1,225.000008583069
456,216,193507,6,0,P|385:154|281:153,1,179.999994506836
264,322,193853,2,0,B|317:128|317:128|283:169,1,225.000008583069,4|0,0:0|0:0,0:0:0:0:
224,176,194200,1,0,0:0:0:0:
176,353,194374,1,0,0:0:0:0:
87,30,194547,2,0,B|140:223|140:223|158:164,1,225.000008583069,4|0,0:0|0:0,0:0:0:0:
201,94,194894,5,0,0:0:0:0:
21,193,195067,1,0,0:0:0:0:
26,316,195241,2,0,P|83:302|125:260,1,119.999996337891,8|0,0:0|0:0,0:0:0:0:
201,94,195588,1,0,0:0:0:0:
370,212,195761,1,0,0:0:0:0:
329,220,195848,1,0,0:0:0:0:
288,214,195934,1,8,0:0:0:0:
251,195,196021,1,0,0:0:0:0:
223,165,196108,1,0,0:0:0:0:
206,128,196194,1,0,0:0:0:0:
201,94,196281,5,4,0:0:0:0:
421,34,196455,1,0,0:0:0:0:
398,78,196541,1,0,0:0:0:0:
358,108,196628,2,0,P|330:117|292:112,3,50,8|0|0|0,0:0|0:0|0:0|0:0,0:0:0:0:
218,56,196975,2,0,P|194:47|169:47,1,50
96,66,197148,2,0,P|72:74|47:74,1,50
218,93,197322,2,0,P|194:101|169:101,1,50,8|0,0:0|0:0,0:0:0:0:
96,83,197495,2,0,P|72:74|47:74,1,50
62,177,197668,6,0,L|76:224,3,50
1,290,198015,2,0,P|84:323|153:284,1,150,8|0,0:0|0:0,0:0:0:0:
177,298,198362,2,0,L|202:126,1,150,8|0,0:0|0:0,0:0:0:0:
267,12,198709,2,0,P|291:12|315:19,3,50,8|0|0|0,0:0|0:0|0:0|0:0,0:0:0:0:
348,142,199056,6,0,P|335:163|317:181,3,50
197,149,199403,2,0,P|185:127|180:103,3,50
317,181,199749,2,0,L|276:219,1,50
232,280,199923,2,0,L|223:322,1,50
317,181,200096,2,0,L|330:247,1,50,8|0,0:0|0:0,0:0:0:0:
232,281,200270,2,0,L|202:321,1,50
124,357,200443,6,0,L|75:353,3,50
43,324,200790,2,0,P|94:253|102:186,1,150,8|0,0:0|0:0,0:0:0:0:
86,152,201137,2,0,P|160:175|255:164,1,150,8|0,0:0|0:0,0:0:0:0:
292,104,201483,2,0,L|296:41,3,50
355,155,201830,6,0,P|334:78|381:-17,1,150,4|0,0:0|0:0,0:0:0:0:
442,83,202177,1,8,0:0:0:0:
410,58,202264,1,0,0:0:0:0:
372,44,202351,1,0,0:0:0:0:
332,44,202437,1,0,0:0:0:0:
297,63,202524,1,0,0:0:0:0:
266,89,202611,1,0,0:0:0:0:
249,125,202697,1,0,0:0:0:0:
245,165,202784,1,0,0:0:0:0:
241,215,202871,5,8,0:0:0:0:
224,261,202957,1,0,0:0:0:0:
188,296,203044,1,0,0:0:0:0:
141,314,203131,1,0,0:0:0:0:
90,311,203218,1,4,0:0:0:0:
46,288,203304,1,0,0:0:0:0:
17,247,203391,1,0,0:0:0:0:
5,198,203478,1,0,0:0:0:0:
13,149,203564,5,8,0:0:0:0:
62,144,203651,1,0,0:0:0:0:
112,141,203738,1,0,0:0:0:0:
162,137,203825,1,0,0:0:0:0:
186,167,203911,1,0,0:0:0:0:
235,162,203998,1,0,0:0:0:0:
285,159,204085,1,0,0:0:0:0:
335,155,204172,1,0,0:0:0:0:
365,180,204258,1,8,0:0:0:0:
387,213,204345,1,0,0:0:0:0:
388,252,204431,1,0,0:0:0:0:
377,290,204518,1,0,0:0:0:0:
348,318,204605,6,0,L|279:338,3,50
256,318,204952,2,0,P|224:245|239:151,1,150,8|0,0:0|0:0,0:0:0:0:
331,114,205298,2,0,L|340:49,3,50
291,28,205645,2,0,P|374:52|455:23,1,150,8|0,0:0|0:0,0:0:0:0:
470,0,205992,6,0,L|468:150,1,119.999996337891,4|0,0:0|0:0,0:0:0:0:
228,176,206339,2,0,L|331:114,1,119.999996337891,4|0,0:0|0:0,0:0:0:0:
501,297,206686,2,0,L|396:238,1,119.999996337891,4|0,0:0|0:0,0:0:0:0:
344,364,207033,1,8,0:0:0:0:
228,176,207206,1,0,0:0:0:0:
216,214,207293,1,0,0:0:0:0:
219,251,207379,6,0,P|235:286|264:313,1,75.0000028610231,4|0,0:0|0:0,0:0:0:0:
296,116,207726,2,0,P|261:132|234:161,1,75.0000028610231
378,170,208073,2,0,P|394:136|396:99,1,75.0000028610231
219,251,208420,2,0,L|124:242,1,75.0000028610231,8|0,0:0|0:0,0:0:0:0:
38,111,208767,6,0,P|37:73|51:39,1,75.0000028610231
157,172,209114,2,0,P|157:209|143:243,1,75.0000028610231
132,88,209460,2,0,P|169:87|203:101,1,75.0000028610231
308,229,209807,2,0,P|342:242|379:242,1,75.0000028610231,8|0,0:0|0:0,0:0:0:0:
355,74,210154,6,0,L|354:167,1,75.0000028610231
459,189,210501,2,0,L|459:114,1,75.0000028610231
458,313,210848,1,0,0:0:0:0:
355,74,211021,1,0,0:0:0:0:
308,229,211194,2,0,P|342:242|379:242,1,75.0000028610231,8|0,0:0|0:0,0:0:0:0:
355,74,211541,5,0,0:0:0:0:
204,115,211715,1,0,0:0:0:0:
308,229,211888,1,0,0:0:0:0:
347,92,212062,1,0,0:0:0:0:
298,244,212235,1,0,0:0:0:0:
260,237,212322,1,0,0:0:0:0:
224,247,212408,1,0,0:0:0:0:
194,270,212495,1,0,0:0:0:0:
176,303,212582,1,8,0:0:0:0:
153,332,212668,1,0,0:0:0:0:
118,347,212755,1,0,0:0:0:0:
80,344,212842,1,0,0:0:0:0:
46,326,212929,6,0,P|33:292|33:255,1,75.0000028610231,4|0,0:0|0:0,0:0:0:0:
50,162,213275,2,0,P|50:124|37:89,1,75.0000028610231
33,253,213622,2,0,P|70:253|105:240,1,75.0000028610231
272,89,213969,2,0,P|234:88|199:101,1,75.0000028610231,8|0,0:0|0:0,0:0:0:0:
251,270,214316,6,0,L|249:169,1,75.0000028610231
391,259,214663,2,0,L|392:333,1,75.0000028610231
341,172,215009,2,0,P|375:158|413:159,1,75.0000028610231
192,352,215356,1,8,0:0:0:0:
129,168,215530,1,0,0:0:0:0:
51,324,215703,6,0,L|48:249,1,75.0000028610231
55,353,216050,1,0,0:0:0:0:
129,168,216223,1,0,0:0:0:0:
264,339,216397,2,0,P|229:352|191:351,1,75.0000028610231
247,181,216744,2,0,P|240:217|221:249,1,75.0000028610231,8|0,0:0|0:0,0:0:0:0:
159,26,217090,6,0,L|163:127,1,75.0000028610231
51,324,217437,2,0,L|48:249,1,75.0000028610231
165,118,217784,1,0,0:0:0:0:
247,181,217957,1,0,0:0:0:0:
266,74,218131,2,0,L|263:-1,1,75.0000028610231,8|0,0:0|0:0,0:0:0:0:
176,245,218478,6,0,P|221:276|304:260,1,100,4|0,0:0|0:0,0:0:0:0:
407,194,218825,1,8,0:0:0:0:
249,179,218998,1,0,0:0:0:0:
249,179,219085,1,0,0:0:0:0:
249,179,219171,1,0,0:0:0:0:
345,65,219345,1,0,0:0:0:0:
345,65,219431,1,0,0:0:0:0:
345,65,219518,1,8,0:0:0:0:
128,121,219692,1,0,0:0:0:0:
152,120,219778,1,0,0:0:0:0:
174,121,219865,6,0,P|224:142|249:180,1,100,0|0,0:0|0:0,0:0:0:0:
282,338,220212,1,8,0:0:0:0:
345,65,220385,1,0,0:0:0:0:
345,65,220472,1,0,0:0:0:0:
345,65,220559,1,0,0:0:0:0:
248,178,220732,1,0,0:0:0:0:
248,178,220819,1,0,0:0:0:0:
248,178,220905,1,8,0:0:0:0:
314,377,221079,1,0,0:0:0:0:
295,360,221166,1,0,0:0:0:0:
282,338,221252,5,4,0:0:0:0:
232,10,221599,1,4,0:0:0:0:
390,213,221946,1,4,0:0:0:0:
39,27,222293,1,4,0:0:0:0:
461,132,222640,5,4,0:0:0:0:
488,160,222726,1,0,0:0:0:0:
501,197,222813,1,0,0:0:0:0:
499,237,222900,1,0,0:0:0:0:
481,272,222986,1,8,0:0:0:0:
455,303,223073,1,0,0:0:0:0:
418,320,223160,1,0,0:0:0:0:
378,323,223246,1,0,0:0:0:0:
339,310,223333,1,0,0:0:0:0:
300,298,223420,1,0,0:0:0:0:
259,300,223507,1,0,0:0:0:0:
222,315,223593,1,0,0:0:0:0:
194,344,223680,2,0,P|132:283|144:207,1,150,8|2,0:2|0:0,0:2:0:0:
219,180,224027,6,0,P|233:279|163:364,1,179.999994506836
134,224,224374,2,0,B|225:209|259:88|259:88|244:111|207:123,1,225.000008583069,4|0,0:0|0:0,0:0:0:0:
197,49,224720,1,0,0:0:0:0:
303,263,224894,1,0,0:0:0:0:
81,274,225067,2,0,B|198:251|198:251|320:265,1,225.000008583069,4|0,0:0|0:0,0:0:0:0:
325,361,225414,6,0,P|328:282|429:206,1,179.999994506836
431,318,225761,1,0,0:0:0:0:
475,97,225934,1,0,0:0:0:0:
512,306,226108,1,0,0:0:0:0:
398,87,226281,1,0,0:0:0:0:
431,318,226455,2,0,L|481:71,1,225.000008583069,4|0,0:0|0:0,0:0:0:0:
491,20,226801,6,0,P|413:75|312:46,1,179.999994506836
163,53,227148,2,0,B|258:81|355:42|355:42|308:85,1,225.000008583069,4|0,0:0|0:0,0:0:0:0:
297,137,227495,1,0,0:0:0:0:
39,37,227668,1,0,0:0:0:0:
35,257,227842,2,0,B|15:158|15:158|41:23,1,225.000008583069,4|0,0:0|0:0,0:0:0:0:
113,63,228189,5,0,0:0:0:0:
325,280,228362,1,0,0:0:0:0:
239,41,228535,1,8,0:0:0:0:
213,325,228709,1,0,0:0:0:0:
167,340,228796,1,0,0:0:0:0:
119,335,228882,2,0,P|67:307|30:239,1,119.999996337891
239,41,229229,1,8,0:0:0:0:
287,50,229316,1,0,0:0:0:0:
326,79,229403,1,0,0:0:0:0:
351,119,229489,1,0,0:0:0:0:
354,167,229576,6,0,P|345:244|311:296,1,119.999996337891,4|0,0:0|0:0,0:0:0:0:
117,187,229923,2,0,P|191:163|252:173,1,119.999996337891,8|0,0:0|0:0,0:0:0:0:
40,336,230270,1,0,0:0:0:0:
40,336,230356,1,0,0:0:0:0:
40,336,230443,1,0,0:0:0:0:
7,128,230616,2,0,P|42:58|92:22,1,119.999996337891,8|0,0:0|0:0,0:0:0:0:
244,122,230963,6,0,L|114:142,1,119.999996337891
362,18,231310,2,0,L|492:-2,1,119.999996337891,8|0,0:0|0:0,0:0:0:0:
175,38,231657,1,0,0:0:0:0:
175,38,231744,1,0,0:0:0:0:
175,38,231830,1,0,0:0:0:0:
363,118,232004,2,0,P|341:173|299:215,1,119.999996337891,8|0,0:0|0:0,0:0:0:0:
114,96,232351,6,0,P|172:87|230:102,1,119.999996337891
225,329,232697,2,0,P|187:282|171:224,1,119.999996337891,8|0,0:0|0:0,0:0:0:0:
364,362,233044,1,0,0:0:0:0:
364,362,233131,1,0,0:0:0:0:
364,362,233218,1,0,0:0:0:0:
338,134,233391,2,0,P|300:180|284:238,1,119.999996337891,8|0,0:0|0:0,0:0:0:0:
484,117,233738,6,0,P|427:140|364:131,1,119.999996337891
284,238,234085,2,0,P|227:261|164:252,1,119.999996337891,8|0,0:0|0:0,0:0:0:0:
0,114,234431,1,0,0:0:0:0:
0,114,234518,1,0,0:0:0:0:
0,114,234605,1,0,0:0:0:0:
36,145,234692,1,0,0:0:0:0:
78,165,234778,1,8,0:0:0:0:
125,170,234865,1,0,0:0:0:0:
172,161,234952,1,0,0:0:0:0:
214,138,235038,1,0,0:0:0:0:
247,103,235125,6,0,P|243:39|199:-10,1,119.999996337891,4|0,0:0|0:0,0:0:0:0:
284,238,235472,2,0,P|348:234|397:190,1,119.999996337891,8|0,0:0|0:0,0:0:0:0:
119,66,235819,1,0,0:0:0:0:
119,66,235905,1,0,0:0:0:0:
119,66,235992,1,0,0:0:0:0:
36,231,236166,2,0,L|34:366,1,119.999996337891,8|0,0:0|0:0,0:0:0:0:
171,168,236512,6,0,P|157:110|118:65,1,119.999996337891
162,296,236859,2,0,P|219:282|264:243,1,119.999996337891,8|0,0:0|0:0,0:0:0:0:
26,125,237206,1,0,0:0:0:0:
26,125,237293,1,0,0:0:0:0:
26,125,237379,1,0,0:0:0:0:
162,296,237553,2,0,P|212:327|271:331,1,119.999996337891,8|0,0:0|0:0,0:0:0:0:
350,129,237900,6,0,L|326:-7,1,119.999996337891
141,177,238246,2,0,L|165:313,1,119.999996337891,8|0,0:0|0:0,0:0:0:0:
424,217,238593,1,0,0:0:0:0:
424,217,238680,1,0,0:0:0:0:
424,217,238767,1,0,0:0:0:0:
160,294,238940,2,0,P|219:304|278:292,1,119.999996337891,8|0,0:0|0:0,0:0:0:0:
23,179,239287,6,0,P|120:170|173:193,1,119.999996337891
424,217,239634,2,0,P|444:159|434:65,1,119.999996337891,8|0,0:0|0:0,0:0:0:0:
201,23,239981,1,0,0:0:0:0:
201,23,240067,1,0,0:0:0:0:
201,23,240154,1,0,0:0:0:0:
161,50,240241,1,0,0:0:0:0:
144,94,240327,1,8,0:0:0:0:
137,141,240414,1,0,0:0:0:0:
144,188,240501,1,0,0:0:0:0:
164,231,240588,1,0,0:0:0:0:
199,263,240674,6,0,P|263:279|328:268,1,119.999996337891,4|0,0:0|0:0,0:0:0:0:
476,129,241021,2,0,L|485:9,1,119.999996337891,8|0,0:0|0:0,0:0:0:0:
285,70,241368,1,0,0:0:0:0:
285,70,241455,1,0,0:0:0:0:
285,70,241541,1,0,0:0:0:0:
403,235,241715,2,0,P|489:265|550:228,1,119.999996337891,8|0,0:0|0:0,0:0:0:0:
285,70,242062,6,0,P|198:39|137:76,1,119.999996337891
407,42,242408,2,0,P|488:0|553:28,1,119.999996337891,8|0,0:0|0:0,0:0:0:0:
314,279,242755,1,0,0:0:0:0:
314,279,242842,1,0,0:0:0:0:
314,279,242929,1,0,0:0:0:0:
161,165,243102,2,0,L|176:34,1,119.999996337891,8|0,0:0|0:0,0:0:0:0:
407,252,243449,6,0,P|402:322|348:373,1,119.999996337891
161,165,243796,2,0,P|166:95|220:44,1,119.999996337891,8|0,0:0|0:0,0:0:0:0:
314,279,244142,1,0,0:0:0:0:
314,279,244229,1,0,0:0:0:0:
314,279,244316,1,0,0:0:0:0:
125,359,244489,2,0,P|55:354|4:300,1,119.999996337891,8|0,0:0|0:0,0:0:0:0:
118,120,244836,6,0,L|95:268,1,119.999996337891
137,10,245183,1,8,0:0:0:0:
95,270,245356,1,0,0:0:0:0:
3,40,245530,1,0,0:0:0:0:
215,293,245703,1,0,0:0:0:0:
252,322,245790,1,0,0:0:0:0:
297,337,245877,1,8,0:0:0:0:
344,342,245963,1,0,0:0:0:0:
392,338,246050,1,0,0:0:0:0:
438,323,246137,1,0,0:0:0:0:
479,299,246223,6,0,B|509:238|491:144|491:144|488:202|430:239,1,239.999992675781,4|8,0:0|0:0,0:0:0:0:
215,293,246744,1,0,0:0:0:0:
276,85,246917,1,0,0:0:0:0:
296,40,247004,1,0,0:0:0:0:
338,17,247090,1,0,0:0:0:0:
223,278,247264,1,8,0:0:0:0:
404,138,247437,1,0,0:0:0:0:
215,293,247611,6,0,P|147:296|84:242,1,119.999996337891,4|0,0:0|0:0,0:0:0:0:
47,12,247957,1,8,0:0:0:0:
383,136,248131,1,0,0:0:0:0:
16,98,248304,1,0,0:0:0:0:
18,50,248391,1,0,0:0:0:0:
47,12,248478,1,0,0:0:0:0:
104,270,248651,1,8,0:0:0:0:
216,0,248825,1,0,0:0:0:0:
204,286,248998,6,0,B|190:343|206:391|206:391|217:350,1,119.999996337891,4|0,0:0|0:0,0:0:0:0:
309,92,249345,2,0,B|323:35|307:-13|307:-13|296:28,1,119.999996337891,4|0,0:0|0:0,0:0:0:0:
405,359,249692,2,0,B|462:373|510:357|510:357|469:346,1,119.999996337891,4|0,0:0|0:0,0:0:0:0:
120,22,250039,2,0,B|63:8|15:24|15:24|56:35,1,119.999996337891,4|0,0:0|0:0,0:0:0:0:
204,286,250385,5,4,0:0:0:0:
512,122,250559,1,0,0:0:0:0:
484,84,250645,1,0,0:0:0:0:
443,58,250732,1,8,0:0:0:0:
397,42,250819,1,0,0:0:0:0:
349,45,250905,1,0,0:0:0:0:
303,60,250992,1,0,0:0:0:0:
263,89,251079,2,0,P|179:106|103:-4,1,179.999994506836,4|0,0:0|0:0,0:0:0:0:
113,4,251426,2,0,B|138:71|114:142|114:142|114:121|99:92,1,179.999994506836,8|0,0:0|0:0,0:0:0:0:
66,132,251772,6,0,P|74:230|134:310,1,200,4|0,0:0|0:0,0:0:0:0:
206,162,252119,1,8,0:0:0:0:
1,298,252293,1,0,0:0:0:0:
222,333,252466,1,0,0:0:0:0:
270,345,252553,1,0,0:0:0:0:
318,357,252640,1,0,0:0:0:0:
311,201,252813,1,8,0:0:0:0:
116,384,252986,1,0,0:0:0:0:
16,155,253160,6,0,P|4:67|147:9,1,200,4|0,0:0|0:0,0:0:0:0:
127,244,253507,1,8,0:0:0:0:
229,13,253680,1,0,0:0:0:0:
26,260,253853,1,0,0:0:0:0:
41,307,253940,1,0,0:0:0:0:
79,338,254027,1,0,0:0:0:0:
359,300,254200,1,8,0:0:0:0:
140,248,254374,1,0,0:0:0:0:
377,299,254547,6,0,P|463:258|497:145,1,200,4|0,0:0|0:0,0:0:0:0:
266,47,254894,1,8,0:0:0:0:
343,303,255067,1,0,0:0:0:0:
496,121,255241,1,0,0:0:0:0:
492,70,255327,1,0,0:0:0:0:
488,20,255414,1,0,0:0:0:0:
424,304,255588,1,8,0:0:0:0:
274,57,255761,1,0,0:0:0:0:
241,344,255934,6,0,P|166:345|72:238,1,200,4|0,0:0|0:0,0:0:0:0:
70,21,256281,1,8,0:0:0:0:
190,236,256455,1,0,0:0:0:0:
391,21,256628,1,0,0:0:0:0:
439,34,256715,1,0,0:0:0:0:
477,65,256801,1,0,0:0:0:0:
498,110,256888,1,0,0:0:0:0:
499,160,256975,1,8,0:0:0:0:
483,207,257062,1,0,0:0:0:0:
446,240,257148,1,0,0:0:0:0:
399,259,257235,1,0,0:0:0:0:
349,251,257322,6,0,P|278:189|297:56,1,200,4|0,0:0|0:0,0:0:0:0:
499,160,257668,1,8,0:0:0:0:
362,19,257842,1,0,0:0:0:0:
349,251,258015,2,0,P|254:257|174:149,1,200,4|0,0:0|0:0,0:0:0:0:
84,0,258362,1,8,0:0:0:0:
23,208,258535,1,0,0:0:0:0:
182,188,258709,6,0,B|214:106|186:21|186:21|152:109,1,200,4|0,0:0|0:0,0:0:0:0:
106,278,259056,2,0,P|183:303|295:203,1,200,8|0,0:0|0:0,0:0:0:0:
477,89,259403,2,0,P|400:64|288:164,1,200,4|0,0:0|0:0,0:0:0:0:
403,343,259749,2,0,B|435:261|407:176|407:176|373:264,1,200,8|0,0:0|0:0,0:0:0:0:
288,334,260096,6,0,P|208:389|114:366,1,200,4|0,0:0|0:0,0:0:0:0:
77,131,260443,2,0,P|164:172|192:265,1,200,8|0,0:0|0:0,0:0:0:0:
228,19,260790,2,0,P|255:112|343:153,1,200,4|0,0:0|0:0,0:0:0:0:
512,52,261137,2,0,B|332:44|332:44|402:81,1,200,8|0,0:0|0:0,0:0:0:0:
512,244,261483,6,0,L|229:235,1,200,4|0,0:0|0:0,0:0:0:0:
83,163,261830,1,8,0:0:0:0:
294,236,262004,1,0,0:0:0:0:
302,287,262090,1,0,0:0:0:0:
284,334,262177,1,0,0:0:0:0:
244,365,262264,1,0,0:0:0:0:
195,378,262351,1,0,0:0:0:0:
147,363,262437,1,0,0:0:0:0:
108,331,262524,1,8,0:0:0:0:
94,282,262611,1,0,0:0:0:0:
104,233,262697,1,0,0:0:0:0:
136,194,262784,1,0,0:0:0:0:
182,174,262871,6,0,P|100:279|-34:235,1,200,4|0,0:0|0:0,0:0:0:0:
12,101,263218,1,8,0:0:0:0:
199,271,263391,1,0,0:0:0:0:
251,58,263564,1,0,0:0:0:0:
209,28,263651,1,0,0:0:0:0:
159,17,263738,1,0,0:0:0:0:
203,259,263911,1,8,0:0:0:0:
338,22,264085,1,0,0:0:0:0:
315,281,264258,6,0,P|254:365|153:363,1,200,4|0,0:0|0:0,0:0:0:0:
60,63,264605,1,8,0:0:0:0:
62,77,264692,1,0,0:0:0:0:
64,91,264778,1,0,0:0:0:0:
66,105,264865,1,0,0:0:0:0:
68,119,264952,5,0,0:0:0:0:
96,162,265038,1,0,0:0:0:0:
139,190,265125,1,0,0:0:0:0:
191,194,265212,1,0,0:0:0:0:
241,179,265298,1,8,0:0:0:0:
293,171,265385,1,0,0:0:0:0:
344,180,265472,1,0,0:0:0:0:
391,202,265559,1,0,0:0:0:0:
429,236,265645,6,0,P|465:312|444:378,1,150.000005722046,4|0,0:0|0:0,0:0:0:0:
231,249,265992,1,8,0:0:0:0:
512,193,266166,1,0,0:0:0:0:
192,328,266339,1,0,0:0:0:0:
140,340,266426,1,0,0:0:0:0:
88,332,266512,1,0,0:0:0:0:
45,300,266599,1,0,0:0:0:0:
18,254,266686,1,8,0:0:0:0:
55,217,266772,1,0,0:0:0:0:
104,199,266859,1,0,0:0:0:0:
156,196,266946,1,0,0:0:0:0:
205,213,267033,6,0,P|287:249|403:197,1,200,4|0,0:0|0:0,0:0:0:0:
442,67,267379,1,8,0:0:0:0:
431,56,267466,1,0,0:0:0:0:
418,48,267553,1,0,0:0:0:0:
404,42,267640,1,0,0:0:0:0:
389,39,267726,2,0,P|307:75|191:23,1,200,4|0,0:0|0:0,0:0:0:0:
44,0,268073,1,8,0:0:0:0:
16,42,268160,1,0,0:0:0:0:
3,89,268246,1,0,0:0:0:0:
0,139,268333,1,0,0:0:0:0:
12,187,268420,6,0,P|34:266|125:358,1,200,4|0,0:0|0:0,0:0:0:0:
309,180,268767,1,8,0:0:0:0:
89,142,268940,1,0,0:0:0:0:
291,314,269114,1,0,0:0:0:0:
340,313,269200,1,0,0:0:0:0:
386,293,269287,1,0,0:0:0:0:
300,16,269460,1,8,0:0:0:0:
247,296,269634,1,0,0:0:0:0:
503,217,269807,6,0,P|503:116|450:4,1,200,4|0,0:0|0:0,0:0:0:0:
349,193,270154,2,0,P|349:294|296:406,1,200,8|0,0:0|0:0,0:0:0:0:
9,217,270501,2,0,P|9:116|62:4,1,200,4|0,0:0|0:0,0:0:0:0:
163,193,270848,2,0,P|163:294|216:406,1,200,8|0,0:0|0:0,0:0:0:0:
263,158,271194,6,0,P|216:97|83:118,1,200,4|0,0:0|0:0,0:0:0:0:
77,340,271541,1,8,0:0:0:0:
304,260,271715,2,0,P|364:213|344:80,1,200,4|0,0:0|0:0,0:0:0:0:
63,157,272062,2,0,L|280:158,1,200,4|0,0:0|0:0,0:0:0:0:
503,259,272408,6,0,L|286:260,1,200,4|0,0:0|0:0,0:0:0:0:
107,334,272755,2,0,P|167:300|293:365,1,200,0|8,0:0|0:0,0:0:0:0:
25,295,273102,2,0,P|-12:204|140:132,1,300
168,149,273449,1,0,0:0:0:0:
184,107,273535,1,0,0:0:0:0:
215,75,273622,1,8,0:0:0:0:
259,66,273709,1,0,0:0:0:0:
303,74,273796,1,0,0:0:0:0:
346,81,273882,1,0,0:0:0:0:
385,67,273969,5,4,0:0:0:0:
486,1,274142,1,0,0:0:0:0:
512,112,274316,2,0,B|502:159|502:159|477:204,1,100,8|0,0:0|0:0,0:0:0:0:
393,302,274663,1,0,0:0:0:0:
393,302,274836,1,0,0:0:0:0:
492,289,275009,2,0,B|440:288|440:288|393:302,1,100,8|0,0:0|0:0,0:0:0:0:
296,357,275356,5,0,0:0:0:0:
343,217,275530,1,0,0:0:0:0:
234,281,275703,2,0,B|182:281|182:281|135:267,1,100,8|0,0:0|0:0,0:0:0:0:
196,166,276050,1,0,0:0:0:0:
196,166,276223,1,0,0:0:0:0:
261,74,276397,2,0,B|214:60|214:60|163:61,1,100,8|0,0:0|0:0,0:0:0:0:
69,65,276744,5,0,0:0:0:0:
99,153,276917,1,0,0:0:0:0:
196,166,277090,2,0,B|149:152|149:152|97:152,1,100,8|0,0:0|0:0,0:0:0:0:
289,222,277437,1,0,0:0:0:0:
289,222,277611,1,0,0:0:0:0:
382,273,277784,2,0,B|428:286|428:286|480:286,1,100,8|0,0:0|0:0,0:0:0:0:
380,174,278131,5,0,0:0:0:0:
275,320,278304,1,0,0:0:0:0:
289,222,278478,2,0,B|275:268|275:268|275:320,1,100,8|0,0:0|0:0,0:0:0:0:
380,174,278825,1,0,0:0:0:0:
485,120,278998,1,0,0:0:0:0:
495,70,279085,1,0,0:0:0:0:
478,23,279171,1,8,0:0:0:0:
438,52,279258,1,0,0:0:0:0:
390,64,279345,1,0,0:0:0:0:
341,71,279431,1,0,0:0:0:0:
291,71,279518,6,0,B|208:69|208:69|136:39|136:39|147:62|147:62|169:81,1,200,4|8,0:0|0:0,0:0:0:0:
242,190,280038,1,0,0:0:0:0:
86,157,280212,2,0,B|55:119|55:119|35:71,1,100
241,202,280559,2,0,B|223:247|223:247|192:288,1,100,8|0,0:0|0:0,0:0:0:0:
374,347,280905,6,0,B|293:291|293:291|158:286,1,200,0|8,0:0|0:0,0:0:0:0:
82,345,281426,1,0,0:0:0:0:
34,238,281599,2,0,B|16:192|16:192|12:141,1,100
100,13,281946,1,8,0:0:0:0:
193,154,282119,1,0,0:0:0:0:
329,52,282293,5,0,0:0:0:0:
329,52,282466,2,0,P|373:28|423:25,1,100,0|8,0:0|0:0,0:0:0:0:
492,198,282813,1,0,0:0:0:0:
492,198,282987,2,0,P|454:164|407:150,1,100,0|0,0:0|0:0,0:0:0:0:
304,302,283333,1,8,0:0:0:0:
304,302,283507,2,0,P|347:280|397:276,1,100,0|0,0:0|0:0,0:0:0:0:
195,384,283853,6,0,L|160:275,1,100,0|8,0:0|0:0,0:0:0:0:
172,152,284200,1,0,0:0:0:0:
172,152,284374,1,0,0:0:0:0:
250,251,284547,1,0,0:0:0:0:
284,214,284634,1,0,0:0:0:0:
298,166,284720,1,8,0:0:0:0:
295,115,284807,1,0,0:0:0:0:
271,70,284894,1,0,0:0:0:0:
231,38,284981,1,0,0:0:0:0:
183,23,285067,6,0,L|125:44,1,50,0|0,0:1|0:1,0:1:0:0:
16,80,285241,2,0,L|74:101,1,50,0|0,0:1|0:1,0:1:0:0:
172,152,285414,2,0,L|114:173,1,50,8|0,0:1|0:1,0:1:0:0:
55,205,285588,1,0,0:1:0:0:
22,242,285674,1,0,0:1:0:0:
13,291,285761,1,0,0:1:0:0:
27,339,285848,1,0,0:1:0:0:
64,371,285934,1,0,0:1:0:0:
112,384,286021,1,0,0:1:0:0:
138,341,286108,1,8,0:1:0:0:
178,369,286194,1,0,0:1:0:0:
227,377,286281,1,0,0:1:0:0:
277,373,286368,1,0,0:1:0:0:
321,353,286455,6,0,P|387:307|414:194,2,179.999994506836,4|4|4,0:3|0:0|0:3,0:0:0:0:
512,179,287148,2,0,B|522:110|522:110|510:45,1,119.999996337891
307,114,287495,2,0,B|297:183|297:183|309:248,1,119.999996337891,8|0,0:0|0:0,0:0:0:0:
168,344,287842,6,0,B|99:334|99:334|34:346,1,119.999996337891,4|0,0:0|0:0,0:0:0:0:
0,255,288189,2,0,B|45:203|45:203|89:199|89:199|110:148|110:148|100:72|100:72|162:92|162:92|259:63,1,359.999989013672
343,0,288882,1,0,0:0:0:0:
507,41,289056,1,0,0:0:0:0:
512,88,289142,1,0,0:0:0:0:
508,136,289229,6,0,B|458:176|458:176|454:243|454:243|345:202|345:202|296:228|296:228|264:217|264:217|305:191,1,359.999989013672
334,118,289923,2,0,B|344:49|344:49|332:-16,1,119.999996337891
68,38,290270,2,0,B|58:107|58:107|70:172,1,119.999996337891
281,246,290616,5,0,0:0:0:0:
129,308,290790,1,0,0:0:0:0:
67,156,290963,1,8,0:0:0:0:
219,94,291137,1,0,0:0:0:0:
281,246,291310,1,0,0:0:0:0:
334,145,291483,2,0,B|324:203|324:203|272:252,2,119.999996337891,0|8|0,0:0|0:0|0:0,0:0:0:0:
258,43,292004,5,0,0:0:0:0:
226,153,292177,1,0,0:0:0:0:
67,206,292351,1,0,0:3:0:0:
74,157,292437,1,0,0:3:0:0:
64,110,292524,1,0,0:3:0:0:
21,275,292697,1,4,0:0:0:0:
169,239,292871,1,0,0:3:0:0:
159,286,292958,1,0,0:3:0:0:
166,335,293044,2,0,B|235:345|235:345|300:333,1,119.999996337891,8|0,0:0|0:0,0:0:0:0:
399,241,293391,6,0,B|428:156|428:156|391:90|391:90|412:-1,1,239.999992675781,0|8,0:0|0:0,0:0:0:0:
512,207,293911,2,0,B|462:376|462:376|459:336|459:336|436:289,1,239.999992675781
299,185,294431,2,0,B|233:177|233:177|158:200,1,119.999996337891,8|0,0:0|0:0,0:0:0:0:
35,70,294778,6,0,B|27:136|27:136|50:211,1,119.999996337891
181,192,295125,2,0,B|189:258|189:258|166:333,1,119.999996337891,8|0,0:0|0:0,0:0:0:0:
68,365,295472,2,0,B|104:341|104:341|143:329|143:329|197:292,1,119.999996337891
181,192,295819,2,0,B|210:171|210:171|249:159|249:159|285:135,1,119.999996337891
288,15,296166,6,0,L|285:134,1,119.999996337891
184,72,296512,2,0,L|181:191,1,119.999996337891,8|0,0:0|0:0,0:0:0:0:
64,130,296859,2,0,B|62:228|62:228|96:277|96:277|94:371|94:371,1,239.999992675781,0|8,0:0|0:0,0:0:0:0:
271,372,297379,6,0,L|274:253,1,119.999996337891
426,98,297726,1,0,0:0:0:0:
453,137,297813,1,0,0:0:0:0:
480,176,297900,2,0,L|479:278,2,59.9999981689454,8|0|0,0:0|0:0|0:0,0:0:0:0:
368,27,298246,1,4,0:0:0:0:
273,261,298420,1,0,0:0:0:0:
246,220,298507,1,0,0:0:0:0:
265,176,298593,1,8,0:0:0:0:
246,131,298680,1,0,0:0:0:0:
219,90,298767,1,0,0:0:0:0:
171,84,298853,1,0,0:0:0:0:
128,107,298940,6,0,B|103:162|103:162|112:246,1,119.999996337891
3,230,299287,2,0,B|24:286|24:286|89:339,1,119.999996337891,8|0,0:0|0:0,0:0:0:0:
319,204,299634,2,0,B|283:253|283:253|206:287,1,119.999996337891
274,373,299981,2,0,B|215:382|215:382|136:353,1,119.999996337891,8|0,0:0|0:0,0:0:0:0:
408,286,300327,6,0,B|433:231|433:231|402:67,2,179.999994506836
302,45,301021,1,0,0:0:0:0:
228,257,301194,2,0,L|204:139,1,119.999996337891
206,363,301541,1,0,0:0:0:0:
288,124,301715,6,0,L|263:6,1,119.999996337891,0|8,0:0|0:0,0:0:0:0:
128,101,302062,1,8,0:0:0:0:
360,14,302235,1,0,0:0:0:0:
228,257,302408,1,0,0:0:0:0:
403,79,302581,1,0,0:0:0:0:
413,318,302756,1,8,0:0:0:0:
470,106,302929,1,0,0:0:0:0:
253,152,303102,5,0,0:0:0:0:
413,318,303275,1,0,0:0:0:0:
470,106,303449,1,8,0:0:0:0:
401,299,303622,1,0,0:0:0:0:
253,152,303796,1,0,0:0:0:0:
210,130,303882,1,0,0:0:0:0:
162,137,303969,1,0,0:0:0:0:
122,164,304056,1,0,0:0:0:0:
104,208,304142,2,0,B|70:153|70:153|72:85,1,119.999996337891,8|0,0:0|0:0,0:0:0:0:
255,32,304489,6,0,L|252:151,1,119.999996337891
227,293,304836,1,8,0:0:0:0:
257,15,305009,1,0,0:0:0:0:
426,258,305183,1,0,0:0:0:0:
251,151,305356,1,0,0:0:0:0:
103,206,305530,1,0,0:0:0:0:
68,381,305703,1,8,0:0:0:0:
10,123,305877,6,0,B|75:98|75:98|13:180|13:180|13:289,1,239.999992675781,0|8,0:0|0:0,0:0:0:0:
227,293,306397,1,0,0:0:0:0:
198,142,306570,2,0,B|142:159|142:159|103:207,1,119.999996337891
354,7,306917,2,0,B|336:62|336:62|288:101,1,119.999996337891,8|0,0:0|0:0,0:0:0:0:
78,151,307264,6,0,L|198:142,1,119.999996337891
361,251,307611,2,0,L|241:260,1,119.999996337891,8|0,0:0|0:0,0:0:0:0:
454,246,307957,1,0,0:0:0:0:
143,266,308131,1,0,0:0:0:0:
465,201,308304,1,0,0:0:0:0:
474,153,308391,1,0,0:0:0:0:
483,105,308478,1,0,0:0:0:0:
311,180,308651,6,0,L|339:27,1,119.999996337891
385,361,308998,1,8,0:0:0:0:
215,346,309171,1,0,0:0:0:0:
167,342,309258,1,0,0:0:0:0:
119,337,309345,2,0,L|-27:323,1,119.999996337891,4|0,0:0|0:0,0:0:0:0:
311,180,309692,2,0,L|191:191,1,119.999996337891,4|0,0:0|0:0,0:0:0:0:
512,0,310038,5,4,0:0:0:0:
36,40,321137,5,0,0:0:0:0:
39,54,321483,1,0,0:0:0:0:
42,68,321830,1,0,0:0:0:0:
45,82,322177,1,0,0:0:0:0:
137,133,322524,5,0,0:0:0:0:
134,147,322871,1,0,0:0:0:0:
131,161,323217,1,0,0:0:0:0:
128,175,323564,1,0,0:0:0:0:
22,266,323911,5,0,0:0:0:0:
110,247,324258,1,0,0:0:0:0:
179,303,324605,1,0,0:0:0:0:
262,269,324952,1,0,0:0:0:0:
110,247,325298,5,0,0:0:0:0:
179,303,325645,1,0,0:0:0:0:
262,269,325992,1,0,0:0:0:0:
201,155,326339,1,0,0:0:0:0:
201,155,326426,1,0,0:0:0:0:
201,155,326512,1,0,0:0:0:0:
201,155,326599,1,0,0:0:0:0:
201,155,326686,5,0,0:0:0:0:
325,41,327033,1,0,0:0:0:0:
439,166,327379,1,0,0:0:0:0:
314,279,327726,1,0,0:0:0:0:
201,155,328073,5,0,0:0:0:0:
403,86,328420,1,0,0:0:0:0:
471,290,328766,1,0,0:0:0:0:
273,361,329113,1,0,0:0:0:0:
312,258,329287,1,0,0:0:0:0:
247,348,329460,6,0,L|179:316,1,75.0000028610231,8|0,0:0|0:0,0:0:0:0:
421,310,329807,2,0,L|352:278,1,75.0000028610231,8|0,0:0|0:0,0:0:0:0:
247,348,330154,2,0,L|138:296,1,119.999996337891
421,310,330501,2,0,L|312:258,1,119.999996337891,8|0,0:0|0:0,0:0:0:0:
176,175,330848,5,0,0:0:0:0:
109,0,331021,1,0,0:0:0:0:
52,174,331194,1,8,0:0:0:0:
194,31,331368,1,0,0:0:0:0:
233,15,331455,1,0,0:0:0:0:
274,11,331541,1,0,0:0:0:0:
315,18,331628,1,0,0:0:0:0:
352,36,331715,1,0,0:0:0:0:
379,67,331801,1,0,0:0:0:0:
394,106,331888,2,0,P|393:162|363:219,1,119.999996337891,8|0,0:0|0:0,0:0:0:0:
154,153,332235,6,0,P|205:130|269:133,1,119.999996337891,4|0,0:0|0:0,0:0:0:0:
68,350,332582,2,0,P|64:290|88:235,1,119.999996337891,8|0,0:0|0:0,0:0:0:0:
305,289,332929,2,0,P|253:311|189:308,1,119.999996337891,8|0,0:0|0:0,0:0:0:0:
267,132,333275,1,8,0:0:0:0:
88,235,333449,1,0,0:0:0:0:
50,205,333535,1,0,0:0:0:0:
34,159,333622,6,0,L|28:7,1,119.999996337891,4|0,0:0|0:0,0:0:0:0:
96,347,333969,2,0,P|167:313|199:252,1,119.999996337891,8|0,0:0|0:0,0:0:0:0:
34,159,334316,2,0,P|108:185|174:164,1,119.999996337891
266,32,334663,1,8,0:0:0:0:
378,185,334836,1,0,0:0:0:0:
378,136,334923,1,0,0:0:0:0:
378,94,335009,5,4,0:0:0:0:
378,220,335183,1,0,0:0:0:0:
401,63,335356,1,8,0:0:0:0:
356,247,335530,1,0,0:0:0:0:
252,115,335703,1,0,0:0:0:0:
252,115,335790,1,0,0:0:0:0:
252,115,335877,1,0,0:0:0:0:
436,307,336050,2,0,P|373:345|306:333,1,119.999996337891,8|0,0:0|0:0,0:0:0:0:
144,150,336397,6,0,P|207:112|274:124,1,119.999996337891
436,307,336744,1,8,0:0:0:0:
208,375,336917,1,0,0:0:0:0:
208,375,337004,1,0,0:0:0:0:
208,375,337090,1,0,0:0:0:0:
159,376,337177,1,0,0:0:0:0:
111,367,337264,1,0,0:0:0:0:
69,343,337351,1,0,0:0:0:0:
38,307,337437,1,8,0:0:0:0:
26,260,337524,1,0,0:0:0:0:
30,211,337611,1,0,0:0:0:0:
52,168,337697,1,0,0:0:0:0:
88,136,337784,6,0,P|149:117|235:153,1,119.999996337891,4|0,0:0|0:0,0:0:0:0:
385,229,338131,2,0,P|323:247|237:211,1,119.999996337891
507,117,338478,1,0,0:0:0:0:
507,117,338564,1,0,0:0:0:0:
507,117,338651,1,0,0:0:0:0:
319,7,338825,2,0,L|324:126,1,119.999996337891,8|0,0:0|0:0,0:0:0:0:
512,236,339171,6,0,L|507:117,1,119.999996337891
349,309,339518,2,0,P|436:330|478:306,1,119.999996337891,8|0,0:0|0:0,0:0:0:0:
324,126,339865,1,0,0:0:0:0:
324,126,339952,1,0,0:0:0:0:
324,126,340038,1,0,0:0:0:0:
258,374,340212,2,0,P|338:331|354:267,1,119.999996337891,8|0,0:0|0:0,0:0:0:0:
109,257,340559,6,0,L|263:275,1,119.999996337891
25,182,340905,2,0,P|-4:238|25:336,1,119.999996337891,8|0,0:0|0:0,0:0:0:0:
99,6,341252,1,0,0:0:0:0:
99,6,341339,1,0,0:0:0:0:
99,6,341426,1,0,0:0:0:0:
324,126,341599,2,0,L|205:113,1,119.999996337891,8|0,0:0|0:0,0:0:0:0:
511,16,341946,6,0,L|392:30,1,119.999996337891
288,190,342293,2,0,P|232:160|200:78,1,119.999996337891,8|0,0:0|0:0,0:0:0:0:
469,192,342640,1,0,0:0:0:0:
469,192,342726,1,0,0:0:0:0:
469,192,342813,1,0,0:0:0:0:
458,239,342900,1,0,0:0:0:0:
435,280,342986,1,8,0:0:0:0:
404,317,343073,1,0,0:0:0:0:
361,340,343160,1,0,0:0:0:0:
314,348,343246,1,0,0:0:0:0:
265,344,343333,6,0,P|191:311|164:250,1,119.999996337891,4|0,0:0|0:0,0:0:0:0:
311,69,343680,2,0,P|319:149|280:203,1,119.999996337891,8|0,0:0|0:0,0:0:0:0:
171,280,344027,1,0,0:0:0:0:
171,280,344114,1,0,0:0:0:0:
171,280,344200,1,0,0:0:0:0:
50,166,344374,2,0,P|115:118|181:125,1,119.999996337891
0,376,344720,6,0,L|40:220,1,119.999996337891
122,0,345067,2,0,L|151:116,1,119.999996337891,8|0,0:0|0:0,0:0:0:0:
325,25,345414,1,0,0:0:0:0:
325,25,345501,1,0,0:0:0:0:
325,25,345588,1,0,0:0:0:0:
122,0,345761,2,0,P|69:27|42:80,1,119.999996337891,8|0,0:0|0:0,0:0:0:0:
164,294,346108,6,0,P|216:267|244:214,1,119.999996337891
325,25,346455,2,0,L|354:141,1,119.999996337891,8|0,0:0|0:0,0:0:0:0:
154,26,346801,1,0,0:0:0:0:
154,26,346888,1,0,0:0:0:0:
154,26,346975,1,0,0:0:0:0:
327,252,347148,2,0,P|386:251|435:219,1,119.999996337891,8|0,0:0|0:0,3:0:0:0:
111,227,347495,6,0,L|140:343,1,119.999996337891
13,153,347842,1,8,0:0:0:0:
285,368,348015,1,0,0:0:0:0:
30,167,348189,1,0,0:0:0:0:
262,354,348362,1,0,0:0:0:0:
236,312,348449,1,0,0:0:0:0:
232,264,348535,1,8,0:0:0:0:
248,218,348622,1,0,0:0:0:0:
282,184,348709,1,0,0:0:0:0:
327,167,348796,1,0,0:0:0:0:
374,169,348882,6,0,B|496:179|500:33|500:33|492:58|457:84,1,239.999992675781,4|0,0:0|0:0,0:0:0:0:
346,279,349403,1,0,0:0:0:0:
231,112,349576,1,0,0:0:0:0:
224,63,349663,1,0,0:0:0:0:
245,19,349749,1,0,0:0:0:0:
355,298,349923,1,8,0:0:0:0:
488,54,350096,1,0,0:0:0:0:
333,384,350270,6,0,P|276:340|268:242,1,119.999996337891,4|0,0:0|0:0,0:0:0:0:
368,69,350616,1,8,0:0:0:0:
484,323,350790,1,0,0:0:0:0:
231,112,350964,1,0,0:0:0:0:
183,101,351050,1,0,0:0:0:0:
137,119,351137,1,0,0:0:0:0:
392,190,351310,1,8,0:0:0:0:
8,218,351483,1,0,0:0:0:0:
405,359,351657,6,0,B|462:373|510:357|510:357|496:353,1,119.999996337891,4|0,0:0|0:0,0:0:0:0:
120,22,352004,2,0,B|63:8|15:24|15:24|28:27,1,119.999996337891,4|0,0:0|0:0,0:0:0:0:
511,112,352351,2,0,B|525:55|509:7|509:7|506:21,1,119.999996337891,4|0,0:0|0:0,0:0:0:0:
1,272,352697,2,0,B|-13:329|3:377|3:377|6:363,1,119.999996337891,4|0,0:0|0:0,0:0:0:0:
120,22,353044,5,4,0:0:0:0:
294,328,353218,1,0,0:0:0:0:
319,365,353304,1,0,0:0:0:0:
361,385,353391,1,8,0:0:0:0:
410,383,353478,1,0,0:0:0:0:
452,357,353564,1,0,0:0:0:0:
474,314,353651,1,0,0:0:0:0:
486,268,353738,2,0,B|456:191|449:120|449:120|442:158,1,179.999994506836,4|0,0:0|0:0,0:0:0:0:
409,96,354085,2,0,B|395:178|403:249|403:249|388:213,1,179.999994506836,8|0,0:0|0:0,0:0:0:0:
370,193,354431,6,0,B|381:28|381:28|357:89,1,200,4|0,0:0|0:0,0:0:0:0:
142,193,355125,2,0,B|130:28|130:28|154:89,1,200,4|0,0:0|0:0,0:0:0:0:
418,307,355819,6,0,B|429:142|429:142|405:203,1,200,4|0,0:0|0:0,0:0:0:0:
94,307,356512,2,0,B|82:142|82:142|106:203,1,200,4|0,0:0|0:0,0:0:0:0:
512,384,357206,6,0,B|523:219|523:219|499:280,1,200,4|0,0:0|0:0,0:0:0:0:
0,384,357900,2,0,B|-11:219|-11:219|12:280,1,200,4|0,0:0|0:0,0:0:0:0:
419,363,358593,6,0,P|494:313|466:187,1,200,4|0,0:0|0:0,0:0:0:0:
231,256,358940,2,0,B|409:265|409:265|353:288,1,200,8|0,0:0|0:0,0:0:0:0:
259,383,359287,1,0,0:0:0:0:
207,384,359374,1,0,0:0:0:0:
161,361,359460,1,0,0:0:0:0:
127,321,359547,1,0,0:0:0:0:
111,272,359634,1,8,0:0:0:0:
118,221,359720,1,0,0:0:0:0:
144,176,359807,1,0,0:0:0:0:
187,147,359894,1,0,0:0:0:0:
238,135,359981,6,0,B|265:314|265:314|222:240,1,200,4|0,0:0|0:0,0:0:0:0:
27,15,360674,2,0,B|0:194|0:194|42:120,1,200,4|0,0:0|0:0,0:0:0:0:
252,297,361368,6,0,B|225:118|225:118|234:134,1,200,4|0,0:0|0:0,0:0:0:0:
430,314,361715,2,0,P|337:344|252:297,1,200,8|0,0:0|0:0,0:0:0:0:
463,177,362062,2,0,B|490:-2|490:-2|480:14,1,200,4|0,0:0|0:0,0:0:0:0:
232,311,362408,2,0,P|136:330|56:274,1,200,8|0,0:0|0:0,0:0:0:0:
86,55,362755,6,0,P|158:120|159:217,1,200,4|0,0:3|0:0,0:0:0:0:
321,142,363102,2,0,P|223:144|158:216,1,200,8|0,0:0|0:0,0:0:0:0:
463,177,363449,2,0,B|490:-2|490:-2|447:71,1,200,4|0,0:0|0:0,0:0:0:0:
252,297,363796,2,0,B|224:117|224:117|267:191,1,200,8|0,0:0|0:0,0:0:0:0:
495,298,364142,6,0,P|398:284|342:204,1,200,4|0,0:0|0:0,0:0:0:0:
278,0,364489,1,8,0:0:0:0:
252,297,364663,1,0,0:0:0:0:
228,340,364749,1,0,0:0:0:0:
185,366,364836,1,0,0:0:0:0:
135,374,364923,1,0,0:0:0:0:
85,367,365009,1,0,0:0:0:0:
42,339,365096,1,0,0:0:0:0:
16,296,365183,1,8,0:0:0:0:
66,295,365270,1,0,0:0:0:0:
110,274,365356,1,0,0:0:0:0:
135,230,365443,1,0,0:0:0:0:
136,179,365530,6,0,P|111:136|40:107,3,100,4|0|0|0,0:0|0:0|0:0|0:0,0:0:0:0:
45,200,365877,1,0,0:0:0:0:
376,179,366050,1,0,0:0:0:0:
376,179,366137,1,0,0:0:0:0:
376,179,366223,2,0,P|401:136|472:107,3,100,4|0|0|0,0:0|0:0|0:0|0:0,0:0:0:0:
467,200,366570,1,0,0:0:0:0:
169,273,366744,1,0,0:0:0:0:
169,273,366831,1,0,0:0:0:0:
169,273,366917,6,0,L|124:146,3,100,4|0|0|0,0:0|0:0|0:0|0:0,0:0:0:0:
91,71,367264,1,0,0:0:0:0:
343,273,367437,1,0,0:0:0:0:
343,273,367524,1,0,0:0:0:0:
343,273,367611,2,0,L|388:146,3,100,4|0|0|0,0:0|0:0|0:0|0:0,0:0:0:0:
421,71,367958,1,0,0:0:0:0:
272,360,368131,1,0,0:0:0:0:
272,360,368218,1,0,0:0:0:0:
272,360,368304,6,0,P|344:389|447:319,1,200,4|8,0:0|0:0,0:0:0:0:
421,71,368651,1,8,0:0:0:0:
344,275,368825,1,0,0:0:0:0:
414,88,368998,2,0,L|341:286,1,200,4|0,0:0|0:0,0:0:0:0:
256,9,369345,1,8,0:0:0:0:
256,9,369431,1,0,0:0:0:0:
256,9,369518,1,0,0:0:0:0:
167,275,369692,6,0,L|98:88,1,200,4|0,0:0|0:0,0:0:0:0:
68,19,369952,1,0,0:0:0:0:
68,19,370039,1,0,0:0:0:0:
68,19,370126,1,0,0:0:0:0:
68,19,370212,1,0,0:0:0:0:
60,243,370385,1,0,0:0:0:0:
87,198,370472,1,0,0:0:0:0:
128,173,370559,1,0,0:0:0:0:
176,163,370645,1,0,0:0:0:0:
223,179,370732,2,0,P|280:247|258:363,1,200,8|0,0:0|0:0,0:0:0:0:
68,367,371079,5,4,0:0:0:0:
152,75,371252,1,0,0:0:0:0:
167,275,371426,1,8,0:0:0:0:
38,15,371599,1,0,0:0:0:0:
397,73,371772,5,4,0:0:0:0:
99,163,371946,1,0,0:0:0:0:
418,66,372119,1,8,0:0:0:0:
167,275,372293,1,0,0:0:0:0:
436,58,372466,5,4,0:0:0:0:
490,295,372640,1,0,0:0:0:0:
253,350,372813,1,8,0:0:0:0:
198,112,372987,1,8,0:0:0:0:
472,287,373160,5,4,0:0:0:0:
171,6,373333,1,0,0:0:0:0:
118,35,373420,1,0,0:0:0:0:
91,88,373507,1,8,0:0:0:0:
92,147,373593,1,0,0:0:0:0:
124,197,373680,1,0,0:0:0:0:
138,255,373767,1,0,0:0:0:0:
107,306,373853,6,0,B|72:321|54:367|54:367|91:281|19:115,1,300
91,88,374200,1,8,0:0:0:0:
144,384,374374,1,0,0:0:0:0:
200,102,374547,1,0,0:0:0:0:
233,300,374720,2,0,L|200:97,1,200
480,209,375067,6,0,L|513:6,1,200
451,366,375414,2,0,P|366:255|233:300,1,300,0|8,0:0|0:0,0:0:0:0:
195,333,375761,1,0,0:0:0:0:
144,333,375848,1,0,0:0:0:0:
98,315,375934,1,0,0:0:0:0:
60,281,376021,1,0,0:0:0:0:
44,233,376108,1,0,0:0:0:0:
41,183,376194,1,0,0:0:0:0:
63,138,376281,1,8,0:0:0:0:
99,103,376368,1,0,0:0:0:0:
146,85,376455,1,0,0:0:0:0:
195,86,376541,1,0,0:0:0:0:
233,97,376628,6,0,P|279:134|293:193,1,100,4|0,0:0|0:0,0:0:0:0:
226,287,376975,2,0,P|180:250|166:191,1,100,8|0,0:0|0:0,0:0:0:0:
188,11,377322,1,0,0:0:0:0:
188,11,377408,1,0,0:0:0:0:
188,11,377495,1,0,0:0:0:0:
166,212,377668,2,0,P|129:258|70:272,1,100,8|0,0:0|0:0,0:0:0:0:
94,65,378015,6,0,L|60:192,1,100,0|0,0:0|0:0,0:0:0:0:
155,344,378362,2,0,L|189:217,1,100,8|0,0:0|0:0,0:0:0:0:
33,257,378709,1,0,0:0:0:0:
33,257,378796,1,0,0:0:0:0:
33,257,378882,1,0,0:0:0:0:
155,344,379056,2,0,P|203:365|266:351,1,100,8|0,0:0|0:0,0:0:0:0:
404,252,379403,6,0,P|355:230|292:244,1,100
489,325,379749,2,8,P|510:276|496:213,1,100,0|0,0:0|0:0,0:0:0:0:
391,110,380096,1,0,0:0:0:0:
391,110,380183,1,0,0:0:0:0:
391,110,380270,1,0,0:0:0:0:
309,235,380443,2,0,P|259:239|214:218,1,100,8|0,0:0|0:0,0:0:0:0:
93,92,380790,6,0,P|142:87|187:108,1,100
105,301,381137,2,0,L|126:189,1,100,8|0,0:0|0:0,0:0:0:0:
165,11,381483,1,4,0:0:0:0:
251,176,381657,1,0,0:0:0:0:
290,183,381744,1,0,0:0:0:0:
328,175,381830,1,8,0:0:0:0:
411,22,382004,1,0,0:0:0:0:
495,189,382177,6,0,B|496:251|496:251|448:337|448:337|446:268,1,200
372,205,382697,1,0,0:0:0:0:
301,350,382871,1,0,0:0:0:0:
301,350,382957,1,0,0:0:0:0:
301,350,383044,1,0,0:0:0:0:
165,254,383218,2,0,B|154:199|154:199|163:107,1,100,8|0,0:0|0:0,0:0:0:0:
275,30,383564,6,0,B|286:85|286:85|277:177,1,100
171,352,383911,2,0,B|160:297|160:297|169:205,1,100,8|0,0:0|0:0,0:0:0:0:
281,128,384258,1,0,0:0:0:0:
281,128,384345,1,0,0:0:0:0:
281,128,384431,1,0,0:0:0:0:
164,253,384605,2,0,B|109:264|109:264|17:255,1,100,8|0,0:0|0:0,0:0:0:0:
281,128,384952,6,0,B|384:94|384:94|494:110,1,200,0|8,0:0|0:0,0:0:0:0:
287,227,385472,1,0,0:0:0:0:
474,107,385645,1,0,0:0:0:0:
474,107,385732,1,0,0:0:0:0:
474,107,385819,1,0,0:0:0:0:
287,227,385992,2,0,L|280:127,1,100,8|0,0:0|0:0,0:0:0:0:
507,283,386339,6,0,P|455:332|387:338,1,100
209,283,386686,2,0,P|261:234|329:228,1,100,8|0,0:0|0:0,0:0:0:0:
91,384,387033,1,4,0:0:0:0:
91,384,387120,1,0,0:0:0:0:
91,384,387207,1,0,0:0:0:0:
68,350,387293,1,0,0:0:0:0:
58,311,387379,1,8,0:0:0:0:
53,271,387466,1,0,0:0:0:0:
62,231,387553,1,0,0:0:0:0:
79,194,387640,1,0,0:0:0:0:
109,164,387726,6,0,P|126:107|111:44,1,100,4|0,0:0|0:0,0:0:0:0:
57,308,388073,2,0,P|114:325|177:310,1,100,8|0,0:0|0:0,0:0:0:0:
109,164,388420,1,0,0:0:0:0:
109,164,388507,1,0,0:0:0:0:
109,164,388593,1,0,0:0:0:0:
250,231,388767,2,0,P|267:174|252:111,1,100,8|0,0:0|0:0,0:0:0:0:
9,160,389114,6,0,L|123:164,1,100
267,36,389460,2,0,L|153:32,1,100,8|0,0:0|0:0,0:0:0:0:
380,138,389807,1,0,0:0:0:0:
380,138,389894,1,0,0:0:0:0:
380,138,389981,1,0,0:0:0:0:
275,276,390154,2,0,P|258:219|273:156,1,100,8|0,0:0|0:0,0:0:0:0:
499,156,390501,6,0,P|516:213|501:276,1,100
284,150,390848,2,0,P|341:133|404:148,1,100,8|0,0:0|0:0,0:0:0:0:
353,348,391194,1,0,0:0:0:0:
353,348,391281,1,0,0:0:0:0:
353,348,391368,1,0,0:0:0:0:
193,353,391541,2,0,P|149:312|131:250,1,100,8|0,0:0|0:0,0:0:0:0:
265,84,391888,6,0,P|251:141|206:188,1,100
0,157,392235,2,0,P|56:140|119:154,1,100,8|0,0:0|0:0,0:0:0:0:
134,275,392582,1,4,0:0:0:0:
96,65,392755,1,0,0:0:0:0:
96,105,392842,1,0,0:0:0:0:
96,145,392929,1,8,0:0:0:0:
141,300,393102,1,0,0:0:0:0:
214,110,393275,6,0,B|260:83|260:83|418:130,1,200,0|8,0:0|0:0,0:0:0:0:
220,208,393796,1,0,0:0:0:0:
476,184,393969,1,0,0:0:0:0:
476,184,394056,1,0,0:0:0:0:
476,184,394142,1,0,0:0:0:0:
214,110,394316,2,0,B|209:153|209:153|220:208,1,100,8|0,0:0|0:0,0:0:0:0:
483,283,394663,6,0,B|487:239|487:239|476:184,1,100
363,384,395009,2,0,B|319:388|319:388|264:377,1,100,8|0,0:0|0:0,0:0:0:0:
483,283,395356,1,0,0:0:0:0:
483,283,395443,1,0,0:0:0:0:
483,283,395530,1,0,0:0:0:0:
335,143,395703,2,0,B|330:99|330:99|341:44,1,100,8|0,0:0|0:0,0:0:0:0:
483,283,396050,6,0,P|439:324|392:330,1,100
160,274,396397,2,0,P|204:315|251:321,1,100,8|0,0:0|0:0,0:0:0:0:
335,143,396744,1,0,0:0:0:0:
335,143,396830,1,0,0:0:0:0:
335,143,396917,1,0,0:0:0:0:
459,56,397090,1,0,0:0:0:0:
281,4,397264,1,0,0:0:0:0:
179,143,397437,6,0,B|116:200|34:163|34:163|64:249|6:301,1,300
95,80,398131,1,4,0:0:0:0:
139,261,398304,1,0,0:0:0:0:
178,268,398391,1,0,0:0:0:0:
217,259,398478,1,8,0:0:0:0:
252,242,398564,1,0,0:0:0:0:
281,214,398651,1,0,0:0:0:0:
298,177,398738,1,0,0:0:0:0:
302,137,398825,6,0,P|275:62|242:34,1,100,4|0,0:0|0:0,0:0:0:0:
79,151,399171,2,0,L|192:141,1,100,8|0,0:0|0:0,0:0:0:0:
56,53,399518,1,0,0:0:0:0:
11,224,399692,1,0,0:0:0:0:
11,224,399778,1,0,0:0:0:0:
11,224,399865,2,0,L|37:335,1,100,8|0,0:0|0:0,0:0:0:0:
79,151,400212,6,0,L|56:53,1,100
33,321,400559,2,0,P|99:328|147:296,1,100,8|0,0:0|0:0,0:0:0:0:
176,172,400905,1,0,0:0:0:0:
176,172,400992,1,0,0:0:0:0:
176,172,401079,1,0,0:0:0:0:
362,273,401252,2,0,P|315:289|267:280,1,100,8|0,0:0|0:0,0:0:0:0:
311,150,401599,5,0,0:0:0:0:
438,168,401772,1,0,0:0:0:0:
506,281,401946,1,0,0:0:0:0:
506,281,402033,1,0,0:0:0:0:
506,281,402119,1,0,0:0:0:0:
311,150,402293,1,0,0:0:0:0:
438,132,402466,1,0,0:0:0:0:
506,19,402640,1,0,0:0:0:0:
506,19,402727,1,0,0:0:0:0:
506,19,402813,1,0,0:0:0:0:
438,132,402986,5,0,0:0:0:0:
347,25,403160,1,0,0:0:0:0:
311,150,403333,1,0,0:0:0:0:
274,166,403420,1,0,0:0:0:0:
231,163,403507,1,0,0:0:0:0:
68,103,403680,2,0,P|126:86|187:105,1,100
231,163,403940,1,0,0:0:0:0:
250,198,404027,1,8,0:0:0:0:
255,237,404114,1,0,0:0:0:0:
250,276,404200,1,0,0:0:0:0:
226,308,404287,1,0,0:0:0:0:
191,328,404374,6,0,P|132:341|72:319,1,100
0,193,404720,2,0,P|58:179|118:201,1,100,8|0,0:0|0:0,0:0:0:0:
191,328,405067,1,0,0:0:0:0:
96,187,405241,1,0,0:0:0:0:
96,187,405327,1,0,0:0:0:0:
96,187,405414,2,0,P|82:128|104:68,1,100,8|0,0:0|0:0,0:0:0:0:
293,137,405761,6,0,L|176:140,1,100
370,44,406108,2,0,L|487:41,1,100,8|0,0:0|0:0,0:0:0:0:
433,158,406455,1,0,0:0:0:0:
433,158,406541,1,0,0:0:0:0:
433,158,406628,1,0,0:0:0:0:
510,350,406801,2,0,L|507:250,1,100,8|0,0:0|0:0,0:0:0:0:
406,325,407148,5,0,0:0:0:0:
377,296,407235,1,0,0:0:0:0:
337,291,407322,1,0,0:0:0:0:
433,158,407495,1,8,0:0:0:0:
433,158,407668,1,0,0:0:0:0:
255,323,407842,1,0,0:0:0:0:
215,318,407929,1,0,0:0:0:0:
186,289,408016,1,0,0:0:0:0:
290,169,408189,1,8,0:0:0:0:
255,323,408362,1,0,0:0:0:0:
377,296,408535,5,0,0:0:0:0:
290,169,408709,1,0,0:0:0:0:
178,212,408882,1,8,0:0:0:0:
174,251,408969,1,0,0:0:0:0:
186,289,409056,1,0,0:0:0:0:
290,169,409229,2,0,L|281:69,1,100,4|0,0:0|0:0,0:0:0:0:
219,23,409489,1,0,0:0:0:0:
185,4,409576,1,8,0:0:0:0:
145,0,409663,1,0,0:0:0:0:
105,7,409749,1,0,0:0:0:0:
69,27,409836,1,0,0:0:0:0:
52,63,409923,6,0,L|64:202,1,100,4|0,0:0|0:0,0:0:0:0:
187,326,410270,2,0,L|178:226,1,100,4|0,0:0|0:0,0:0:0:0:
314,341,410616,1,0,0:0:0:0:
251,156,410790,1,0,0:0:0:0:
217,133,410877,1,0,0:0:0:0:
177,127,410963,2,0,P|108:158|89:184,1,100,8|0,0:0|0:0,0:0:0:0:
87,337,411310,6,0,L|186:326,1,100
354,224,411657,2,0,L|255:213,1,100,8|0,0:0|0:0,0:0:0:0:
508,125,412004,1,0,0:0:0:0:
508,125,412090,1,0,0:0:0:0:
508,125,412177,2,0,L|515:201,1,50
445,256,412351,2,0,L|436:356,1,100,8|0,0:0|0:0,0:0:0:0:
386,134,412697,5,0,0:0:0:0:
294,352,412871,1,0,0:0:0:0:
213,160,413044,1,0,0:0:0:0:
213,160,413131,1,0,0:0:0:0:
213,160,413218,1,0,0:0:0:0:
281,342,413391,1,0,0:0:0:0:
372,140,413564,1,0,0:0:0:0:
145,358,413738,1,0,0:0:0:0:
145,358,413825,1,0,0:0:0:0:
145,358,413912,1,0,0:0:0:0:
302,168,414085,5,0,0:0:0:0:
265,330,414258,1,0,0:0:0:0:
213,160,414431,1,0,0:0:0:0:
224,121,414518,1,0,0:0:0:0:
254,95,414605,1,0,0:0:0:0:
395,150,414778,2,0,P|388:214|335:262,1,100
289,262,415038,1,0,0:0:0:0:
253,243,415125,1,8,0:0:0:0:
212,243,415212,1,0,0:0:0:0:
172,249,415298,1,0,0:0:0:0:
138,270,415385,1,0,0:0:0:0:
108,306,415472,6,0,P|59:331|-15:330,1,100,4|0,0:0|0:0,0:0:0:0:
100,173,415819,2,0,P|149:148|223:149,1,100,8|0,0:0|0:0,0:0:0:0:
14,335,416166,1,0,0:0:0:0:
0,142,416339,1,0,0:0:0:0:
7,102,416426,1,0,0:0:0:0:
32,71,416512,2,0,P|74:44|121:27,1,100,8|0,0:0|0:0,0:0:0:0:
105,272,416859,6,0,L|99:172,1,100
251,16,417206,2,0,L|246:116,1,100,8|0,0:0|0:0,0:0:0:0:
150,0,417553,1,0,0:0:0:0:
150,0,417640,1,0,0:0:0:0:
150,0,417726,1,0,0:0:0:0:
329,199,417900,2,0,P|268:232|210:222,1,100,8|0,0:0|0:0,0:0:0:0:
251,16,418246,5,0,0:0:0:0:
238,231,418420,1,0,0:0:0:0:
423,82,418593,1,8,0:0:0:0:
423,82,418680,1,0,0:0:0:0:
423,82,418767,1,0,0:0:0:0:
254,223,418940,1,0,0:0:0:0:
405,95,419114,1,0,0:0:0:0:
172,135,419287,1,8,0:0:0:0:
172,135,419374,1,0,0:0:0:0:
172,135,419461,1,0,0:0:0:0:
392,110,419634,5,0,0:0:0:0:
271,210,419807,1,0,0:0:0:0:
87,76,419981,1,0,0:0:0:0:
72,113,420067,1,0,0:0:0:0:
70,153,420154,1,0,0:0:0:0:
238,300,420327,2,0,P|271:239|261:181,1,100,8|0,0:0|0:0,0:0:0:0:
248,133,420588,1,0,0:0:0:0:
289,136,420674,1,8,0:0:0:0:
330,128,420761,1,0,0:0:0:0:
365,107,420848,1,0,0:0:0:0:
388,74,420934,1,0,0:0:0:0:
395,39,421021,5,2,0:0:0:0:
286,27,421194,1,0,0:0:0:0:
376,203,421368,1,0,0:0:0:0:
485,191,421541,1,0,0:0:0:0:
410,364,421715,1,0,0:0:0:0:
301,352,421888,1,0,0:0:0:0:
432,368,422062,1,0,0:0:0:0:
279,349,422235,1,0,0:0:0:0:
253,346,422582,5,0,0:0:0:0:
176,298,422755,1,0,0:0:0:0:
85,299,422929,1,0,0:0:0:0:
7,254,423102,1,0,0:0:0:0:
172,316,423275,1,0,0:0:0:0:
81,317,423449,1,0,0:0:0:0:
3,272,423622,1,0,0:0:0:0:
48,176,423796,5,2,0:0:0:0:
56,152,424142,1,0,0:0:0:0:
65,127,424489,1,2,0:0:0:0:
69,203,424663,1,0,0:0:0:0:
145,199,424836,1,0,0:0:0:0:
141,123,425009,1,0,0:0:0:0:
65,127,425183,5,2,0:0:0:0:
145,199,425357,1,0,0:0:0:0:
217,119,425530,1,0,0:0:0:0:
153,36,425703,1,0,0:0:0:0:
81,116,425877,5,2,0:0:0:0:
161,188,426050,1,0,0:0:0:0:
265,215,426223,1,0,0:0:0:0:
369,184,426397,1,0,0:0:0:0:
497,380,426570,6,0,B|394:340|301:385|301:385|362:341|430:326|430:326|371:243|371:243|400:155|400:155|339:73|339:73|432:48|496:19|496:19|372:58|239:15|239:15|239:91|169:108|169:108|157:45|92:15|92:15|90:102|12:136|12:136|110:132|137:235|137:235|172:179|172:179|146:276|193:356|193:356|78:318|39:229|39:229|55:323|-5:375,1,2264.99993087769,2|0,0:0|0:0,0:0:0:0:
