osu file format v14

[General]
AudioFilename: audio.mp3
AudioLeadIn: 0
PreviewTime: -1
Countdown: 0
SampleSet: None
StackLeniency: 1
Mode: 0
LetterboxInBreaks: 0
WidescreenStoryboard: 0

[Editor]
Bookmarks: 23217,40996,76551,112107,129885,158357,160996,176551,185440,203218,211829,211968,212107,214329,214746,215440,215996,216551,217107,217662,218218,218774,219329,219885,220440,220996,221551,222107,222662,223218,223774,224329,224885,225440,225996,226551,227107,227662,228218,228774,229329,229885,230440,230996,231412,231551,231690,231829,231968,249885,316551
DistanceSpacing: 1
BeatDivisor: 4
GridSize: 32
TimelineZoom: 2

[Metadata]
Title:Kaeruhime
TitleUnicode:蛙姫
Artist:Meramipop
ArtistUnicode:めらみぽっぷ
Creator:Cami
Version:Extra Stage
Source:
Tags:
BeatmapID:1951907
BeatmapSetID:934965

[Difficulty]
HPDrainRate:6
CircleSize:4.4
OverallDifficulty:8
ApproachRate:9
SliderMultiplier:2.2
SliderTickRate:1

[Events]
//Background and Video events
0,0,"suwako but it's oral cigs.png",0,0
//Break Periods
//Storyboard Layer 0 (Background)
//Storyboard Layer 1 (Fail)
//Storyboard Layer 2 (Pass)
//Storyboard Layer 3 (Foreground)
//Storyboard Sound Samples

[TimingPoints]
-1226,555.555555555556,4,2,1,50,1,0
996,-83.3333333333333,4,2,1,50,0,0
1412,-142.857142857143,4,2,1,50,0,0
5440,-90.9090909090909,4,1,1,65,0,0
23218,-166.666666666667,4,2,1,50,0,0
40996,-111.111111111111,4,2,1,50,0,0
57662,-66.6666666666666,4,1,1,70,0,0
76551,-100,4,2,1,50,0,0
89885,-86.9565217391304,4,2,1,50,0,0
90440,-90.9090909090909,4,2,1,50,0,0
90996,-95.2380952380952,4,2,1,50,0,0
91551,-100,4,2,1,50,0,0
107662,-83.3333333333333,4,2,1,50,0,0
108218,-86.9565217391304,4,2,1,50,0,0
108774,-90.9090909090909,4,2,1,50,0,0
109329,-95.2380952380952,4,2,1,50,0,0
109885,-100,4,2,1,50,0,0
112107,-200,4,2,1,50,0,0
127662,-133.333333333333,4,2,1,50,0,0
128774,-66.6666666666667,4,2,1,50,0,0
129885,-66.6666666666667,4,1,1,70,0,0
160996,-133.333333333333,4,2,1,40,0,0
172454,-104.023634169683,4,2,1,40,0,0
174329,-151.212726063025,4,2,1,40,0,0
203218,-216.769270788172,4,2,1,40,0,0
214329,-62.5,4,1,1,70,0,0
232107,-66.6666666666667,4,1,1,60,0,0

[Colours]
Combo1 : 140,140,140
Combo2 : 163,185,121
Combo3 : 78,145,173
Combo4 : 181,142,140

[HitObjects]
199,295,996,6,2,P|191:198|165:110,1,131.99999597168,0|0,0:0|0:0,0:3:0:0:
117,106,1412,2,2,B|112:166|115:204,1,76.9999976501466,0|0,0:0|0:0,0:0:0:0:
282,188,1829,5,2,0:0:0:0:
350,154,1968,1,0,0:0:0:0:
417,199,2107,1,2,0:0:0:0:
500,159,2246,1,0,0:0:0:0:
432,193,2385,1,2,0:0:0:0:
365,148,2524,1,0,0:0:0:0:
297,182,2662,1,2,0:0:0:0:
191,90,2871,5,2,0:0:0:0:
191,90,2940,1,2,0:0:0:0:
5,352,3635,1,2,0:0:0:0:
5,352,3704,1,2,0:0:0:0:
5,352,3774,6,0,P|33:338|50:335,1,38.4999988250733,2|0,0:0|0:0,0:0:0:0:
99,282,4051,2,0,P|127:296|144:299,1,38.4999988250733,2|0,0:0|0:0,0:0:0:0:
285,260,4329,2,0,P|278:291|277:309,1,38.4999988250733,2|0,0:3|0:0,0:0:0:0:
350,195,4607,2,0,P|357:226|358:244,1,38.4999988250733,2|0,0:0|0:0,0:0:0:0:
208,352,4885,5,2,0:0:0:0:
208,352,5440,6,0,P|192:299|160:228,1,121.000003692627,6|0,0:0|0:0,0:0:0:0:
106,194,5857,1,0,0:0:0:0:
256,46,5996,2,0,P|302:38|331:25,1,60.5000018463135,10|0,0:0|0:0,0:0:0:0:
180,78,6274,2,0,P|151:68|121:65,1,60.5000018463135,2|0,0:0|0:0,0:0:0:0:
190,164,6551,1,2,0:0:0:0:
121,65,6690,1,8,0:0:0:0:
190,164,6829,2,0,P|234:146|255:111,1,60.5000018463135,2|0,0:0|0:0,0:0:0:0:
462,271,7107,6,2,P|413:237|335:226,1,121.000003692627,10|0,0:0|0:0,0:0:0:0:
288,360,7524,1,0,0:0:0:0:
262,223,7662,6,0,P|275:251|285:280,2,60.5000018463135,2|0|0,0:0|0:0|0:0,0:0:0:0:
211,321,8079,1,2,0:0:0:0:
63,236,8218,6,0,P|119:241|200:245,1,121.000003692627,10|2,0:0|0:0,0:0:0:0:
183,244,8635,1,2,0:0:0:0:
218,174,8774,2,0,P|187:168|143:173,1,60.5000018463135,2|8,0:0|0:0,0:0:0:0:
151,316,9051,2,0,P|182:322|226:317,1,60.5000018463135,2|0,0:0|0:0,0:0:0:0:
352,179,9329,5,10,0:0:0:0:
437,264,9468,1,2,0:0:0:0:
351,350,9607,1,2,0:0:0:0:
266,264,9746,1,2,0:0:0:0:
210,320,9885,6,2,B|132:337|136:276|26:309,2,181.500005538941,2|2|0,0:0|0:0|0:0,0:0:0:0:
329,301,10857,1,0,0:0:0:0:
329,301,10996,1,2,0:0:0:0:
210,320,11135,1,8,0:0:0:0:
279,231,11274,2,0,P|326:219|374:231,1,60.5000018463135,2|0,0:0|0:0,0:0:0:0:
143,27,11551,6,0,P|148:83|164:178,1,121.000003692627,8|2,0:0|0:0,0:0:0:0:
157,147,11968,1,2,0:0:0:0:
201,217,12107,6,0,P|154:229|106:217,1,60.5000018463135,2|0,0:0|0:0,0:0:0:0:
77,172,12385,2,0,P|67:138|50:104,1,60.5000018463135,2|0,0:0|0:0,0:0:0:0:
21,363,12662,2,0,P|75:320|158:308,1,121.000003692627,10|0,0:0|0:0,0:0:0:0:
124,306,13079,1,2,0:0:0:0:
258,240,13218,5,2,0:0:0:0:
192,272,13357,1,8,0:0:0:0:
324,208,13496,2,0,L|356:195,2,30.2500009231568,2|2|2,0:2|0:2|0:2,0:0:0:0:
427,378,13774,5,10,0:0:0:0:
345,296,13912,1,2,0:2:0:0:
427,215,14051,1,2,0:2:0:0:
508,296,14190,1,2,0:2:0:0:
512,16,14329,6,0,P|433:75|365:149,1,181.500005538941,6|0,0:0|0:0,0:0:0:0:
297,97,14885,2,0,P|289:63|278:22,1,60.5000018463135,10|0,0:0|0:0,0:0:0:0:
302,185,15162,2,0,P|294:214|287:243,1,60.5000018463135,2|0,0:0|0:0,0:0:0:0:
374,236,15440,1,2,0:0:0:0:
287,243,15579,1,8,0:0:0:0:
374,236,15718,1,2,0:0:0:0:
287,243,15857,1,2,0:0:0:0:
213,270,15996,6,2,B|167:285|187:224|69:215|38:308,1,181.500005538941,2|0,0:0|0:0,0:0:0:0:
119,379,16551,2,0,P|118:349|122:319,2,60.5000018463135,2|0|0,0:0|0:0|0:0,0:0:0:0:
200,352,16968,1,0,0:0:0:0:
200,352,17107,2,0,P|248:362|271:363,1,60.5000018463135,10|0,0:0|0:0,0:0:0:0:
256,207,17385,2,0,P|225:210|196:217,1,60.5000018463135,2|0,0:0|0:0,0:0:0:0:
234,285,17662,5,2,0:0:0:0:
223,128,17801,1,8,0:0:0:0:
234,285,17940,1,2,0:0:0:0:
223,128,18079,1,2,0:0:0:0:
256,207,18218,5,14,0:0:0:0:
140,151,18357,1,8,0:1:0:0:
194,36,18496,1,10,0:0:0:0:
194,36,18774,6,0,P|245:46|267:63,1,60.5000018463135,2|0,0:0|0:0,0:0:0:0:
337,127,19051,2,0,P|365:113|373:107,1,30.2500009231568,2|2,0:0|0:0,0:0:0:0:
382,124,19190,2,2,B|318:161|311:107|171:160,1,181.500005538941,2|0,0:0|0:0,0:0:0:0:
204,148,19746,1,0,0:0:0:0:
297,217,19885,1,2,0:0:0:0:
204,238,20024,1,8,0:0:0:0:
297,217,20162,2,0,P|292:258|285:293,1,60.5000018463135,2|0,0:0|0:0,0:0:0:0:
132,193,20440,2,0,P|109:116|73:17,1,181.500005538941,10|0,0:0|0:0,0:0:0:0:
10,122,20996,6,0,B|150:109|88:188|257:173,1,242.000007385254,2|8,0:0|0:0,0:0:0:0:
473,73,21829,1,2,0:0:0:0:
426,139,21968,1,2,0:0:0:0:
350,114,22107,2,0,P|295:108|267:110,1,60.5000018463135,2|8,0:0|0:0,0:0:0:0:
306,277,22385,1,2,0:2:0:0:
306,277,22454,1,2,0:2:0:0:
306,277,22524,1,2,0:2:0:0:
328,8,22662,5,10,0:0:0:0:
316,182,22801,1,2,0:2:0:0:
328,8,22940,1,2,0:2:0:0:
316,182,23079,1,2,0:2:0:0:
321,93,23218,5,6,0:0:0:0:
48,258,23774,2,0,P|24:280|2:305,1,65.9999979858399,8|0,0:0|0:0,0:0:0:0:
124,289,24190,1,0,3:2:0:0:
94,163,24468,1,8,0:0:0:0:
94,163,24607,1,0,3:0:0:0:
64,37,24885,1,8,0:0:0:0:
64,37,25301,1,0,1:0:0:0:
64,37,25371,1,0,1:0:0:0:
64,37,25440,5,2,1:2:0:0:
276,184,25996,2,0,P|330:188|357:181,1,65.9999979858399,8|0,0:0|0:0,0:0:0:0:
310,112,26412,1,0,3:0:0:0:
307,264,26690,1,8,0:0:0:0:
307,264,26829,1,0,3:0:0:0:
313,33,27107,1,8,0:0:0:0:
309,189,27385,1,0,0:0:0:0:
310,112,27524,1,0,0:0:0:0:
309,189,27662,5,2,3:2:0:0:
505,360,28218,2,0,P|465:339|433:332,1,65.9999979858399,8|0,0:0|0:0,0:0:0:0:
362,356,28635,1,0,3:0:0:0:
395,195,28912,1,8,0:0:0:0:
395,195,29051,1,0,3:0:0:0:
380,275,29329,1,8,0:0:0:0:
380,275,29746,1,0,1:0:0:0:
380,275,29815,1,0,1:0:0:0:
380,275,29885,6,0,B|234:280|291:355|138:356,1,230.99999295044,2|0,1:2|3:0,0:0:0:0:
45,261,31135,1,8,0:0:0:0:
45,261,31274,1,0,3:0:0:0:
110,316,31551,1,8,0:1:0:0:
110,316,31829,1,8,0:1:0:0:
185,126,32107,6,0,P|230:93|298:104,1,98.9999969787599,2|0,3:3|0:0,0:0:0:0:
260,171,32662,1,8,0:0:0:0:
109,79,33079,1,0,3:0:0:0:
185,126,33357,1,8,0:0:0:0:
185,126,33496,1,0,3:0:0:0:
260,171,33774,1,8,0:0:0:0:
260,171,34190,1,0,1:0:0:0:
260,171,34260,1,0,1:0:0:0:
260,171,34329,5,2,1:2:0:0:
452,6,34885,2,0,P|435:50|428:76,1,65.9999979858399,8|0,0:0|0:0,0:0:0:0:
445,146,35301,1,0,3:0:0:0:
394,312,35579,1,8,0:0:0:0:
394,312,35718,1,0,3:0:0:0:
418,230,35996,1,8,0:0:0:0:
418,230,36274,1,0,1:0:0:0:
304,315,36412,1,0,1:0:0:0:
185,222,36551,5,2,1:2:0:0:
245,270,37107,2,0,P|199:237|165:225,1,65.9999979858399,8|0,0:0|0:0,0:0:0:0:
116,260,37524,1,0,3:0:0:0:
42,99,37801,1,8,0:0:0:0:
42,99,37940,1,0,3:0:0:0:
78,178,38218,1,8,0:0:0:0:
78,178,38635,1,0,1:0:0:0:
78,178,38704,1,0,1:0:0:0:
78,178,38774,6,0,B|214:177|147:250|303:255,1,230.99999295044,2|0,1:2|3:0,0:0:0:0:
453,141,39885,5,2,0:0:0:0:
469,69,40024,1,8,0:0:0:0:
379,218,40162,5,8,0:1:0:0:
400,295,40440,1,8,0:1:0:0:
400,295,40718,5,2,1:2:0:0:
474,314,40857,1,2,0:0:0:0:
104,337,40996,6,0,P|153:309|258:282,1,148.49999546814,6|0,1:2|0:0,0:0:0:0:
317,318,41551,1,8,0:1:0:0:
317,318,41829,2,0,P|322:266|315:248,1,49.4999984893799,2|0,0:0|0:0,0:0:0:0:
383,212,42107,2,0,P|353:195|327:188,2,49.4999984893799,2|8|0,3:2|0:0|0:0,0:0:0:0:
109,161,42662,2,0,P|172:152|266:132,1,148.49999546814,8|0,0:1|1:0,0:0:0:0:
255,134,43149,1,0,1:0:0:0:
255,134,43218,5,2,1:2:0:0:
50,354,43774,2,0,P|31:285|-2:200,1,148.49999546814,8|0,0:1|3:0,0:0:0:0:
3,213,44329,2,0,P|53:203|79:192,1,49.4999984893799,2|8,0:0|0:0,0:0:0:0:
177,154,44607,2,0,P|223:164|245:173,1,49.4999984893799,2|0,3:2|0:0,0:0:0:0:
106,148,44885,1,8,0:1:0:0:
106,148,45162,1,8,0:1:0:0:
106,148,45440,6,0,P|156:125|258:55,1,148.49999546814,2|0,3:3|0:0,0:0:0:0:
277,5,45996,1,8,0:1:0:0:
277,5,46274,1,2,0:0:0:0:
286,187,46551,2,0,P|280:226|270:265,2,49.4999984893799,2|8|0,3:2|0:0|3:0,0:0:0:0:
285,187,47107,2,0,P|302:254|336:332,1,148.49999546814,8|0,0:1|1:0,0:0:0:0:
333,326,47593,1,0,1:0:0:0:
333,326,47662,6,0,B|248:300|269:379|147:338,1,148.49999546814,2|0,1:2|0:0,0:0:0:0:
120,288,48218,2,0,P|117:209|101:131,1,148.49999546814,8|0,0:1|3:0,0:0:0:0:
41,194,48774,2,0,P|22:209|5:228,1,49.4999984893799,2|8,0:0|0:0,0:0:0:0:
148,74,49051,1,2,3:2:0:0:
148,74,49121,1,2,0:0:0:0:
148,74,49190,1,2,0:0:0:0:
232,85,49329,2,0,P|250:100|267:119,1,49.4999984893799,10|2,0:0|0:0,0:0:0:0:
348,118,49607,2,0,P|336:157|319:178,1,49.4999984893799,2|2,0:0|3:2,0:0:0:0:
113,370,49885,5,2,3:2:0:0:
417,235,50440,2,0,P|434:149|464:53,1,148.49999546814,8|0,0:1|3:0,0:0:0:0:
485,280,50996,2,0,P|457:309|436:320,2,49.4999984893799,2|8|0,0:0|0:0|0:0,0:0:0:0:
220,272,51551,2,0,P|318:281|371:298,1,148.49999546814,8|0,0:1|1:0,0:0:0:0:
365,295,52037,1,0,1:0:0:0:
365,295,52107,5,2,1:2:0:0:
231,360,52385,1,2,0:0:0:0:
142,234,52662,2,0,P|184:200|238:185,1,98.9999969787599,8|0,0:1|0:0,0:0:0:0:
306,200,53079,1,0,3:0:0:0:
220,261,53218,2,0,P|207:188|181:97,1,148.49999546814,2|0,0:0|0:0,0:0:0:0:
126,61,53774,1,8,0:1:0:0:
126,61,54051,1,8,0:1:0:0:
270,96,54190,1,2,0:0:0:0:
411,47,54329,6,0,P|330:31|242:19,1,148.49999546814,2|0,1:3|0:0,0:0:0:0:
349,158,54885,2,0,P|422:147|495:132,1,148.49999546814,8|0,0:1|3:0,0:0:0:0:
491,53,55440,2,0,L|494:3,2,49.4999984893799,2|8|0,0:0|0:0|3:0,0:0:0:0:
491,53,55996,2,0,P|493:111|506:224,1,148.49999546814,8|0,0:1|1:0,0:0:0:0:
502,200,56482,1,0,1:0:0:0:
502,200,56551,6,0,B|418:190|436:226|356:231,1,148.49999546814,2|0,1:2|0:0,0:0:0:0:
288,190,57107,2,0,P|300:306|301:324,1,98.9999969787599,8|0,0:1|0:0,0:0:0:0:
255,362,57524,1,0,3:0:0:0:
22,38,57662,6,2,B|325:55|132:292|514:325,1,577.500022029878,6|0,0:0|0:0,0:1:0:0:
22,38,58774,6,0,P|46:84|56:122,1,82.5000031471254,6|0,0:0|0:0,0:0:0:0:
159,355,59051,1,2,0:0:0:0:
221,307,59190,2,0,P|233:267|253:231,1,82.5000031471254,2|8,0:0|0:0,0:0:0:0:
90,272,59468,1,2,0:0:0:0:
253,231,59607,1,2,0:0:0:0:
215,75,59746,1,0,0:0:0:0:
54,113,59885,1,0,0:0:0:0:
215,75,60024,1,2,0:0:0:0:
54,113,60162,1,2,0:0:0:0:
117,28,60301,6,0,P|145:148|165:199,1,165.000006294251,2|0,0:0|0:0,0:0:0:0:
303,49,60718,1,2,0:0:0:0:
215,75,60857,1,2,0:0:0:0:
303,49,60996,6,0,P|359:40|402:39,1,82.5000031471254,2|0,0:0|0:0,0:0:0:0:
417,309,61274,2,0,P|361:318|318:319,1,82.5000031471254,2|0,0:0|0:0,0:0:0:0:
350,138,61551,2,0,P|352:182|369:250,1,82.5000031471254,10|0,0:0|0:0,0:0:0:0:
104,363,61829,1,0,0:0:0:0:
125,285,61968,1,0,0:0:0:0:
182,342,62107,5,2,0:0:0:0:
47,306,62246,1,2,0:0:0:0:
83,171,62385,1,2,0:0:0:0:
218,207,62524,1,2,0:0:0:0:
334,130,62662,5,10,0:0:0:0:
435,96,62801,1,0,0:0:0:0:
468,197,62940,1,2,0:0:0:0:
367,231,63079,1,0,0:0:0:0:
401,165,63218,5,0,0:0:0:0:
265,93,63496,2,0,P|224:100|185:112,1,82.5000031471254,2|0,0:0|0:0,0:0:0:0:
52,157,63774,2,0,P|92:164|131:176,1,82.5000031471254,10|0,0:0|0:0,0:0:0:0:
221,275,64051,2,0,P|211:204|199:152,1,82.5000031471254,2|0,0:0|0:0,0:0:0:0:
47,281,64329,1,2,0:0:0:0:
141,253,64468,1,8,0:0:0:0:
47,281,64607,2,0,P|39:321|34:362,1,82.5000031471254,2|0,0:0|0:0,0:0:0:0:
298,177,64885,2,0,P|258:117|229:95,1,82.5000031471254,10|0,0:0|0:0,0:0:0:0:
288,337,65162,2,0,P|342:289|375:275,1,82.5000031471254,2|0,0:0|0:0,0:0:0:0:
12,31,65440,6,0,P|55:207|83:343,1,247.500009441376,2|0,0:0|0:0,0:0:0:0:
288,337,65996,2,0,P|314:216|344:119,1,165.000006294251,10|0,0:0|0:0,0:0:0:0:
325,176,66412,1,2,0:0:0:0:
495,9,66551,6,0,B|373:20|417:99|261:112,1,247.500009441376,2|0,0:0|0:0,0:0:0:0:
68,271,67107,2,0,P|146:264|242:292,1,165.000006294251,10|0,0:0|0:0,0:0:0:0:
288,337,67524,1,2,0:0:0:0:
356,300,67662,6,0,P|354:205|346:120,1,165.000006294251,2|0,0:0|0:0,0:0:0:0:
275,110,68079,1,2,0:0:0:0:
386,220,68218,1,8,0:0:0:0:
386,220,68496,1,2,0:0:0:0:
196,145,68635,2,0,P|55:158|10:169,1,165.000006294251,2|8,0:0|0:0,0:0:0:0:
0,234,69051,1,2,0:0:0:0:
259,201,69190,1,0,0:0:0:0:
275,110,69329,6,0,P|263:44|247:13,1,82.5000031471254,10|0,0:0|0:0,0:0:0:0:
182,244,69607,1,2,0:0:0:0:
339,164,69746,1,2,0:0:0:0:
259,201,69885,5,0,0:0:0:0:
412,127,70162,2,0,P|477:89|497:68,1,82.5000031471254,2|0,0:0|0:0,0:0:0:0:
403,294,70440,2,0,P|370:268|333:251,1,82.5000031471254,10|0,0:0|0:0,0:0:0:0:
187,350,70718,2,0,P|245:301|264:274,1,82.5000031471254,2|0,0:0|0:0,0:0:0:0:
86,76,70996,2,0,P|97:115|104:156,1,82.5000031471254,2|8,0:0|0:0,0:0:0:0:
168,256,71274,2,0,P|174:215|186:175,1,82.5000031471254,2|0,0:0|0:0,0:0:0:0:
484,29,71551,5,10,0:0:0:0:
167,93,71829,1,2,0:0:0:0:
326,62,72107,5,2,0:0:0:0:
94,249,72385,1,2,0:2:0:0:
125,316,72523,1,2,0:2:0:0:
168,256,72662,2,0,P|210:208|234:187,1,82.5000031471254,10|0,0:0|0:0,0:0:0:0:
475,304,72940,1,2,0:2:0:0:
399,287,73079,1,2,0:2:0:0:
350,223,73218,2,0,P|308:175|284:154,1,82.5000031471254,2|8,0:0|0:0,0:0:0:0:
193,363,73496,1,2,0:0:0:0:
316,296,73635,1,2,0:0:0:0:
193,363,73774,6,0,P|162:318|153:279,1,82.5000031471254,10|0,0:0|0:0,0:0:0:0:
156,82,74051,2,0,P|142:120|117:153,1,82.5000031471254,2|0,0:0|0:0,0:0:0:0:
44,169,74260,1,2,0:0:0:0:
44,169,74329,6,0,B|192:157|131:243|291:230,1,247.500009441376,6|0,0:0|0:0,0:0:0:0:
362,53,74885,2,0,P|337:142|315:307,1,247.500009441376,10|0,0:0|0:0,0:0:0:0:
156,82,75440,2,0,P|187:201|202:324,1,247.500009441376,2|0,0:0|0:0,0:0:0:0:
486,224,75996,2,0,B|503:243|388:90|275:237,1,247.500009441376,10|2,0:0|0:2,0:0:0:0:
279,233,76551,6,0,P|354:188|430:103,1,165,6|0,0:0|0:0,0:0:0:0:
413,45,77107,1,8,0:1:0:0:
413,45,77385,1,2,0:0:0:0:
455,207,77662,2,0,P|437:263|435:289,2,55,2|8|0,0:0|0:0|3:0,0:0:0:0:
324,368,78218,2,0,P|295:286|252:202,1,165,8|0,0:1|1:0,0:0:0:0:
260,216,78704,1,0,1:0:0:0:
260,216,78774,6,0,P|218:256|157:264,1,110,2|0,1:2|0:0,0:0:0:0:
68,96,79329,2,0,P|110:56|171:48,1,110,8|0,0:1|0:0,0:0:0:0:
178,174,79885,2,0,P|152:137|136:120,1,55,2|8,0:0|0:0,0:0:0:0:
92,197,80162,1,0,3:0:0:0:
231,104,80440,2,0,B|296:116|276:142|347:154,1,110,8|2,0:1|0:0,0:0:0:0:
329,150,80996,6,0,B|252:152|225:193|240:264|240:264,1,165,2|0,3:2|0:0,0:0:0:0:
303,313,81551,1,8,0:1:0:0:
303,313,81829,2,0,P|343:290|362:285,1,55,2|0,0:0|3:0,0:0:0:0:
220,341,82107,2,0,P|180:318|161:313,2,55,2|8|0,0:0|0:0|3:0,0:0:0:0:
72,267,82662,2,0,P|146:244|219:185,1,165,8|0,0:1|1:0,0:0:0:0:
214,190,83149,1,0,1:0:0:0:
214,190,83218,6,0,B|296:204|260:254|375:260,1,165,2|0,1:2|0:0,0:0:0:0:
434,216,83774,1,8,0:1:0:0:
434,216,84051,1,0,0:0:0:0:
433,297,84329,2,0,P|412:339|405:360,1,55,2|8,3:2|0:0,0:0:0:0:
361,181,84607,1,2,3:2:0:0:
361,181,84676,1,2,0:0:0:0:
361,181,84746,1,2,0:0:0:0:
318,93,84885,5,8,0:1:0:0:
448,137,85024,1,2,0:0:0:0:
403,267,85162,1,2,0:0:0:0:
273,223,85301,1,2,0:0:0:0:
361,181,85440,5,2,1:2:0:0:
69,297,85996,2,0,P|53:184|27:85,1,165,8|0,0:1|3:0,0:0:0:0:
6,60,86551,1,2,0:0:0:0:
109,93,86690,1,8,0:0:0:0:
109,93,86829,1,0,3:0:0:0:
218,29,87107,2,0,P|200:109|190:191,1,165,8|0,0:1|1:0,0:0:0:0:
190,191,87593,1,0,1:0:0:0:
190,191,87662,5,2,1:2:0:0:
274,165,87940,1,2,0:0:0:0:
341,219,88218,2,0,P|363:285|370:338,1,110,8|0,0:1|0:0,0:0:0:0:
369,324,88635,1,0,3:0:0:0:
418,178,88774,2,0,P|423:145|434:114,2,55,2|8|0,0:2|0:0|3:0,0:0:0:0:
502,168,89329,2,0,B|402:162|446:112|321:95,1,165,8|0,0:1|0:0,0:0:0:0:
230,222,89885,6,0,P|132:241|38:246,1,189.750003619194,2|0,3:2|0:0,0:0:0:0:
93,168,90440,2,0,P|176:179|283:218,1,181.500005538941,8|0,0:1|0:0,0:0:0:0:
330,287,90996,2,0,P|309:204|303:107,1,173.24999471283,2|0,0:2|0:0,0:0:0:0:
429,195,91551,2,0,P|422:281|401:365,1,165,8|0,0:1|1:0,0:0:0:0:
404,357,92037,1,0,1:0:0:0:
404,357,92107,6,0,P|452:298|360:54,1,330,2|2,1:2|0:0,0:0:0:0:
325,104,93079,1,2,3:2:0:0:
257,66,93218,2,0,P|242:31|223:-5,1,55,2|0,3:2|0:0,0:0:0:0:
187,199,93496,1,2,3:2:0:0:
187,199,93565,1,2,0:0:0:0:
187,199,93635,1,2,0:0:0:0:
186,115,93774,5,8,0:1:0:0:
271,198,93912,1,2,0:0:0:0:
186,283,94051,1,2,0:0:0:0:
103,200,94190,1,2,0:0:0:0:
373,199,94329,5,4,1:0:0:0:
83,309,94885,2,0,P|68:223|27:130,1,165,8|0,0:1|3:0,0:0:0:0:
155,36,95440,2,0,P|137:90|134:115,2,55,2|8|0,0:0|0:0|3:0,0:0:0:0:
388,72,95996,2,0,P|319:57|229:101,1,165,8|0,0:1|1:0,0:0:0:0:
235,94,96482,1,0,1:0:0:0:
235,94,96551,5,2,1:2:0:0:
294,167,96829,1,2,0:0:0:0:
239,237,97107,2,0,P|131:266|48:298,1,165,8|0,0:1|3:0,0:0:0:0:
69,364,97662,2,0,P|110:380|131:389,1,55,2|8,0:0|0:0,0:0:0:0:
68,203,97940,2,0,P|27:187|6:178,1,55,2|0,0:0|0:0,0:0:0:0:
140,125,98218,2,0,P|151:209|169:257,1,110,8|0,0:1|0:1,0:0:0:0:
371,257,98774,6,0,B|278:246|311:198|224:186,1,165,2|0,3:0|0:0,0:0:0:0:
158,232,99329,2,0,P|143:285|139:339,1,110,8|0,0:1|0:1,0:0:0:0:
139,339,99746,1,0,3:0:0:0:
74,242,99885,2,0,P|50:208|32:190,2,55,2|8|0,0:0|0:0|3:0,0:0:0:0:
301,151,100440,2,0,P|196:156|116:137,1,165,8|0,0:1|1:0,0:0:0:0:
137,144,100926,1,0,1:0:0:0:
137,144,100996,6,0,B|218:109|333:170|293:169|364:278|502:227,1,385,2|0,1:2|3:0,0:0:0:0:
433,164,102107,2,0,P|401:178|378:190,1,55,2|8,0:0|0:0,0:0:0:0:
353,344,102385,1,2,0:0:0:0:
353,344,102454,1,2,0:0:0:0:
353,344,102524,1,2,0:0:0:0:
277,292,102662,5,8,0:1:0:0:
179,346,102801,1,2,0:0:0:0:
125,248,102940,1,2,0:0:0:0:
223,194,103079,1,2,0:0:0:0:
202,270,103218,5,0,3:0:0:0:
431,76,103774,2,0,P|376:93|260:91,1,165,8|0,0:1|3:0,0:0:0:0:
182,80,104329,2,0,P|153:59|108:46,2,55,2|8|0,0:0|0:0|3:0,0:0:0:0:
182,80,104885,2,0,P|194:165|201:260,1,165,8|0,0:1|1:0,0:0:0:0:
200,243,105371,1,0,1:0:0:0:
200,243,105440,6,0,B|290:258|232:316|359:328,1,165,2|0,1:2|0:0,0:0:0:0:
396,372,105996,2,0,P|385:255|391:175,1,165,8|0,0:1|3:0,0:0:0:0:
458,165,106551,2,0,P|472:205|469:234,2,55,2|8|0,0:0|0:0|3:0,0:0:0:0:
458,165,107107,2,0,P|363:172|266:193,1,165,8|0,0:1|0:0,0:0:0:0:
62,147,107662,6,0,P|142:200|212:280,1,197.99999395752,2|0,3:2|0:0,0:0:0:0:
208,348,108218,2,0,P|226:260|222:152,1,189.750003619194,8|0,0:1|3:0,0:0:0:0:
330,55,108774,2,0,P|225:82|122:80,1,181.500005538941,2|0,0:0|0:0,0:0:0:0:
318,143,109329,2,0,P|401:158|500:212,1,173.24999471283,8|0,0:1|1:0,0:0:0:0:
480,197,109815,1,0,1:2:0:0:
480,197,109885,5,2,1:2:0:0:
352,341,110440,1,8,0:1:0:0:
280,305,110857,1,0,3:0:0:0:
279,304,110996,2,0,P|253:296|227:289,1,55,2|8,0:0|0:0,0:0:0:0:
164,182,111274,1,2,0:0:0:0:
164,182,111343,1,2,0:0:0:0:
164,182,111412,1,2,0:0:0:0:
76,161,111551,5,8,0:1:0:0:
143,270,111690,1,2,0:0:0:0:
252,203,111829,1,2,0:0:0:0:
185,94,111968,1,2,0:0:0:0:
164,182,112107,5,6,1:0:0:0:
252,203,112662,1,2,0:0:0:0:
339,162,113218,1,2,0:0:0:0:
428,222,113774,1,2,0:0:0:0:
428,222,113912,1,2,0:0:0:0:
428,222,114051,1,2,3:2:0:0:
176,352,114329,5,2,3:2:0:0:
122,291,114885,1,2,0:0:0:0:
183,237,115440,1,2,0:0:0:0:
245,306,115996,1,2,3:2:0:0:
245,306,116135,1,2,0:0:0:0:
245,306,116274,1,2,3:2:0:0:
211,128,116551,5,2,0:0:0:0:
135,96,117107,1,2,0:0:0:0:
65,139,117385,1,0,3:2:0:0:
270,229,117662,5,2,3:2:0:0:
346,185,118218,1,2,3:2:0:0:
346,185,118357,1,2,0:0:0:0:
346,185,118496,1,2,3:2:0:0:
192,322,118774,5,2,3:2:0:0:
162,250,119329,1,2,0:0:0:0:
192,178,119885,1,2,0:0:0:0:
162,106,120440,1,2,0:0:0:0:
162,106,120579,1,2,0:0:0:0:
162,106,120718,1,2,3:2:0:0:
328,278,120996,6,0,P|384:284|405:280,1,55,2|0,3:2|0:0,0:0:0:0:
467,280,121551,2,0,P|455:305|450:331,1,55,8|0,0:1|0:0,0:0:0:0:
420,217,122107,2,0,P|412:190|408:177,2,27.5,2|8|0,3:2|0:1|0:0,0:0:0:0:
420,217,122524,1,0,3:0:0:0:
334,150,122662,1,2,0:0:0:0:
334,150,122801,1,2,0:0:0:0:
334,150,122940,1,2,3:2:0:0:
107,308,123218,6,0,P|151:293|174:290,1,55,2|0,3:2|0:0,0:0:0:0:
252,245,123635,1,0,3:0:0:0:
252,245,123774,2,0,P|225:238|199:228,1,55,8|0,0:1|0:0,0:0:0:0:
248,142,124329,2,0,P|249:155|253:168,2,27.5,2|8|0,3:2|0:1|0:0,0:0:0:0:
248,142,124746,1,0,3:0:0:0:
342,240,124885,1,8,0:1:0:0:
342,240,125024,1,2,0:0:0:0:
342,240,125162,1,2,3:2:0:0:
465,15,125440,6,0,P|451:63|450:118,1,82.5,2|0,3:2|0:0,0:0:0:0:
402,159,125996,2,0,P|416:207|417:262,1,82.5,8|0,0:1|3:0,0:0:0:0:
280,329,126551,2,0,L|327:323,2,27.5,2|8|0,0:0|0:1|3:0,0:0:0:0:
209,286,126968,1,0,3:0:0:0:
308,93,127107,5,10,1:0:0:0:
282,249,127385,1,2,3:2:0:0:
282,249,127524,1,2,0:0:0:0:
228,70,127662,6,0,P|250:35|331:14,1,123.750004720688,2|0,3:2|0:0,0:0:0:0:
373,157,128218,1,8,0:1:0:0:
373,157,128496,1,0,3:0:0:0:
373,157,128635,1,0,3:0:0:0:
308,93,128774,5,2,3:2:0:0:
461,196,128912,1,2,0:1:0:0:
231,332,129051,5,2,1:0:0:0:
150,173,129190,1,2,1:0:0:0:
308,93,129329,1,2,1:0:0:0:
389,251,129468,2,0,P|441:299|472:317,1,82.5000031471254,2|0,1:0|0:0,0:0:0:0:
150,173,129746,1,2,0:1:0:0:
92,111,129885,6,0,B|177:177|234:96|338:189,1,247.500009441376,6|0,0:0|0:0,0:0:0:0:
228,360,130440,1,8,0:0:0:0:
248,218,130718,1,0,0:0:0:0:
368,301,130996,1,2,0:0:0:0:
287,291,131135,1,8,0:0:0:0:
368,301,131274,2,0,P|452:308|480:303,1,82.5000031471254,2|0,0:0|0:0,0:0:0:0:
200,280,131551,2,0,P|116:273|88:278,1,82.5000031471254,10|0,0:0|0:0,0:0:0:0:
298,127,131829,1,2,0:0:0:0:
251,216,131968,1,0,0:0:0:0:
373,74,132107,6,0,P|288:94|106:88,1,247.500009441376,2|0,0:0|0:0,0:0:0:0:
17,185,132662,2,0,P|85:171|123:171,1,82.5000031471254,10|0,0:0|0:0,0:0:0:0:
93,16,132940,2,0,P|51:11|12:1,1,82.5000031471254,2|0,0:0|0:0,0:0:0:0:
12,1,133149,1,2,0:0:0:0:
12,1,133218,1,2,0:0:0:0:
128,92,133357,1,8,0:0:0:0:
244,19,133496,1,2,0:0:0:0:
128,92,133635,1,0,0:0:0:0:
114,225,133774,1,8,0:0:0:0:
174,164,133912,1,0,0:0:0:0:
128,92,134051,1,2,0:0:0:0:
426,195,134329,6,0,B|301:165|340:261|175:253,1,247.500009441376,2|0,0:0|0:0,0:0:0:0:
132,305,134885,2,0,P|154:214|159:133,1,165.000006294251,10|0,0:0|0:0,0:0:0:0:
159,143,135301,1,0,0:0:0:0:
257,80,135440,1,2,0:0:0:0:
159,143,135579,1,8,0:0:0:0:
257,80,135718,1,0,0:0:0:0:
159,143,135857,1,0,0:0:0:0:
352,1,135996,2,0,P|338:127|332:274,1,247.500009441376,10|0,0:0|0:0,0:0:0:0:
261,280,136551,6,0,B|395:268|335:367|489:363,1,247.500009441376,2|0,0:0|0:0,0:0:0:0:
456,265,137107,1,8,0:0:0:0:
293,371,137385,1,0,0:0:0:0:
137,255,137662,1,0,0:0:0:0:
216,309,137801,1,8,0:0:0:0:
58,196,137940,1,2,0:2:0:0:
58,196,138010,1,2,0:2:0:0:
58,196,138079,1,2,0:2:0:0:
137,255,138218,5,10,0:0:0:0:
279,211,138357,1,2,0:2:0:0:
236,69,138496,1,2,0:2:0:0:
94,113,138635,1,2,0:2:0:0:
184,168,138774,6,0,P|283:186|460:235,1,247.500009441376,2|0,0:0|0:0,0:0:0:0:
232,274,139329,1,8,0:0:0:0:
423,300,139607,1,0,0:0:0:0:
351,122,139885,1,2,0:0:0:0:
335,228,140024,1,0,0:0:0:0:
351,122,140162,2,0,P|396:91|458:82,1,82.5000031471254,2|0,0:0|0:0,0:0:0:0:
335,228,140440,2,0,P|296:214|263:189,1,82.5000031471254,8|0,0:0|0:0,0:0:0:0:
144,20,140718,1,2,0:0:0:0:
150,116,140857,1,0,0:0:0:0:
67,74,140996,6,0,P|171:62|327:83,1,247.500009441376,2|0,0:0|0:0,0:0:0:0:
393,48,141551,2,0,P|279:145|226:271,1,247.500009441376,10|0,0:0|0:0,0:0:0:0:
267,313,142107,1,2,0:0:0:0:
110,265,142246,1,8,0:0:0:0:
267,313,142385,2,0,P|197:304|173:284,1,82.5000031471254,2|0,0:0|0:0,0:0:0:0:
236,41,142662,5,2,0:0:0:0:
235,230,142801,1,2,0:2:0:0:
71,135,142940,1,2,0:0:0:0:
236,41,143079,1,0,0:0:0:0:
181,134,143218,6,0,B|271:120|271:120|325:152|325:152|434:137,1,247.500009441376,2|0,0:0|0:0,0:0:0:0:
481,75,143774,2,0,P|455:26|453:-4,1,82.5000031471254,10|0,0:0|0:0,0:0:0:0:
417,139,144051,2,0,P|410:179|388:214,1,82.5000031471254
326,151,144329,1,2,0:0:0:0:
362,307,144468,1,8,0:0:0:0:
326,151,144607,2,0,L|314:62,1,82.5000031471254,2|0,0:0|0:0,0:0:0:0:
362,307,144885,2,0,B|209:290|269:375|115:351,1,247.500009441376,10|0,0:0|0:0,0:0:0:0:
44,295,145440,5,2,0:0:0:0:
207,366,145718,1,2,0:0:0:0:
190,198,145996,2,0,P|176:87|179:25,1,165.000006294251,10|0,0:0|0:0,0:0:0:0:
259,49,146412,1,2,0:0:0:0:
200,109,146551,2,0,P|145:104|116:74,1,82.5000031471254,2|0,0:0|0:0,0:0:0:0:
261,226,146829,1,2,0:2:0:0:
261,226,146899,1,2,0:2:0:0:
261,226,146968,1,2,0:2:0:0:
144,282,147107,5,10,0:0:0:0:
200,109,147246,1,2,0:2:0:0:
372,165,147385,1,2,0:2:0:0:
316,338,147524,1,2,0:2:0:0:
434,282,147662,6,0,B|305:265|349:355|199:354,1,247.500009441376,6|0,0:0|0:0,0:0:0:0:
144,282,148218,1,8,0:0:0:0:
200,109,148496,1,2,0:0:0:0:
173,195,148774,1,2,0:0:0:0:
144,282,148912,1,0,0:0:0:0:
115,369,149051,1,0,0:0:0:0:
337,248,149329,2,0,P|313:149|268:8,1,247.500009441376,10|0,0:0|0:0,0:0:0:0:
460,58,149885,6,0,B|320:38|355:123|220:125,1,247.500009441376,2|0,0:0|0:0,0:0:0:0:
89,45,150440,2,0,P|141:40|201:37,1,82.5000031471254,10|0,0:0|0:0,0:0:0:0:
172,207,150718,2,0,P|130:204|89:200,1,82.5000031471254,2|0,0:0|0:0,0:0:0:0:
138,123,150996,1,0,0:0:0:0:
129,281,151135,1,0,0:0:0:0:
138,123,151274,1,2,0:0:0:0:
129,281,151412,1,2,0:0:0:0:
265,214,151551,5,10,0:0:0:0:
89,200,151690,1,2,0:2:0:0:
165,360,151829,1,2,0:2:0:0:
168,263,152107,6,0,B|278:229|240:125|367:107,1,247.500009441376,2|0,0:0|0:0,0:0:0:0:
423,250,152662,1,10,0:0:0:0:
423,250,152940,1,0,0:0:0:0:
423,250,153079,1,0,0:0:0:0:
348,198,153218,5,2,0:0:0:0:
369,320,153357,1,8,0:0:0:0:
491,298,153496,1,0,0:0:0:0:
470,177,153635,1,2,0:0:0:0:
293,273,153774,2,0,P|160:310|44:354,1,247.500009441376,10|0,0:0|0:0,0:0:0:0:
57,348,154329,6,0,B|140:370|242:298|173:184|173:184,1,247.500009441376
301,144,154885,2,0,P|278:178|263:216,1,82.5000031471254,10|0,0:0|0:0,0:0:0:0:
121,137,155162,2,0,P|143:102|158:64,1,82.5000031471254,2|0,0:0|0:0,0:0:0:0:
220,125,155440,1,2,0:0:0:0:
369,256,155718,1,2,0:2:0:0:
369,256,155787,1,2,0:2:0:0:
369,256,155857,1,2,0:2:0:0:
263,216,155996,5,10,0:0:0:0:
403,147,156135,1,2,0:2:0:0:
472,288,156274,1,2,0:2:0:0:
331,356,156412,1,2,0:2:0:0:
235,313,156551,6,0,P|213:184|176:34,1,247.500009441376,2|0,0:0|0:0,0:0:0:0:
128,182,157107,1,8,0:0:0:0:
281,120,157385,1,2,0:0:0:0:
430,209,157662,2,0,P|431:258|429:314,1,82.5000031471254,2|8,0:0|0:0,0:0:0:0:
352,254,157940,1,0,0:0:0:0:
509,261,158079,1,0,0:0:0:0:
281,366,158218,2,0,P|273:243|281:120,1,247.500009441376,10|0,0:0|0:0,0:0:0:0:
189,210,158774,6,0,P|190:251|189:292,1,82.5000031471254,2|0,0:0|0:0,0:0:0:0:
113,254,159051,1,0,0:0:0:0:
113,254,159329,2,0,B|264:230|201:312|358:302,1,247.500009441376,8|0,0:0|0:0,0:0:0:0:
417,264,159885,2,0,P|408:212|406:155,1,82.5000031471254,2|0,0:0|0:0,0:0:0:0:
202,148,160162,1,2,0:0:0:0:
316,98,160301,1,0,0:0:0:0:
303,221,160440,6,0,P|253:262|198:270,1,82.5000031471254,10|0,0:0|0:0,0:0:0:0:
104,81,160718,2,0,P|154:40|209:32,1,82.5000031471254,2|0,0:0|0:0,0:0:0:0:
202,148,160996,5,0,0:0:0:0:
180,219,161274,1,0,0:0:0:0:
61,235,161551,5,0,0:0:0:0:
83,306,161829,1,0,0:0:0:0:
184,351,162107,5,0,0:0:0:0:
255,329,162385,1,0,0:0:0:0:
396,267,162662,5,0,0:0:0:0:
325,245,162940,1,0,0:0:0:0:
179,114,163218,5,0,0:0:0:0:
243,150,163496,1,0,0:0:0:0:
311,120,163774,1,0,0:0:0:0:
353,59,164051,1,0,0:0:0:0:
423,37,164329,1,0,0:0:0:0:
435,219,164607,6,0,P|428:231|423:243,2,27.5000010490418
390,272,164885,2,0,P|396:283|402:296,2,27.5000010490418
422,326,165162,2,0,P|415:337|409:350,2,27.5000010490418
413,181,165440,5,0,0:0:0:0:
495,73,166274,1,0,0:0:0:0:
361,56,167107,1,0,0:0:0:0:
279,164,167385,1,0,0:0:0:0:
279,164,167524,1,0,0:0:0:0:
145,147,167662,5,0,0:0:0:0:
63,255,168496,1,0,0:0:0:0:
197,272,169329,1,0,0:0:0:0:
197,272,169468,1,0,0:0:0:0:
182,139,169607,5,0,0:0:0:0:
182,139,169746,2,0,P|153:200|129:227,1,82.5000031471254
101,146,170162,5,0,0:0:0:0:
244,207,170440,1,0,0:0:0:0:
305,162,170718,1,0,0:0:0:0:
443,288,170996,5,0,0:0:0:0:
311,233,171274,1,0,0:0:0:0:
424,146,171551,1,0,0:0:0:0:
424,146,171690,1,0,0:0:0:0:
424,146,171829,1,0,0:0:0:0:
327,350,172107,5,0,0:0:0:0:
493,214,172454,5,0,0:0:0:0:
493,214,172524,2,0,B|394:205|438:261|340:253,2,158.617797416071
470,296,173496,2,0,P|477:319|485:332,10,26.4362995693452
256,192,174329,6,0,B|340:178|317:261|466:257,2,218.235604740604
144,304,176274,1,0,0:0:0:0:
5,138,176551,5,0,0:0:0:0:
95,199,176829,1,0,0:0:0:0:
189,143,177107,1,0,0:0:0:0:
283,196,177385,1,0,0:0:0:0:
331,98,177662,1,0,0:0:0:0:
409,173,177940,1,0,0:0:0:0:
366,273,178218,1,0,0:0:0:0:
297,218,178496,1,0,0:0:0:0:
216,291,178774,5,0,0:0:0:0:
283,205,179051,1,0,0:0:0:0:
353,288,179329,1,0,0:0:0:0:
289,376,179607,1,0,0:0:0:0:
118,218,179885,5,0,0:0:0:0:
66,68,180162,1,0,0:0:0:0:
75,46,180301,1,0,0:0:0:0:
203,141,180579,5,0,0:0:0:0:
188,98,180718,1,0,0:0:0:0:
279,223,180996,5,0,0:0:0:0:
321,122,181274,1,0,0:0:0:0:
423,159,181551,1,0,0:0:0:0:
381,259,181829,1,0,0:0:0:0:
262,192,182107,5,0,0:0:0:0:
181,225,182385,1,0,0:0:0:0:
140,285,182662,1,0,0:0:0:0:
147,335,182940,1,0,0:0:0:0:
169,353,183218,5,0,0:0:0:0:
200,352,183496,1,0,0:0:0:0:
247,319,183774,1,0,0:0:0:0:
313,351,184051,1,0,0:0:0:0:
347,330,184329,1,0,0:0:0:0:
375,329,184607,2,0,L|412:351,1,36.3726007901006
431,359,185024,2,0,L|475:347,1,36.3726007901006
8,61,185440,5,0,0:0:0:0:
41,71,186274,1,0,0:0:0:0:
55,68,186412,1,0,0:0:0:0:
69,69,186551,1,0,0:0:0:0:
82,75,186690,1,0,0:0:0:0:
94,81,186829,1,0,0:0:0:0:
108,77,186968,1,0,0:0:0:0:
184,197,187246,5,0,0:0:0:0:
198,193,187385,1,0,0:0:0:0:
212,193,187524,1,0,0:0:0:0:
225,197,187662,1,0,0:0:0:0:
236,205,187801,1,0,0:0:0:0:
249,211,187940,1,0,0:0:0:0:
263,214,188079,1,0,0:0:0:0:
277,210,188218,1,0,0:0:0:0:
290,204,188357,1,0,0:0:0:0:
299,193,188496,1,0,0:0:0:0:
262,126,188774,5,0,0:0:0:0:
264,287,189051,1,0,0:0:0:0:
264,301,189190,1,0,0:0:0:0:
148,352,189468,1,0,0:0:0:0:
148,337,189607,1,0,0:0:0:0:
130,301,189746,1,0,0:0:0:0:
21,296,189885,5,0,0:0:0:0:
3,368,190162,1,0,0:0:0:0:
17,370,190301,1,0,0:0:0:0:
31,370,190440,1,0,0:0:0:0:
130,301,190718,5,0,0:0:0:0:
192,253,190996,1,0,0:0:0:0:
206,249,191135,1,0,0:0:0:0:
220,250,191274,1,0,0:0:0:0:
233,255,191412,1,0,0:0:0:0:
245,262,191551,1,0,0:0:0:0:
256,271,191690,1,0,0:0:0:0:
268,278,191829,1,0,0:0:0:0:
282,280,191968,1,0,0:0:0:0:
362,233,192107,6,0,L|357:207,1,18.1863003950503
408,356,192662,1,0,0:0:0:0:
411,341,192801,1,0,0:0:0:0:
415,327,192940,1,0,0:0:0:0:
419,313,193079,1,0,0:0:0:0:
490,275,193218,5,0,0:0:0:0:
486,260,193357,1,0,0:0:0:0:
480,246,193496,1,0,0:0:0:0:
474,232,193635,1,0,0:0:0:0:
373,107,193912,1,0,0:0:0:0:
378,93,194051,1,0,0:0:0:0:
275,240,194329,5,0,0:0:0:0:
220,189,194607,1,0,0:0:0:0:
149,192,194885,1,0,0:0:0:0:
141,204,195024,1,0,0:0:0:0:
133,216,195162,1,0,0:0:0:0:
126,228,195301,1,0,0:0:0:0:
49,259,195440,5,0,0:0:0:0:
52,273,195579,1,0,0:0:0:0:
57,286,195718,1,0,0:0:0:0:
63,299,195857,1,0,0:0:0:0:
119,352,195996,5,0,0:0:0:0:
133,351,196135,1,0,0:0:0:0:
194,315,196274,1,0,0:0:0:0:
207,320,196412,1,0,0:0:0:0:
369,345,196551,5,0,0:0:0:0:
312,246,196829,1,0,0:0:0:0:
315,231,196968,1,0,0:0:0:0:
318,216,197107,1,0,0:0:0:0:
329,206,197246,1,0,0:0:0:0:
342,200,197385,1,0,0:0:0:0:
356,198,197524,1,0,0:0:0:0:
369,202,197662,5,0,0:0:0:0:
393,218,197801,1,0,0:0:0:0:
421,224,197940,1,0,0:0:0:0:
428,128,198218,1,0,0:0:0:0:
426,142,198357,1,0,0:0:0:0:
359,70,198635,1,0,0:0:0:0:
362,84,198774,5,0,0:0:0:0:
345,98,198912,1,0,0:0:0:0:
323,103,199051,1,0,0:0:0:0:
301,99,199190,1,0,0:0:0:0:
279,95,199329,1,0,0:0:0:0:
171,165,199607,1,0,0:0:0:0:
172,179,199746,1,0,0:0:0:0:
173,193,199885,1,0,0:0:0:0:
167,87,200162,1,0,0:0:0:0:
82,200,200440,5,0,0:0:0:0:
89,224,200579,1,0,0:0:0:0:
96,248,200718,1,0,0:0:0:0:
201,361,200996,5,0,0:0:0:0:
211,326,201135,1,0,0:0:0:0:
226,292,201274,1,0,0:0:0:0:
253,269,201412,1,0,0:0:0:0:
284,251,201551,1,0,0:0:0:0:
432,199,201829,1,0,0:0:0:0:
396,192,201968,1,0,0:0:0:0:
336,144,202107,1,0,0:0:0:0:
309,119,202246,1,0,0:0:0:0:
341,45,202385,1,0,0:0:0:0:
343,8,202524,1,0,0:0:0:0:
223,105,202662,5,0,0:0:0:0:
401,105,202801,1,0,0:0:0:0:
401,105,203218,6,0,B|289:100|337:162|247:179,1,177.60819912952
179,199,204329,2,0,P|260:206|365:228,1,177.60819912952
430,226,205440,2,0,P|385:249|354:265,1,76.1177996269373
310,360,205996,1,0,0:0:0:0:
140,270,206551,6,0,P|112:240|100:190,1,76.1177996269373
153,141,207107,1,0,0:0:0:0:
228,228,207385,1,0,0:0:0:0:
332,161,207662,6,0,P|328:136|319:108,1,50.7451997512915
449,147,208218,2,0,P|410:186|393:224,1,76.1177996269373
476,266,208774,2,0,B|287:204|309:362|76:299,1,405.961598010332
286,85,211829,5,2,0:0:0:0:
148,224,211968,1,2,0:0:0:0:
160,214,212107,5,8,0:3:0:0:
118,47,212246,1,8,0:1:0:0:
109,63,212524,5,0,1:0:0:0:
232,160,212663,1,8,0:1:0:0:
247,176,212940,5,0,1:0:0:0:
378,82,213079,1,8,0:1:0:0:
366,71,213357,5,0,1:0:0:0:
353,183,213496,1,0,1:0:0:0:
358,200,213565,1,0,1:0:0:0:
353,183,213635,1,0,1:0:0:0:
358,200,213704,1,0,1:0:0:0:
353,183,213774,1,0,1:0:0:0:
385,274,213912,1,0,1:0:0:0:
215,38,214051,5,10,1:0:0:0:
56,80,214190,1,2,0:1:0:0:
174,343,214329,6,2,B|203:341|218:326|218:326|254:330|286:274|286:274|322:309|331:340|331:340|360:367|436:351,1,264,6|0,0:0|0:0,0:0:0:0:
465,245,214885,2,0,B|437:245|437:245|349:292,1,88,8|0,0:0|0:0,0:0:0:0:
195,217,215162,1,2,0:0:0:0:
172,151,215301,1,2,0:0:0:0:
309,100,215440,1,2,0:0:0:0:
261,165,215579,2,0,B|206:221|262:246|243:391,1,176,2|0,0:0|0:0,0:0:0:0:
172,151,215996,1,8,0:0:0:0:
384,273,216274,1,2,0:0:0:0:
482,182,216412,2,0,P|467:152|453:143,1,44,2|2,0:0|0:0,0:0:0:0:
459,279,216551,6,2,B|422:282|384:253|384:253|293:300|282:220|192:277,1,264,2|0,0:0|0:0,0:0:0:0:
90,356,217107,2,0,B|135:360|135:360|176:341,1,88,8|0,0:0|0:0,0:0:0:0:
80,162,217385,5,2,0:0:0:0:
211,272,217524,2,0,L|270:277,1,44,2|2,0:0|0:0,0:0:0:0:
290,182,217662,5,2,0:0:0:0:
257,196,217755,1,2,0:0:0:0:
281,196,217871,5,2,0:0:0:0:
281,196,217940,1,0,0:0:0:0:
373,187,218079,1,0,0:0:0:0:
149,208,218218,2,0,P|118:245|131:293,1,88,8|0,0:0|0:0,0:0:0:0:
239,356,218496,1,2,0:0:0:0:
303,319,218635,1,2,0:0:0:0:
478,325,218774,5,2,0:0:0:0:
376,289,218912,1,0,0:0:0:0:
373,187,219051,1,2,0:0:0:0:
456,252,219190,1,2,0:0:0:0:
301,230,219329,5,10,0:0:0:0:
376,289,219468,1,2,0:0:0:0:
211,272,219607,1,2,0:0:0:0:
387,54,219885,5,2,0:0:0:0:
422,189,220024,1,8,0:0:0:0:
262,68,220162,5,2,0:0:0:0:
16,255,220440,6,0,B|76:239|112:169|112:169|157:232|247:235,1,264,10|0,0:0|0:0,0:0:0:0:
330,201,220996,1,2,0:0:0:0:
357,139,221135,1,2,0:0:0:0:
456,158,221274,1,2,0:0:0:0:
356,267,221412,1,0,0:0:0:0:
228,142,221551,6,0,B|217:101|217:101|243:47,1,88,10|0,0:0|0:0,0:0:0:0:
297,199,221829,2,0,B|266:229|266:229|207:233,1,88,2|0,0:0|0:0,0:0:0:0:
236,59,222107,1,2,0:0:0:0:
72,190,222246,5,8,0:0:0:0:
249,285,222385,5,2,0:2:0:0:
249,285,222454,1,2,0:2:0:0:
249,285,222524,1,2,0:2:0:0:
323,372,222662,5,10,0:0:0:0:
152,365,222801,1,2,0:2:0:0:
163,198,222940,1,2,0:2:0:0:
330,201,223079,1,2,0:2:0:0:
91,272,223218,5,6,0:0:0:0:
163,198,223357,1,2,0:0:0:0:
57,62,223496,2,0,B|52:151|52:151|74:194,1,132,2|0,0:0|0:0,0:0:0:0:
71,189,223774,2,2,B|109:186|141:159|141:159|180:191|221:169|221:169|268:149|308:182|308:182|349:213|413:189,1,352,10|0,0:0|0:0,0:0:0:0:
255,237,224468,1,0,0:0:0:0:
383,113,224607,5,2,0:0:0:0:
332,52,224746,5,2,0:0:0:0:
332,52,224815,1,2,0:0:0:0:
332,52,224885,2,0,L|362:250,1,176,10|0,0:0|0:0,0:0:0:0:
260,161,225301,1,2,0:0:0:0:
431,289,225440,6,0,B|367:254|296:243|242:294|242:294|288:292|320:310,1,264,2|0,0:0|0:0,0:0:0:0:
176,353,225996,2,0,B|157:313|157:313|164:257,1,88,8|0,0:0|0:0,0:0:0:0:
260,103,226274,5,2,0:0:0:0:
235,167,226366,1,2,0:0:0:0:
169,193,226459,1,2,0:0:0:0:
100,169,226551,5,2,0:0:0:0:
176,353,226690,1,8,0:0:0:0:
84,306,226829,5,2,0:0:0:0:
160,122,226968,1,2,0:0:0:0:
29,203,227107,6,0,B|67:211|103:185|103:185|129:198|148:219|148:219|218:165|306:205,1,264,10|0,0:0|0:0,0:0:0:0:
388,253,227662,5,2,0:0:0:0:
354,187,227801,1,0,0:0:0:0:
217,288,227940,5,2,0:0:0:0:
251,354,228079,1,0,0:0:0:0:
442,181,228218,5,10,0:0:0:0:
456,51,228357,1,2,0:0:0:0:
249,37,228496,5,2,0:0:0:0:
235,167,228635,1,2,0:0:0:0:
345,112,228774,6,2,B|340:75|325:46|325:46|334:197|309:262,1,264,10|0,0:0|0:0,0:0:0:0:
186,303,229329,2,0,P|128:269|106:254,1,88,8|0,0:0|0:0,0:0:0:0:
147,121,229607,1,2,0:0:0:0:
162,198,229746,1,2,0:0:0:0:
247,361,229885,6,0,B|216:333|199:289|199:289|217:238|268:202,1,176,2|0,0:0|0:0,0:0:0:0:
392,340,230301,1,2,0:0:0:0:
319,329,230440,2,0,B|308:293|308:293|326:238,1,88,8|0,0:0|0:0,0:0:0:0:
506,19,230718,6,2,B|398:113|312:32|372:269|131:336,1,440,2|0,0:0|0:0,0:0:0:0:
120,292,231551,5,10,0:0:0:0:
323,245,231690,1,2,0:2:0:0:
276,42,231829,1,2,0:2:0:0:
73,89,231968,1,2,0:2:0:0:
