osu file format v14

[General]
AudioFilename: audio.mp3
AudioLeadIn: 0
PreviewTime: 77180
Countdown: 0
SampleSet: Soft
StackLeniency: 0.7
Mode: 0
LetterboxInBreaks: 0
WidescreenStoryboard: 0

[Editor]
Bookmarks: 2272,8161,14051,25830,37609,40554,43499,46444,49388,52333,55278,61168,64112,67057,72947,77364,78836,84726,90615,96505,108284,114358,120063,125953,131842,143622,155401,159818,161290,167180,173069,184849,196628,202517,208407,211352,213560,214296,220186,226076,231965,237855,243744,249634,255523,261413,273192,279082,284971,287916,289388,290677,290861,295278,296750,302640,308530,311474,312947,314419,330229,332371
DistanceSpacing: 1.6
BeatDivisor: 4
GridSize: 8
TimelineZoom: 1

[Metadata]
Title:Fujin [Brave Girl]
TitleUnicode:風神 「ブレイブ・ガール」
Artist:Meramipop
ArtistUnicode:Meramipop
Creator:caned
Version:< >
Source:
Tags:RD-Sounds Japanese Pop
BeatmapID:1145009
BeatmapSetID:539939

[Difficulty]
HPDrainRate:6
CircleSize:4
OverallDifficulty:8
ApproachRate:9
SliderMultiplier:1.4
SliderTickRate:1

[Events]
//Background and Video events
0,0,"that.jpg",0,0
//Break Periods
2,90815,95830
2,173269,181259
//Storyboard Layer 0 (Background)
//Storyboard Layer 1 (Fail)
//Storyboard Layer 2 (Pass)
//Storyboard Layer 3 (Foreground)
//Storyboard Sound Samples

[TimingPoints]
800,368.098159509202,4,2,1,40,1,0
2272,-100,4,2,1,50,0,0
14051,-100,4,2,1,60,0,0
25830,-90.9090909090909,4,2,1,70,0,0
37609,-125,4,2,1,70,0,0
43499,-111.111111111111,4,2,1,70,0,0
46444,-100,4,2,1,70,0,0
49388,-83.3333333333333,4,2,1,70,0,0
61168,-111.111111111111,4,2,1,70,0,0
64112,-83.3333333333333,4,2,1,70,0,0
67057,-111.111111111111,4,2,1,70,0,0
72947,-100,4,2,1,70,0,0
78836,-76.9230769230769,4,2,1,80,0,1
90707,-76.9230769230769,4,2,1,70,0,0
96505,-100,4,2,1,50,0,0
108284,-100,4,2,1,60,0,0
120063,-125,4,2,1,65,0,0
125953,-111.111111111111,4,2,1,65,0,0
131842,-83.3333333333333,4,2,1,65,0,0
143622,-111.111111111111,4,2,1,65,0,0
155401,-99.9999999999999,4,2,1,65,0,0
160554,-76.923076923077,4,2,1,65,0,0
161290,-76.923076923077,4,2,1,80,0,1
173161,-100,4,2,1,65,0,0
184665,-133.333333333333,4,2,1,50,0,0
202517,-111.111111111111,4,2,1,65,0,0
212824,-100,4,2,1,65,0,0
214296,-83.3333333333333,4,2,1,80,0,1
226076,-83.3333333333333,4,2,1,85,0,1
237855,-100,4,2,1,65,0,0
249634,-111.111111111111,4,2,1,65,0,0
261413,-83.3333333333333,4,2,1,65,0,0
273192,-111.111111111111,4,2,1,65,0,0
284971,-99.9999999999999,4,2,1,65,0,0
290125,-76.9230769230769,4,2,1,65,0,0
290861,-76.9230769230769,4,2,1,80,0,1
314603,-166.666666666667,4,2,1,20,0,0
320309,-166.666666666667,4,2,1,21,0,0
320521,405.405405405405,4,2,1,40,1,0
320521,-166.666666666667,4,2,1,40,0,0
330355,535.714285714286,4,2,1,65,1,0
330355,-200,4,2,1,65,0,0
334640,-200,4,2,1,5,0,0

[HitObjects]
72,104,2272,38,0,P|112:96|160:104,1,70,4|0,0:0|0:0,0:0:0:0:
188,210,2640,2,0,P|148:218|100:210,1,70
232,64,3008,2,0,L|216:152,1,70
312,248,3376,2,0,L|328:160,1,70
400,88,3744,6,0,P|440:80|480:88,1,70,2|0,0:0|0:0,0:0:0:0:
324,179,4112,2,0,P|284:187|244:179,1,70
162,67,4480,2,0,L|146:155,1,70
242,251,4848,2,0,L|258:163,1,70
296,72,5217,6,0,P|256:64|208:72,1,70,2|0,0:0|0:0,0:0:0:0:
180,178,5585,2,0,P|220:186|268:178,1,70
136,32,5953,2,0,L|152:120,1,70
56,216,6321,2,0,L|40:128,1,70
180,178,6689,5,2,0:0:0:0:
272,216,6873,1,0,0:0:0:0:
192,280,7057,1,0,0:0:0:0:
180,178,7241,1,0,0:0:0:0:
248,112,7425,2,0,P|288:104|336:120,2,70,2|0|0,0:0|0:0|0:0,0:0:0:0:
180,178,7977,1,0,0:0:0:0:
440,280,8161,6,0,P|400:288|352:280,1,70,4|0,0:0|0:0,0:0:0:0:
324,174,8529,2,0,P|364:166|412:174,1,70
280,320,8897,2,0,L|296:232,1,70
200,136,9265,2,0,L|184:224,1,70
112,296,9633,6,0,P|72:304|32:296,1,70,2|0,0:0|0:0,0:0:0:0:
188,205,10001,2,0,P|228:197|268:205,1,70
350,317,10369,2,0,L|366:229,1,70
270,133,10737,2,0,L|254:221,1,70
216,312,11106,6,0,P|256:320|304:312,1,70,2|0,0:0|0:0,0:0:0:0:
332,206,11474,2,0,P|292:198|244:206,1,70
376,352,11842,2,0,L|360:264,1,70
456,168,12210,2,0,L|472:256,1,70
332,206,12578,5,2,0:0:0:0:
240,168,12762,1,0,0:0:0:0:
320,104,12946,1,0,0:0:0:0:
400,280,13131,2,0,P|336:304|256:272,1,140,2|0,0:0|0:0,0:0:0:0:
240,168,13683,1,2,0:0:0:0:
168,232,13867,1,0,0:0:0:0:
112,112,14051,5,4,0:0:0:0:
240,48,14235,2,0,B|280:40|280:40|344:56|344:56|408:48,1,140
328,128,14787,1,0,0:0:0:0:
387,222,14971,1,0,0:0:0:0:
288,240,15155,1,0,0:0:0:0:
456,184,15339,6,0,P|456:256|400:296,1,140
328,128,15892,1,0,0:0:0:0:
264,32,16076,2,0,P|336:16|424:48,1,140
328,128,16628,1,0,0:0:0:0:
248,200,16812,1,0,0:0:0:0:
160,264,16996,6,0,L|64:280,1,70,4|0,0:0|0:0,0:0:0:0:
24,176,17364,1,0,0:0:0:0:
96,104,17548,1,0,0:0:0:0:
153,194,17732,2,0,L|161:282,1,70
248,216,18100,1,0,0:0:0:0:
352,192,18284,6,0,P|368:152|368:112,1,70
424,240,18652,2,0,P|408:280|408:320,1,70
352,192,19020,2,0,B|288:168|288:168|192:200,1,140
128,256,19573,1,0,0:0:0:0:
72,160,19757,1,0,0:0:0:0:
144,32,19941,5,4,0:0:0:0:
220,190,20125,2,0,L|208:272,2,70
248,80,20677,1,0,0:0:0:0:
328,160,20861,1,0,0:0:0:0:
416,88,21045,1,0,0:0:0:0:
400,248,21229,6,0,B|360:248|360:248|296:264|296:264|256:248,1,140
152,216,21781,1,0,0:0:0:0:
48,296,21965,2,0,P|16:232|56:168,1,140
96,88,22517,2,0,P|136:80|184:96,1,70
264,224,22885,6,0,L|280:128,2,70
216,344,23438,2,0,L|200:272,1,70
176,168,23806,1,0,0:0:0:0:
120,256,23990,1,0,0:0:0:0:
40,176,24174,1,0,0:0:0:0:
136,96,24358,6,0,L|224:80,1,70,0|0,3:0|3:0,3:0:0:0:
408,168,24726,2,0,L|320:152,1,70,0|0,3:0|3:0,3:0:0:0:
120,256,25094,2,0,L|208:240,1,70,0|0,3:0|3:0,3:0:0:0:
392,328,25462,2,0,P|352:328|296:272,1,105,0|0,3:0|3:0,3:0:0:0:
312,256,25830,6,0,B|328:216|328:216|312:176,1,77.0000023498536,4|0,0:0|0:0,0:0:0:0:
224,96,26198,1,0,0:0:0:0:
184,208,26382,1,0,0:0:0:0:
96,120,26566,2,0,L|-4:147,2,77.0000023498536
224,96,27119,5,0,0:0:0:0:
320,224,27303,1,0,0:0:0:0:
320,224,27395,1,0,0:0:0:0:
320,224,27487,2,0,P|280:232|216:208,1,77.0000023498536
136,160,27855,1,2,0:0:0:0:
280,152,28039,1,0,0:0:0:0:
152,80,28223,1,0,0:0:0:0:
208,176,28407,1,0,0:0:0:0:
256,80,28591,1,2,0:0:0:0:
288,240,28775,5,4,0:0:0:0:
336,96,28959,2,0,L|424:80,2,77.0000023498536,0|0|8,0:0|0:0|0:0,0:0:0:0:
208,176,29511,2,0,L|120:160,2,77.0000023498536,0|0|8,0:0|0:0|0:0,0:0:0:0:
328,208,30063,5,0,0:0:0:0:
328,208,30155,1,0,0:0:0:0:
328,208,30247,2,0,L|344:272,1,38.5000011749268
344,304,30431,2,0,B|304:288|304:288|256:312,1,77.0000023498536
176,352,30799,1,0,0:0:0:0:
216,240,30984,1,8,0:0:0:0:
64,272,31168,5,0,0:0:0:0:
232,144,31352,1,8,0:0:0:0:
112,80,31536,1,0,0:0:0:0:
112,80,31628,1,0,0:0:0:0:
112,80,31720,6,0,L|120:176,1,77.0000023498536
136,272,32088,1,0,0:0:0:0:
192,160,32272,1,8,0:0:0:0:
312,256,32456,2,0,L|296:168,2,77.0000023498536,0|0|8,0:0|0:0|0:0,0:0:0:0:
416,320,33008,1,0,0:0:0:0:
416,320,33100,1,0,0:0:0:0:
416,320,33192,2,0,L|344:328,1,38.5000011749268
344,352,33376,6,0,B|312:368|312:368|264:344,1,77.0000023498536
184,272,33744,2,0,L|280:248,1,77.0000023498536
384,232,34112,1,0,0:0:0:0:
280,168,34296,1,0,0:0:0:0:
392,112,34480,1,0,0:0:0:0:
208,128,34665,6,0,P|200:168|208:208,1,77.0000023498536
456,272,35033,2,0,P|464:232|456:192,1,77.0000023498536,0|8,0:0|0:0,0:0:0:0:
208,128,35401,2,0,L|104:112,2,77.0000023498536,0|0|8,0:0|0:0|0:0,0:0:0:0:
336,152,35953,1,0,0:0:0:0:
304,272,36137,5,0,0:0:0:0:
304,272,36229,1,0,0:0:0:0:
304,272,36321,1,0,0:0:0:0:
280,96,36505,1,0,0:0:0:0:
152,192,36689,1,0,0:0:0:0:
152,192,36781,1,0,0:0:0:0:
152,192,36873,2,0,L|128:112,1,77.0000023498536
280,96,37241,5,0,1:0:0:0:
312,296,37425,2,0,L|304:240,1,38.5000011749268
360,136,37609,6,0,P|280:176|208:144,1,168,4|0,0:0|0:0,0:0:0:0:
288,24,38346,1,8,0:0:0:0:
48,216,38714,2,0,L|120:208,1,56
240,296,39082,2,0,L|168:288,1,56,2|0,0:0|0:0,0:0:0:0:
256,168,39450,2,0,L|328:160,1,56,2|0,0:0|0:0,0:0:0:0:
448,248,39818,2,0,P|480:168|440:88,1,168,8|0,0:0|0:0,0:0:0:0:
448,248,40554,6,0,B|408:256|408:256|320:240|320:240|280:240,1,168,4|0,0:0|0:0,0:0:0:0:
464,352,41291,1,8,0:0:0:0:
256,80,41658,6,0,P|233:104|219:142,1,56
124,185,42026,2,0,P|134:217|160:248,1,56,2|0,0:0|0:0,0:0:0:0:
212,329,42395,2,0,P|235:306|249:267,1,56,2|0,0:0|0:0,0:0:0:0:
276,185,42763,1,8,0:0:0:0:
392,256,42947,5,0,1:0:0:0:
406,231,43039,1,0,1:0:0:0:
414,205,43131,1,0,1:0:0:0:
416,177,43223,1,0,1:0:0:0:
411,149,43315,1,0,1:0:0:0:
400,124,43407,1,0,1:0:0:0:
384,104,43499,6,0,P|320:88|248:96,1,125.999996154785,4|8,0:0|0:0,0:0:0:0:
169,136,44051,1,0,0:0:0:0:
169,136,44143,1,0,0:0:0:0:
169,136,44235,2,0,P|177:167|168:216,1,62.9999980773926
112,288,44603,1,8,0:0:0:0:
48,200,44787,1,0,0:0:0:0:
48,200,44879,1,0,0:0:0:0:
48,200,44971,6,0,P|40:160|56:128,2,62.9999980773926
112,288,45523,1,0,0:0:0:0:
144,104,45707,1,0,0:0:0:0:
296,247,45892,1,0,0:0:0:0:
184,168,46076,2,0,L|248:160,1,62.9999980773926,8|0,0:0|0:0,0:0:0:0:
400,144,46444,6,0,P|408:112|400:72,1,70
296,247,46812,2,0,P|288:279|296:328,1,70,8|0,0:0|0:0,0:0:0:0:
328,104,47180,2,0,P|296:96|256:104,1,70
368,288,47548,1,8,0:0:0:0:
336,112,47732,5,8,0:0:0:0:
336,112,47824,1,8,0:0:0:0:
336,112,47916,1,8,0:0:0:0:
368,288,48100,2,8,L|376:336,2,35
416,152,48468,5,8,0:0:0:0:
416,152,48560,1,8,0:0:0:0:
416,152,48652,1,8,0:0:0:0:
240,208,48836,2,8,L|192:224,2,35
368,288,49204,1,8,0:0:0:0:
136,208,49388,6,0,B|96:160|144:88|144:88|176:136,1,167.999994873047,4|8,0:0|0:0,0:0:0:0:
224,288,49941,1,0,0:0:0:0:
224,288,50033,1,0,0:0:0:0:
224,288,50125,1,0,0:0:0:0:
400,176,50309,1,0,0:0:0:0:
256,96,50493,1,8,0:0:0:0:
400,176,50677,6,0,P|360:160|304:192,1,83.9999974365235
146,283,51045,2,0,P|186:299|242:267,1,83.9999974365235
360,232,51413,1,0,0:0:0:0:
192,184,51597,1,0,0:0:0:0:
223,287,51781,1,0,0:0:0:0:
273,137,51965,1,8,0:0:0:0:
89,97,52149,2,0,L|48:104,1,41.9999987182618
120,128,52333,6,0,P|192:104|280:144,1,167.999994873047,4|8,0:0|0:0,0:0:0:0:
344,312,52886,1,0,0:0:0:0:
344,312,52978,1,0,0:0:0:0:
344,312,53070,1,0,0:0:0:0:
273,137,53254,1,0,0:0:0:0:
176,304,53438,5,8,0:0:0:0:
120,128,53622,1,0,0:0:0:0:
208,232,53806,1,0,0:0:0:0:
40,176,53990,1,0,0:0:0:0:
176,80,54174,2,0,L|168:168,1,83.9999974365235,8|0,0:0|0:0,0:0:0:0:
152,312,54542,1,0,0:0:0:0:
152,312,54634,1,0,0:0:0:0:
152,312,54726,1,0,0:0:0:0:
264,160,54910,1,8,0:0:0:0:
88,224,55094,1,0,0:0:0:0:
184,72,55278,6,0,P|264:48|352:72,1,167.999994873047,4|8,0:0|0:0,0:0:0:0:
280,248,55830,2,0,B|216:192|248:128|248:128|264:112|288:128,1,167.999994873047
352,192,56382,1,8,0:0:0:0:
144,176,56566,5,0,0:0:0:0:
144,176,56658,1,0,0:0:0:0:
144,176,56750,2,0,B|104:200|104:200|152:272|88:336,1,167.999994873047
32,104,57302,2,0,B|64:128|64:128|192:64,1,167.999994873047
360,40,57854,1,0,0:0:0:0:
248,216,58039,1,0,0:0:0:0:
360,40,58223,6,0,P|376:80|352:144,1,83.9999974365235,2|0,0:0|0:0,0:0:0:0:
184,264,58591,2,0,P|168:224|192:160,1,83.9999974365235,2|0,0:0|0:0,0:0:0:0:
304,88,58959,1,2,0:0:0:0:
248,216,59143,1,8,0:0:0:0:
248,216,59235,1,8,0:0:0:0:
248,216,59327,1,8,0:0:0:0:
368,264,59511,1,0,0:0:0:0:
304,88,59695,5,0,0:0:0:0:
320,208,59879,1,0,0:0:0:0:
208,152,60063,1,0,0:0:0:0:
304,88,60247,1,0,0:0:0:0:
248,216,60431,1,0,0:0:0:0:
176,88,60615,1,0,0:0:0:0:
128,256,60799,1,0,0:0:0:0:
208,152,60983,1,0,0:0:0:0:
128,256,61168,6,0,B|104:296|104:296|168:344|240:272,1,188.999994232178,4|8,0:0|0:0,0:0:0:0:
328,200,61904,2,0,P|376:184|432:208,2,94.499997116089
232,279,62640,6,0,B|192:304|192:304|144:304|128:240,1,125.999996154785
72,144,63192,1,0,0:0:0:0:
167,48,63376,2,0,B|237:34|237:34|293:58,1,125.999996154785
416,136,63928,1,0,0:0:0:0:
288,56,64112,6,0,L|304:160,1,83.9999974365235
192,328,64480,2,0,L|176:232,1,83.9999974365235
351,90,64849,2,0,L|320:184,1,83.9999974365235
132,277,65217,2,0,L|168:184,1,83.9999974365235
392,144,65585,1,0,0:0:0:0:
112,208,65769,5,8,0:0:0:0:
112,208,65861,1,8,0:0:0:0:
112,208,65953,1,8,0:0:0:0:
312,144,66137,1,0,0:0:0:0:
152,80,66321,1,8,0:0:0:0:
232,176,66505,1,0,0:0:0:0:
112,208,66689,2,0,L|16:232,1,83.9999974365235
96,312,67057,6,0,B|136:320|136:320|184:312|184:312|224:320,1,125.999996154785,4|8,0:0|0:0,0:0:0:0:
336,368,67609,2,0,P|344:336|336:296,1,62.9999980773926
280,224,67977,1,8,0:0:0:0:
200,288,68161,2,0,L|144:248,1,62.9999980773926,8|0,0:0|0:0,0:0:0:0:
88,168,68530,6,0,P|152:152|224:176,1,125.999996154785,0|8,0:0|0:0,0:0:0:0:
312,232,69082,1,0,0:0:0:0:
352,64,69266,2,0,P|320:60|290:68,1,62.9999980773926
208,166,69634,2,0,P|240:174|280:166,1,62.9999980773926
96,104,70002,6,0,P|88:136|96:176,1,62.9999980773926,2|0,0:0|0:0,0:0:0:0:
219,197,70370,2,0,P|227:165|219:125,1,62.9999980773926
352,96,70738,2,0,P|344:128|352:168,1,62.9999980773926,2|0,0:0|0:0,0:0:0:0:
475,189,71106,2,0,P|483:157|475:117,1,62.9999980773926
352,96,71474,5,2,0:0:0:0:
288,192,71658,1,0,0:0:0:0:
200,128,71842,2,0,L|184:216,1,62.9999980773926
51,333,72211,5,8,0:0:0:0:
35,309,72303,1,8,0:0:0:0:
27,285,72395,1,8,0:0:0:0:
27,261,72487,1,8,0:0:0:0:
27,237,72579,1,8,0:0:0:0:
35,213,72671,1,8,0:0:0:0:
43,189,72763,1,8,0:0:0:0:
59,165,72855,1,8,0:0:0:0:
75,149,72947,6,0,P|136:128|232:160,1,140,4|0,0:0|0:0,0:0:0:0:
320,232,73499,1,0,0:0:0:0:
432,312,73683,2,0,P|453:251|421:155,1,140
344,72,74235,1,0,0:0:0:0:
240,240,74419,6,0,B|192:264|144:240|144:240|120:280,1,140
192,160,74971,1,0,0:0:0:0:
123,45,75155,2,0,B|144:80|144:80|192:56|240:80,1,140
96,168,75707,1,0,0:0:0:0:
208,32,75892,6,0,L|224:88,1,35
280,112,76076,2,0,L|296:56,1,35
360,56,76260,2,0,L|355:113,1,35,8|0,0:0|0:0,0:0:0:0:
400,155,76444,2,0,L|434:107,1,35
368,232,76628,1,0,0:0:0:0:
352,264,76720,1,0,0:0:0:0:
320,288,76812,1,0,0:0:0:0:
288,296,76904,1,0,0:0:0:0:
256,296,76996,2,0,P|200:272|168:224,1,105,8|0,0:0|0:0,0:0:0:0:
208,72,77364,5,4,0:0:0:0:
176,328,77732,5,0,0:0:0:0:
304,72,78100,5,0,0:0:0:0:
336,328,78468,5,0,0:0:0:0:
384,184,78652,5,0,0:0:0:0:
304,72,78836,6,0,P|256:64|208:80,1,90.9999958343508,4|0,0:0|0:0,0:0:0:0:
72,192,79204,2,0,P|120:208|168:184,1,90.9999958343508,8|0,0:0|0:0,0:0:0:0:
272,240,79573,2,0,P|280:192|264:144,1,90.9999958343508
120,32,79941,2,0,P|104:80|128:128,1,90.9999958343508,8|0,0:0|0:0,0:0:0:0:
429,238,80309,6,0,B|416:208|416:208|432:104|432:104|416:64,1,181.999991668702
304,112,80861,1,0,0:0:0:0:
208,264,81045,2,0,L|104:280,1,90.9999958343508
8,128,81413,2,0,L|112:144,1,90.9999958343508,8|0,0:0|0:0,0:0:0:0:
288,48,81781,6,0,P|296:96|240:160,1,136.499993751526,4|0,0:0|0:0,0:0:0:0:
168,144,82149,2,0,B|160:184|200:224|200:224|144:256,1,136.499993751526,10|0,0:0|0:0,0:0:0:0:
112,304,82517,2,0,B|144:328|176:320|176:320|248:280,1,136.499993751526
280,344,82885,2,0,P|306:294|256:216,1,136.499993751526,8|0,0:0|0:0,0:0:0:0:
200,224,83253,5,4,0:0:0:0:
208,64,83438,1,0,0:0:0:0:
136,176,83622,1,8,0:0:0:0:
304,160,83806,1,0,0:0:0:0:
136,96,83990,5,0,0:0:0:0:
269,300,84175,1,8,0:0:0:0:
240,312,84266,1,8,0:0:0:0:
208,304,84358,1,8,0:0:0:0:
192,280,84450,1,8,0:0:0:0:
192,248,84542,1,8,0:0:0:0:
216,224,84634,1,8,0:0:0:0:
248,216,84726,6,0,P|296:208|336:160,1,90.9999958343508,4|0,0:0|0:0,0:0:0:0:
200,48,85094,2,0,P|152:56|112:104,1,90.9999958343508,8|0,0:0|0:0,0:0:0:0:
248,216,85462,2,0,P|240:168|192:128,1,90.9999958343508
80,264,85830,2,0,P|88:312|136:352,1,90.9999958343508,8|0,0:0|0:0,0:0:0:0:
248,216,86198,6,0,B|344:200|344:200|392:216,1,136.499993751526,4|0,0:0|0:0,0:0:0:0:
416,280,86566,2,0,P|456:216|416:144,1,136.499993751526,10|0,0:0|0:0,0:0:0:0:
448,88,86934,2,0,P|400:96|368:144,2,90.9999958343508,0|0|8,0:0|0:0|0:0,0:0:0:0:
438,162,87487,1,0,0:0:0:0:
336,48,87671,6,0,B|272:64|232:32|232:32|192:80,1,136.499993751526,4|0,0:0|0:0,0:0:0:0:
128,104,88039,2,0,B|152:96|152:96|192:144|264:120,1,136.499993751526,8|0,0:0|0:0,0:0:0:0:
336,128,88407,2,0,P|304:192|232:207,1,136.499993751526
168,208,88775,2,0,B|152:248|152:248|192:256|256:320,1,136.499993751526,8|0,0:0|0:0,0:0:0:0:
272,320,89143,5,4,0:0:0:0:
252,123,89327,1,0,0:0:0:0:
336,256,89511,1,8,0:0:0:0:
400,120,89695,1,0,0:0:0:0:
245,209,89879,1,0,0:0:0:0:
176,48,90063,5,8,0:0:0:0:
137,26,90155,1,8,0:0:0:0:
96,41,90247,1,8,0:0:0:0:
81,83,90339,1,8,0:0:0:0:
104,121,90431,1,8,0:0:0:0:
147,128,90523,1,8,0:0:0:0:
184,96,90615,5,4,0:0:0:0:
232,128,96505,5,0,0:0:0:0:
272,48,96689,2,0,B|232:40|232:40|168:56|168:56|104:48,1,140
64,112,97241,1,0,0:0:0:0:
59,223,97425,1,0,0:0:0:0:
64,112,97609,1,0,0:0:0:0:
0,168,97793,6,0,P|-24:224|24:304,1,140,0|2,0:0|0:0,0:0:0:0:
164,185,98346,1,0,0:0:0:0:
232,112,98530,2,0,P|168:88|96:120,1,140
59,223,99082,1,0,0:0:0:0:
164,185,99266,1,0,0:0:0:0:
54,291,99450,6,0,B|50:255|50:255|62:211,1,70,4|0,0:0|0:0,0:0:0:0:
103,112,99818,1,0,0:0:0:0:
232,112,100002,2,0,P|264:104|320:128,2,70
164,185,100554,1,0,0:0:0:0:
88,280,100738,6,0,P|62:245|51:206,1,70,0|2,0:0|0:0,0:0:0:0:
136,96,101106,2,0,P|178:90|217:101,1,70
292,190,101474,2,0,P|274:228|245:257,2,70
360,80,102027,1,0,0:0:0:0:
448,176,102211,1,0,0:0:0:0:
360,80,102395,5,4,0:0:0:0:
292,190,102579,2,0,L|304:272,2,70
264,80,103131,1,0,0:0:0:0:
192,168,103315,1,0,0:0:0:0:
112,88,103499,1,0,0:0:0:0:
112,248,103683,6,0,B|152:240|152:240|256:256,1,140,2|0,0:0|0:0,0:0:0:0:
360,216,104235,1,0,0:0:0:0:
472,304,104419,2,0,B|456:264|456:264|472:200|472:200|456:152,1,140,2|0,0:0|0:0,0:0:0:0:
416,88,104971,2,0,P|376:80|328:96,1,70,2|0,0:0|0:0,0:0:0:0:
248,224,105339,6,0,L|232:128,2,70,2|0|0,0:0|0:0|0:0,0:0:0:0:
224,328,105892,2,0,P|264:336|304:320,1,70
400,296,106260,1,0,0:0:0:0:
320,224,106444,1,0,0:0:0:0:
400,296,106628,1,0,0:0:0:0:
376,96,106812,6,0,B|336:72|336:72|288:80,1,70,0|0,1:0|0:0,0:0:0:0:
104,168,107180,2,0,B|144:144|144:144|192:152,1,70,0|0,1:0|0:0,0:0:0:0:
392,256,107548,2,0,B|344:232|344:232|304:240,1,70,0|0,1:0|0:0,0:0:0:0:
120,328,107916,2,0,P|160:328|216:272,1,105,0|0,1:0|0:0,0:0:0:0:
224,264,108284,5,4,0:0:0:0:
168,168,108468,2,0,L|80:176,2,70,0|8|0,0:0|0:0|0:0,0:0:0:0:
264,104,109020,2,0,L|333:92,1,70
424,64,109388,1,8,0:0:0:0:
480,144,109573,2,0,L|472:240,1,70,0|2,0:0|0:0,0:0:0:0:
464,328,109941,1,0,0:0:0:0:
368,248,110125,1,8,0:0:0:0:
272,312,110309,2,0,P|240:240|272:176,1,140
224,64,110861,1,8,0:0:0:0:
344,96,111045,1,0,0:0:0:0:
261,186,111229,5,4,0:0:0:0:
224,64,111413,2,0,P|187:54|144:64,1,70,0|8,0:0|0:0,0:0:0:0:
64,120,111781,1,0,0:0:0:0:
128,208,111965,2,0,L|120:296,2,70,0|0|8,0:0|0:0|0:0,0:0:0:0:
224,64,112517,6,0,B|304:48,1,70,2|0,0:0|0:0,0:0:0:0:
416,40,112885,1,0,0:0:0:0:
344,104,113069,1,2,0:0:0:0:
376,192,113253,1,0,0:0:0:0:
376,192,113346,1,0,0:0:0:0:
376,192,113438,2,0,L|280:176,1,70,2|0,0:0|0:0,0:0:0:0:
184,88,113806,2,0,L|280:72,1,70,2|0,0:0|0:0,0:0:0:0:
360,56,114174,5,4,0:0:0:0:
456,112,114358,2,0,P|464:152|448:200,2,70,0|8|0,0:0|0:0|0:0,0:0:0:0:
368,160,114910,2,0,L|272:176,1,70
192,200,115278,1,8,0:0:0:0:
80,232,115462,1,0,0:0:0:0:
80,232,115554,1,0,0:0:0:0:
80,232,115646,2,0,P|72:184|80:152,1,70
184,128,116015,1,8,0:0:0:0:
280,64,116199,2,0,B|320:112|288:168|288:168|296:216,1,140
288,320,116751,1,8,0:0:0:0:
192,240,116935,1,0,0:0:0:0:
288,320,117119,6,0,P|325:330|368:320,2,70,0|0|8,0:0|0:0|0:0,0:0:0:0:
192,240,117671,1,0,0:0:0:0:
80,160,117855,2,0,P|43:150|0:160,2,70,0|0|8,0:0|0:0|0:0,0:0:0:0:
192,240,118407,1,0,0:0:0:0:
320,168,118591,6,0,B|328:128|328:128|320:72,1,70,2|0,0:0|0:0,0:0:0:0:
216,32,118959,1,2,0:0:0:0:
149,148,119143,1,0,0:0:0:0:
149,148,119236,1,0,0:0:0:0:
149,148,119328,2,0,L|53:164,1,70,2|0,0:0|0:0,0:0:0:0:
216,32,119695,1,2,0:0:0:0:
296,264,119879,1,0,0:0:0:0:
296,264,119971,1,0,0:0:0:0:
296,264,120063,6,0,P|368:304|448:264,1,168,4|0,0:0|0:0,0:0:0:0:
504,112,120800,1,8,0:0:0:0:
136,208,121168,2,0,P|168:200|208:216,1,56
192,360,121536,2,0,P|169:336|162:293,1,56
304,280,121904,2,0,P|271:288|231:272,1,56
160,176,122272,2,0,P|112:216|24:168,1,168,8|0,0:0|0:0,0:0:0:0:
96,144,123008,6,0,B|136:136|136:136|224:152|224:152|264:152,1,168,4|0,0:0|0:0,0:0:0:0:
456,168,123745,1,8,0:0:0:0:
144,32,124112,2,0,L|136:88,1,56
232,144,124480,2,0,L|240:88,1,56
344,56,124849,2,0,L|336:112,1,56
320,248,125217,1,8,0:0:0:0:
179,360,125401,5,8,0:0:0:0:
161,338,125493,1,8,0:0:0:0:
150,312,125585,1,8,0:0:0:0:
147,285,125677,1,8,0:0:0:0:
151,257,125769,1,8,0:0:0:0:
164,232,125861,1,8,0:0:0:0:
184,208,125953,6,0,P|248:192|320:200,1,125.999996154785,4|8,0:0|0:0,0:0:0:0:
408,248,126505,1,0,0:0:0:0:
408,248,126597,1,0,0:0:0:0:
408,248,126689,2,0,P|416:208|401:168,1,62.9999980773926
360,88,127057,1,8,0:0:0:0:
256,40,127241,1,0,0:0:0:0:
256,40,127333,1,0,0:0:0:0:
256,40,127425,6,0,L|168:32,2,62.9999980773926
360,88,127977,1,0,0:0:0:0:
208,104,128161,1,0,0:0:0:0:
320,224,128346,1,0,0:0:0:0:
124,59,128530,2,0,P|108:91|124:139,1,62.9999980773926,8|0,0:0|0:0,0:0:0:0:
328,48,128898,6,0,P|360:40|400:48,1,62.9999980773926,4|0,0:0|0:0,0:0:0:0:
225,152,129266,2,0,P|193:160|153:152,1,62.9999980773926,8|0,0:0|0:0,0:0:0:0:
368,120,129634,2,0,P|376:152|368:192,1,62.9999980773926
184,80,130002,1,8,0:0:0:0:
136,264,130186,5,8,0:0:0:0:
136,264,130278,1,8,0:0:0:0:
136,264,130370,1,8,0:0:0:0:
328,232,130554,2,8,L|368:224,2,31.4999990386963
136,136,130922,5,8,0:0:0:0:
136,136,131014,1,8,0:0:0:0:
136,136,131106,1,8,0:0:0:0:
328,152,131290,2,8,L|368:160,2,31.4999990386963
136,264,131658,1,0,0:0:0:0:
328,152,131842,6,0,B|384:216|336:272|336:272|304:232,1,167.999994873047,4|8,0:0|0:0,0:0:0:0:
208,120,132395,1,0,0:0:0:0:
208,120,132487,1,0,0:0:0:0:
208,120,132579,1,0,0:0:0:0:
88,216,132763,1,0,0:0:0:0:
224,312,132947,1,8,0:0:0:0:
88,216,133131,6,0,B|128:200|128:200|184:208,1,83.9999974365235
328,264,133499,2,0,P|344:216|336:176,1,83.9999974365235,0|8,0:0|0:0,0:0:0:0:
256,40,133867,1,0,0:0:0:0:
168,205,134051,1,0,0:0:0:0:
339,183,134235,1,0,0:0:0:0:
176,80,134419,1,8,0:0:0:0:
416,224,134603,2,8,L|464:216,1,41.9999987182618
392,256,134787,6,0,P|320:280|232:240,1,167.999994873047,4|8,0:0|0:0,0:0:0:0:
168,72,135340,1,0,0:0:0:0:
168,72,135432,1,0,0:0:0:0:
168,72,135524,1,0,0:0:0:0:
320,144,135708,1,0,0:0:0:0:
160,200,135892,1,8,0:0:0:0:
272,80,136076,5,0,0:0:0:0:
240,232,136260,1,0,0:0:0:0:
104,128,136444,1,0,0:0:0:0:
240,232,136628,2,0,L|352:208,1,83.9999974365235
160,200,136996,1,0,0:0:0:0:
112,336,137180,1,0,0:0:0:0:
240,232,137364,1,8,0:0:0:0:
76,251,137548,1,0,0:0:0:0:
336,344,137732,6,0,B|296:312|296:312|240:360|168:304,1,167.999994873047,4|8,0:0|0:0,0:0:0:0:
160,224,138284,2,0,P|224:176|320:216,1,167.999994873047
240,256,138836,1,8,0:0:0:0:
336,344,139020,5,0,0:0:0:0:
336,344,139112,1,0,0:0:0:0:
336,344,139204,2,0,B|376:328|376:328|336:296|376:256|376:256|312:240,1,167.999994873047
240,256,139757,2,0,B|168:208|112:256|112:256|168:280,1,167.999994873047
240,344,140308,1,8,0:0:0:0:
24,280,140493,1,0,0:0:0:0:
152,344,140677,6,0,P|136:304|160:240,1,83.9999974365235,6|0,0:0|0:0,0:0:0:0:
328,120,141045,2,0,P|344:160|320:224,1,83.9999974365235,8|0,0:0|0:0,0:0:0:0:
208,296,141413,1,0,0:0:0:0:
264,168,141597,1,0,0:0:0:0:
264,168,141689,1,0,0:0:0:0:
264,168,141781,1,8,0:0:0:0:
112,128,141965,1,0,0:0:0:0:
208,296,142149,5,0,0:0:0:0:
240,96,142333,1,0,0:0:0:0:
368,224,142517,1,8,0:0:0:0:
264,168,142701,1,0,0:0:0:0:
136,248,142885,1,8,0:0:0:0:
240,96,143069,1,0,0:0:0:0:
288,264,143253,1,8,0:0:0:0:
168,168,143437,1,0,0:0:0:0:
384,128,143622,6,0,B|304:80|248:104|248:104|288:144,1,188.999994232178,4|8,0:0|0:0,0:0:0:0:
352,216,144358,2,0,L|376:312,2,94.499997116089
280,136,145094,6,0,P|336:112|408:136,1,125.999996154785,4|0,0:0|0:0,0:0:0:0:
440,216,145646,1,0,0:0:0:0:
352,216,145830,2,0,P|296:240|224:192,1,125.999996154785
192,144,146382,1,0,0:0:0:0:
224,328,146566,6,0,P|190:317|152:336,1,62.9999980773926,4|0,0:0|0:0,0:0:0:0:
304,248,146934,2,0,P|338:240|362:205,1,62.9999980773926,0|8,0:0|0:0,0:0:0:0:
192,144,147303,2,0,P|166:168|162:210,2,62.9999980773926,0|0|8,0:0|0:0|0:0,0:0:0:0:
328,112,147855,2,0,P|338:78|320:39,1,62.9999980773926
248,176,148223,5,0,0:0:0:0:
192,288,148407,1,8,0:0:0:0:
88,216,148591,2,0,L|80:160,1,31.4999990386963
56,120,148775,2,0,L|67:64,1,31.4999990386963
104,8,148959,1,8,0:0:0:0:
128,27,149051,1,8,0:0:0:0:
146,53,149143,1,8,0:0:0:0:
154,83,149235,1,8,0:0:0:0:
153,114,149327,1,8,0:0:0:0:
144,144,149419,1,8,0:0:0:0:
128,168,149511,6,0,B|184:192|216:160|216:160|232:200,1,125.999996154785,4|8,0:0|0:0,0:0:0:0:
223,273,150063,2,0,P|263:265|295:241,1,62.9999980773926
295,241,150339,1,8,0:0:0:0:
303,217,150431,1,8,0:0:0:0:
344,72,150615,2,0,L|368:144,1,62.9999980773926,8|0,0:0|0:0,0:0:0:0:
416,248,150984,5,0,0:0:0:0:
416,248,151076,1,0,0:0:0:0:
416,248,151168,1,8,0:0:0:0:
440,88,151352,1,8,0:0:0:0:
320,160,151536,1,0,0:0:0:0:
208,40,151720,2,0,P|200:72|208:112,1,62.9999980773926,8|0,0:0|0:0,0:0:0:0:
240,224,152088,1,8,0:0:0:0:
288,104,152272,1,0,0:0:0:0:
416,280,152456,6,0,P|424:248|416:208,1,62.9999980773926,6|0,0:0|0:0,0:0:0:0:
293,187,152824,2,0,P|285:219|293:259,1,62.9999980773926
160,288,153192,2,0,P|168:256|160:216,1,62.9999980773926,2|0,0:0|0:0,0:0:0:0:
37,195,153560,2,0,P|29:227|37:267,1,62.9999980773926,0|4,0:0|0:0,0:0:0:0:
160,288,153928,5,2,0:0:0:0:
160,288,154020,1,0,0:0:0:0:
160,288,154112,1,0,0:0:0:0:
216,160,154296,1,8,0:0:0:0:
304,280,154480,1,0,0:0:0:0:
152,208,154665,1,8,0:0:0:0:
240,344,154849,1,0,0:0:0:0:
328,184,155033,5,8,0:0:0:0:
320,160,155125,1,8,0:0:0:0:
312,136,155217,1,8,0:0:0:0:
296,112,155309,1,8,0:0:0:0:
280,96,155401,6,0,P|219:75|128:112,1,140,4|0,0:0|0:0,0:0:0:0:
216,200,155953,1,0,0:0:0:0:
148,94,156137,2,0,L|144:16,1,70
283,165,156505,2,0,L|279:87,1,70
283,165,156873,6,0,B|307:213|307:213|299:261|235:277|227:237,1,140,4|0,0:0|0:0,0:0:0:0:
136,176,157425,1,0,0:0:0:0:
96,48,157609,2,0,P|168:32|240:56,1,140,0|8,0:0|0:0,0:0:0:0:
344,128,158161,1,0,0:0:0:0:
416,256,158346,5,8,0:0:0:0:
388,276,158438,1,8,0:0:0:0:
354,283,158530,1,8,0:0:0:0:
320,274,158622,1,8,0:0:0:0:
289,257,158714,1,8,0:0:0:0:
259,239,158806,1,8,0:0:0:0:
226,228,158898,1,8,0:0:0:0:
192,233,158990,1,8,0:0:0:0:
163,252,159082,6,8,L|128:272,3,35
48,216,159450,2,8,L|83:196,3,35
104,152,159818,5,4,0:0:0:0:
432,144,160186,5,4,0:0:0:0:
320,336,160554,6,2,B|328:296|328:296|248:368|184:352|184:352|184:304|136:272,1,272.999987503052,2|2,2:0|2:0,2:0:0:0:
80,200,161290,6,0,P|125:175|175:183,1,90.9999958343508,4|0,0:0|0:0,0:0:0:0:
320,336,161658,2,0,P|274:360|224:352,1,90.9999958343508,8|0,0:0|0:0,0:0:0:0:
163,177,162026,2,0,P|208:152|258:160,1,90.9999958343508
403,313,162395,2,0,P|357:337|307:329,1,90.9999958343508,8|0,0:0|0:0,0:0:0:0:
96,320,162763,6,0,B|80:280|80:280|96:176|96:176|72:120,1,181.999991668702,0|8,0:0|0:0,0:0:0:0:
208,272,163315,1,0,0:0:0:0:
312,128,163499,1,0,0:0:0:0:
416,240,163683,1,0,0:0:0:0:
445,206,163775,1,0,0:0:0:0:
462,163,163867,1,8,0:0:0:0:
462,118,163959,1,0,0:0:0:0:
447,76,164051,1,0,0:0:0:0:
417,41,164143,1,0,0:0:0:0:
384,24,164235,6,0,B|352:56|352:56|304:32|248:72,1,136.499993751526
200,16,164603,2,0,B|176:64|200:104|200:104|160:144,1,136.499993751526,8|0,0:0|0:0,0:0:0:0:
96,160,164971,2,0,P|144:216|232:192,1,136.499993751526
264,256,165339,2,0,B|296:208|248:160|248:160|288:112,1,136.499993751526,8|0,0:0|0:0,0:0:0:0:
352,152,165707,5,8,0:0:0:0:
336,320,165892,1,8,0:0:0:0:
384,136,166076,1,8,0:0:0:0:
296,344,166260,1,8,0:0:0:0:
416,128,166444,5,8,0:0:0:0:
264,352,166629,1,8,0:0:0:0:
235,364,166720,1,8,0:0:0:0:
203,356,166812,1,0,0:0:0:0:
187,332,166904,1,0,0:0:0:0:
187,300,166996,1,0,0:0:0:0:
211,276,167088,1,0,0:0:0:0:
240,256,167180,6,0,P|288:248|328:200,1,90.9999958343508,4|0,0:0|0:0,0:0:0:0:
192,88,167548,2,0,P|144:96|104:144,1,90.9999958343508,8|0,0:0|0:0,0:0:0:0:
240,256,167916,2,0,P|232:208|184:168,1,90.9999958343508
72,304,168284,2,0,P|80:352|128:392,1,90.9999958343508,8|0,0:0|0:0,0:0:0:0:
264,168,168652,6,0,B|168:184|168:184|120:168,1,136.499993751526
64,120,169020,2,0,P|40:168|72:224,1,90.9999958343508,8|0,0:0|0:0,0:0:0:0:
96,304,169388,1,0,0:0:0:0:
192,88,169573,1,0,0:0:0:0:
216,126,169665,1,0,0:0:0:0:
229,169,169757,1,8,0:0:0:0:
230,214,169849,1,0,0:0:0:0:
219,258,169941,1,0,0:0:0:0:
196,297,170033,1,0,0:0:0:0:
176,328,170125,6,0,B|240:312|280:344|280:344|320:296,1,136.499993751526
384,272,170493,2,0,B|360:280|360:280|320:232|248:256,1,136.499993751526,8|0,0:0|0:0,0:0:0:0:
176,248,170861,2,0,P|208:184|280:169,1,136.499993751526
344,168,171229,2,0,B|360:128|360:128|320:120|256:56,1,136.499993751526,8|0,0:0|0:0,0:0:0:0:
240,64,171597,5,8,0:0:0:0:
260,261,171781,1,8,0:0:0:0:
208,136,171965,1,8,0:0:0:0:
176,256,172149,1,8,0:0:0:0:
288,136,172333,1,8,0:0:0:0:
336,336,172517,5,8,0:0:0:0:
375,358,172609,1,8,0:0:0:0:
416,343,172701,1,8,0:0:0:0:
431,301,172793,1,8,0:0:0:0:
408,263,172885,1,8,0:0:0:0:
365,256,172977,1,8,0:0:0:0:
328,288,173069,5,4,0:0:0:0:
256,192,181904,12,0,184665,0:0:0:0:
136,136,184849,6,0,P|216:112|296:136,1,157.500006008148,4|0,0:0|0:0,0:0:0:0:
336,224,185585,2,0,B|376:128|376:128|368:56,1,157.500006008148
272,32,186321,2,0,L|200:24,1,52.5000020027161,2|0,0:0|0:0,0:0:0:0:
152,112,186689,2,0,L|224:104,1,52.5000020027161,2|0,0:0|0:0,0:0:0:0:
256,200,187057,2,0,L|184:192,1,52.5000020027161,2|0,0:0|0:0,0:0:0:0:
136,280,187425,2,0,L|208:272,1,52.5000020027161,2|0,0:0|0:0,0:0:0:0:
335,335,187793,6,0,B|295:255|335:135|335:135|311:207|231:199,1,315.000012016297
255,199,189082,2,0,B|207:183|183:239|183:239|95:159|15:239,1,262.500010013581
96,304,190186,2,0,L|96:368,2,52.5000020027161
368,288,190738,6,0,P|392:192|360:128,1,157.500006008148,4|0,0:0|0:0,0:0:0:0:
280,80,191474,2,0,L|120:56,1,157.500006008148
32,112,192211,2,0,L|24:184,1,52.5000020027161,2|0,0:0|0:0,0:0:0:0:
112,232,192579,2,0,L|104:160,1,52.5000020027161,2|0,0:0|0:0,0:0:0:0:
200,128,192947,2,0,L|192:200,1,52.5000020027161,2|0,0:0|0:0,0:0:0:0:
280,248,193315,2,0,L|272:176,1,52.5000020027161,2|0,0:0|0:0,0:0:0:0:
352,320,193683,6,0,P|280:352|200:312,1,157.500006008148
144,248,194419,2,0,L|32:232,1,105.000004005432
96,144,194971,2,0,L|216:136,1,105.000004005432
200,137,195523,6,0,P|208:160|192:201,1,52.5000020027161
312,247,195892,2,0,P|304:224|320:183,1,52.5000020027161
384,120,196260,1,0,0:0:0:0:
448,200,196444,1,0,0:0:0:0:
312,247,196628,6,0,L|248:256,2,52.5000020027161,4|0|0,0:0|0:0|0:0,0:0:0:0:
444,300,197180,2,0,P|459:244|435:180,1,105.000004005432
368,128,197732,2,0,L|304:120,1,52.5000020027161
240,192,198100,2,0,P|192:176|128:208,1,105.000004005432,2|0,0:0|0:0,0:0:0:0:
96,296,198652,2,0,P|144:312|208:280,1,105.000004005432,2|0,0:0|0:0,0:0:0:0:
240,192,199204,2,0,L|224:136,1,52.5000020027161,2|0,0:0|0:0,0:0:0:0:
160,64,199573,6,0,P|216:48|280:56,1,105.000004005432
368,72,200125,1,0,0:0:0:0:
448,144,200309,2,0,B|464:184|464:184|440:256,1,105.000004005432
408,344,200861,1,0,0:0:0:0:
368,192,201045,6,0,L|296:184,1,52.5000020027161
240,112,201413,2,0,L|312:104,1,52.5000020027161
208,200,201781,2,2,L|136:192,1,52.5000020027161
80,120,202149,2,2,L|152:112,1,52.5000020027161
344,48,202517,6,0,P|368:104|344:176,1,125.999996154785,4|0,0:0|0:0,0:0:0:0:
264,248,203069,1,0,0:0:0:0:
152,296,203253,2,0,B|104:280|104:280|8:296,1,125.999996154785
128,208,203806,1,0,0:0:0:0:
40,104,203990,6,0,L|48:176,1,62.9999980773926
128,40,204358,2,0,L|120:112,1,62.9999980773926
208,120,204726,2,0,L|216:192,1,62.9999980773926
296,56,205094,2,0,L|288:128,1,62.9999980773926
168,336,205462,6,0,B|160:256|160:256|184:208,1,125.999996154785,4|0,0:0|0:0,0:0:0:0:
248,136,206014,1,0,0:0:0:0:
360,88,206198,2,0,P|424:72|504:96,1,125.999996154785
424,192,206751,1,0,0:0:0:0:
336,288,206934,6,0,P|304:296|256:288,1,62.9999980773926
176,224,207303,2,0,P|208:216|256:224,1,62.9999980773926
352,128,207671,2,0,P|320:136|272:128,1,62.9999980773926
192,64,208040,2,0,P|224:56|272:64,1,62.9999980773926
168,336,208407,6,0,P|144:280|168:208,1,125.999996154785,4|0,0:0|0:0,0:0:0:0:
248,136,208959,1,0,0:0:0:0:
360,88,209143,2,0,B|408:104|408:104|504:88,1,125.999996154785
424,208,209696,1,0,0:0:0:0:
352,312,209879,6,0,L|344:248,1,62.9999980773926
248,136,210247,2,0,L|256:200,1,62.9999980773926
152,272,210615,2,0,L|144:208,1,62.9999980773926
48,96,210983,2,0,L|56:160,1,62.9999980773926
24,280,211352,5,0,0:0:0:0:
80,216,211536,1,0,0:0:0:0:
168,216,211720,1,0,0:0:0:0:
240,272,211904,1,0,0:0:0:0:
328,280,212088,1,0,0:0:0:0:
408,248,212272,1,0,0:0:0:0:
432,160,212456,1,0,0:0:0:0:
392,80,212640,1,0,0:0:0:0:
312,40,212824,6,0,P|272:32|224:56,1,70
176,224,213192,2,0,P|216:232|264:208,1,70,8|0,0:0|0:0,0:0:0:0:
344,176,213560,1,8,0:0:0:0:
248,120,213744,1,0,0:0:0:0:
152,56,213928,1,8,0:0:0:0:
138,88,214020,1,8,0:0:0:0:
135,122,214112,1,8,0:0:0:0:
143,156,214204,1,8,0:0:0:0:
160,192,214296,6,0,P|176:232|160:288,1,83.9999974365235
48,232,214665,1,8,0:0:0:0:
104,120,214849,2,0,B|144:104|144:104|192:120|192:120|232:96|272:112,1,167.999994873047
384,72,215401,2,0,P|400:120|384:160,1,83.9999974365235,8|0,0:0|0:0,0:0:0:0:
256,296,215769,6,0,B|232:256|232:256|256:224|240:168,1,125.999996154785,4|0,0:0|0:0,0:0:0:0:
240,104,216137,2,0,P|200:120|168:176,1,83.9999974365235,8|0,0:0|0:0,0:0:0:0:
168,224,216505,2,0,P|128:208|104:168,1,83.9999974365235,4|0,0:0|0:0,0:0:0:0:
112,102,216873,2,0,P|152:118|176:158,1,83.9999974365235,8|0,0:0|0:0,0:0:0:0:
320,216,217241,6,0,B|344:136|344:136|328:80,1,125.999996154785,4|0,0:0|0:0,0:0:0:0:
248,80,217609,2,0,P|296:24|352:16,1,125.999996154785,8|0,0:0|0:0,0:0:0:0:
408,56,217977,2,0,L|440:144,2,83.9999974365235,0|0|8,0:0|0:0|0:0,0:0:0:0:
332,95,218530,1,0,0:0:0:0:
248,80,218714,6,0,L|144:96,1,83.9999974365235
56,160,219082,1,8,0:0:0:0:
128,264,219266,1,0,0:0:0:0:
128,264,219358,1,0,0:0:0:0:
128,264,219450,2,0,B|160:288|160:288|208:264,1,83.9999974365235
288,184,219818,1,8,0:0:0:0:
344,296,220002,1,0,0:0:0:0:
432,208,220186,6,0,B|448:160|448:160|400:112|432:32,1,167.999994873047,4|8,0:0|0:0,0:0:0:0:
288,184,220738,2,0,B|240:152|192:192|192:192|176:152|208:128,1,167.999994873047
256,16,221290,2,0,P|216:8|168:16,1,83.9999974365235,8|0,0:0|0:0,0:0:0:0:
288,184,221658,5,4,0:0:0:0:
392,64,221842,1,0,0:0:0:0:
256,16,222026,1,8,0:0:0:0:
368,144,222211,1,0,0:0:0:0:
208,128,222395,1,0,0:0:0:0:
344,16,222579,1,0,0:0:0:0:
344,16,222671,1,0,0:0:0:0:
344,16,222763,1,8,0:0:0:0:
208,72,222947,1,0,0:0:0:0:
208,72,223039,1,0,0:0:0:0:
208,72,223131,6,0,L|192:128,1,41.9999987182618
240,208,223315,2,0,L|256:152,1,41.9999987182618
336,112,223499,2,0,L|320:168,1,41.9999987182618,8|0,0:0|0:0,0:0:0:0:
368,248,223683,2,0,L|384:192,1,41.9999987182618
472,152,223867,2,0,L|456:208,3,41.9999987182618
488,280,224235,1,8,0:0:0:0:
384,344,224419,1,0,0:0:0:0:
384,344,224511,1,0,0:0:0:0:
384,344,224603,6,0,P|336:336|272:352,1,83.9999974365235
128,376,224971,2,0,B|112:328|112:328|112:288,1,83.9999974365235,8|0,0:0|0:0,0:0:0:0:
136,176,225339,1,8,0:0:0:0:
232,256,225523,1,0,0:0:0:0:
304,152,225707,1,8,0:0:0:0:
232,256,225892,1,0,0:0:0:0:
136,176,226076,6,0,B|96:208|96:208|40:168|88:72,1,167.999994873047,0|8,0:0|0:0,0:0:0:0:
168,24,226628,1,0,0:0:0:0:
288,64,226812,1,0,0:0:0:0:
400,120,226996,2,0,B|424:72|424:72|416:16,2,83.9999974365235,0|8|0,0:0|0:0|0:0,0:0:0:0:
336,240,227548,6,0,B|296:224|256:248|256:248|208:176|208:176|176:256|176:256|128:208|128:208|80:240|32:208,1,419.999987182618
136,136,228652,1,8,0:0:0:0:
256,88,228836,1,0,0:0:0:0:
398,59,229020,6,0,P|414:99|374:179,1,125.999996154785,4|0,0:0|0:0,0:0:0:0:
334,107,229388,2,0,B|286:83|286:83|230:91,1,83.9999974365235,8|0,0:0|0:0,0:0:0:0:
128,64,229757,2,0,B|136:96|136:96|128:160|128:160|136:216,2,125.999996154785,4|0|0,0:0|0:0|0:0,0:0:0:0:
96,256,230493,6,0,P|136:264|184:240,1,83.9999974365235
256,144,230861,1,0,0:0:0:0:
368,240,231045,2,0,B|352:192|352:192|368:120|368:120|352:72,1,167.999994873047
256,144,231597,1,0,0:0:0:0:
272,32,231781,1,0,0:0:0:0:
368,240,231965,6,0,P|384:280|368:328,1,83.9999974365235,4|0,0:0|0:0,0:0:0:0:
248,280,232333,1,8,0:0:0:0:
136,192,232517,2,0,B|88:184|88:184|40:200,1,83.9999974365235
312,96,232885,2,0,B|360:104|360:104|408:88,2,83.9999974365235,0|8|0,0:0|0:0|0:0,0:0:0:0:
208,24,233438,5,0,0:0:0:0:
248,200,233622,1,0,0:0:0:0:
312,96,233806,1,8,0:0:0:0:
136,72,233990,1,0,0:0:0:0:
160,248,234174,5,0,0:0:0:0:
208,24,234358,1,0,0:0:0:0:
336,168,234542,1,8,0:0:0:0:
227,166,234726,2,0,B|219:206|219:206|251:270|251:270|243:350,1,167.999994873047
246,326,235186,1,0,0:0:0:0:
246,326,235278,1,8,0:0:0:0:
360,272,235462,5,0,0:0:0:0:
168,256,235646,2,0,L|112:248,1,41.9999987182618
48,176,235830,2,0,L|104:168,1,41.9999987182618
184,112,236014,6,0,B|160:96|160:96|128:112|96:96,1,83.9999974365235
24,56,236382,1,0,0:0:0:0:
168,256,236566,1,0,0:0:0:0:
128,32,236750,1,8,0:0:0:0:
48,168,236934,1,0,0:0:0:0:
264,192,237119,1,8,0:0:0:0:
88,96,237303,1,0,0:0:0:0:
168,328,237487,1,8,0:0:0:0:
264,96,237671,1,0,0:0:0:0:
400,336,237855,6,0,B|440:352|440:352|464:264|344:200,1,210,4|8,0:0|0:0,0:0:0:0:
369,214,238499,1,8,0:0:0:0:
369,214,238591,1,8,0:0:0:0:
272,184,238775,1,0,0:0:0:0:
176,224,238959,1,0,0:0:0:0:
82,211,239143,5,8,0:0:0:0:
82,211,239235,1,8,0:0:0:0:
82,211,239327,2,0,L|66:291,1,70,8|0,0:0|0:0,0:0:0:0:
162,155,239695,2,0,L|178:235,1,70,8|0,0:0|0:0,0:0:0:0:
266,115,240063,1,8,0:0:0:0:
346,187,240247,5,8,0:0:0:0:
375,168,240339,1,8,0:0:0:0:
393,138,240431,1,8,0:0:0:0:
395,104,240523,1,8,0:0:0:0:
381,72,240615,1,8,0:0:0:0:
355,50,240707,1,8,0:0:0:0:
320,40,240799,6,0,L|160:56,1,140,4|8,0:0|0:0,0:0:0:0:
80,72,241352,1,0,0:0:0:0:
144,152,241536,2,0,L|152:232,1,70
232,288,241904,6,0,L|240:240,3,35
312,344,242272,1,0,0:0:0:0:
368,258,242456,1,0,0:0:0:0:
381,254,242548,1,0,0:0:0:0:
394,250,242640,1,0,0:0:0:0:
302,197,242824,1,0,0:0:0:0:
289,193,242916,1,0,0:0:0:0:
276,189,243008,1,0,0:0:0:0:
360,126,243192,1,0,0:0:0:0:
373,122,243284,1,0,0:0:0:0:
386,118,243376,1,0,0:0:0:0:
296,64,243560,5,0,0:0:0:0:
200,56,243744,1,0,0:0:0:0:
104,48,243928,2,0,L|48:37,2,35
160,128,244296,2,0,L|216:117,2,35
96,200,244665,5,0,0:0:0:0:
96,200,244757,1,0,0:0:0:0:
96,200,244849,2,0,L|40:211,3,35
184,224,245217,2,0,L|152:271,3,35
240,152,245585,2,0,L|251:208,3,35
280,72,245953,2,0,L|327:103,3,35
352,24,246321,2,8,L|408:13,1,35
416,112,246505,2,8,L|360:101,1,35
328,120,246689,6,0,B|272:112|272:112|248:128|192:120,1,105,4|0,0:0|0:0,0:0:0:0:
224,48,247057,2,2,P|168:72|152:120,1,105
176,176,247425,2,2,B|216:200|216:200|240:192|280:192,1,105
336,224,247793,2,2,P|344:192|320:136,1,70,2|10,0:0|0:0,0:0:0:0:
328,144,248069,1,8,0:0:0:0:
320,128,248161,1,8,0:0:0:0:
248,48,248346,5,8,0:0:0:0:
244,61,248438,1,8,0:0:0:0:
240,74,248530,1,8,0:0:0:0:
152,128,248714,1,8,0:0:0:0:
148,115,248806,1,8,0:0:0:0:
144,102,248898,1,8,0:0:0:0:
56,40,249082,1,8,0:0:0:0:
52,53,249174,1,8,0:0:0:0:
48,72,249266,2,0,B|40:144|40:144|56:176,1,105,8|0,0:0|0:0,0:0:0:0:
24,240,249634,6,0,P|88:240|128:176,1,125.999996154785,0|8,0:0|0:0,0:0:0:0:
408,312,250370,1,0,0:0:0:0:
352,160,250554,1,0,0:0:0:0:
296,240,250738,2,0,L|216:248,1,62.9999980773926,8|0,0:0|0:0,0:0:0:0:
176,312,251106,6,0,P|143:256|175:183,1,125.999996154785,4|8,0:0|0:0,0:0:0:0:
424,48,251842,1,0,0:0:0:0:
272,104,252026,1,0,0:0:0:0:
352,160,252210,2,0,L|360:240,1,62.9999980773926,8|0,0:0|0:0,0:0:0:0:
424,288,252579,6,0,P|360:312|304:296,1,125.999996154785,4|0,0:0|0:0,0:0:0:0:
192,216,253131,1,0,0:0:0:0:
88,264,253315,2,0,B|64:208|64:208|88:136,1,125.999996154785,4|0,0:0|0:0,0:0:0:0:
160,64,253867,2,0,P|224:48|296:64,1,125.999996154785
384,112,254419,5,0,0:0:0:0:
384,112,254511,1,0,0:0:0:0:
384,112,254603,1,0,0:0:0:0:
416,224,254787,1,0,0:0:0:0:
320,288,254971,5,0,0:0:0:0:
292,273,255063,1,0,0:0:0:0:
275,247,255155,1,8,0:0:0:0:
273,216,255247,1,8,0:0:0:0:
286,188,255339,1,8,0:0:0:0:
311,170,255431,1,8,0:0:0:0:
344,160,255523,6,0,P|208:88|104:256,1,377.999988464356
224,200,256812,1,0,0:0:0:0:
224,200,256904,1,0,0:0:0:0:
224,200,256996,2,0,L|288:208,2,62.9999980773926
137,248,257548,6,0,L|143:280,1,31.4999990386963
37,238,257732,1,8,0:0:0:0:
45,207,257824,1,8,0:0:0:0:
62,181,257916,1,8,0:0:0:0:
86,161,258008,1,8,0:0:0:0:
116,150,258100,1,8,0:0:0:0:
147,149,258192,1,8,0:0:0:0:
177,157,258284,1,8,0:0:0:0:
203,174,258376,1,8,0:0:0:0:
223,199,258468,6,0,P|280:224|344:200,1,125.999996154785,4|0,0:0|0:0,0:0:0:0:
48,32,259020,5,0,0:0:0:0:
48,32,259112,1,0,0:0:0:0:
48,32,259204,2,0,P|23:88|47:152,1,125.999996154785,4|0,0:0|0:0,0:0:0:0:
223,199,259757,5,0,0:0:0:0:
223,199,259849,1,0,0:0:0:0:
223,199,259941,2,0,P|232:160|216:120,1,62.9999980773926,4|0,0:0|0:0,0:0:0:0:
144,40,260309,1,4,0:0:0:0:
42,146,260493,2,0,L|26:194,2,31.4999990386963
344,128,260861,5,8,0:0:0:0:
359,155,260953,1,8,0:0:0:0:
367,185,261045,1,8,0:0:0:0:
366,217,261137,1,8,0:0:0:0:
357,247,261229,1,8,0:0:0:0:
341,274,261321,1,8,0:0:0:0:
320,296,261413,6,0,P|248:328|160:304,1,167.999994873047
48,184,261965,1,0,0:0:0:0:
48,184,262057,1,0,0:0:0:0:
48,184,262149,1,0,0:0:0:0:
152,56,262333,1,0,0:0:0:0:
248,200,262517,1,8,0:0:0:0:
376,88,262701,6,0,L|392:176,1,83.9999974365235
248,256,263069,2,0,L|264:160,1,83.9999974365235,0|8,0:0|0:0,0:0:0:0:
136,64,263437,1,0,0:0:0:0:
261,173,263622,1,0,0:0:0:0:
312,16,263806,2,0,L|304:72,1,41.9999987182618
384,96,263990,2,0,L|400:144,1,41.9999987182618
480,144,264174,2,0,L|528:184,1,41.9999987182618
392,256,264357,6,0,P|320:280|232:240,1,167.999994873047,4|8,0:0|0:0,0:0:0:0:
152,104,264910,1,0,0:0:0:0:
152,104,265002,1,0,0:0:0:0:
152,104,265094,1,0,0:0:0:0:
176,272,265278,1,0,0:0:0:0:
320,192,265462,1,8,0:0:0:0:
152,296,265646,6,0,B|128:240|128:240|160:120,1,167.999994873047
216,48,266198,2,0,P|176:32|120:40,1,83.9999974365235,8|0,0:0|0:0,0:0:0:0:
16,96,266566,1,0,0:0:0:0:
155,136,266750,1,0,0:0:0:0:
56,232,266934,1,0,0:0:0:0:
176,288,267119,1,0,0:0:0:0:
272,208,267302,6,0,P|304:280|264:376,1,167.999994873047,4|8,0:0|0:0,0:0:0:0:
104,360,267854,2,0,B|64:288|64:288|128:272|120:200,1,167.999994873047
40,208,268406,1,8,0:0:0:0:
160,96,268590,5,0,0:0:0:0:
160,96,268682,1,0,0:0:0:0:
160,96,268774,2,0,P|240:72|328:96,1,167.999994873047
400,48,269327,2,0,B|440:120|440:120|376:136|384:208,1,167.999994873047
320,328,269878,1,0,0:0:0:0:
248,176,270063,1,0,0:0:0:0:
144,344,270247,5,0,0:0:0:0:
24,168,270431,1,0,0:0:0:0:
51,136,270523,1,0,0:0:0:0:
83,109,270615,1,0,0:0:0:0:
119,87,270707,1,0,0:0:0:0:
158,73,270799,1,0,0:0:0:0:
200,65,270891,1,0,0:0:0:0:
241,64,270983,1,0,0:0:0:0:
283,70,271075,1,0,0:0:0:0:
320,80,271167,1,0,0:0:0:0:
360,104,271259,1,0,0:0:0:0:
392,128,271352,6,0,L|408:192,1,41.9999987182618
360,280,271536,2,0,L|336:216,1,41.9999987182618
312,168,271720,1,0,0:0:0:0:
264,336,271904,1,0,0:0:0:0:
264,336,271996,1,0,0:0:0:0:
264,336,272088,1,0,0:0:0:0:
184,128,272272,1,0,0:0:0:0:
184,128,272364,1,0,0:0:0:0:
184,128,272456,1,0,0:0:0:0:
93,258,272640,6,0,L|165:266,1,41.9999987182618
312,200,272824,1,0,0:0:0:0:
330,237,272916,1,0,0:0:0:0:
328,278,273008,1,0,0:0:0:0:
306,314,273100,1,0,0:0:0:0:
270,334,273192,6,0,B|232:352|232:352|208:248|128:264,1,188.999994232178,4|0,0:0|0:0,0:0:0:0:
72,336,273928,2,0,B|52:280|52:280|64:216,2,94.499997116089
176,256,274665,6,0,B|248:304|312:280|312:280|360:224,1,188.999994232178,0|8,0:0|0:0,0:0:0:0:
384,160,275401,2,0,P|320:152|256:192,1,125.999996154785,0|8,0:0|0:0,0:0:0:0:
176,256,275953,1,0,0:0:0:0:
72,192,276137,2,0,L|56:120,1,62.9999980773926
152,40,276505,2,0,L|168:112,1,62.9999980773926,0|8,0:0|0:0,0:0:0:0:
280,160,276873,2,0,L|264:88,1,62.9999980773926
360,8,277241,2,0,L|376:80,1,62.9999980773926,8|0,0:0|0:0,0:0:0:0:
472,144,277609,5,0,0:0:0:0:
392,288,277793,2,0,L|384:232,1,31.4999990386963
320,176,277977,2,0,L|312:232,1,31.4999990386963
232,320,278161,1,0,0:0:0:0:
228,288,278253,1,0,0:0:0:0:
224,257,278345,1,0,0:0:0:0:
220,226,278437,1,0,0:0:0:0:
216,194,278529,1,0,0:0:0:0:
213,163,278621,1,0,0:0:0:0:
209,132,278714,6,0,L|200:80,3,31.4999990386963
160,40,279082,6,0,P|192:32|224:32,1,62.9999980773926
344,176,279450,1,0,0:0:0:0:
131,180,279634,2,0,L|139:140,1,31.4999990386963
203,100,279818,2,0,L|211:140,1,31.4999990386963
232,240,280002,1,8,0:0:0:0:
280,24,280186,1,8,0:0:0:0:
344,176,280370,1,0,0:0:0:0:
448,304,280554,6,0,P|453:269|440:224,1,62.9999980773926
272,144,280922,2,0,P|266:178|280:224,1,62.9999980773926,8|0,0:0|0:0,0:0:0:0:
320,304,281290,2,0,P|272:320|208:296,1,94.499997116089,8|0,0:0|0:0,0:0:0:0:
200,280,281658,1,8,0:0:0:0:
72,192,281842,1,0,0:0:0:0:
72,192,281934,1,0,0:0:0:0:
72,192,282026,6,0,L|80:280,1,62.9999980773926
200,112,282395,2,0,L|192:24,1,62.9999980773926,8|0,0:0|0:0,0:0:0:0:
336,200,282763,2,0,L|344:288,1,62.9999980773926
464,120,283132,2,0,L|456:32,1,62.9999980773926,8|0,0:0|0:0,0:0:0:0:
336,200,283499,6,0,L|328:152,1,31.4999990386963
392,64,283683,1,0,0:0:0:0:
370,40,283775,1,0,0:0:0:0:
342,26,283867,1,0,0:0:0:0:
311,23,283959,1,0,0:0:0:0:
281,31,284051,1,0,0:0:0:0:
256,49,284143,1,0,0:0:0:0:
232,72,284235,6,0,L|217:108,3,31.4999990386963
144,168,284603,2,0,L|129:131,3,31.4999990386963
120,104,284971,6,0,B|80:136|80:136|64:176|104:224,1,140,4|8,0:0|0:0,0:0:0:0:
216,296,285523,1,0,0:0:0:0:
304,192,285707,2,0,B|325:99|325:99|344:144,1,140,0|8,0:0|0:0,0:0:0:0:
384,272,286260,1,0,0:0:0:0:
304,192,286444,6,0,P|240:176|152:200,1,140,0|8,0:0|0:0,0:0:0:0:
64,288,286996,1,0,0:0:0:0:
168,120,287180,2,0,L|168:200,1,70
304,262,287548,2,0,L|304:182,1,70,8|0,0:0|0:0,0:0:0:0:
408,112,287916,6,0,L|416:160,1,35
336,112,288100,2,0,L|328:64,1,35
272,152,288284,2,0,L|280:200,1,35
200,152,288468,2,0,L|192:104,1,35
128,176,288652,1,0,0:0:0:0:
125,210,288744,1,0,0:0:0:0:
138,243,288836,1,0,0:0:0:0:
163,267,288928,1,0,0:0:0:0:
195,278,289020,1,0,0:0:0:0:
230,274,289112,1,0,0:0:0:0:
259,255,289204,1,0,0:0:0:0:
278,226,289296,1,0,0:0:0:0:
288,192,289388,5,4,0:0:0:0:
24,104,289757,5,0,0:0:0:0:
152,328,290125,6,0,B|144:288|144:288|200:232|200:232|248:296|336:288|368:248,1,272.999987503052
416,304,290861,6,0,P|424:253|399:208,1,90.9999958343508,4|0,0:0|0:0,0:0:0:0:
206,124,291229,2,0,P|199:175|223:219,1,90.9999958343508,8|0,0:0|0:0,0:0:0:0:
408,218,291597,2,0,P|416:167|391:122,1,90.9999958343508,4|0,0:0|0:0,0:0:0:0:
197,38,291965,2,0,P|190:89|214:133,1,90.9999958343508,8|0,0:0|0:0,0:0:0:0:
408,218,292334,6,0,B|240:240,1,136.499993751526
248,216,292701,1,8,0:0:0:0:
96,152,292886,1,0,0:0:0:0:
248,216,293069,2,0,P|256:264|235:299,1,90.9999958343508
32,184,293438,2,0,P|24:136|44:100,1,90.9999958343508,8|0,0:0|0:0,0:0:0:0:
176,168,293806,6,0,B|216:120|280:136|280:136|312:112,1,136.499993751526
352,72,294174,2,0,B|384:120|360:160|360:160|400:200,1,136.499993751526,8|0,0:0|0:0,0:0:0:0:
464,200,294542,2,0,P|424:256|328:232,1,136.499993751526
304,208,294910,2,0,B|272:240|288:296|288:296|232:264,1,136.499993751526,8|0,0:0|0:0,0:0:0:0:
176,168,295278,5,0,0:0:0:0:
88,328,295462,1,0,0:0:0:0:
82,282,295554,1,0,0:0:0:0:
76,237,295646,1,0,0:0:0:0:
70,192,295738,1,0,0:0:0:0:
64,147,295830,1,0,0:0:0:0:
176,168,296014,5,0,0:0:0:0:
344,64,296198,1,0,0:0:0:0:
384,82,296290,1,0,0:0:0:0:
400,123,296382,1,0,0:0:0:0:
382,164,296474,1,0,0:0:0:0:
340,180,296566,1,0,0:0:0:0:
300,162,296658,1,0,0:0:0:0:
272,128,296751,6,0,P|224:136|184:184,1,90.9999958343508
193,163,297026,1,0,0:0:0:0:
193,163,297119,1,8,0:0:0:0:
248,320,297303,1,0,0:0:0:0:
344,184,297487,2,0,L|360:288,1,90.9999958343508
200,168,297855,2,0,L|184:64,1,90.9999958343508,8|0,0:0|0:0,0:0:0:0:
200,168,298223,6,0,B|264:192|296:152|296:152|344:168,1,136.499993751526
360,192,298591,1,8,0:0:0:0:
394,162,298683,1,0,0:0:0:0:
408,120,298775,1,0,0:0:0:0:
399,76,298867,1,0,0:0:0:0:
368,43,298959,1,0,0:0:0:0:
288,120,299143,5,8,0:0:0:0:
160,96,299327,1,8,0:0:0:0:
376,48,299511,1,8,0:0:0:0:
376,48,299603,1,8,0:0:0:0:
376,48,299696,6,0,B|312:29|296:64|216:32,1,136.499993751526
168,0,300064,2,0,B|144:56|184:96|184:96|144:144,1,136.499993751526,8|0,0:0|0:0,0:0:0:0:
80,128,300432,2,0,P|120:184|192:192,1,136.499993751526
208,264,300800,2,0,B|256:248|256:248|240:200|296:152,1,136.499993751526,8|0,0:0|0:0,0:0:0:0:
328,136,301168,5,8,0:0:0:0:
368,352,301352,1,0,0:0:0:0:
456,176,301536,1,8,0:0:0:0:
328,224,301720,1,0,0:0:0:0:
456,288,301904,1,8,0:0:0:0:
416,112,302088,5,0,0:0:0:0:
392,73,302180,1,0,0:0:0:0:
353,51,302272,1,8,0:0:0:0:
308,50,302364,1,0,0:0:0:0:
268,71,302456,1,0,0:0:0:0:
243,108,302548,1,0,0:0:0:0:
216,144,302640,6,0,B|160:136|160:136|104:184|104:184|48:128,1,181.999991668702,4|8,0:0|0:0,0:0:0:0:
192,280,303192,1,0,0:0:0:0:
328,384,303376,2,0,P|368:280|312:216,1,181.999991668702,0|8,0:0|0:0,0:0:0:0:
176,136,303928,1,0,0:0:0:0:
416,219,304112,6,0,B|378:241|378:241|298:217,1,90.9999958343508
92,144,304480,2,0,B|130:122|130:122|210:146,1,90.9999958343508,8|0,0:0|0:0,0:0:0:0:
256,304,304849,1,0,0:0:0:0:
344,144,305033,1,0,0:0:0:0:
161,45,305217,2,0,L|177:149,1,90.9999958343508,8|0,0:0|0:0,0:0:0:0:
256,304,305585,6,0,B|264:328|264:328|336:264|272:176,1,181.999991668702,0|8,0:0|0:0,0:0:0:0:
416,48,306137,1,0,0:0:0:0:
488,176,306321,2,0,B|424:208|367:157|367:157|341:182|377:221,1,181.999991668702,0|8,0:0|0:0,0:0:0:0:
504,320,306873,1,0,0:0:0:0:
272,328,307057,6,0,B|272:288|272:288|200:312|200:312|184:264,1,136.499993751526
224,224,307425,2,0,B|168:208|136:248|136:248|88:208,1,136.499993751526,8|0,0:0|0:0,0:0:0:0:
32,216,307793,2,0,P|72:160|168:176,1,136.499993751526
160,184,308161,1,8,0:0:0:0:
272,328,308346,1,0,0:0:0:0:
360,64,308530,6,0,B|400:88|368:128|368:128|392:176|392:176|368:240,1,181.999991668702,0|8,0:0|0:0,0:0:0:0:
232,112,309082,1,0,0:0:0:0:
144,272,309266,2,0,B|88:240|32:272|32:272|96:352,1,181.999991668702,0|8,0:0|0:0,0:0:0:0:
216,208,309818,1,0,0:0:0:0:
376,304,310002,6,0,B|432:288|432:288|480:304,1,90.9999958343508
216,208,310370,2,0,B|160:192|160:192|112:208,1,90.9999958343508,8|0,0:0|0:0,0:0:0:0:
408,160,310738,2,0,B|392:104|392:104|408:56,1,90.9999958343508
168,280,311106,2,0,B|152:336|152:336|168:384,1,90.9999958343508,8|0,0:0|0:0,0:0:0:0:
376,288,311474,6,0,P|336:304|280:288,1,90.9999958343508
80,208,311842,2,0,P|120:208|176:168,1,90.9999958343508,8|0,0:0|0:0,0:0:0:0:
280,56,312211,1,8,0:0:0:0:
256,256,312395,1,0,0:0:0:0:
448,56,312579,1,8,0:0:0:0:
472,256,312763,1,0,0:0:0:0:
224,72,312947,5,8,0:0:0:0:
280,272,313131,1,0,0:0:0:0:
144,80,313315,5,8,0:0:0:0:
368,280,313499,1,0,0:0:0:0:
64,136,313683,5,8,0:0:0:0:
448,232,313867,1,0,0:0:0:0:
48,240,314051,5,8,0:0:0:0:
448,128,314235,1,0,0:0:0:0:
256,192,314419,5,4,0:0:0:0:
256,192,314603,12,0,320309,0:0:0:0:
408,104,320521,6,0,P|344:96|272:112,1,125.999996154785
224,160,321331,2,0,L|80:136,1,125.999996154785
99,139,322142,6,0,L|120:240,1,83.9999974365235
176,288,322750,1,0,0:0:0:0:
240,232,322953,2,0,L|368:208,1,125.999996154785
416,144,323764,6,0,P|440:176|448:224,1,83.9999974365235
272,306,324575,2,0,P|248:274|240:226,1,83.9999974365235
260,90,325385,2,0,P|299:95|339:123,1,83.9999974365235
376,240,325993,1,0,0:0:0:0:
272,306,326196,2,0,P|232:300|192:272,1,83.9999974365235
176,192,326804,5,0,0:0:0:0:
240,136,327007,2,0,B|296:128|296:128|376:136,1,125.999996154785
440,88,327817,2,0,P|448:136|400:216,1,125.999996154785
336,232,328628,6,0,L|315:131,1,83.9999974365235
232,296,329439,2,0,L|184:288,2,41.9999987182618
104,136,330355,6,0,L|184:120,1,70
304,240,331426,2,0,L|224:224,1,70
168,144,332497,6,0,B|120:112|120:112|40:184|88:240,1,186.666666666667
256,192,334774,12,0,338792,0:0:0:0:
