osu file format v14

[General]
AudioFilename: audio.mp3
AudioLeadIn: 0
PreviewTime: 155124
Countdown: 0
SampleSet: Soft
StackLeniency: 0.7
Mode: 0
LetterboxInBreaks: 0
WidescreenStoryboard: 0

[Editor]
Bookmarks: 2012,45158,67860,84076,142049,181374,184617,212083,238130,314347,346779
DistanceSpacing: 1.7
BeatDivisor: 4
GridSize: 32
TimelineZoom: 2.899999

[Metadata]
Title:Cruel CRuEL
TitleUnicode:Cruel CRuEL
Artist:Meramipop
ArtistUnicode:めらみぽっぷ
Creator:Asaiga
Version:Tormented Self
Source:東方永夜抄 ~ Imperishable Night.
Tags:-_Yoshimaro_- collab collaboration Touhou RD-Sounds 凋叶棕 Diao ye zong withered leaf merami 遙 Haruka Rabbit Reisen Udongein Inaba 鈴仙 優曇華院 イナバ 狂気の瞳 Lunatic Eyes ~ Invisible Full Moon th8
BeatmapID:1233051
BeatmapSetID:582625

[Difficulty]
HPDrainRate:5.8
CircleSize:3.8
OverallDifficulty:8.8
ApproachRate:9.5
SliderMultiplier:3.59999990463257
SliderTickRate:1

[Events]
//Background and Video events
0,0,"reisen.jpg",0,0
//Break Periods
2,175087,180849
2,290222,299212
//Storyboard Layer 0 (Background)
//Storyboard Layer 1 (Fail)
//Storyboard Layer 2 (Pass)
//Storyboard Layer 3 (Foreground)
//Storyboard Sound Samples

[TimingPoints]
2012,674.157303370787,4,2,3,30,1,0
2012,-200,4,2,3,30,0,0
4540,-200,4,2,3,5,0,0
4708,-200,4,2,3,30,0,0
5382,-200,4,2,0,30,0,0
5719,-200,4,2,3,30,0,0
6394,-200,4,2,0,30,0,0
6731,-200,4,2,3,30,0,0
6899,-200,4,2,3,5,0,0
7068,-200,4,2,3,30,0,0
7236,-200,4,2,3,5,0,0
7405,-200,4,2,3,30,0,0
10101,-200,4,2,0,30,0,0
10776,-200,4,2,3,30,0,0
11113,-200,4,2,0,30,0,0
11450,-200,4,2,3,30,0,0
11787,-200,4,2,0,30,0,0
12124,-153.846153846153,4,2,3,30,0,0
12629,-153.846153846154,4,2,3,5,0,0
12798,-200,4,2,3,30,0,0
13809,-200,4,2,0,30,0,0
14146,-200,4,2,3,30,0,0
14652,-200,4,2,3,5,0,0
14820,-200,4,2,3,30,0,0
15326,-200,4,2,3,5,0,0
15494,-200,4,2,3,30,0,0
16843,-200,4,2,0,30,0,0
17517,-200,4,2,3,30,0,0
18023,-200,4,2,3,5,0,0
18192,-200,4,2,3,30,0,0
23416,-200,4,2,3,5,0,0
23585,-200,4,2,3,30,0,0
25944,-200,4,2,0,30,0,0
26281,-200,4,2,3,30,0,0
26955,-200,4,2,0,30,0,0
27292,-200,4,2,3,30,0,0
27461,-200,4,2,3,5,0,0
27629,-200,4,2,3,30,0,0
28135,-200,4,2,3,5,0,0
28303,-200,4,2,3,30,0,0
28472,-200,4,2,3,5,0,0
28640,-200,4,2,3,30,0,0
28809,-200,4,2,3,5,0,0
28978,-285.714285714286,4,2,3,30,0,0
29483,-285.714285714286,4,2,3,5,0,0
29652,-250,4,2,3,30,0,0
30158,-250,4,2,3,5,0,0
30326,-200,4,2,3,30,0,0
30832,-200,4,2,3,5,0,0
31000,-166.666666666667,4,2,3,30,0,0
31506,-166.666666666667,4,2,3,5,0,0
31674,-200,4,2,3,30,0,0
34034,-200,4,2,0,30,0,0
34371,-200,4,2,3,30,0,0
35382,-200,4,2,0,30,0,0
35719,-200,4,2,3,30,0,0
36394,-200,4,2,0,30,0,0
37068,-200,4,2,3,30,0,0
39259,-200,4,2,3,5,0,0
39428,-200,4,2,3,30,0,0
39596,-200,4,2,3,5,0,0
39765,-200,4,2,3,30,0,0
41787,-200,4,2,0,30,0,0
45158,405.405405405405,4,2,1,40,1,0
45158,-166.666666666667,4,2,1,40,0,0
48401,-142.857142857143,4,2,1,50,0,0
51644,-125,4,2,1,60,0,0
54887,-100,4,2,1,70,0,1
59752,-86.9565217391304,4,2,1,70,0,1
60766,-100,4,2,1,70,0,1
64617,-83.3333333333333,4,2,1,70,0,1
65428,-100,4,2,1,70,0,1
67860,-166.666666666667,4,1,0,50,0,0
68266,-166.666666666667,4,2,1,50,0,0
71103,-200,4,2,2,50,0,0
93806,-125,4,2,0,60,0,0
95225,-125,4,2,2,50,0,0
122995,-166.666666666667,4,2,1,50,0,0
129482,-125,4,2,1,60,0,0
142455,-100,4,2,1,80,0,1
152185,-83.3333333333333,4,2,1,80,0,1
152995,-100,4,2,1,80,0,0
155428,-100,4,2,1,80,0,1
160293,-83.3333333333333,4,2,1,80,0,1
161306,-100,4,2,1,80,0,1
165157,-83.3333333333333,4,2,1,80,0,1
165968,-100,4,2,1,80,0,1
173266,-125,4,2,1,70,0,0
174482,-125,4,2,1,70,0,1
174887,-166.666666666667,4,1,0,70,0,0
184617,-125,4,3,1,60,0,0
186239,-125,4,2,1,60,0,0
238130,-166.666666666667,4,2,1,50,0,0
244617,-125,4,2,1,60,0,0
257590,-100,4,2,1,80,0,1
267320,-83.3333333333333,4,2,1,80,0,1
268130,-100,4,2,1,80,0,0
270563,-100,4,2,1,80,0,1
275428,-83.3333333333333,4,2,1,80,0,1
276239,-100,4,2,1,80,0,1
280293,-83.3333333333333,4,2,1,80,0,1
281103,-100,4,2,1,80,0,1
289212,-125,4,2,1,70,0,0
289617,-125,4,2,1,70,0,1
290022,-100,4,1,0,70,0,0
299752,-125,4,2,1,60,0,0
307860,-166.666666666667,4,2,1,60,0,0
311103,-166.666666666667,4,2,0,60,0,0
312725,-166.666666666667,4,2,1,60,0,0
314347,-125,4,2,1,70,0,0
317590,-100,4,2,1,70,0,0
318401,-125,4,2,1,70,0,0
320833,-100,4,2,1,80,0,1
325698,-83.3333333333333,4,2,1,80,0,1
326712,-100,4,2,1,80,0,1
330563,-83.3333333333333,4,2,1,80,0,1
331374,-100,4,2,1,80,0,1
338671,-83.3333333333333,4,2,1,80,0,1
339887,-100,4,2,1,80,0,1
345157,-125,4,2,1,80,0,0
346779,-100,4,2,1,70,0,1
351644,-83.3333333333333,4,2,1,70,0,1
352657,-100,4,2,1,70,0,1
356509,-83.3333333333333,4,2,1,70,0,1
357320,-100,4,2,1,70,0,0
358941,-125,4,2,1,70,0,1
359549,-100,4,1,0,70,0,0

[Colours]
Combo1 : 149,190,118
Combo2 : 237,221,109
Combo3 : 130,176,215
Combo4 : 207,207,207

[HitObjects]
165,124,2012,6,0,B|101:145|59:79|59:79|134:8|197:55|190:96|273:92|273:92|223:139|244:181|275:211|271:258|271:258|274:196|331:171|331:171|329:186|317:189,1,674.999982118607
271,258,4708,6,0,B|228:303|145:280|145:280|166:260|192:260,1,179.999995231629
318,188,5719,2,0,B|401:149|415:228|500:181,1,179.999995231629
466,73,6731,6,0,P|453:92|447:113,1,44.9999988079071
367,39,7068,2,0,P|366:62|371:83,1,44.9999988079071
388,181,7405,6,0,B|345:139|300:141|261:180|225:172|225:172|220:163|220:163|170:187|133:133|90:143|58:186|58:186|126:174|176:225|190:293|117:348|117:348|73:321|64:270|64:270|74:273|87:269,1,719.999980926514,2|0,0:0|0:0,0:0:0:0:
322,234,10776,2,0,P|335:277|329:321,1,89.9999976158143
227,379,11450,2,0,P|214:337|221:293,1,89.9999976158143
377,208,12124,6,0,P|269:227|186:198,1,175.499987317086,2|0,0:0|0:0,0:0:0:0:
136,138,12798,6,0,P|158:225|69:153,1,269.999992847443
174,61,14146,2,0,P|239:45|301:69,1,134.999996423721
360,134,14820,2,0,P|424:149|486:125,1,134.999996423721
386,54,15495,6,0,B|343:120|368:228|368:228|283:156|205:162,1,359.999990463257,2|0,0:0|0:0,0:0:0:0:
0,320,17517,2,0,P|61:293|125:308,1,134.999996423721
110,211,18191,6,0,B|255:280|244:167|385:221,2,269.999992847443,2|0|0,0:0|0:0|0:0,0:0:0:0:
211,30,20888,6,0,B|238:68|232:115|232:115|282:78|336:118|378:107|378:107|373:91|432:126|493:100|493:100|450:117|413:145|404:200|436:260|491:261|491:261|528:230|505:183,1,674.999982118607,2|0,0:0|0:0,0:0:0:0:
342,191,23585,6,0,B|312:191|285:182|285:182|244:215|189:202|161:164|161:164|124:148|81:170|64:198|9:204|9:204|65:195|82:237|119:278|172:236|172:236|151:274|179:301|179:301|180:291|185:281,1,629.9999833107,2|0,0:0|0:0,0:0:0:0:
232,115,26281,6,0,B|256:52|197:0|197:0|179:25|195:61,1,179.999995231629,2|0,0:0|0:0,0:0:0:0:
244,200,27292,2,0,P|265:193|285:182,1,44.9999988079071
323,105,27629,2,0,P|318:172|347:244,1,134.999996423721
400,347,28304,6,0,P|399:324|391:304,1,44.9999988079071
293,355,28641,2,0,P|304:336|307:314,1,44.9999988079071
340,234,28978,6,0,P|294:239|245:221,1,94.499994612694,2|0,0:0|0:0,0:0:0:0:
368,243,29652,6,0,P|321:222|284:178,1,107.999997138977,2|0,0:0|0:0,0:0:0:0:
387,264,30326,6,0,P|350:213|337:143,1,134.999996423721,2|0,0:0|0:0,0:0:0:0:
392,291,31000,6,0,P|386:216|418:137,1,161.999990764618,2|0,0:0|0:0,0:0:0:0:
382,316,31674,6,0,B|314:275|288:342|211:318|211:318|214:324|214:324|138:283|45:328|45:328|93:301|108:265|108:265|81:226|36:215|36:215|86:230|141:207,1,629.9999833107,2|0,0:0|0:0,0:0:0:0:
298,210,34371,6,0,B|217:256|218:195|123:213|123:213|171:193|192:158,1,269.999992847443
68,47,35719,2,0,P|67:119|114:68,1,179.999995231629
213,48,37068,6,0,B|310:10|297:81|402:35,2,179.999995231629,2|0|0,0:0|0:0|0:0,0:0:0:0:
175,266,39090,2,0,P|183:245|186:223,1,44.9999988079071
284,265,39427,2,0,P|281:243|272:223,1,44.9999988079071
158,129,39764,6,0,B|226:182|282:104|327:132|327:132|327:137|327:137|373:100|423:88|436:149|487:149|487:149|466:167|449:216|460:272|460:272|452:239|420:223,1,539.999985694885,2|0,0:0|0:0,0:0:0:0:
224,320,42461,5,0,0:0:0:0:
288,192,43809,1,0,0:0:0:0:
352,64,44820,1,0,0:0:0:0:
94,11,45158,6,0,B|123:66|101:105|101:105|108:128|108:128|86:169|114:226,1,215.999987686158,2|0,1:0|0:0,0:0:0:0:
200,170,45766,1,0,0:0:0:0:
54,283,46171,2,0,P|105:298|158:291,1,107.999993843079
225,236,46576,1,0,0:0:0:0:
225,236,46779,2,0,B|311:244|311:244|344:227|344:227|441:231,1,215.999987686158,0|0,0:0|0:0,0:0:0:0:
486,324,47387,1,0,0:0:0:0:
347,142,47793,1,0,0:0:0:0:
347,142,48401,6,0,P|424:115|411:254,1,251.999985633851,2|0,1:0|0:0,0:0:0:0:
342,333,49009,2,0,B|206:321,1,125.999992816925
264,193,49414,2,0,B|139:181,1,125.999992816925
68,82,49820,1,0,0:0:0:0:
68,82,50022,2,0,P|181:-4|263:44,1,251.999985633851
264,193,50630,2,0,L|155:90,1,125.999992816925,0|0,0:0|0:0,0:0:0:0:
177,289,51036,2,0,L|68:186,1,125.999992816925,0|0,0:0|0:0,0:0:0:0:
85,202,51644,6,0,B|142:194|185:227|185:227|237:207|237:207|287:252|364:211,1,287.999992370606,2|0,1:0|0:0,0:0:0:0:
399,116,52252,1,0,3:0:0:0:
408,123,52353,1,0,3:0:0:0:
408,123,52455,2,0,P|459:186|451:260,1,143.999996185303,2|0,3:0|0:0,0:0:0:0:
362,355,52860,1,0,3:0:0:0:
195,289,53063,5,0,3:0:0:0:
195,289,53164,1,0,3:0:0:0:
195,289,53266,1,0,3:0:0:0:
225,69,53468,5,0,3:0:0:0:
225,69,53570,1,0,3:0:0:0:
225,69,53671,2,0,L|138:64,1,71.9999980926514,2|0,3:0|0:0,0:0:0:0:
102,134,53874,2,0,L|30:124,1,71.9999980926514,2|0,3:0|0:0,0:0:0:0:
184,199,54076,6,0,L|263:184,1,71.9999980926514,8|0,3:2|0:0,0:0:0:0:
417,70,54279,2,0,L|335:52,1,71.9999980926514,8|0,3:2|0:0,0:0:0:0:
255,29,54482,5,8,3:2:0:0:
255,107,54583,1,8,3:2:0:0:
255,186,54685,1,8,3:2:0:0:
255,264,54786,1,8,3:2:0:0:
245,352,54887,6,0,B|289:329|335:324|335:324|383:353|433:340,1,179.999995231629,4|8,1:1|0:0,0:0:0:0:
509,241,55191,1,0,2:0:0:0:
509,241,55293,2,0,P|477:207|455:158,1,89.9999976158143,2|0,0:0|2:0,0:0:0:0:
331,108,55495,2,0,P|291:131|241:136,1,89.9999976158143,8|0,0:0|2:0,0:0:0:0:
165,266,55698,2,0,P|258:246|333:308,1,179.999995231629,2|8,0:0|0:0,0:0:0:0:
458,168,56002,1,0,2:0:0:0:
458,168,56103,2,0,L|365:197,1,89.9999976158143,2|0,0:0|2:0,0:0:0:0:
228,48,56306,2,0,L|249:144,1,89.9999976158143,8|0,0:0|2:0,0:0:0:0:
165,266,56509,6,0,P|72:246|48:152,1,179.999995231629,2|8,0:0|0:0,0:0:0:0:
140,27,56813,1,0,2:0:0:0:
140,27,56914,2,0,L|235:49,1,89.9999976158143,2|0,0:0|2:0,0:0:0:0:
392,148,57117,2,0,P|427:124|452:80,1,89.9999976158143,8|0,0:0|2:0,0:0:0:0:
247,135,57320,2,0,P|231:219|300:270,1,179.999995231629,2|8,0:0|0:0,0:0:0:0:
457,293,57624,1,0,2:0:0:0:
457,292,57725,2,0,L|444:202,1,89.9999976158143,2|0,0:0|2:0,0:0:0:0:
326,97,57928,2,0,L|310:208,1,89.9999976158143,8|0,0:0|2:0,0:0:0:0:
262,336,58130,6,0,P|247:293|248:243,1,89.9999976158143,2|0,0:0|2:0,0:0:0:0:
142,313,58333,2,0,P|150:269|176:225,1,89.9999976158143,8|0,0:0|2:0,0:0:0:0:
47,233,58536,2,0,P|76:199|120:174,1,89.9999976158143,2|0,0:0|2:0,0:0:0:0:
11,115,58739,2,0,P|53:100|103:101,1,89.9999976158143,8|0,0:0|2:0,0:0:0:0:
181,19,58941,6,0,L|201:120,1,89.9999976158143,2|0,0:0|2:0,0:0:0:0:
346,357,59144,2,0,L|328:268,1,89.9999976158143,8|0,0:0|2:0,0:0:0:0:
311,77,59347,2,0,L|291:178,1,89.9999976158143,2|0,0:0|2:0,0:0:0:0:
209,296,59549,2,0,L|229:195,1,89.9999976158143,8|0,0:0|2:0,0:0:0:0:
410,89,59752,6,0,B|359:70|359:70|304:77,1,103.499999232292,6|0,0:0|2:0,0:0:0:0:
127,195,59955,2,0,B|178:214|178:214|233:207,1,103.499999232292,6|0,0:0|2:0,0:0:0:0:
456,58,60157,2,0,B|389:33|389:33|318:42,1,103.499999232292,6|0,0:0|2:0,0:0:0:0:
75,194,60360,2,0,B|141:219|141:219|213:210,1,103.499999232292,6|0,0:0|0:0,0:0:0:0:
349,183,60563,2,0,B|393:140|444:154,1,103.499999232292,6|0,0:0|2:0,0:0:0:0:
265,282,60766,6,0,L|176:298,1,89.9999976158143,0|0,3:0|3:0,3:0:0:0:
87,288,60968,1,8,3:2:0:0:
13,235,61070,1,0,3:2:0:0:
18,145,61171,1,8,3:2:0:0:
97,102,61272,1,8,3:2:0:0:
177,144,61374,6,0,P|263:148|301:66,1,179.999995231629,4|8,0:0|0:0,0:0:0:0:
122,15,61678,1,0,2:0:0:0:
122,15,61779,2,0,L|86:141,1,89.9999976158143,2|0,0:0|2:0,0:0:0:0:
1,244,61982,2,0,P|42:228|101:224,1,89.9999976158143,8|0,0:0|2:0,0:0:0:0:
317,265,62185,2,0,P|286:190|177:196,1,179.999995231629,2|8,0:0|0:0,0:0:0:0:
146,352,62489,1,0,2:0:0:0:
146,352,62590,2,0,L|251:362,1,89.9999976158143,2|0,0:0|2:0,0:0:0:0:
403,287,62793,2,0,P|365:271|311:265,1,89.9999976158143,8|0,0:0|2:0,0:0:0:0:
164,264,62995,5,2,3:2:0:0:
79,297,63097,1,0,3:2:0:0:
5,246,63198,1,8,3:2:0:0:
13,156,63299,1,0,3:2:0:0:
86,102,63401,2,0,L|181:110,1,89.9999976158143,2|0,0:0|2:0,0:0:0:0:
344,53,63603,2,0,P|324:93|330:143,1,89.9999976158143,8|0,0:0|2:0,0:0:0:0:
465,246,63806,2,0,P|398:297|308:251,1,179.999995231629,2|8,0:0|0:0,0:0:0:0:
405,113,64110,1,0,2:0:0:0:
405,113,64212,2,0,L|506:123,1,89.9999976158143,2|0,0:0|2:0,0:0:0:0:
316,264,64414,2,0,P|300:226|313:169,1,89.9999976158143,8|0,0:0|2:0,0:0:0:0:
362,34,64617,6,0,L|251:45,1,107.999993843079,6|0,0:0|2:0,0:0:0:0:
107,104,64820,2,0,L|215:113,1,107.999993843079,6|0,0:0|2:0,0:0:0:0:
414,169,65022,2,0,L|305:179,1,107.999993843079,6|0,0:0|0:0,0:0:0:0:
80,227,65225,2,0,L|189:236,1,107.999993843079,6|0,0:0|2:0,0:0:0:0:
356,303,65428,6,0,B|420:207|292:143|356:47,2,269.999992847443,6|2|6,0:0|0:0|0:0,0:0:0:0:
223,59,66239,5,2,0:0:0:0:
223,59,66340,2,0,P|218:101|183:147,1,89.9999976158143,8|0,0:0|2:0,0:0:0:0:
31,88,66543,5,2,0:0:0:0:
31,88,66644,2,0,P|68:67|125:69,1,89.9999976158143,8|0,0:0|2:0,0:0:0:0:
144,228,66847,5,2,0:0:0:0:
144,228,66948,2,0,P|111:199|94:145,1,89.9999976158143,8|0,0:0|0:0,0:0:0:0:
317,22,67252,5,8,3:2:0:0:
401,52,67353,1,8,3:2:0:0:
434,136,67455,1,8,3:2:0:0:
407,221,67556,1,8,3:2:0:0:
321,247,67657,1,8,3:2:0:0:
235,218,67759,1,8,3:2:0:0:
191,139,67860,5,4,0:0:0:0:
401,52,68266,1,0,0:0:0:0:
401,52,68468,1,0,0:0:0:0:
194,30,68874,1,0,0:0:0:0:
434,136,69279,1,0,0:0:0:0:
195,225,69685,1,0,0:0:0:0:
420,353,70090,2,0,P|365:357|314:314,1,107.999993843079
382,188,70495,1,0,0:0:0:0:
382,188,71103,6,0,L|387:277,1,89.9999976158143,6|2,0:0|0:0,0:0:0:0:
269,313,71509,2,0,L|261:223,1,89.9999976158143,2|0,0:0|0:0,0:0:0:0:
280,149,71813,1,0,3:0:0:0:
280,149,71914,1,0,3:0:0:0:
280,149,72016,1,0,3:0:0:0:
280,149,72117,1,0,3:0:0:0:
410,75,72320,1,0,3:0:0:0:
410,75,72421,1,0,3:0:0:0:
265,27,72725,5,2,0:0:0:0:
176,8,72928,1,2,0:0:0:0:
92,40,73130,2,0,P|77:77|78:129,1,89.9999976158143,2|0,0:0|0:0,0:0:0:0:
149,197,73435,1,0,3:0:0:0:
149,197,73536,1,0,3:0:0:0:
149,197,73638,1,0,3:0:0:0:
149,197,73739,1,0,3:0:0:0:
282,127,73941,1,0,3:0:0:0:
282,127,74042,1,0,3:0:0:0:
202,273,74347,5,2,0:0:0:0:
282,322,74550,1,2,0:0:0:0:
372,302,74752,2,0,P|384:255|380:206,1,89.9999976158143,2|0,0:0|0:0,0:0:0:0:
373,139,75056,1,0,3:0:0:0:
373,139,75157,1,0,3:0:0:0:
373,139,75259,1,0,3:0:0:0:
373,139,75360,1,0,3:0:0:0:
264,37,75563,1,0,3:0:0:0:
264,37,75664,1,0,3:0:0:0:
110,113,75968,5,2,0:0:0:0:
90,203,76171,1,2,0:0:0:0:
152,269,76374,2,0,P|197:256|259:254,1,89.9999976158143,2|0,0:0|0:0,0:0:0:0:
326,291,76678,1,0,3:0:0:0:
326,291,76779,1,0,3:0:0:0:
326,291,76880,1,0,3:0:0:0:
326,291,76982,1,0,3:0:0:0:
468,258,77185,1,0,3:0:0:0:
468,258,77286,1,0,3:0:0:0:
413,100,77590,5,2,0:0:0:0:
333,142,77793,1,2,0:0:0:0:
247,111,77996,2,0,P|209:100|158:104,1,89.9999976158143,2|0,0:0|0:0,0:0:0:0:
105,155,78299,1,0,3:0:0:0:
105,155,78400,1,0,3:0:0:0:
105,155,78502,1,0,3:0:0:0:
105,155,78603,1,0,3:0:0:0:
180,258,78806,1,0,3:0:0:0:
180,258,78907,1,0,3:0:0:0:
368,161,79212,5,2,0:0:0:0:
391,249,79415,1,2,0:0:0:0:
343,325,79618,2,0,P|290:321|249:294,1,89.9999976158143,2|0,0:0|0:0,0:0:0:0:
210,245,79921,1,0,3:0:0:0:
210,245,80022,1,0,3:0:0:0:
210,245,80124,1,0,3:0:0:0:
210,245,80225,1,0,3:0:0:0:
109,321,80428,1,0,3:0:0:0:
109,321,80529,1,0,3:0:0:0:
52,150,80833,5,2,0:0:0:0:
107,78,81036,1,2,0:0:0:0:
197,65,81239,2,0,P|243:63|298:83,1,89.9999976158143,2|0,0:0|0:0,0:0:0:0:
347,157,81543,1,0,3:0:0:0:
347,157,81644,1,0,3:0:0:0:
347,157,81746,1,0,3:0:0:0:
347,157,81847,1,0,3:0:0:0:
475,106,82049,1,0,3:0:0:0:
475,106,82150,1,0,3:0:0:0:
481,272,82455,5,2,0:0:0:0:
420,338,82658,1,2,0:0:0:0:
332,359,82861,2,0,P|287:348|235:317,1,89.9999976158143,2|0,0:0|0:0,0:0:0:0:
194,273,83164,1,0,3:0:0:0:
184,238,83265,1,0,3:0:0:0:
184,201,83367,1,0,3:0:0:0:
193,166,83468,1,0,3:0:0:0:
202,130,83570,1,0,3:0:0:0:
198,94,83671,1,0,3:0:0:0:
198,94,84076,6,0,L|86:92,1,89.9999976158143,6|0,0:0|0:0,0:0:0:0:
25,176,84482,2,0,L|122:169,1,89.9999976158143,8|0,0:0|0:0,0:0:0:0:
182,210,84786,2,0,L|191:159,1,44.9999988079071,0|0,3:0|0:0,0:0:0:0:
211,229,84989,2,0,L|236:171,1,44.9999988079071,0|0,3:0|0:0,0:0:0:0:
322,270,85293,2,0,L|415:264,1,89.9999976158143,2|0,3:0|0:0,0:0:0:0:
431,113,85698,5,2,0:0:0:0:
476,207,85901,1,2,0:0:0:0:
373,183,86103,1,8,0:0:0:0:
274,211,86306,1,0,0:0:0:0:
274,211,86407,2,0,L|264:141,1,44.9999988079071,0|0,3:0|0:0,0:0:0:0:
288,140,86610,2,0,L|281:70,1,44.9999988079071,0|0,3:0|0:0,0:0:0:0:
173,142,86914,2,0,L|78:128,1,89.9999976158143,2|0,3:0|0:0,0:0:0:0:
155,242,87320,6,0,P|202:233|244:194,1,89.9999976158143,2|0,0:0|0:0,0:0:0:0:
331,108,87725,2,0,P|371:108|431:142,1,89.9999976158143,8|0,0:0|0:0,0:0:0:0:
457,196,88029,2,0,L|443:258,1,44.9999988079071,0|0,3:0|0:0,0:0:0:0:
409,216,88232,2,0,L|417:265,1,44.9999988079071,0|0,3:0|0:0,0:0:0:0:
330,297,88536,2,0,L|438:353,1,89.9999976158143,2|0,3:0|0:0,0:0:0:0:
323,214,88941,5,2,0:0:0:0:
242,283,89144,1,2,0:0:0:0:
205,186,89347,1,8,0:0:0:0:
106,219,89549,1,0,0:0:0:0:
106,219,89651,2,0,L|112:170,1,44.9999988079071,0|0,3:0|0:0,0:0:0:0:
92,147,89853,2,0,L|86:94,1,44.9999988079071,0|0,3:0|0:0,0:0:0:0:
150,33,90157,2,0,L|247:22,1,89.9999976158143,2|0,3:0|0:0,0:0:0:0:
384,84,90563,6,0,P|343:77|283:103,1,89.9999976158143,2|0,0:0|0:0,0:0:0:0:
217,181,90968,2,0,P|260:187|301:170,1,89.9999976158143,8|0,0:0|0:0,0:0:0:0:
379,163,91272,2,0,L|365:224,1,44.9999988079071,0|0,3:0|0:0,0:0:0:0:
420,190,91475,2,0,L|389:236,1,44.9999988079071,0|0,3:0|0:0,0:0:0:0:
463,296,91779,2,0,L|364:307,1,89.9999976158143,2|0,3:0|0:0,0:0:0:0:
290,367,92185,6,0,P|271:324|278:262,2,89.9999976158143,2|2|8,0:0|0:0|0:0,0:0:0:0:
331,207,92793,1,0,0:0:0:0:
195,235,92995,1,2,0:0:0:0:
299,125,93198,1,2,0:0:0:0:
141,72,93401,1,8,0:0:0:0:
182,224,93603,1,0,0:0:0:0:
373,305,93806,6,0,B|413:305|438:287|438:287|481:298|481:298|517:280,1,143.999996185303,2|0,1:0|0:0,0:0:0:0:
512,152,94212,1,2,1:0:0:0:
380,224,94414,2,0,B|346:210|321:212|321:212|302:223|302:223|268:231|227:213,1,143.999996185303,2|0,1:0|0:0,0:0:0:0:
124,292,94820,2,0,B|96:261|96:231|96:231|121:186|121:186|111:155,1,143.999996185303,2|0,1:0|0:0,0:0:0:0:
300,111,95225,5,0,3:0:0:0:
322,108,95327,1,8,3:2:0:0:
248,302,95529,5,8,3:2:0:0:
245,260,95630,1,8,3:2:0:0:
241,218,95732,1,8,3:2:0:0:
237,176,95833,1,4,3:2:0:0:
406,87,96036,5,8,3:2:0:0:
400,143,96137,1,8,3:2:0:0:
93,101,96441,2,0,L|163:116,1,71.9999980926514,0|0,3:0|3:0,3:0:0:0:
177,188,96644,5,8,3:2:0:0:
179,259,96745,1,8,3:2:0:0:
146,323,96847,1,8,3:2:0:0:
75,334,96948,1,8,3:2:0:0:
9,301,97049,6,0,P|-5:257|33:161,1,143.999996185303,4|0,0:0|0:0,0:0:0:0:
137,55,97455,2,0,P|175:121|172:202,1,143.999996185303,8|0,0:0|0:0,0:0:0:0:
149,260,97759,2,0,L|77:243,1,71.9999980926514,2|0,3:0|0:0,0:0:0:0:
48,274,97962,2,0,L|109:313,1,71.9999980926514,2|0,3:0|0:0,0:0:0:0:
247,384,98266,2,0,P|237:271|229:228,1,143.999996185303,8|0,0:0|0:0,0:0:0:0:
339,121,98671,6,0,P|354:191|305:247,1,143.999996185303,2|0,0:0|0:0,0:0:0:0:
263,77,99076,2,0,P|320:35|391:50,1,143.999996185303,8|0,0:0|0:0,0:0:0:0:
446,107,99380,2,0,L|465:192,1,71.9999980926514,2|0,3:0|0:0,0:0:0:0:
407,214,99583,2,0,L|417:141,1,71.9999980926514,2|0,3:0|0:0,0:0:0:0:
263,77,99887,2,0,P|271:148|289:217,1,143.999996185303,8|0,0:0|0:0,0:0:0:0:
332,384,100293,6,0,P|375:339|338:262,1,143.999996185303,6|0,0:0|0:0,0:0:0:0:
188,327,100698,1,8,0:0:0:0:
284,196,100901,1,0,0:0:0:0:
284,196,101002,2,0,L|293:122,1,71.9999980926514,2|0,3:0|0:0,0:0:0:0:
237,89,101205,2,0,L|245:160,1,71.9999980926514,2|0,3:0|0:0,0:0:0:0:
152,246,101509,2,0,P|220:245|277:322,1,143.999996185303,8|0,0:0|0:0,0:0:0:0:
440,245,101914,5,2,0:0:0:0:
308,210,102117,1,0,0:0:0:0:
422,341,102320,1,8,0:0:0:0:
422,341,102421,1,0,0:0:0:0:
473,159,102624,2,0,L|390:170,1,71.9999980926514,2|0,3:0|0:0,0:0:0:0:
366,120,102826,2,0,L|441:126,1,71.9999980926514,2|0,3:0|0:0,0:0:0:0:
438,261,103130,5,8,3:2:0:0:
380,271,103232,1,8,3:2:0:0:
324,257,103333,1,8,3:2:0:0:
267,267,103435,1,8,3:2:0:0:
212,252,103536,6,0,P|140:248|54:251,1,143.999996185303,6|0,0:0|0:0,0:0:0:0:
12,143,103941,2,0,P|91:146|172:132,1,143.999996185303,8|0,0:0|0:0,0:0:0:0:
223,102,104245,2,0,L|210:23,1,71.9999980926514,2|0,3:0|0:0,0:0:0:0:
278,0,104448,2,0,L|261:76,1,71.9999980926514,2|0,3:0|0:0,0:0:0:0:
354,158,104752,2,0,P|373:65|392:2,1,143.999996185303,8|0,0:0|0:0,0:0:0:0:
460,170,105157,6,0,P|420:243|353:263,1,143.999996185303,2|0,0:0|0:0,0:0:0:0:
273,164,105563,2,0,P|203:150|135:200,1,143.999996185303,8|0,0:0|0:0,0:0:0:0:
92,243,105867,2,0,L|77:325,1,71.9999980926514,2|0,3:0|0:0,0:0:0:0:
139,357,106070,2,0,L|130:269,1,71.9999980926514,2|0,3:0|0:0,0:0:0:0:
268,326,106374,2,0,P|351:320|419:320,1,143.999996185303,8|0,0:0|0:0,0:0:0:0:
512,200,106779,6,0,P|450:242|377:219,1,143.999996185303,2|0,0:0|0:0,0:0:0:0:
302,121,107185,1,8,0:0:0:0:
441,159,107387,1,0,0:0:0:0:
441,159,107489,2,0,L|449:84,1,71.9999980926514,2|0,3:0|0:0,0:0:0:0:
393,38,107691,2,0,L|405:122,1,71.9999980926514,2|0,3:0|0:0,0:0:0:0:
299,236,107995,5,8,3:2:0:0:
283,178,108097,1,8,3:2:0:0:
302,121,108198,1,8,3:2:0:0:
296,62,108299,1,8,3:2:0:0:
252,21,108401,6,0,P|179:28|101:20,1,143.999996185303,6|0,0:0|0:0,0:0:0:0:
62,131,108806,1,0,3:0:0:0:
62,131,108907,1,0,3:0:0:0:
217,110,109110,1,0,3:0:0:0:
217,110,109212,2,0,L|220:196,1,71.9999980926514,0|0,3:0|3:0,3:0:0:0:
199,252,109414,5,8,3:2:0:0:
258,245,109516,1,8,3:2:0:0:
309,272,109617,1,8,3:2:0:0:
363,292,109718,1,8,3:2:0:0:
421,279,109820,1,8,3:2:0:0:
457,233,109921,1,8,3:2:0:0:
457,174,110022,6,0,P|411:119|326:122,1,143.999996185303,6|0,0:0|0:0,0:0:0:0:
219,178,110428,2,0,P|139:157|111:79,1,143.999996185303,8|0,0:0|0:0,0:0:0:0:
42,138,110732,2,0,L|23:214,1,71.9999980926514,2|0,3:0|0:0,0:0:0:0:
75,263,110935,2,0,L|69:184,1,71.9999980926514,2|0,3:0|0:0,0:0:0:0:
235,154,111239,1,8,0:0:0:0:
178,286,111441,1,0,0:0:0:0:
333,365,111644,6,0,P|356:298|325:225,1,143.999996185303,2|0,0:0|0:0,0:0:0:0:
178,286,112049,2,0,P|161:211|199:143,1,143.999996185303,8|0,0:0|0:0,0:0:0:0:
255,111,112353,2,0,L|333:125,1,71.9999980926514,2|0,3:0|0:0,0:0:0:0:
374,70,112556,2,0,L|295:82,1,71.9999980926514,2|0,3:0|0:0,0:0:0:0:
331,232,112860,2,0,P|408:223|453:168,1,143.999996185303,8|0,0:0|0:0,0:0:0:0:
281,159,113266,6,0,P|244:222|269:296,1,143.999996185303,2|0,0:0|0:0,0:0:0:0:
412,313,113671,1,8,0:0:0:0:
283,374,113874,1,0,0:0:0:0:
283,374,113975,2,0,L|207:359,1,71.9999980926514,2|0,3:0|0:0,0:0:0:0:
140,344,114178,2,0,L|216:331,1,71.9999980926514,2|0,3:0|0:0,0:0:0:0:
335,285,114482,2,0,P|343:196|344:130,1,143.999996185303,8|0,0:0|0:0,0:0:0:0:
306,3,114887,5,2,0:0:0:0:
152,52,115090,1,0,0:0:0:0:
225,181,115293,1,8,0:0:0:0:
77,216,115495,1,0,0:0:0:0:
77,216,115597,2,0,L|127:268,1,71.9999980926514,2|0,3:0|0:0,0:0:0:0:
151,338,115799,2,0,L|164:258,1,71.9999980926514,2|0,3:0|0:0,0:0:0:0:
375,353,116103,5,8,3:2:0:0:
347,301,116205,1,8,3:2:0:0:
300,266,116306,1,8,3:2:0:0:
273,215,116407,1,8,3:2:0:0:
225,181,116509,6,0,P|180:121|200:44,1,143.999996185303,6|0,0:0|0:0,0:0:0:0:
383,54,116914,2,0,P|335:104|266:102,1,143.999996185303,8|0,0:0|0:0,0:0:0:0:
190,56,117218,2,0,L|112:66,1,71.9999980926514,2|0,3:0|0:0,0:0:0:0:
53,25,117421,2,0,L|80:91,1,71.9999980926514,2|0,3:0|0:0,0:0:0:0:
22,219,117725,2,0,P|89:204|182:212,1,143.999996185303,8|0,0:0|0:0,0:0:0:0:
352,271,118130,6,0,P|417:277|496:259,1,143.999996185303,2|0,0:0|0:0,0:0:0:0:
490,137,118536,1,8,3:2:0:0:
487,115,118637,1,0,3:0:0:0:
487,93,118739,1,8,3:2:0:0:
491,71,118840,1,0,3:0:0:0:
509,16,118941,5,8,3:2:0:0:
453,34,119043,1,0,3:0:0:0:
399,53,119144,1,8,3:2:0:0:
276,105,119347,2,0,L|425:139,1,143.999996185303,8|0,3:2|0:0,0:0:0:0:
464,272,119752,6,0,P|418:223|341:213,1,143.999996185303,2|0,0:0|0:0,0:0:0:0:
230,264,120157,2,0,P|151:285|95:259,1,143.999996185303,8|0,0:0|0:0,0:0:0:0:
57,193,120462,2,0,L|67:118,1,71.9999980926514,2|0,3:0|0:0,0:0:0:0:
54,49,120664,2,0,L|123:116,1,71.9999980926514,2|0,3:0|0:0,0:0:0:0:
206,184,120968,5,8,3:2:0:0:
233,132,121070,1,8,3:2:0:0:
286,111,121171,1,8,3:2:0:0:
342,122,121272,1,8,3:2:0:0:
381,164,121374,1,10,3:2:0:0:
342,322,121576,5,0,3:0:0:0:
342,322,121678,1,0,3:0:0:0:
342,322,121779,5,8,3:2:0:0:
325,339,121880,2,0,L|237:352,1,71.9999980926514,10|0,3:2|3:0,0:0:0:0:
153,326,122083,5,8,3:0:0:0:
162,306,122185,2,0,L|79:287,1,71.9999980926514,10|0,3:2|0:0,0:0:0:0:
42,187,122387,2,0,L|112:214,1,71.9999980926514,10|0,3:2|0:0,0:0:0:0:
188,231,122590,5,8,3:2:0:0:
206,184,122691,1,8,3:2:0:0:
246,153,122793,1,8,3:2:0:0:
297,155,122894,1,8,3:2:0:0:
329,123,122995,5,4,0:0:0:0:
410,93,123401,1,0,3:0:0:0:
354,26,123806,1,0,3:0:0:0:
271,52,124212,1,0,3:0:0:0:
188,26,124617,1,0,3:0:0:0:
107,56,125022,1,0,3:0:0:0:
122,141,125428,1,0,3:0:0:0:
75,213,125833,1,0,3:0:0:0:
126,282,126239,5,0,3:0:0:0:
185,219,126644,1,0,3:0:0:0:
268,239,127049,1,0,3:0:0:0:
344,198,127455,1,0,3:0:0:0:
424,229,127860,1,0,3:0:0:0:
459,307,128266,1,0,3:0:0:0:
394,364,128671,1,0,3:0:0:0:
311,338,128874,5,8,3:2:0:0:
311,327,128975,1,8,3:2:0:0:
311,316,129076,1,8,3:2:0:0:
311,305,129178,1,8,3:2:0:0:
311,294,129279,1,8,3:2:0:0:
311,283,129380,1,8,3:2:0:0:
311,268,129482,6,0,L|311:170,1,71.9999980926514,4|0,0:0|0:0,0:0:0:0:
220,134,129685,2,0,L|220:232,1,71.9999980926514,8|0,0:0|0:0,0:0:0:0:
120,254,129887,2,0,L|120:182,1,71.9999980926514,2|0,0:0|0:0,0:0:0:0:
79,64,130090,2,0,P|145:29|291:47,1,215.999994277954,8|0,0:0|0:0,0:0:0:0:
427,124,130495,2,0,P|325:155|220:134,1,215.999994277954,8|0,0:0|0:0,0:0:0:0:
120,182,130901,1,8,0:0:0:0:
280,381,131104,5,4,0:0:0:0:
201,217,131306,1,8,0:0:0:0:
429,345,131509,1,2,0:0:0:0:
490,130,131712,1,8,0:0:0:0:
305,295,131914,1,2,0:0:0:0:
344,67,132117,1,8,0:0:0:0:
195,222,132320,2,0,P|142:177|141:89,1,143.999996185303,2|8,0:0|0:0,0:0:0:0:
198,57,132624,1,0,0:0:0:0:
220,134,132725,5,4,0:0:0:0:
32,160,134347,5,2,0:0:0:0:
480,160,135158,1,4,0:0:0:0:
128,160,135968,5,2,0:0:0:0:
384,160,136374,1,4,0:0:0:0:
194,232,136678,1,8,0:0:0:0:
194,232,136779,1,2,0:0:0:0:
368,362,136982,5,8,3:2:0:0:
433,317,137083,1,0,3:2:0:0:
435,237,137185,1,8,3:2:0:0:
370,191,137286,1,0,3:2:0:0:
295,215,137387,1,0,3:2:0:0:
216,199,137489,1,0,3:2:0:0:
185,126,137590,5,4,0:0:0:0:
498,69,138401,1,4,0:0:0:0:
342,323,139212,6,0,P|277:298|202:327,1,143.999996185303,6|0,0:0|0:0,0:0:0:0:
1,357,139617,2,0,P|66:382|141:353,1,143.999996185303,6|0,0:0|0:0,0:0:0:0:
160,274,139921,1,8,0:0:0:0:
73,278,140022,1,6,0:0:0:0:
270,291,140225,5,8,3:2:0:0:
342,323,140326,1,8,3:2:0:0:
420,310,140428,1,8,3:2:0:0:
466,247,140529,1,8,3:2:0:0:
478,169,140631,1,8,3:2:0:0:
434,104,140732,1,8,3:2:0:0:
357,87,140833,5,2,1:0:0:0:
206,162,141036,1,2,1:0:0:0:
342,323,141239,1,2,1:0:0:0:
246,17,141441,1,2,1:0:0:0:
257,29,141847,5,2,3:0:0:0:
257,29,141948,1,0,3:0:0:0:
257,29,142049,5,2,3:0:0:0:
257,107,142151,1,0,3:0:0:0:
257,186,142252,1,2,3:0:0:0:
257,264,142353,1,0,3:0:0:0:
267,352,142455,6,0,B|227:328|184:319|184:319|148:342|89:338,1,179.999995231629,4|8,1:1|0:0,0:0:0:0:
9,228,142759,1,0,2:0:0:0:
9,228,142860,2,0,L|23:131,1,89.9999976158143,2|0,0:0|2:0,0:0:0:0:
133,30,143063,2,0,P|174:43|234:49,1,89.9999976158143,8|0,0:0|2:0,0:0:0:0:
413,116,143266,2,0,P|369:109|319:115,1,89.9999976158143,2|0,0:0|2:0,0:0:0:0:
164,183,143468,1,8,0:0:0:0:
164,183,143570,2,0,P|244:171|312:248,1,179.999995231629,2|0,0:0|2:0,0:0:0:0:
225,352,143874,2,0,L|217:253,1,89.9999976158143,8|0,0:0|2:0,0:0:0:0:
395,152,144076,6,0,L|405:243,1,89.9999976158143,2|0,0:0|2:0,0:0:0:0:
229,81,144279,1,8,0:0:0:0:
229,81,144380,2,0,P|322:25|390:51,1,179.999995231629,2|0,0:0|2:0,0:0:0:0:
309,236,144685,2,0,P|292:191|273:153,1,89.9999976158143,8|0,0:0|2:0,0:0:0:0:
149,66,144887,2,0,P|140:129|138:158,1,89.9999976158143,2|0,0:0|2:0,0:0:0:0:
30,267,145090,1,8,0:0:0:0:
30,267,145191,2,0,P|39:140|47:88,1,179.999995231629,2|0,0:0|2:0,0:0:0:0:
229,24,145495,1,8,0:0:0:0:
241,32,145597,1,8,0:0:0:0:
252,39,145698,6,0,B|254:106|294:137|294:137|325:115|345:74,1,179.999995231629,4|8,0:0|0:0,0:0:0:0:
423,203,146002,1,0,2:0:0:0:
423,203,146103,2,0,L|328:227,1,89.9999976158143,2|0,0:0|2:0,0:0:0:0:
157,86,146306,2,0,P|169:130|199:180,1,89.9999976158143,8|0,0:0|2:0,0:0:0:0:
150,341,146509,2,0,P|219:281|313:310,1,179.999995231629,2|8,0:0|0:0,0:0:0:0:
475,321,146813,1,0,2:0:0:0:
475,321,146914,2,0,L|469:220,1,89.9999976158143,2|0,0:0|0:0,0:0:0:0:
350,138,147117,2,0,B|334:179|334:179|335:237,1,89.9999976158143,8|8,0:0|0:0,0:0:0:0:
457,93,147320,6,0,P|409:34|297:50,1,179.999995231629,4|8,0:0|0:0,0:0:0:0:
213,165,147624,1,0,2:0:0:0:
213,165,147725,2,0,P|258:157|310:142,1,89.9999976158143,2|0,0:0|2:0,0:0:0:0:
184,23,147928,2,0,P|138:12|70:10,1,89.9999976158143,12|0,0:0|2:0,0:0:0:0:
0,131,148130,5,8,0:0:0:0:
16,220,148232,1,8,0:0:0:0:
92,267,148333,1,8,0:0:0:0:
182,259,148435,1,0,3:0:0:0:
234,186,148536,1,0,0:0:0:0:
316,151,148637,1,8,3:0:0:0:
403,176,148739,1,8,3:0:0:0:
457,247,148840,1,8,3:0:0:0:
416,348,148941,6,0,B|352:379|288:316|224:348,1,179.999995231629,4|8,0:0|0:0,0:0:0:0:
76,368,149245,1,0,2:0:0:0:
76,368,149347,2,0,L|56:280,1,89.9999976158143,2|0,0:0|0:0,0:0:0:0:
165,154,149549,2,0,L|157:250,1,89.9999976158143,8|0,0:0|0:0,0:0:0:0:
76,71,149752,2,0,P|143:28|240:52,1,179.999995231629,2|8,0:0|0:0,0:0:0:0:
351,209,150056,2,0,P|446:194|475:112,1,179.999995231629,2|0,0:0|0:0,0:0:0:0:
369,38,150360,2,0,L|388:127,1,89.9999976158143,10|0,0:0|0:0,0:0:0:0:
322,293,150563,6,0,P|343:251|351:193,1,89.9999976158143,2|0,0:0|0:0,0:0:0:0:
264,127,150766,2,0,P|245:165|232:235,1,89.9999976158143,8|0,0:0|0:0,0:0:0:0:
326,324,150968,6,0,P|351:273|361:204,1,89.9999976158143,2|0,0:0|0:0,0:0:0:0:
234,146,151171,2,0,B|215:188|215:188|208:243,1,89.9999976158143,8|8,0:0|0:0,0:0:0:0:
347,350,151374,6,0,L|387:265,1,89.9999976158143,6|0,0:0|0:0,0:0:0:0:
349,100,151576,2,0,L|256:128,1,89.9999976158143,8|0,0:0|0:0,0:0:0:0:
135,170,151779,1,8,3:2:0:0:
59,121,151880,1,8,3:2:0:0:
70,31,151982,1,8,3:2:0:0:
158,18,152083,1,8,3:2:0:0:
263,126,152185,6,0,L|370:152,1,107.999993843079,6|0,0:0|0:0,0:0:0:0:
175,232,152387,2,0,L|66:200,1,107.999993843079,6|0,0:0|0:0,0:0:0:0:
351,281,152590,2,0,L|456:252,1,107.999993843079,6|0,0:0|0:0,0:0:0:0:
135,339,152793,2,0,L|29:310,1,107.999993843079,6|0,0:0|0:0,0:0:0:0:
262,382,152995,6,0,B|326:286|198:222|262:126,2,269.999992847443,2|2|2,0:0|0:0|0:0,0:0:0:0:
187,79,153806,6,0,P|290:43|339:168,1,269.999992847443,4|0,3:0|0:0,0:0:0:0:
175,232,154212,2,0,L|87:207,1,89.9999976158143,2|0,0:0|0:0,0:0:0:0:
33,66,154414,1,8,0:0:0:0:
33,66,154516,1,2,0:0:0:0:
33,65,154617,2,0,P|72:45|117:45,1,89.9999976158143,0|0,0:0|3:0,0:0:0:0:
251,171,154820,2,0,P|290:178|348:163,1,89.9999976158143,8|0,0:0|3:0,3:0:0:0:
414,111,155022,1,4,3:0:0:0:
99,132,155225,5,8,0:0:0:0:
99,132,155326,1,8,0:0:0:0:
99,132,155428,2,0,L|117:231,1,89.9999976158143,4|0,1:1|0:0,0:0:0:0:
311,269,155630,1,8,0:0:0:0:
311,269,155732,2,0,P|290:206|186:186,1,179.999995231629,2|0,0:0|0:0,0:0:0:0:
137,346,156036,1,8,0:0:0:0:
148,355,156137,1,8,0:0:0:0:
160,362,156239,2,0,P|200:373|257:371,1,89.9999976158143,2|0,0:0|0:0,0:0:0:0:
446,338,156441,1,8,0:0:0:0:
446,338,156543,2,0,P|364:341|309:258,1,179.999995231629,2|0,0:0|0:0,0:0:0:0:
438,119,156847,2,0,L|449:216,1,89.9999976158143,8|0,0:0|0:0,0:0:0:0:
213,224,157049,6,0,P|284:166|385:200,1,179.999995231629,6|8,0:0|0:0,0:0:0:0:
504,45,157353,2,0,P|427:98|342:78,1,179.999995231629,2|0,0:0|0:0,0:0:0:0:
198,9,157657,2,0,L|212:115,1,89.9999976158143,10|0,0:0|0:0,0:0:0:0:
127,248,157860,2,0,P|168:233|214:224,1,89.9999976158143,6|0,0:0|0:0,0:0:0:0:
397,269,158063,1,8,0:0:0:0:
397,269,158164,2,0,P|464:206|431:124,1,179.999995231629,2|0,0:0|0:0,0:0:0:0:
256,92,158468,2,0,L|270:191,1,89.9999976158143,8|0,0:0|0:0,0:0:0:0:
337,330,158671,6,0,P|363:287|410:265,1,89.9999976158143,2|0,0:0|0:0,0:0:0:0:
396,108,158874,2,0,P|352:85|331:39,1,89.9999976158143,8|0,0:0|0:0,0:0:0:0:
180,52,159076,2,0,P|158:98|111:119,1,89.9999976158143,2|0,0:0|0:0,0:0:0:0:
125,271,159279,2,0,P|193:327|297:290,1,179.999995231629,8|2,0:0|0:0,0:0:0:0:
256,92,159583,1,0,0:0:0:0:
256,92,159685,2,0,L|269:182,1,89.9999976158143,8|0,0:0|0:0,0:0:0:0:
396,348,159887,2,0,P|431:308|437:252,1,89.9999976158143,2|0,0:0|0:0,0:0:0:0:
177,171,160090,2,0,P|186:222|211:254,1,89.9999976158143,8|0,0:0|0:0,0:0:0:0:
468,187,160293,6,0,L|346:178,1,107.999993843079,6|0,0:0|0:0,0:0:0:0:
188,329,160495,2,0,L|298:318,1,107.999993843079,6|0,0:0|0:0,0:0:0:0:
419,101,160698,2,0,L|301:93,1,107.999993843079,6|0,0:0|0:0,0:0:0:0:
82,16,160901,2,0,P|87:105|92:135,1,107.999993843079,6|0,0:0|0:0,0:0:0:0:
301,200,161103,2,0,P|311:120|311:88,1,107.999993843079,6|0,0:0|0:0,0:0:0:0:
225,0,161306,5,8,3:2:0:0:
166,67,161407,1,0,3:0:0:0:
160,157,161509,1,8,3:2:0:0:
213,229,161610,1,0,3:0:0:0:
300,251,161712,1,8,3:2:0:0:
382,215,161813,1,0,3:0:0:0:
407,128,161914,6,0,B|347:99|291:103|291:103|267:118|267:118|220:125,1,179.999995231629,6|8,0:0|0:0,0:0:0:0:
137,229,162218,2,0,B|171:253|240:249|240:249|274:215|307:206,1,179.999995231629,2|0,0:0|0:0,0:0:0:0:
421,292,162522,2,0,B|392:297|392:297|368:316|368:316|347:324|327:324,1,89.9999976158143,10|0,0:0|0:0,0:0:0:0:
118,318,162725,6,0,B|109:290|91:261|91:261|98:219|107:180|107:180|91:130,1,179.999995231629,2|8,0:0|0:0,0:0:0:0:
300,208,163029,2,0,B|170:242|170:242|182:178,1,179.999995231629,2|0,0:0|0:0,0:0:0:0:
242,35,163333,2,0,B|277:55|277:55|298:46|345:44,1,89.9999976158143,10|0,0:0|0:0,0:0:0:0:
506,21,163536,6,0,P|483:59|470:103,1,89.9999976158143,2|0,0:0|0:0,0:0:0:0:
350,282,163739,2,0,P|320:246|298:204,1,89.9999976158143,8|0,0:0|0:0,0:0:0:0:
154,50,163941,2,0,P|195:37|251:35,1,89.9999976158143,2|0,0:0|0:0,0:0:0:0:
388,123,164144,2,0,P|343:130|287:125,1,89.9999976158143,8|0,0:0|0:0,0:0:0:0:
224,282,164347,6,0,L|134:298,1,89.9999976158143,2|0,0:0|0:0,0:0:0:0:
35,128,164549,1,8,0:0:0:0:
35,128,164651,2,0,P|118:127|178:202,1,179.999995231629,2|0,0:0|0:0,0:0:0:0:
328,336,164955,1,8,0:0:0:0:
328,336,165056,1,8,0:0:0:0:
328,336,165157,6,0,L|352:224,1,107.999993843079,6|0,0:0|0:0,0:0:0:0:
176,272,165360,2,0,L|152:160,1,107.999993843079,6|0,0:0|0:0,0:0:0:0:
376,208,165563,2,0,L|400:96,1,107.999993843079,6|0,0:0|0:0,0:0:0:0:
128,144,165766,2,0,L|104:32,1,107.999993843079,6|0,0:0|0:0,0:0:0:0:
369,29,165968,6,0,B|312:32|293:73|293:73|274:114|217:119,1,179.999995231629,6|0,0:0|0:0,0:0:0:0:
39,94,166272,2,0,P|98:157|66:248,1,179.999995231629,2|0,0:0|0:0,0:0:0:0:
7,342,166576,2,0,P|47:326|102:318,1,89.9999976158143,12|0,0:0|0:0,0:0:0:0:
259,360,166779,5,2,0:0:0:0:
259,360,166880,2,0,L|282:261,1,89.9999976158143,8|0,0:0|0:0,0:0:0:0:
422,181,167083,1,2,0:0:0:0:
421,181,167185,2,0,L|315:192,1,89.9999976158143,8|0,0:0|0:0,0:0:0:0:
180,116,167387,1,2,0:0:0:0:
180,116,167489,2,0,L|225:208,1,89.9999976158143,8|0,0:0|0:0,0:0:0:0:
49,65,167793,5,8,3:2:0:0:
14,147,167894,1,8,3:2:0:0:
24,236,167995,1,0,3:0:0:0:
78,308,168097,1,0,3:2:0:0:
160,342,168198,1,8,3:2:0:0:
248,325,168299,1,0,3:0:0:0:
346,278,168401,6,0,L|443:264,1,89.9999976158143,6|0,0:0|0:0,0:0:0:0:
509,125,168603,2,0,L|415:138,1,89.9999976158143,8|0,0:0|0:0,0:0:0:0:
277,50,168806,1,2,0:0:0:0:
277,50,168907,1,2,0:0:0:0:
277,50,169009,2,0,P|266:95|269:147,1,89.9999976158143,8|0,0:0|0:0,0:0:0:0:
346,278,169212,2,0,P|351:223|345:175,1,89.9999976158143,2|0,0:0|0:0,0:0:0:0:
184,87,169414,2,0,P|137:92|82:121,1,89.9999976158143,8|0,0:0|0:0,0:0:0:0:
182,253,169617,2,0,P|224:250|276:227,1,89.9999976158143,2|0,0:0|0:0,0:0:0:0:
373,77,169820,1,8,0:0:0:0:
373,77,169921,2,0,P|450:85|491:189,1,179.999995231629,2|0,0:0|0:0,0:0:0:0:
435,269,170225,6,0,L|329:279,1,89.9999976158143,8|0,0:0|0:0,0:0:0:0:
178,166,170428,1,2,0:0:0:0:
178,166,170529,1,2,0:0:0:0:
178,166,170630,2,0,P|171:212|192:268,1,89.9999976158143,8|0,0:0|0:0,0:0:0:0:
346,158,170833,2,0,P|314:128|267:109,1,89.9999976158143,2|0,0:0|0:0,0:0:0:0:
275,308,171036,2,0,P|321:289|359:251,1,89.9999976158143,8|0,0:0|0:0,0:0:0:0:
190,88,171239,2,0,L|92:101,1,89.9999976158143,2|0,0:0|0:0,0:0:0:0:
265,208,171441,2,0,L|359:211,1,89.9999976158143,8|0,0:0|0:0,0:0:0:0:
166,316,171644,6,0,L|56:308,1,89.9999976158143,6|0,0:0|0:0,0:0:0:0:
35,146,171847,1,8,0:0:0:0:
35,146,171948,2,0,P|125:159|185:98,1,179.999995231629,2|0,0:0|0:0,0:0:0:0:
313,28,172252,1,8,0:0:0:0:
313,28,172353,1,8,0:0:0:0:
313,28,172455,2,0,L|303:129,1,89.9999976158143,6|0,0:0|0:0,0:0:0:0:
422,242,172657,2,0,P|381:223|317:210,1,89.9999976158143,8|0,0:0|0:0,0:0:0:0:
133,163,172860,2,0,P|175:148|232:137,1,89.9999976158143,2|0,0:0|0:0,0:0:0:0:
476,35,173063,2,0,P|431:53|388:80,1,89.9999976158143,8|0,0:0|0:0,0:0:0:0:
228,274,173266,5,4,0:0:0:0:
218,283,173671,1,0,3:0:0:0:
208,294,174076,2,0,L|186:206,1,71.9999980926514,2|0,0:0|0:0,0:0:0:0:
241,104,174279,2,0,L|263:192,1,71.9999980926514,8|0,0:0|0:0,0:0:0:0:
357,246,174482,2,0,B|392:236|417:242|417:242|423:207|386:170|386:170|419:159|454:161|454:161|446:122|406:93,1,287.999992370606,4|4,0:0|1:0,0:0:0:0:
396,116,181374,5,0,0:0:0:0:
396,116,182995,5,2,3:0:0:0:
396,116,183401,1,2,3:0:0:0:
396,116,183806,1,2,3:0:0:0:
396,116,184212,1,2,3:0:0:0:
396,116,184617,6,0,L|378:195,1,71.9999980926514,0|0,2:3|2:0,0:0:0:0:
305,250,184820,2,0,B|295:197|295:197|308:143|308:143|296:97,1,143.999996185303
230,37,185124,1,0,0:0:0:0:
146,16,185225,1,0,0:0:0:0:
70,58,185326,1,0,0:0:0:0:
67,144,185428,6,0,L|138:174,1,71.9999980926514
348,100,185630,2,0,L|269:111,1,71.9999980926514
212,168,185833,5,0,0:0:0:0:
198,253,185935,1,0,0:0:0:0:
249,322,186036,1,0,0:0:0:0:
334,330,186137,1,0,0:0:0:0:
409,287,186239,6,0,B|430:178|430:178|405:127,1,143.999996185303,4|8,0:0|0:0,0:0:0:0:
309,115,186543,1,0,0:0:0:0:
309,115,186644,2,0,L|342:189,1,71.9999980926514,2|0,0:0|0:0,0:0:0:0:
357,40,186847,2,0,P|324:24|280:25,1,71.9999980926514,8|0,0:0|0:0,0:0:0:0:
155,73,187049,1,2,0:0:0:0:
155,73,187151,1,0,0:0:0:0:
155,73,187252,2,0,L|232:83,1,71.9999980926514,8|0,0:0|0:0,0:0:0:0:
338,180,187455,2,0,P|260:171|204:206,1,143.999996185303,2|8,0:0|0:0,0:0:0:0:
117,293,187759,1,0,0:0:0:0:
117,293,187860,6,0,L|101:212,1,71.9999980926514,2|0,0:0|0:0,0:0:0:0:
221,280,188063,2,0,P|216:318|205:350,1,71.9999980926514,8|0,0:0|0:0,0:0:0:0:
325,310,188266,2,0,L|312:227,1,71.9999980926514,2|0,0:0|0:0,0:0:0:0:
430,281,188468,2,0,P|417:317|412:358,1,71.9999980926514,8|0,0:0|0:0,0:0:0:0:
512,231,188671,1,2,0:0:0:0:
512,231,188772,1,0,0:0:0:0:
512,231,188874,2,0,L|498:156,1,71.9999980926514,8|0,0:0|0:0,0:0:0:0:
512,42,189076,2,0,P|479:54|430:53,1,71.9999980926514,2|0,0:0|0:0,0:0:0:0:
349,126,189279,2,0,P|384:126|429:145,1,71.9999980926514,8|0,0:0|0:0,0:0:0:0:
431,260,189482,6,0,B|395:241|395:241|362:237|362:237|327:209|288:208,1,143.999996185303,2|8,0:0|0:0,0:0:0:0:
168,185,189786,1,0,0:0:0:0:
168,185,189887,2,0,P|173:223|184:262,1,71.9999980926514,2|0,0:0|0:0,0:0:0:0:
51,311,190090,2,0,P|58:269|58:234,1,71.9999980926514,8|0,0:0|0:0,0:0:0:0:
0,123,190293,1,2,0:0:0:0:
0,123,190394,1,0,0:0:0:0:
0,123,190495,2,0,L|89:109,1,71.9999980926514,8|0,0:0|0:0,0:0:0:0:
184,167,190698,2,0,L|265:172,1,71.9999980926514,2|0,0:0|0:0,0:0:0:0:
412,87,190901,2,0,L|311:100,1,71.9999980926514,8|0,0:0|0:0,0:0:0:0:
219,71,191103,5,0,3:0:0:0:
231,107,191205,1,0,3:0:0:0:
243,139,191306,1,0,3:2:0:0:
255,171,191407,1,0,3:2:0:0:
286,244,191509,5,8,3:2:0:0:
229,298,191610,1,8,3:2:0:0:
151,278,191712,1,8,3:2:0:0:
131,201,191813,1,8,3:2:0:0:
161,124,191914,6,0,L|242:104,1,71.9999980926514,2|0,3:0|0:0,0:0:0:0:
162,36,192117,2,0,L|79:28,1,71.9999980926514,2|0,3:0|0:0,0:0:0:0:
11,37,192320,5,8,3:2:0:0:
17,115,192421,1,8,3:2:0:0:
23,193,192522,1,8,3:2:0:0:
29,272,192624,1,8,3:2:0:0:
37,350,192725,6,0,B|140:308|140:308|189:318,1,143.999996185303,4|0,0:0|0:0,0:0:0:0:
296,357,193029,1,0,0:0:0:0:
296,357,193130,2,0,L|272:284,1,71.9999980926514,2|0,0:0|0:0,0:0:0:0:
327,196,193333,2,0,P|360:212|397:213,1,71.9999980926514,8|0,0:0|0:0,0:0:0:0:
480,131,193536,1,2,0:0:0:0:
480,131,193637,1,0,0:0:0:0:
480,131,193739,2,0,L|403:113,1,71.9999980926514,8|0,0:0|0:0,0:0:0:0:
314,49,193941,2,0,P|252:23|186:53,1,143.999996185303,2|8,0:0|0:0,0:0:0:0:
108,136,194245,1,0,0:0:0:0:
108,136,194347,6,0,L|128:204,1,71.9999980926514,2|0,0:0|0:0,0:0:0:0:
250,226,194549,2,0,L|229:157,1,71.9999980926514,8|0,0:0|0:0,0:0:0:0:
91,161,194752,2,0,L|117:249,1,71.9999980926514,2|0,0:0|0:0,0:0:0:0:
276,246,194954,2,0,L|249:157,1,71.9999980926514,8|0,0:0|0:0,0:0:0:0:
192,61,195157,1,2,0:0:0:0:
192,61,195259,1,0,0:0:0:0:
192,61,195360,2,0,P|151:60|98:70,1,71.9999980926514,8|0,0:0|0:0,0:0:0:0:
280,103,195563,2,0,P|331:106|362:102,1,71.9999980926514,2|0,0:0|0:0,0:0:0:0:
162,153,195766,2,0,P|124:154|80:163,1,71.9999980926514,8|0,0:0|0:0,0:0:0:0:
288,211,195968,6,0,B|330:207|330:207|376:226|376:226|408:215|449:224,1,143.999996185303,2|8,0:0|0:0,0:0:0:0:
484,329,196272,1,0,0:0:0:0:
484,329,196374,2,0,P|451:311|404:298,1,71.9999980926514,2|0,0:0|0:0,0:0:0:0:
320,342,196576,2,0,P|283:358|243:362,1,71.9999980926514,8|0,0:0|0:0,0:0:0:0:
157,310,196779,1,2,0:0:0:0:
157,310,196880,1,0,0:0:0:0:
157,310,196982,2,0,L|168:232,1,71.9999980926514,8|0,0:0|0:0,0:0:0:0:
246,167,197185,2,0,L|256:255,1,71.9999980926514,2|0,0:0|0:0,0:0:0:0:
347,283,197387,2,0,L|352:208,1,71.9999980926514,8|0,0:0|0:0,0:0:0:0:
433,117,197590,6,0,B|398:107|398:107|355:108,1,71.9999980926514,2|0,0:0|0:0,0:0:0:0:
175,176,197793,2,0,B|210:166|210:166|253:167,1,71.9999980926514,2|0,0:0|0:0,0:0:0:0:
422,220,197995,2,0,B|387:210|387:210|352:211,1,71.9999980926514,2|0,0:0|0:0,0:0:0:0:
188,283,198198,2,0,B|223:273|223:273|259:274,1,71.9999980926514,2|0,0:0|0:0,0:0:0:0:
372,353,198401,5,0,3:0:0:0:
407,357,198502,1,0,3:0:0:0:
441,350,198603,1,0,3:2:0:0:
475,336,198705,1,0,3:2:0:0:
491,258,198806,5,8,3:2:0:0:
454,188,198907,1,8,3:2:0:0:
376,170,199009,1,8,3:2:0:0:
315,220,199110,1,8,3:2:0:0:
303,298,199212,6,0,P|233:301|169:249,1,143.999996185303,4|8,0:0|0:0,0:0:0:0:
216,157,199516,1,0,0:0:0:0:
223,150,199617,2,0,P|185:147|144:133,1,71.9999980926514,2|0,0:0|0:0,0:0:0:0:
60,102,199820,1,8,0:0:0:0:
47,93,199921,2,0,P|60:128|65:165,1,71.9999980926514,0|2,0:0|0:0,0:0:0:0:
34,259,200124,1,0,0:0:0:0:
25,273,200225,2,0,L|122:254,1,71.9999980926514,8|0,0:0|0:0,0:0:0:0:
195,229,200428,1,2,0:0:0:0:
169,303,200529,1,0,0:0:0:0:
207,371,200630,1,8,0:0:0:0:
286,377,200732,1,0,0:0:0:0:
349,329,200833,5,2,0:0:0:0:
349,329,200935,2,0,L|384:253,1,71.9999980926514,0|8,0:0|0:0,0:0:0:0:
250,287,201137,1,0,0:0:0:0:
250,286,201239,2,0,L|235:215,1,71.9999980926514,2|0,0:0|0:0,0:0:0:0:
149,178,201441,1,8,0:0:0:0:
210,106,201543,1,0,0:0:0:0:
302,123,201644,1,2,0:0:0:0:
355,200,201745,2,0,P|421:174|450:102,1,143.999996185303
396,23,202049,5,2,0:0:0:0:
309,31,202151,1,0,0:0:0:0:
240,83,202252,1,8,0:0:0:0:
153,81,202353,1,0,0:0:0:0:
85,24,202455,6,0,B|69:44|65:73|65:73|39:105|39:105|35:134|18:167,1,143.999996185303,2|8,0:0|0:0,0:0:0:0:
0,255,202759,1,0,0:0:0:0:
5,262,202860,2,0,P|37:241|80:238,1,71.9999980926514,2|0,0:0|0:0,0:0:0:0:
165,347,203063,2,0,L|93:312,1,71.9999980926514,8|0,0:0|0:0,0:0:0:0:
132,162,203266,2,0,L|196:194,1,71.9999980926514,2|0,0:0|0:0,0:0:0:0:
296,326,203468,2,0,P|261:317|226:293,1,71.9999980926514,8|0,0:0|0:0,0:0:0:0:
317,184,203671,2,0,P|348:192|384:220,1,71.9999980926514,2|0,0:0|0:0,0:0:0:0:
464,288,203874,1,8,0:0:0:0:
468,297,203975,1,0,0:0:0:0:
472,306,204076,6,0,B|484:270|484:270|485:223,1,71.9999980926514,2|0,0:0|0:0,0:0:0:0:
426,151,204279,1,8,0:0:0:0:
415,142,204380,2,0,B|430:108|430:108|460:76,1,71.9999980926514,0|2,2:0|2:0,2:0:0:0:
387,0,204583,2,0,B|353:11|353:11|312:12,1,71.9999980926514,0|8,0:0|0:0,0:0:0:0:
234,65,204786,1,0,0:0:0:0:
226,71,204887,2,0,B|152:66,1,71.9999980926514,2|0,0:0|0:0,0:0:0:0:
69,11,205090,2,0,B|57:106,1,71.9999980926514,8|0,0:0|0:0,0:0:0:0:
16,148,205293,5,8,3:2:0:0:
41,224,205395,1,0,3:2:0:0:
116,246,205496,1,8,3:2:0:0:
190,219,205597,1,8,3:2:0:0:
255,262,205698,6,0,B|284:278|284:278|401:246,1,143.999996185303,4|8,0:0|0:0,0:0:0:0:
445,144,206002,1,0,0:0:0:0:
445,144,206103,2,0,L|367:165,1,71.9999980926514,2|0,0:0|0:0,0:0:0:0:
311,37,206306,2,0,L|239:25,1,71.9999980926514,8|0,0:0|0:0,0:0:0:0:
164,119,206509,1,2,0:0:0:0:
172,125,206610,1,0,0:0:0:0:
180,131,206712,2,0,L|262:118,1,71.9999980926514,8|0,0:0|0:0,0:0:0:0:
329,233,206914,2,0,L|249:224,1,71.9999980926514,2|0,0:0|0:0,0:0:0:0:
143,254,207117,1,8,0:0:0:0:
135,260,207218,1,0,0:0:0:0:
128,267,207320,6,0,P|113:228|116:179,1,71.9999980926514,2|0,0:0|0:0,0:0:0:0:
78,86,207522,2,0,L|149:96,1,71.9999980926514,8|0,0:0|0:0,0:0:0:0:
264,142,207725,2,0,L|338:133,1,71.9999980926514,2|0,0:0|0:0,0:0:0:0:
452,176,207928,1,8,0:0:0:0:
457,185,208029,1,0,0:0:0:0:
461,194,208130,2,0,P|455:235|431:270,1,71.9999980926514,2|0,0:0|0:0,0:0:0:0:
324,306,208333,2,0,P|310:272|312:228,1,71.9999980926514,8|0,0:0|0:0,0:0:0:0:
195,189,208536,2,0,P|191:231|172:262,1,71.9999980926514,2|0,0:0|0:0,0:0:0:0:
60,301,208739,1,8,0:0:0:0:
66,307,208840,1,8,0:0:0:0:
72,312,208941,6,0,L|51:160,1,143.999996185303,4|8,0:0|0:0,0:0:0:0:
8,48,209245,1,0,0:0:0:0:
8,48,209347,2,0,P|42:61|83:60,1,71.9999980926514,2|0,0:0|0:0,0:0:0:0:
214,46,209549,2,0,L|191:210,1,143.999996185303,10|2,0:0|0:0,0:0:0:0:
328,236,209853,1,0,0:0:0:0:
328,236,209955,2,0,L|308:93,1,143.999996185303,10|2,0:0|0:0,0:0:0:0:
444,50,210259,1,0,0:0:0:0:
444,50,210360,2,0,L|431:143,1,71.9999980926514,10|0,0:0|0:0,0:0:0:0:
470,218,210563,5,2,0:0:0:0:
470,218,210664,1,2,0:0:0:0:
470,218,210766,1,8,0:0:0:0:
226,281,210968,5,2,0:0:0:0:
377,197,211171,1,8,0:0:0:0:
377,197,211272,1,8,0:0:0:0:
377,197,211374,2,0,L|387:121,1,71.9999980926514,2|0,0:0|0:0,0:0:0:0:
316,22,211576,5,8,3:2:0:0:
245,57,211678,1,8,3:2:0:0:
218,131,211779,1,8,3:2:0:0:
235,207,211880,1,8,3:2:0:0:
205,280,211982,1,8,3:2:0:0:
132,309,212083,1,8,3:2:0:0:
62,269,212185,6,0,P|34:207|65:128,1,143.999996185303,4|8,0:0|0:0,0:0:0:0:
135,76,212489,1,0,0:0:0:0:
135,76,212590,2,0,L|135:151,1,71.9999980926514,2|0,0:0|0:0,0:0:0:0:
284,120,212793,2,0,P|248:110|205:119,1,71.9999980926514,8|0,0:0|0:0,0:0:0:0:
192,229,212995,1,2,0:0:0:0:
192,229,213097,1,0,0:0:0:0:
192,229,213198,2,0,L|263:205,1,71.9999980926514,8|0,0:0|0:0,0:0:0:0:
358,167,213401,2,0,P|373:223|359:306,1,143.999996185303,2|8,0:0|0:0,0:0:0:0:
275,366,213705,1,0,0:0:0:0:
275,366,213806,6,0,L|195:347,1,71.9999980926514,2|0,0:0|0:0,0:0:0:0:
105,323,214009,2,0,P|129:296|169:280,1,71.9999980926514,8|0,0:0|0:0,0:0:0:0:
244,227,214212,2,0,L|313:245,1,71.9999980926514,2|0,0:0|0:0,0:0:0:0:
392,315,214414,2,0,P|427:319|460:306,1,71.9999980926514,8|0,0:0|0:0,0:0:0:0:
392,226,214617,1,2,0:0:0:0:
392,226,214718,1,0,0:0:0:0:
392,226,214820,2,0,L|375:151,1,71.9999980926514,8|0,0:0|0:0,0:0:0:0:
416,65,215022,2,0,P|380:55|330:56,1,71.9999980926514,2|0,0:0|0:0,0:0:0:0:
245,21,215225,2,0,P|260:51|260:100,1,71.9999980926514,8|0,0:0|0:0,0:0:0:0:
172,142,215428,6,0,B|208:151|208:151|246:178|246:178|290:161|290:161|325:165,1,143.999996185303,2|8,0:0|0:0,0:0:0:0:
405,155,215732,1,0,0:0:0:0:
405,155,215833,2,0,P|399:192|388:237,1,71.9999980926514,2|0,0:0|0:0,0:0:0:0:
291,313,216036,2,0,P|293:272|298:236,1,71.9999980926514,8|0,0:0|0:0,0:0:0:0:
194,195,216239,1,2,0:0:0:0:
194,195,216340,1,0,0:0:0:0:
194,195,216441,2,0,L|206:271,1,71.9999980926514,8|0,0:0|0:0,0:0:0:0:
146,345,216644,2,0,L|84:310,1,71.9999980926514,2|0,0:0|0:0,0:0:0:0:
29,215,216847,2,0,B|62:200|62:200|101:199,1,71.9999980926514,2|0,0:0|0:0,0:0:0:0:
60,115,217049,6,0,B|96:112|96:112|133:124,1,71.9999980926514,2|0,0:0|0:0,0:0:0:0:
125,35,217252,2,0,B|159:44|159:44|190:69,1,71.9999980926514,2|0,0:0|0:0,0:0:0:0:
263,130,217455,2,0,B|290:152|290:152|325:161,1,71.9999980926514,2|0,0:0|0:0,0:0:0:0:
193,164,217657,2,0,B|211:194|211:194|241:215,1,71.9999980926514,2|0,0:0|0:0,0:0:0:0:
389,237,217860,6,0,L|318:250,1,71.9999980926514,2|0,3:0|0:0,0:0:0:0:
223,308,218063,2,0,L|138:292,1,71.9999980926514,0|0,3:0|3:0,3:0:0:0:
83,254,218266,5,8,3:2:0:0:
49,182,218367,1,8,3:2:0:0:
59,103,218468,1,8,3:2:0:0:
116,48,218570,1,8,3:2:0:0:
188,78,218671,6,0,B|223:92|223:92|333:72,1,143.999996185303,4|8,0:0|0:0,0:0:0:0:
424,38,218975,1,0,0:0:0:0:
431,44,219076,2,0,L|427:125,1,71.9999980926514,2|0,0:0|0:0,0:0:0:0:
490,202,219279,2,0,P|457:218|420:219,1,71.9999980926514,8|0,0:0|0:0,0:0:0:0:
333,148,219482,1,2,0:0:0:0:
327,154,219583,1,0,0:0:0:0:
321,162,219685,2,0,L|330:234,1,71.9999980926514,8|0,0:0|0:0,0:0:0:0:
413,299,219887,2,0,P|352:339|272:323,1,143.999996185303,2|8,0:0|0:0,0:0:0:0:
214,275,220191,1,0,0:0:0:0:
214,275,220293,6,0,P|216:237|226:205,1,71.9999980926514,2|0,0:0|0:0,0:0:0:0:
183,137,220495,1,8,0:0:0:0:
183,137,220597,1,0,0:0:0:0:
183,137,220698,2,0,L|101:143,1,71.9999980926514,2|0,0:0|0:0,0:0:0:0:
1,195,220900,2,0,P|6:159|26:108,1,71.9999980926514,8|0,0:0|0:0,0:0:0:0:
87,53,221103,2,0,P|124:47|174:53,1,71.9999980926514,2|0,0:0|0:0,0:0:0:0:
249,95,221306,2,0,P|284:99|324:94,1,71.9999980926514,8|0,0:0|0:0,0:0:0:0:
440,70,221509,2,0,P|411:96|383:146,1,71.9999980926514,2|0,0:0|0:0,0:0:0:0:
337,248,221712,2,0,P|339:209|331:167,1,71.9999980926514,8|0,0:0|0:0,0:0:0:0:
249,95,221914,6,0,B|242:117|242:117|251:148|251:148|245:208|245:208|257:240,1,143.999996185303,2|8,0:0|0:0,0:0:0:0:
332,327,222218,1,0,0:0:0:0:
332,327,222320,2,0,L|249:343,1,71.9999980926514,2|0,0:0|0:0,0:0:0:0:
184,248,222522,2,0,L|254:233,1,71.9999980926514,8|0,0:0|0:0,0:0:0:0:
175,333,222725,1,2,0:0:0:0:
176,341,222826,1,0,0:0:0:0:
177,349,222928,2,0,L|105:337,1,71.9999980926514,8|0,0:0|0:0,0:0:0:0:
21,270,223131,2,0,L|29:197,1,71.9999980926514,2|0,0:0|0:0,0:0:0:0:
95,96,223333,2,0,P|113:126|115:161,1,71.9999980926514,8|0,0:0|0:0,0:0:0:0:
157,254,223536,6,0,B|182:227|182:227|201:189,1,71.9999980926514,2|0,0:0|0:0,0:0:0:0:
258,296,223739,2,0,B|272:262|272:262|277:220,1,71.9999980926514,2|0,0:0|0:0,0:0:0:0:
370,300,223941,2,0,B|372:263|372:263|362:221,1,71.9999980926514,2|0,0:0|0:0,0:0:0:0:
478,265,224144,2,0,B|467:230|467:230|444:194,1,71.9999980926514,2|0,0:0|0:0,0:0:0:0:
455,110,224347,2,0,B|420:103|420:103|385:110,1,71.9999980926514,2|0,0:0|0:0,0:0:0:0:
323,160,224549,5,0,3:2:0:0:
243,160,224651,1,0,3:2:0:0:
194,97,224752,1,8,3:2:0:0:
216,21,224853,1,8,3:2:0:0:
293,1,224955,1,8,3:2:0:0:
364,34,225056,1,8,3:2:0:0:
384,110,225158,6,0,L|359:264,1,143.999996185303,4|8,0:0|0:0,0:0:0:0:
275,305,225462,1,0,0:0:0:0:
275,305,225563,2,0,P|279:347|292:386,1,71.9999980926514,2|0,0:0|0:0,0:0:0:0:
404,381,225766,2,0,P|411:346|411:304,1,71.9999980926514,8|0,0:0|0:0,0:0:0:0:
457,216,225968,1,2,0:0:0:0:
457,216,226070,1,0,0:0:0:0:
457,216,226171,2,0,P|415:205|373:202,1,71.9999980926514,8|0,0:0|0:0,0:0:0:0:
278,222,226374,2,0,L|261:138,1,71.9999980926514,2|0,0:0|0:0,0:0:0:0:
390,127,226576,2,0,L|402:57,1,71.9999980926514,8|0,0:0|0:0,0:0:0:0:
309,15,226779,5,2,0:0:0:0:
309,15,226881,1,0,0:0:0:0:
309,15,226982,2,0,L|219:24,1,71.9999980926514,8|0,0:0|0:0,0:0:0:0:
123,99,227185,2,0,L|194:102,1,71.9999980926514,2|0,0:0|0:0,0:0:0:0:
334,138,227387,2,0,L|257:152,1,71.9999980926514,8|0,0:0|0:0,0:0:0:0:
180,231,227590,1,2,0:0:0:0:
180,231,227691,1,0,0:0:0:0:
180,231,227793,2,0,P|181:278|208:317,1,71.9999980926514,8|0,0:0|0:0,0:0:0:0:
287,350,227995,2,0,P|298:316|287:264,1,71.9999980926514,2|0,0:0|0:0,0:0:0:0:
396,239,228198,2,0,L|492:248,1,71.9999980926514,8|0,0:0|0:0,0:0:0:0:
433,155,228401,6,0,B|397:140|397:140|351:93|351:93|305:71,1,143.999996185303,2|8,0:0|0:0,0:0:0:0:
208,66,228705,1,0,0:0:0:0:
208,66,228806,2,0,L|118:58,1,71.9999980926514,2|0,0:0|0:0,0:0:0:0:
29,10,229009,2,0,P|19:47|23:85,1,71.9999980926514,8|0,0:0|0:0,0:0:0:0:
92,153,229212,2,0,L|72:232,1,71.9999980926514,2|0,0:0|0:0,0:0:0:0:
154,323,229414,2,0,P|155:287|169:248,1,71.9999980926514,8|0,0:0|0:0,0:0:0:0:
243,176,229617,2,0,P|270:192|297:229,1,71.9999980926514,2|0,0:0|0:0,0:0:0:0:
382,313,229820,1,8,0:0:0:0:
382,313,229921,1,0,0:0:0:0:
382,313,230022,6,0,B|406:283|406:283|420:232,1,71.9999980926514,2|0,0:0|0:0,0:0:0:0:
327,122,230225,2,0,L|375:189,1,71.9999980926514,2|0,0:0|0:0,0:0:0:0:
466,73,230428,2,0,L|433:150,1,71.9999980926514,2|0,0:0|0:0,0:0:0:0:
512,239,230630,2,0,P|482:223|439:220,1,71.9999980926514,2|0,0:0|0:0,0:0:0:0:
293,269,230833,2,0,B|219:264,1,71.9999980926514,6|0,0:0|0:0,0:0:0:0:
83,206,231036,2,0,B|166:188,1,71.9999980926514,0|0,3:0|3:0,3:0:0:0:
225,155,231239,5,12,3:2:0:0:
258,82,231341,1,0,3:2:0:0:
219,13,231442,1,8,3:2:0:0:
140,5,231543,1,8,3:2:0:0:
70,42,231644,6,0,B|105:190,1,143.999996185303,4|8,0:0|0:0,0:0:0:0:
77,297,231948,1,0,0:0:0:0:
77,297,232049,2,0,L|150:274,1,71.9999980926514,2|0,0:0|0:0,0:0:0:0:
296,236,232252,2,0,L|222:230,1,71.9999980926514,8|0,0:0|0:0,0:0:0:0:
206,350,232455,1,2,0:0:0:0:
206,350,232556,1,0,0:0:0:0:
206,350,232658,2,0,P|241:336|288:337,1,71.9999980926514,8|0,0:0|0:0,0:0:0:0:
391,372,232860,2,0,P|407:345|414:287,1,71.9999980926514,2|0,0:0|0:0,0:0:0:0:
368,164,233063,2,0,P|367:202|378:247,1,71.9999980926514,8|0,0:0|0:0,0:0:0:0:
512,267,233266,6,0,P|513:232|499:182,1,71.9999980926514,2|0,0:0|0:0,0:0:0:0:
428,97,233468,2,0,L|499:107,1,71.9999980926514,8|0,0:0|0:0,0:0:0:0:
399,15,233671,2,0,L|473:6,1,71.9999980926514,2|0,0:0|0:0,0:0:0:0:
340,82,233874,1,8,0:0:0:0:
340,82,233975,1,0,0:0:0:0:
340,82,234076,2,0,P|304:70|253:69,1,71.9999980926514,2|0,0:0|0:0,0:0:0:0:
175,142,234279,2,0,P|156:111|150:76,1,71.9999980926514,8|0,0:0|0:0,0:0:0:0:
283,162,234482,2,0,P|272:202|248:230,1,71.9999980926514,2|0,0:0|0:0,0:0:0:0:
154,266,234685,1,8,0:0:0:0:
154,266,234786,1,8,0:0:0:0:
154,266,234887,6,0,B|93:274|47:292|47:292|21:267,1,143.999996185303,2|8,0:0|0:0,0:0:0:0:
2,175,235191,1,0,0:0:0:0:
0,167,235292,2,0,L|16:87,1,71.9999980926514,2|0,0:0|0:0,0:0:0:0:
100,45,235495,2,0,L|187:36,1,71.9999980926514,8|0,0:0|0:0,0:0:0:0:
278,76,235698,1,2,0:0:0:0:
282,83,235799,1,0,0:0:0:0:
286,89,235901,2,0,P|291:128|317:174,1,71.9999980926514,8|0,0:0|0:0,0:0:0:0:
401,210,236103,2,0,P|440:198|478:168,1,71.9999980926514,2|0,0:0|0:0,0:0:0:0:
462,48,236306,2,0,P|433:27|387:11,1,71.9999980926514,8|0,0:0|0:0,0:0:0:0:
383,110,236509,5,2,0:0:0:0:
245,258,236712,1,8,3:2:0:0:
241,308,236813,1,0,3:2:0:0:
277,342,236914,1,2,3:2:0:0:
327,346,237016,2,0,L|416:332,1,71.9999980926514,8|0,0:0|0:0,0:0:0:0:
470,225,237218,5,0,3:0:0:0:
470,225,237320,2,0,P|432:211|382:212,1,71.9999980926514,2|0,0:0|0:0,0:0:0:0:
321,206,237522,1,0,3:0:0:0:
243,223,237624,1,0,3:0:0:0:
185,276,237725,1,8,3:2:0:0:
108,296,237826,1,8,3:2:0:0:
34,266,237928,1,8,3:2:0:0:
0,194,238029,1,8,3:2:0:0:
17,117,238130,5,4,0:0:0:0:
72,50,238536,1,0,3:0:0:0:
158,56,238941,1,0,3:0:0:0:
173,141,239347,1,0,3:0:0:0:
142,221,239752,1,0,3:0:0:0:
93,292,240157,1,0,3:0:0:0:
132,368,240563,1,0,3:0:0:0:
215,347,240968,1,0,3:0:0:0:
298,371,241374,5,0,3:0:0:0:
382,352,241779,1,0,3:0:0:0:
440,288,242185,1,0,3:0:0:0:
412,206,242590,1,0,3:0:0:0:
439,124,242995,1,0,3:0:0:0:
407,43,243401,1,0,3:0:0:0:
331,85,243806,1,0,3:0:0:0:
258,36,244009,5,8,3:2:0:0:
257,50,244110,1,8,3:2:0:0:
256,64,244212,1,8,3:2:0:0:
256,78,244313,1,8,3:2:0:0:
256,92,244414,1,8,3:2:0:0:
256,106,244516,1,8,3:2:0:0:
256,120,244617,6,0,L|256:203,1,71.9999980926514,4|0,0:0|0:0,0:0:0:0:
359,236,244820,2,0,L|360:154,1,71.9999980926514,8|0,0:0|0:0,0:0:0:0:
458,120,245022,2,0,L|457:191,1,71.9999980926514,2|0,0:0|0:0,0:0:0:0:
465,309,245225,2,0,P|390:360|262:317,1,215.999994277954,8|0,0:0|0:0,0:0:0:0:
289,144,245630,2,0,P|236:234|275:331,1,215.999994277954,8|0,0:0|0:0,0:0:0:0:
359,243,246036,1,8,0:0:0:0:
175,344,246239,5,4,0:0:0:0:
340,362,246441,1,8,0:0:0:0:
156,251,246644,1,2,0:0:0:0:
372,165,246847,1,8,0:0:0:0:
160,36,247049,1,2,0:0:0:0:
267,263,247252,1,8,0:0:0:0:
442,110,247455,2,0,P|371:76|309:103,1,143.999996185303,2|8,0:0|0:0,0:0:0:0:
292,176,247759,1,0,0:0:0:0:
372,165,247860,5,4,0:0:0:0:
480,160,249482,5,4,0:0:0:0:
32,160,250293,1,2,0:0:0:0:
384,160,251103,5,4,0:0:0:0:
128,160,251509,1,2,0:0:0:0:
318,232,251813,1,8,0:0:0:0:
318,232,251914,1,2,0:0:0:0:
253,364,252117,5,8,3:2:0:0:
175,377,252218,1,0,3:2:0:0:
99,351,252320,1,8,3:2:0:0:
51,287,252421,1,0,3:2:0:0:
50,208,252522,1,0,3:2:0:0:
94,141,252624,1,0,3:2:0:0:
171,125,252725,5,4,0:0:0:0:
512,91,253536,1,4,0:0:0:0:
171,125,254347,6,0,P|236:150|311:121,1,143.999996185303,6|0,0:0|0:0,0:0:0:0:
512,91,254752,2,0,P|447:66|372:95,1,143.999996185303,6|0,0:0|0:0,0:0:0:0:
363,176,255056,1,8,0:0:0:0:
449,167,255157,1,6,0:0:0:0:
238,53,255360,5,8,3:2:0:0:
165,20,255462,1,8,3:2:0:0:
87,33,255563,1,8,3:2:0:0:
41,97,255664,1,8,3:2:0:0:
29,175,255766,1,8,3:2:0:0:
73,240,255867,1,8,3:2:0:0:
150,257,255968,5,2,1:0:0:0:
342,200,256171,1,2,1:0:0:0:
165,20,256374,1,2,1:0:0:0:
244,344,256576,1,2,1:0:0:0:
255,355,256982,5,2,3:0:0:0:
255,355,257083,1,0,3:0:0:0:
255,355,257185,5,2,3:0:0:0:
255,277,257286,1,0,3:0:0:0:
255,198,257387,1,2,3:0:0:0:
255,120,257489,1,0,3:0:0:0:
245,32,257590,6,0,B|295:54|341:26|341:26|383:24|418:48,1,179.999995231629,4|8,1:1|0:0,0:0:0:0:
512,166,257894,1,0,0:0:0:0:
512,166,257995,2,0,L|490:273,1,89.9999976158143,2|0,0:0|0:0,0:0:0:0:
368,306,258198,2,0,P|317:293|280:252,1,89.9999976158143,8|0,0:0|0:0,0:0:0:0:
357,114,258401,2,0,P|400:125|443:167,1,89.9999976158143,2|0,0:0|0:0,0:0:0:0:
203,216,258603,1,8,0:0:0:0:
203,216,258705,2,0,P|211:119|287:74,1,179.999995231629,2|0,0:0|0:0,0:0:0:0:
368,206,259009,2,0,L|285:169,1,89.9999976158143,8|0,0:0|0:0,0:0:0:0:
107,71,259212,6,0,L|120:173,1,89.9999976158143,2|0,0:0|0:0,0:0:0:0:
66,304,259414,1,8,0:0:0:0:
66,304,259516,2,0,P|131:259|231:305,1,179.999995231629,2|0,0:0|0:0,0:0:0:0:
422,335,259820,2,0,P|370:330|320:308,1,89.9999976158143,8|0,0:0|0:0,0:0:0:0:
286,170,260022,2,0,P|273:121|276:70,1,89.9999976158143,2|0,0:0|0:0,0:0:0:0:
453,83,260225,1,8,0:0:0:0:
453,83,260326,2,0,P|436:174|398:267,1,179.999995231629,2|0,0:0|0:0,0:0:0:0:
255,328,260630,1,8,0:0:0:0:
242,337,260732,1,8,0:0:0:0:
228,344,260833,6,0,B|172:342|134:283|134:283|192:238,1,179.999995231629,2|8,0:0|0:0,0:0:0:0:
96,99,261137,1,0,0:0:0:0:
96,99,261239,2,0,L|75:203,1,89.9999976158143,2|0,0:0|0:0,0:0:0:0:
267,183,261441,2,0,P|226:150|171:145,1,89.9999976158143,8|0,0:0|0:0,0:0:0:0:
304,285,261644,2,0,P|370:215|359:131,1,179.999995231629,2|8,0:0|0:0,0:0:0:0:
260,7,261948,1,0,0:0:0:0:
260,7,262049,2,0,L|363:18,1,89.9999976158143,2|0,0:0|0:0,0:0:0:0:
500,122,262252,2,0,L|406:130,1,89.9999976158143,8|0,0:0|0:0,0:0:0:0:
194,159,262455,6,0,P|277:169|332:88,1,179.999995231629,8|8,0:0|0:0,0:0:0:0:
139,42,262759,1,0,0:0:0:0:
139,42,262860,2,0,P|116:111|115:136,1,89.9999976158143,8|0,0:0|0:0,0:0:0:0:
233,331,263063,2,0,P|222:280|201:237,1,89.9999976158143,8|0,0:0|0:0,0:0:0:0:
13,123,263266,2,0,P|20:174|48:226,1,89.9999976158143,8|0,0:0|0:0,0:0:0:0:
131,368,263468,5,8,3:2:0:0:
103,281,263570,1,8,3:2:0:0:
141,199,263671,1,8,3:2:0:0:
227,173,263772,1,8,3:2:0:0:
279,99,263874,1,8,3:2:0:0:
249,14,263975,1,8,3:2:0:0:
139,42,264076,6,0,P|145:116|232:173,1,179.999995231629,4|8,0:0|0:0,0:0:0:0:
305,128,264380,1,0,0:0:0:0:
395,137,264482,1,2,0:0:0:0:
455,202,264583,1,2,0:0:0:0:
452,292,264685,2,0,P|415:318|365:322,1,89.9999976158143,8|0,0:0|0:0,0:0:0:0:
185,384,264887,2,0,P|145:341|179:233,1,179.999995231629,2|8,0:0|0:0,0:0:0:0:
382,245,265191,2,0,P|428:209|411:97,1,179.999995231629,2|0,0:0|0:0,0:0:0:0:
266,145,265495,2,0,L|355:163,1,89.9999976158143,10|0,0:0|0:0,0:0:0:0:
452,292,265698,6,0,P|416:317|342:316,1,89.9999976158143,2|0,0:0|0:0,0:0:0:0:
176,234,265901,2,0,P|218:219|281:235,1,89.9999976158143,8|0,0:0|0:0,0:0:0:0:
185,384,266103,2,0,P|129:376|93:350,1,89.9999976158143,2|0,0:0|0:0,0:0:0:0:
21,190,266306,2,0,P|57:172|118:178,1,89.9999976158143,8|0,0:0|0:0,0:0:0:0:
340,220,266509,6,0,L|397:151,1,89.9999976158143,2|0,0:0|0:0,0:0:0:0:
245,72,266712,1,8,0:0:0:0:
245,72,266813,2,0,B|213:125|206:189|206:189|221:243,1,179.999995231629,2|0,0:0|0:0,0:0:0:0:
364,345,267117,2,0,P|317:338|269:322,1,89.9999976158143,8|0,0:0|0:0,0:0:0:0:
115,259,267320,6,0,L|221:243,1,107.999993843079,6|0,0:0|0:0,0:0:0:0:
397,150,267522,2,0,L|290:162,1,107.999993843079,6|0,0:0|0:0,0:0:0:0:
48,190,267725,2,0,L|154:174,1,107.999993843079,6|0,0:0|0:0,0:0:0:0:
427,68,267928,2,0,L|319:80,1,107.999993843079,6|0,0:0|0:0,0:0:0:0:
95,107,268130,6,0,P|144:9|231:104,2,269.999992847443,4|2|4,0:0|0:0|0:0,0:0:0:0:
396,359,268941,5,2,0:0:0:0:
396,359,269043,2,0,P|435:335|459:294,1,89.9999976158143,8|0,0:0|0:0,0:0:0:0:
290,250,269245,5,2,0:0:0:0:
290,250,269347,2,0,P|328:277|371:283,1,89.9999976158143,8|0,0:0|0:0,0:0:0:0:
226,375,269549,5,2,0:0:0:0:
226,375,269651,2,0,P|266:375|317:349,1,89.9999976158143,8|0,0:0|0:0,0:0:0:0:
318,123,269955,5,0,3:0:0:0:
234,89,270056,1,0,3:0:0:0:
148,117,270157,1,8,3:2:0:0:
99,193,270259,1,0,3:2:0:0:
96,282,270360,1,8,3:2:0:0:
158,347,270462,1,0,3:2:0:0:
283,379,270563,6,0,B|369:352,1,89.9999976158143,4|0,1:1|0:0,0:0:0:0:
371,150,270766,1,8,0:0:0:0:
371,150,270867,2,0,P|297:184|302:285,1,179.999995231629,2|0,0:0|0:0,0:0:0:0:
467,331,271171,1,8,0:0:0:0:
480,327,271272,1,8,0:0:0:0:
491,319,271374,2,0,P|503:274|502:217,1,89.9999976158143,4|0,0:0|0:0,0:0:0:0:
496,64,271576,1,8,0:0:0:0:
496,64,271678,2,0,P|460:137|364:147,1,179.999995231629,2|0,0:0|0:0,0:0:0:0:
217,26,271982,1,8,0:0:0:0:
228,31,272083,1,8,0:0:0:0:
238,38,272185,6,0,L|251:141,1,89.9999976158143,4|0,0:0|0:0,0:0:0:0:
76,231,272387,2,0,L|189:182,1,89.9999976158143,8|0,0:0|0:0,0:0:0:0:
301,241,272590,5,0,3:0:0:0:
388,262,272691,1,8,3:2:0:0:
460,207,272793,1,8,3:2:0:0:
451,117,272894,1,8,3:2:0:0:
361,43,272995,6,0,L|328:159,1,89.9999976158143,4|0,0:0|0:0,0:0:0:0:
323,360,273198,2,0,L|312:267,1,89.9999976158143,4|0,3:0|3:0,0:0:0:0:
256,149,273401,5,0,3:2:0:0:
183,95,273502,1,8,3:2:0:0:
93,98,273603,1,8,3:2:0:0:
41,172,273705,1,8,3:2:0:0:
81,270,273806,6,0,P|121:254|187:242,1,89.9999976158143,10|0,0:0|0:0,0:0:0:0:
323,90,274009,2,0,P|289:120|252:144,1,89.9999976158143,10|0,0:0|0:0,0:0:0:0:
6,79,274212,2,0,P|48:92|93:98,1,89.9999976158143,10|0,0:0|0:0,0:0:0:0:
301,263,274414,2,0,P|343:241|405:224,1,89.9999976158143,10|0,0:0|0:0,0:0:0:0:
467,110,274617,5,2,0:0:0:0:
467,110,274718,2,0,L|369:119,1,89.9999976158143,12|0,0:0|0:0,0:0:0:0:
271,194,274921,5,0,3:2:0:0:
244,98,275022,1,8,3:2:0:0:
158,45,275124,1,8,3:2:0:0:
60,62,275225,1,8,3:2:0:0:
2,142,275326,1,8,3:2:0:0:
98,262,275428,6,0,L|132:159,1,107.999993843079,6|0,0:0|0:0,0:0:0:0:
325,107,275630,2,0,L|214:108,1,107.999993843079,6|0,0:0|0:0,0:0:0:0:
107,344,275833,2,0,L|214:342,1,107.999993843079,6|0,0:0|0:0,0:0:0:0:
403,133,276036,2,0,L|436:235,1,107.999993843079,6|0,0:0|0:0,0:0:0:0:
289,375,276239,6,0,P|293:321|312:280,1,89.9999976158143,2|0,0:0|0:0,0:0:0:0:
346,206,276441,1,8,3:2:0:0:
331,116,276543,1,8,3:2:0:0:
255,66,276644,1,8,3:2:0:0:
165,75,276745,1,8,3:2:0:0:
113,149,276847,1,8,3:2:0:0:
127,237,276948,1,8,3:2:0:0:
197,293,277049,6,0,B|243:305|281:326|281:326|329:305|366:296|366:296|411:312|467:310,2,269.999992847443,4|2|2,0:0|0:0|0:0,0:0:0:0:
424,94,277860,2,0,B|378:82|340:61|340:61|292:82|255:91|255:91|210:75|154:77,2,269.999992847443,2|2|2,0:0|0:0|0:0,0:0:0:0:
180,200,278671,6,0,P|138:185|94:177,1,89.9999976158143,2|0,0:0|0:0,0:0:0:0:
333,201,278874,2,0,P|375:185|419:177,1,89.9999976158143,8|0,0:0|0:0,0:0:0:0:
202,291,279076,2,0,P|162:272|118:263,1,89.9999976158143,2|0,0:0|0:0,0:0:0:0:
311,291,279279,2,0,P|351:272|395:263,1,89.9999976158143,8|0,0:0|0:0,0:0:0:0:
250,98,279482,6,0,L|164:72,1,89.9999976158143,2|0,0:0|0:0,0:0:0:0:
30,188,279685,1,8,0:0:0:0:
30,188,279786,2,0,P|100:214|183:153,1,179.999995231629,2|0,0:0|0:0,0:0:0:0:
339,61,280090,1,8,0:0:0:0:
339,61,280191,1,8,0:0:0:0:
339,61,280293,6,0,L|462:71,1,107.999993843079,6|0,0:0|0:0,0:0:0:0:
512,211,280495,2,0,L|404:219,1,107.999993843079,6|0,0:0|0:0,0:0:0:0:
180,158,280698,2,0,L|72:149,1,107.999993843079,6|0,0:0|0:0,0:0:0:0:
195,380,280901,2,0,L|302:371,1,107.999993843079,6|0,0:0|0:0,0:0:0:0:
472,293,281103,6,0,P|420:170|295:214,2,269.999992847443,4|2|2,0:0|0:0|0:0,0:0:0:0:
141,150,281914,5,2,0:0:0:0:
141,150,282016,2,0,P|105:119|44:100,1,89.9999976158143,8|0,0:0|0:0,0:0:0:0:
147,248,282218,5,2,0:0:0:0:
147,248,282320,2,0,P|139:295|157:356,1,89.9999976158143,8|0,0:0|0:0,0:0:0:0:
228,200,282522,5,2,0:0:0:0:
228,200,282624,2,0,P|267:170|294:127,1,89.9999976158143,8|0,0:0|0:0,0:0:0:0:
147,336,282928,5,8,3:2:0:0:
245,343,283029,1,8,3:2:0:0:
321,280,283130,1,8,3:2:0:0:
348,184,283232,1,8,3:2:0:0:
312,92,283333,1,8,3:2:0:0:
225,42,283435,1,8,3:2:0:0:
123,39,283536,6,0,P|46:72|45:179,1,179.999995231629,4|8,0:0|0:0,0:0:0:0:
91,232,283840,1,0,0:0:0:0:
172,178,283941,1,2,0:0:0:0:
171,187,284043,1,8,0:0:0:0:
170,197,284144,2,0,L|114:126,1,89.9999976158143,0|8,0:0|0:0,0:0:0:0:
116,314,284347,2,0,P|160:295|209:292,1,89.9999976158143,2|0,0:0|0:0,0:0:0:0:
450,359,284549,2,0,P|406:378|357:381,1,89.9999976158143,8|0,0:0|0:0,0:0:0:0:
243,358,284752,5,8,3:2:0:0:
281,276,284853,1,0,3:0:0:0:
368,251,284955,1,8,3:2:0:0:
439,197,285056,1,0,3:0:0:0:
478,96,285157,6,0,P|403:143|316:120,1,179.999995231629,2|8,0:0|0:0,0:0:0:0:
241,64,285462,1,0,0:0:0:0:
159,104,285563,1,2,0:0:0:0:
164,113,285664,1,8,0:0:0:0:
168,122,285766,2,0,L|185:227,1,89.9999976158143,0|8,0:0|0:0,0:0:0:0:
53,350,285968,2,0,P|40:306|35:262,1,89.9999976158143,2|0,0:0|0:0,0:0:0:0:
292,294,286171,2,0,P|249:308|185:315,1,89.9999976158143,8|0,0:0|0:0,0:0:0:0:
119,277,286374,5,8,3:2:0:0:
78,197,286475,1,0,3:0:0:0:
110,113,286576,1,8,3:2:0:0:
193,77,286678,1,0,3:0:0:0:
271,120,286779,6,0,L|378:110,1,89.9999976158143,6|0,0:0|0:0,0:0:0:0:
466,122,286982,1,8,0:0:0:0:
488,31,287083,1,0,0:0:0:0:
486,22,287185,1,2,0:2:0:0:
483,13,287286,2,0,P|426:21|386:44,1,89.9999976158143,8|0,0:2|3:2,3:2:0:0:
302,201,287489,1,8,0:2:0:0:
302,201,287590,2,0,P|274:154|271:115,1,89.9999976158143,2|0,0:0|0:0,0:0:0:0:
489,201,287793,2,0,P|482:247|455:297,1,89.9999976158143,8|0,0:0|0:0,0:0:0:0:
362,352,287995,5,8,3:2:0:0:
273,370,288097,1,8,3:2:0:0:
188,340,288198,1,8,3:2:0:0:
153,257,288299,1,8,3:2:0:0:
197,160,288401,6,0,L|291:180,1,89.9999976158143,6|0,0:0|0:0,0:0:0:0:
464,286,288603,2,0,L|365:300,1,89.9999976158143,8|0,0:0|0:0,0:0:0:0:
106,372,288806,2,0,P|82:332|81:279,1,89.9999976158143,2|0,0:0|0:0,0:0:0:0:
270,82,289009,2,0,P|316:82|363:116,1,89.9999976158143,8|0,0:0|0:0,0:0:0:0:
430,206,289212,5,8,0:0:0:0:
430,206,289313,1,8,0:0:0:0:
178,310,289516,1,8,0:0:0:0:
178,310,289617,2,0,B|143:286|92:283|92:283|125:243|172:205|172:205|145:157|83:162,1,287.999992370606,8|4,0:0|1:0,0:0:0:0:
255,17,299752,5,8,0:0:0:0:
256,368,300563,1,8,0:0:0:0:
96,96,301374,5,8,0:0:0:0:
416,96,301779,1,8,0:0:0:0:
256,320,302185,1,8,0:0:0:0:
143,186,302387,1,0,0:0:0:0:
143,186,302489,2,0,P|203:218|285:200,1,143.999996185303
329,152,302793,1,0,0:0:0:0:
43,142,302995,5,0,1:0:0:0:
243,89,303198,1,0,1:0:0:0:
77,237,303401,1,0,1:0:0:0:
268,238,303603,1,0,1:0:0:0:
141,32,303806,5,4,3:0:0:0:
174,208,304009,1,0,0:0:0:0:
174,208,304110,2,0,P|219:154|297:143,1,143.999996185303,4|0,3:0|0:0,0:0:0:0:
367,177,304414,2,0,L|388:253,1,71.9999980926514,2|0,0:0|0:0,0:0:0:0:
463,282,304617,6,0,B|248:307|248:307|321:258,1,287.999992370606,4|0,0:0|0:0,0:0:0:0:
155,171,305225,1,0,3:0:0:0:
155,171,305326,1,0,3:0:0:0:
155,171,305428,5,8,3:2:0:0:
171,101,305529,1,8,3:2:0:0:
227,56,305630,1,8,3:2:0:0:
299,53,305732,1,8,3:2:0:0:
359,91,305833,1,8,3:2:0:0:
385,158,305935,1,8,3:2:0:0:
368,227,306036,1,8,3:2:0:0:
313,274,306137,1,8,3:2:0:0:
240,277,306239,5,0,1:0:0:0:
12,139,306441,1,0,1:0:0:0:
148,356,306644,1,0,1:0:0:0:
153,105,306847,1,0,1:0:0:0:
153,105,307252,5,8,3:2:0:0:
213,66,307353,1,8,3:2:0:0:
285,73,307455,1,8,3:2:0:0:
337,121,307556,1,8,3:2:0:0:
350,191,307657,1,8,3:2:0:0:
320,257,307759,1,8,3:2:0:0:
256,292,307860,6,0,L|22:258,1,215.999987686158,4|0,0:0|0:0,0:0:0:0:
42,260,308671,1,2,0:0:0:0:
38,228,309076,1,2,0:0:0:0:
256,292,309482,5,4,0:0:0:0:
257,258,309887,1,2,0:0:0:0:
504,297,310293,5,4,0:0:0:0:
500,263,310698,1,2,0:0:0:0:
283,38,311103,5,4,0:0:0:0:
256,292,311509,1,4,0:0:0:0:
118,24,311914,5,4,0:0:0:0:
141,309,312320,1,4,0:0:0:0:
438,158,312725,6,0,L|317:173,1,107.999993843079,4|0,0:0|0:0,0:0:0:0:
230,100,313130,2,0,L|109:115,1,107.999993843079,2|0,0:0|0:0,0:0:0:0:
37,216,313536,2,0,L|158:231,1,107.999993843079,2|0,0:0|0:0,0:0:0:0:
223,324,313941,2,0,L|344:339,1,107.999993843079,2|0,0:0|0:0,0:0:0:0:
506,296,314347,6,0,P|439:191|306:262,1,287.999992370606,4|2,0:0|0:0,0:0:0:0:
164,371,314955,1,0,0:0:0:0:
164,371,315157,2,0,P|146:260|143:225,1,143.999996185303,2|0,0:0|0:0,0:0:0:0:
175,44,315563,1,2,0:0:0:0:
68,179,315766,1,0,0:0:0:0:
257,308,315968,6,0,L|332:328,1,71.9999980926514,4|0,0:0|0:0,0:0:0:0:
424,320,316171,1,0,3:0:0:0:
432,272,316272,1,0,3:0:0:0:
440,224,316374,1,0,3:0:0:0:
448,176,316475,1,0,3:0:0:0:
456,128,316576,1,0,3:0:0:0:
464,80,316678,1,0,3:0:0:0:
472,32,316779,5,8,3:2:0:0:
421,83,316880,1,8,3:2:0:0:
351,101,316982,1,8,3:2:0:0:
280,89,317083,1,8,3:2:0:0:
218,51,317185,2,0,L|139:63,1,71.9999980926514,12|0,3:2|0:0,0:0:0:0:
77,163,317387,2,0,P|122:152|150:154,1,71.9999980926514,8|0,3:2|0:0,0:0:0:0:
235,208,317590,6,0,B|277:223|277:223|338:218,1,89.9999976158143,6|0,0:0|0:0,0:0:0:0:
455,129,317793,2,0,B|413:114|413:114|352:119,1,89.9999976158143,6|0,0:0|0:0,0:0:0:0:
165,163,317995,2,0,B|154:206|154:206|165:266,1,89.9999976158143,6|0,0:0|0:0,0:0:0:0:
407,289,318198,2,0,B|415:244|415:244|404:201,1,89.9999976158143,6|0,0:0|0:0,0:0:0:0:
246,261,318401,6,0,P|303:198|292:281,2,215.999994277954,2|2|2,0:0|0:0|0:0,0:0:0:0:
482,61,319212,6,0,B|445:62|423:72|423:72|396:65|370:48|370:48|341:57|312:68|312:68|253:57,1,215.999994277954,4|0,3:0|0:0,0:0:0:0:
136,85,319617,2,0,L|126:13,1,71.9999980926514,2|0,0:0|0:0,0:0:0:0:
266,132,319820,2,0,L|277:55,1,71.9999980926514,0|2,0:0|0:0,0:0:0:0:
175,154,320022,5,4,3:2:0:0:
108,198,320124,1,8,3:2:0:0:
108,276,320225,1,8,3:2:0:0:
167,327,320326,1,8,3:2:0:0:
246,317,320428,1,8,3:2:0:0:
482,61,320630,5,0,3:0:0:0:
482,61,320732,1,0,3:0:0:0:
482,61,320833,2,0,P|489:109|481:179,1,89.9999976158143,4|0,1:1|0:0,0:0:0:0:
271,218,321036,1,8,0:0:0:0:
271,218,321137,2,0,P|304:142|408:145,1,179.999995231629,2|0,0:0|0:0,0:0:0:0:
479,273,321441,1,8,0:0:0:0:
471,284,321543,1,2,0:0:0:0:
461,293,321644,2,0,P|399:297|364:292,1,89.9999976158143,4|0,0:0|0:0,0:0:0:0:
234,107,321847,1,8,0:0:0:0:
234,107,321948,2,0,P|319:85|392:134,1,179.999995231629,2|0,0:0|0:0,0:0:0:0:
286,315,322252,5,8,0:0:0:0:
274,310,322353,1,8,0:0:0:0:
262,303,322455,2,0,L|187:234,1,89.9999976158143,4|0,0:0|0:0,0:0:0:0:
480,113,322657,2,0,L|463:209,1,89.9999976158143,8|0,0:0|0:0,0:0:0:0:
234,107,322860,2,0,L|255:-3,1,89.9999976158143,2|0,0:0|0:0,0:0:0:0:
464,201,323063,6,0,P|412:180|369:172,1,89.9999976158143,8|0,0:0|0:0,0:0:0:0:
108,262,323266,1,2,0:0:0:0:
108,262,323367,2,0,P|155:246|217:243,1,89.9999976158143,2|8,0:0|0:0,0:0:0:0:
381,277,323570,5,0,3:0:0:0:
326,348,323671,1,2,3:2:0:0:
240,376,323772,1,8,3:2:0:0:
150,365,323874,1,2,3:2:0:0:
73,318,323975,1,8,3:2:0:0:
39,209,324076,6,0,P|87:215|133:227,1,89.9999976158143,4|0,0:0|0:0,0:0:0:0:
330,209,324279,2,0,P|284:192|232:159,1,89.9999976158143,8|0,0:0|0:0,0:0:0:0:
108,19,324482,2,0,P|111:69|126:114,1,89.9999976158143,2|0,0:0|0:0,0:0:0:0:
261,337,324685,2,0,P|284:250|244:167,1,179.999995231629,8|2,0:0|0:0,0:0:0:0:
39,209,324989,5,0,0:0:0:0:
39,209,325090,2,0,P|22:168|24:121,1,89.9999976158143,8|0,0:0|0:0,0:0:0:0:
204,33,325293,2,0,P|249:52|280:84,1,89.9999976158143,2|0,0:0|2:0,2:0:0:0:
273,274,325495,2,0,P|229:295|179:298,1,89.9999976158143,8|0,0:0|0:0,0:0:0:0:
123,149,325698,6,0,P|174:163|235:172,1,107.999993843079,6|0,0:0|0:0,0:0:0:0:
458,170,325901,2,0,P|401:147|348:135,1,107.999993843079,6|0,0:0|0:0,0:0:0:0:
188,298,326103,2,0,P|245:290|291:256,1,107.999993843079,6|0,0:0|0:0,0:0:0:0:
382,41,326306,2,0,P|328:41|268:86,1,107.999993843079,6|0,0:0|0:0,0:0:0:0:
480,330,326509,2,0,P|510:288|509:224,1,107.999993843079,6|0,0:0|0:0,0:0:0:0:
481,82,326712,5,0,3:0:0:0:
410,138,326813,1,0,3:0:0:0:
367,216,326914,1,2,3:2:0:0:
286,261,327016,1,8,3:2:0:0:
196,261,327117,1,2,3:2:0:0:
119,213,327218,1,8,3:2:0:0:
91,126,327320,6,0,B|152:124|185:164|185:164|238:177|269:167,1,179.999995231629,4|8,0:0|0:0,0:0:0:0:
410,138,327624,2,0,B|387:174|387:174|387:212|387:212|366:258|300:268,1,179.999995231629,2|0,0:0|0:0,0:0:0:0:
163,297,327928,2,0,B|185:304|185:304|218:321|218:321|244:320|264:321,1,89.9999976158143,8|0,0:0|0:0,0:0:0:0:
478,234,328130,6,0,B|360:177|360:177|388:228,1,179.999995231629,2|8,0:0|0:0,0:0:0:0:
482,346,328435,2,0,L|294:311,1,179.999995231629,2|0,0:0|0:0,0:0:0:0:
144,268,328739,2,0,B|150:299|150:299|161:323|161:323|171:366,1,89.9999976158143,8|0,0:0|0:0,0:0:0:0:
280,191,328941,6,0,P|237:169|184:173,1,89.9999976158143,2|0,0:0|0:0,0:0:0:0:
59,289,329144,2,0,P|109:286|146:266,1,89.9999976158143,8|0,0:0|0:0,0:0:0:0:
125,70,329347,2,0,P|88:101|75:146,1,89.9999976158143,2|0,0:0|0:0,0:0:0:0:
240,268,329549,2,0,P|268:235|280:183,1,89.9999976158143,8|0,0:0|0:0,0:0:0:0:
202,42,329752,6,0,L|219:142,1,89.9999976158143,2|0,0:0|0:0,0:0:0:0:
199,334,329955,1,8,0:0:0:0:
199,334,330056,2,0,P|290:355|379:311,1,179.999995231629,2|0,0:0|0:0,0:0:0:0:
409,197,330360,1,8,0:0:0:0:
409,197,330462,1,2,0:0:0:0:
409,197,330563,6,0,L|286:193,1,107.999993843079,6|0,0:0|0:0,0:0:0:0:
109,135,330766,2,0,L|230:130,1,107.999993843079,6|0,0:0|0:0,0:0:0:0:
474,314,330968,2,0,L|345:323,1,107.999993843079,6|0,0:0|0:0,0:0:0:0:
86,209,331171,2,0,L|196:227,1,107.999993843079,6|0,0:0|0:0,0:0:0:0:
278,316,331374,6,0,P|263:110|264:46,2,269.999992847443,4|2|2,0:0|0:0|0:0,0:0:0:0:
500,77,332185,5,2,0:0:0:0:
500,77,332286,2,0,P|461:100|413:107,1,89.9999976158143,8|0,0:0|0:0,0:0:0:0:
351,163,332489,5,2,0:0:0:0:
351,163,332590,2,0,P|307:151|271:125,1,89.9999976158143,8|0,0:0|0:0,0:0:0:0:
188,111,332793,5,2,0:0:0:0:
188,111,332894,2,0,P|171:71|172:9,1,89.9999976158143,8|0,0:0|0:0,0:0:0:0:
59,317,333198,5,8,3:2:0:0:
14,239,333299,1,8,3:2:0:0:
9,148,333401,1,8,3:2:0:0:
44,65,333502,1,8,3:2:0:0:
123,24,333603,1,8,3:2:0:0:
213,24,333705,1,8,3:2:0:0:
276,110,333806,6,0,P|266:185|268:312,1,179.999995231629,4|8,0:0|0:0,0:0:0:0:
435,252,334110,1,0,0:0:0:0:
435,252,334212,2,0,P|390:234|333:232,1,89.9999976158143,2|0,0:0|0:0,0:0:0:0:
241,370,334414,2,0,P|290:370|327:351,1,89.9999976158143,8|0,0:0|0:0,0:0:0:0:
512,208,334617,2,0,P|477:176|432:166,1,89.9999976158143,2|0,0:0|0:0,0:0:0:0:
265,289,334820,2,0,L|273:190,1,89.9999976158143,8|0,0:0|0:0,0:0:0:0:
161,16,335022,2,0,L|153:114,1,89.9999976158143,2|0,0:0|0:0,0:0:0:0:
13,229,335225,5,8,0:0:0:0:
13,229,335326,2,0,P|114:210|212:231,1,179.999995231629,2|0,0:0|0:0,0:0:0:0:
300,309,335630,2,0,L|307:213,1,89.9999976158143,8|0,0:0|0:0,0:0:0:0:
322,100,335833,1,2,0:0:0:0:
322,100,335935,1,0,0:0:0:0:
322,100,336036,2,0,P|270:98|223:108,1,89.9999976158143,8|0,0:0|0:0,0:0:0:0:
106,193,336239,2,0,P|165:206|199:231,1,89.9999976158143,2|0,0:0|0:0,0:0:0:0:
385,325,336441,2,0,P|340:306|291:311,1,89.9999976158143,8|0,0:0|0:0,0:0:0:0:
117,363,336644,2,0,P|60:360|28:349,1,89.9999976158143,2|0,0:0|0:0,0:0:0:0:
96,103,336847,2,0,L|107:209,1,89.9999976158143,8|0,0:0|0:0,0:0:0:0:
218,384,337049,6,0,B|227:282,1,89.9999976158143,2|0,0:0|0:0,0:0:0:0:
181,115,337252,1,8,0:0:0:0:
181,115,337353,2,0,P|265:132|276:225,1,179.999995231629,2|0,0:0|0:0,0:0:0:0:
78,277,337657,2,0,P|40:253|19:203,1,89.9999976158143,8|0,0:0|0:0,0:0:0:0:
109,70,337860,2,0,P|153:82|184:124,1,89.9999976158143,2|0,0:0|0:0,0:0:0:0:
225,294,338063,2,0,L|219:385,1,89.9999976158143,8|0,0:0|0:0,0:0:0:0:
415,271,338266,2,0,L|428:177,1,89.9999976158143,2|0,0:0|0:0,0:0:0:0:
274,68,338468,2,0,L|280:157,1,89.9999976158143,8|0,0:0|0:0,0:0:0:0:
333,334,338671,6,0,B|282:332|282:332|228:353,1,107.999993843079,6|0,0:0|0:0,0:0:0:0:
75,243,338874,2,0,B|75:187|75:187|49:121,1,107.999993843079,6|0,0:0|0:0,0:0:0:0:
199,21,339076,2,0,B|254:24|254:24|312:9,1,107.999993843079,6|0,0:0|0:0,0:0:0:0:
448,148,339279,5,8,3:2:0:0:
484,228,339380,1,8,3:2:0:0:
452,311,339482,1,8,3:2:0:0:
373,351,339583,1,8,3:2:0:0:
285,334,339685,1,8,3:2:0:0:
0,107,339887,5,0,3:0:0:0:
85,78,339989,1,0,3:0:0:0:
174,88,340090,1,0,3:0:0:0:
263,77,340191,1,0,3:0:0:0:
362,89,340293,6,0,P|422:134|409:237,1,179.999995231629,4|8,0:0|0:0,0:0:0:0:
330,315,340597,1,0,0:0:0:0:
330,315,340698,2,0,P|253:296|223:293,1,89.9999976158143,2|0,0:0|0:0,0:0:0:0:
112,332,340901,2,0,P|104:268|94:239,1,89.9999976158143,8|0,0:0|0:0,0:0:0:0:
3,68,341103,2,0,L|-1:160,1,89.9999976158143,2|0,0:0|0:0,0:0:0:0:
185,212,341306,2,0,L|180:119,1,89.9999976158143,8|0,0:0|0:0,0:0:0:0:
345,14,341509,2,0,L|338:114,1,89.9999976158143,2|0,0:0|0:0,0:0:0:0:
385,305,341712,1,8,0:0:0:0:
385,305,341813,6,0,P|466:335|506:246,1,179.999995231629,2|0,0:0|0:0,0:0:0:0:
412,164,342117,2,0,L|319:187,1,89.9999976158143,8|0,0:0|0:0,0:0:0:0:
242,294,342320,2,0,L|150:274,1,89.9999976158143,2|0,0:0|0:0,0:0:0:0:
17,189,342522,2,0,P|59:168|121:176,1,89.9999976158143,8|0,0:0|0:0,0:0:0:0:
254,207,342725,2,0,P|257:250|239:297,1,89.9999976158143,2|0,0:0|0:0,0:0:0:0:
35,353,342928,2,0,P|30:304|46:259,1,89.9999976158143,8|0,0:0|0:0,0:0:0:0:
141,73,343130,2,0,P|183:104|204:147,1,89.9999976158143,2|0,0:0|0:0,0:0:0:0:
328,346,343333,2,0,P|373:345|420:315,1,89.9999976158143,8|0,0:0|0:0,0:0:0:0:
352,172,343536,6,0,P|275:120|195:168,1,179.999995231629,2|8,0:0|0:0,0:0:0:0:
350,258,343840,2,0,P|385:141|501:178,1,269.999992847443,0|8,0:0|0:0,0:0:0:0:
430,224,344245,1,0,0:0:0:0:
430,224,344347,2,0,L|435:324,1,89.9999976158143,2|0,0:0|0:0,0:0:0:0:
294,384,344549,2,0,P|282:344|285:297,1,89.9999976158143,8|0,0:0|0:0,0:0:0:0:
304,101,344752,2,0,P|338:134|355:194,1,89.9999976158143,2|0,0:0|0:0,0:0:0:0:
164,293,344955,2,0,P|130:260|113:200,1,89.9999976158143,8|0,0:0|0:0,0:0:0:0:
223,23,345157,5,4,0:0:0:0:
360,332,345360,1,0,0:0:0:0:
21,165,345563,1,0,3:0:0:0:
404,50,345766,1,0,0:0:0:0:
404,50,345867,1,0,0:0:0:0:
404,50,345968,6,0,L|429:128,1,71.9999980926514,2|0,0:0|0:0,0:0:0:0:
319,253,346171,2,0,L|291:164,1,71.9999980926514,8|0,0:0|0:0,0:0:0:0:
178,111,346374,2,0,B|136:89|108:90|108:90|64:58|64:58|66:106|44:145,1,215.999994277954,4|0,0:0|0:0,0:0:0:0:
15,258,346779,6,0,B|41:282|74:323|74:323|112:301|166:295,1,179.999995231629,4|8,1:1|0:0,0:0:0:0:
319,253,347083,1,0,0:0:0:0:
319,253,347185,2,0,P|296:208|289:156,1,89.9999976158143,2|0,0:0|0:0,0:0:0:0:
199,68,347387,2,0,P|160:93|107:98,1,89.9999976158143,8|0,0:0|0:0,0:0:0:0:
26,230,347590,2,0,P|107:197|187:253,1,179.999995231629,2|8,0:0|0:0,0:0:0:0:
304,341,347894,1,0,0:0:0:0:
304,341,347995,2,0,L|319:249,1,89.9999976158143,2|0,0:0|0:0,0:0:0:0:
283,80,348198,2,0,L|291:186,1,89.9999976158143,8|0,0:0|0:0,0:0:0:0:
393,319,348401,6,0,P|457:274|453:173,1,179.999995231629,2|8,0:0|0:0,0:0:0:0:
366,63,348705,1,0,0:0:0:0:
366,63,348806,2,0,P|378:110|375:159,1,89.9999976158143,2|0,0:0|0:0,0:0:0:0:
299,269,349009,2,0,P|255:284|201:271,1,89.9999976158143,8|0,0:0|0:0,0:0:0:0:
29,168,349212,2,0,P|111:145|176:216,1,179.999995231629,2|8,0:0|0:0,0:0:0:0:
69,318,349516,1,0,0:0:0:0:
69,318,349617,2,0,L|90:231,1,89.9999976158143,2|0,0:0|0:0,0:0:0:0:
18,58,349820,2,0,L|131:71,1,89.9999976158143,8|0,0:0|0:0,0:0:0:0:
309,4,350022,6,0,P|274:29|221:36,1,89.9999976158143,6|0,0:0|0:0,0:0:0:0:
301,120,350225,2,0,P|255:123|202:109,1,89.9999976158143,8|0,0:0|0:0,0:0:0:0:
250,218,350428,2,0,P|205:209|157:181,1,89.9999976158143,2|0,0:0|0:0,0:0:0:0:
167,296,350630,2,0,P|125:276|87:237,1,89.9999976158143,8|0,0:0|0:0,0:0:0:0:
305,281,350833,6,0,P|329:242|336:185,1,89.9999976158143,2|0,0:0|0:0,0:0:0:0:
264,92,351036,2,0,P|310:93|358:125,1,89.9999976158143,8|0,0:0|0:0,0:0:0:0:
405,266,351239,2,0,P|418:219|415:161,1,89.9999976158143,2|0,0:0|0:0,0:0:0:0:
339,21,351441,2,0,P|379:36|421:85,1,89.9999976158143,8|0,0:0|0:0,0:0:0:0:
305,281,351644,6,0,L|184:261,1,107.999993843079,6|0,0:0|0:0,0:0:0:0:
95,158,351847,2,0,L|216:138,1,107.999993843079,6|0,0:0|0:0,0:0:0:0:
383,307,352049,2,0,L|262:287,1,107.999993843079,6|0,0:0|0:0,0:0:0:0:
14,156,352252,2,0,L|135:136,1,107.999993843079,6|0,0:0|0:0,0:0:0:0:
272,85,352455,2,0,B|289:139|289:139|278:207,1,107.999993843079,6|0,0:0|0:0,0:0:0:0:
156,297,352657,6,0,L|263:315,1,89.9999976158143,0|0,3:0|3:0,3:0:0:0:
345,370,352860,5,8,3:2:0:0:
435,367,352962,1,0,3:2:0:0:
489,295,353063,1,8,3:2:0:0:
472,206,353164,1,0,3:2:0:0:
389,169,353266,6,0,P|305:193|247:133,1,179.999995231629,6|8,0:0|0:0,0:0:0:0:
438,24,353570,1,0,0:0:0:0:
438,24,353671,2,0,L|451:125,1,89.9999976158143,2|0,0:0|0:0,0:0:0:0:
489,295,353874,2,0,P|444:268|379:264,1,89.9999976158143,8|0,0:0|0:0,0:0:0:0:
244,311,354076,2,0,P|306:360|404:337,1,179.999995231629,2|8,0:0|0:0,0:0:0:0:
313,197,354380,1,0,0:0:0:0:
313,197,354482,2,0,L|214:203,1,89.9999976158143,2|0,0:0|0:0,0:0:0:0:
69,90,354685,2,0,P|116:94|157:114,1,89.9999976158143,8|0,0:0|0:0,0:0:0:0:
158,319,354887,6,0,P|89:262|97:170,1,179.999995231629,2|8,0:0|0:0,0:0:0:0:
236,89,355191,1,0,0:0:0:0:
236,89,355293,2,0,L|335:98,1,89.9999976158143,2|0,0:0|0:0,0:0:0:0:
454,198,355495,2,0,P|462:154|449:112,1,89.9999976158143,8|0,0:0|0:0,0:0:0:0:
263,175,355698,2,0,P|309:246|404:251,1,179.999995231629,2|8,0:0|0:0,0:0:0:0:
390,50,356002,1,0,0:0:0:0:
390,50,356103,2,0,L|372:151,1,89.9999976158143,2|0,0:0|0:0,0:0:0:0:
481,284,356306,1,8,0:0:0:0:
481,284,356407,1,0,0:0:0:0:
481,284,356509,6,0,L|434:383,1,107.999993843079,6|0,0:0|0:0,0:0:0:0:
351,176,356712,2,0,L|331:283,1,107.999993843079,6|0,0:0|0:0,0:0:0:0:
178,120,356914,2,0,L|186:229,1,107.999993843079,6|0,0:0|0:0,0:0:0:0:
0,200,357117,2,0,L|36:303,1,107.999993843079,6|0,0:0|0:0,0:0:0:0:
198,338,357320,6,0,B|294:402|358:274|454:338,2,269.999992847443,6|2|6,0:0|0:0|0:0,0:0:0:0:
257,87,358130,5,0,3:0:0:0:
427,33,358333,1,0,3:0:0:0:
312,167,358536,5,8,3:2:0:0:
306,184,358637,1,8,3:2:0:0:
306,202,358739,1,0,3:2:0:0:
311,219,358840,1,0,3:2:0:0:
318,235,358941,6,0,P|311:312|263:229,2,215.999994277954,4|4|4,0:0|0:0|0:0,0:0:0:0:
