osu file format v14

[General]
AudioFilename: Meramipop - Cirno, Q.mp3
AudioLeadIn: 0
PreviewTime: 81761
Countdown: 0
SampleSet: Soft
StackLeniency: 0.7
Mode: 0
LetterboxInBreaks: 0
EpilepsyWarning: 1
WidescreenStoryboard: 0

[Editor]
Bookmarks: 26904,38218,43704,49190,60161,71132,82104,104047,117761,120504
DistanceSpacing: 0.5
BeatDivisor: 4
GridSize: 16
TimelineZoom: 2

[Metadata]
Title:Cirno, Q?
TitleUnicode:Cirno, Q?
Artist:Meramipop
ArtistUnicode:めらみぽっぷ
Creator:-Tochi
Version:Seikatsu
Source:東方Project
Tags:Touhou 求 凋叶棕 RD-Sounds Reitaisai 12 Mako Sakata smsh150 Saut the Embodiment of Scarlet Devil Short Version
BeatmapID:878771
BeatmapSetID:394015

[Difficulty]
HPDrainRate:6
CircleSize:4
OverallDifficulty:8.2
ApproachRate:9.3
SliderMultiplier:2
SliderTickRate:2

[Events]
//Background and Video events
0,0,"BG.jpg",0,0
//Break Periods
//Storyboard Layer 0 (Background)
//Storyboard Layer 1 (Fail)
//Storyboard Layer 2 (Pass)
//Storyboard Layer 3 (Foreground)
//Storyboard Sound Samples

[TimingPoints]
1190,342.857142857143,4,2,0,20,1,0
26904,-200,4,2,0,20,0,0
27161,-200,4,2,0,5,0,0
27247,-125,4,2,2,30,0,0
37018,-125,4,2,1,30,0,0
37275,-125,4,2,2,5,0,0
37361,-100,4,2,1,30,0,0
37618,-100,4,2,2,5,0,0
37704,-100,4,2,3,30,0,0
38218,-100,4,2,1,45,0,0
38990,-100,4,2,1,5,0,0
39075,-100,4,2,1,45,0,0
39161,-100,4,2,1,5,0,0
39247,-100,4,2,1,45,0,0
39675,-100,4,2,1,5,0,0
39761,-100,4,2,1,45,0,0
39847,-100,4,2,1,5,0,0
39933,-100,4,2,1,45,0,0
41733,-100,4,2,1,5,0,0
41818,-100,4,2,1,45,0,0
41904,-100,4,2,1,5,0,0
41990,-83.3333333333333,4,2,1,45,0,0
42333,-100,4,2,1,45,0,0
44475,-100,4,2,1,5,0,0
44561,-100,4,2,1,45,0,0
44647,-100,4,2,1,5,0,0
44733,-100,4,2,1,45,0,0
47218,-100,4,2,1,5,0,0
47304,-100,4,2,1,45,0,0
47390,-100,4,2,1,5,0,0
47475,-83.3333333333333,4,2,1,45,0,0
47818,-100,4,2,1,45,0,0
49961,-100,4,2,1,5,0,0
50047,-100,4,2,1,45,0,0
50133,-100,4,2,1,5,0,0
50218,-100,4,2,1,45,0,0
50647,-100,4,2,1,5,0,0
50733,-100,4,2,1,45,0,0
50818,-100,4,2,1,5,0,0
50904,-100,4,2,1,45,0,0
54075,-100,4,2,1,5,0,0
54161,-100,4,2,1,45,0,0
54247,-100,4,2,1,5,0,0
54333,-100,4,2,1,45,0,0
56733,-100,4,2,1,45,0,0
56819,-100,4,2,1,5,0,0
56904,-100,4,2,1,45,0,0
56990,-100,4,2,1,5,0,0
57076,-100,4,2,1,45,0,0
60161,-76.9230769230769,4,2,2,45,0,0
62904,-76.9230769230769,4,2,4,45,0,0
64104,-76.9230769230769,4,2,2,45,0,0
64276,-76.9230769230769,4,3,2,45,0,0
65219,-76.9230769230769,4,3,2,45,0,0
65647,-76.9230769230769,4,2,2,45,0,0
67018,-100,4,2,2,45,0,0
67104,-100,4,2,2,5,0,0
67190,-100,4,2,2,45,0,0
67276,-100,4,2,2,5,0,0
67361,-100,4,2,4,45,0,0
67447,-100,4,2,4,5,0,0
67533,-100,4,2,4,45,0,0
67619,-100,4,2,4,5,0,0
67704,-100,4,2,4,45,0,0
68390,-76.9230769230769,4,2,1,45,0,0
69590,-76.9230769230769,4,2,2,45,0,0
69761,-76.9230769230769,4,2,4,45,0,0
71133,-76.9230769230769,4,2,2,45,0,0
72504,-76.9230769230769,4,2,1,45,0,0
73533,-76.9230769230769,4,2,4,45,0,0
73876,-76.9230769230769,4,2,1,45,0,0
74904,-76.9230769230769,4,2,2,45,0,0
75761,-76.9230769230769,4,2,4,45,0,0
76619,-76.9230769230769,4,2,2,45,0,0
78161,-76.9230769230769,4,2,1,45,0,0
79019,-76.9230769230769,4,2,4,45,0,0
79361,-76.9230769230769,4,2,2,45,0,0
79447,-76.9230769230769,4,2,2,5,0,0
79533,-76.9230769230769,4,2,2,45,0,0
79619,-76.9230769230769,4,2,2,5,0,0
79704,-100,4,2,2,45,0,0
80904,-76.9230769230769,4,2,1,45,0,0
82104,-86.9565217391304,4,2,2,50,0,1
84247,-86.9565217391304,4,2,2,5,0,1
84332,-86.9565217391304,4,2,2,50,0,1
84418,-86.9565217391304,4,2,2,5,0,1
84504,-86.9565217391304,4,2,2,50,0,1
85618,-86.9565217391304,4,2,2,5,0,1
85704,-86.9565217391304,4,2,2,50,0,1
85790,-86.9565217391304,4,2,2,5,0,1
85875,-86.9565217391304,4,2,2,50,0,1
86304,-86.9565217391304,4,2,2,5,0,1
86390,-86.9565217391304,4,2,2,50,0,1
86475,-86.9565217391304,4,2,2,5,0,1
86561,-86.9565217391304,4,2,2,50,0,1
88361,-86.9565217391304,4,2,2,5,0,1
88447,-86.9565217391304,4,2,2,50,0,1
88532,-86.9565217391304,4,2,2,5,0,1
88618,-86.9565217391304,4,2,2,50,0,1
90333,-76.9230769230769,4,2,2,50,0,1
90590,-76.9230769230769,4,2,2,5,0,1
90675,-100,4,2,2,50,0,1
90933,-100,4,2,2,5,0,1
91019,-100,4,2,2,50,0,1
91704,-86.9565217391304,4,2,2,50,0,1
91790,-86.9565217391304,4,2,2,5,0,1
91875,-86.9565217391304,4,2,2,50,0,1
91961,-86.9565217391304,4,2,2,5,0,1
92047,-86.9565217391304,4,2,2,50,0,1
92132,-86.9565217391304,4,2,2,5,0,1
92218,-86.9565217391304,4,2,2,50,0,1
93847,-86.9565217391304,4,2,2,5,0,1
93932,-86.9565217391304,4,2,2,50,0,1
94018,-86.9565217391304,4,2,2,8,0,1
94104,-86.9565217391304,4,2,2,50,0,1
95218,-86.9565217391304,4,2,2,5,0,1
95304,-86.9565217391304,4,2,2,50,0,1
95390,-86.9565217391304,4,2,2,5,0,1
95475,-86.9565217391304,4,2,2,50,0,1
97447,-86.9565217391304,4,2,2,5,0,1
97532,-86.9565217391304,4,2,2,50,0,1
100704,-86.9565217391304,4,2,2,5,0,1
100790,-86.9565217391304,4,2,2,50,0,1
100875,-86.9565217391304,4,2,2,5,0,1
100961,-86.9565217391304,4,2,2,50,0,1
104047,-100,4,2,1,45,0,0
105504,-100,4,2,1,5,0,0
105590,-100,4,2,1,45,0,0
105676,-100,4,2,1,5,0,0
105761,-100,4,2,1,45,0,0
106876,-100,4,2,1,5,0,0
106961,-100,4,2,1,45,0,0
107047,-100,4,2,1,5,0,0
107133,-100,4,2,1,45,0,0
110990,-100,4,2,1,5,0,0
111076,-100,4,2,1,45,0,0
111161,-100,4,2,1,5,0,0
111247,-100,4,2,1,45,0,0
113047,-100,4,2,1,5,0,0
113133,-100,4,2,1,45,0,0
113219,-100,4,2,1,5,0,0
113304,-100,4,2,1,45,0,0
113390,-100,4,2,1,5,0,0
113476,-100,4,2,1,45,0,0
115790,-100,4,2,1,5,0,0
115876,-100,4,2,1,45,0,0
115961,-100,4,2,1,5,0,0
116047,-100,4,2,1,45,0,0
117418,-100,4,2,2,45,0,0
117761,-200,4,2,1,45,0,0
119133,-200,4,2,2,45,0,0
119475,-200,4,2,2,30,0,0
119818,-200,4,2,2,35,0,0
120161,-200,4,2,2,20,0,0

[Colours]
Combo1 : 82,196,228
Combo2 : 120,139,218
Combo3 : 78,88,220
Combo4 : 136,210,201

[HitObjects]
159,216,26904,6,0,B|195:208|195:208|235:217,1,75
252,224,27247,5,4,0:0:0:0:
213,118,27933,5,0,0:0:0:0:
252,224,28104,1,0,0:0:0:0:
178,73,28618,5,0,0:0:0:0:
143,238,28961,1,0,0:0:0:0:
178,73,29304,5,0,0:0:0:0:
143,238,29475,1,0,0:0:0:0:
312,162,29990,5,0,0:0:0:0:
143,238,30675,5,0,0:0:0:0:
312,162,30847,1,0,0:0:0:0:
126,167,31361,5,0,0:0:0:0:
307,145,31704,1,0,0:0:0:0:
126,167,32047,5,0,0:0:0:0:
307,145,32218,1,0,0:0:0:0:
126,167,32390,5,0,0:0:0:0:
126,167,32475,1,0,0:0:0:0:
126,167,32561,1,0,0:0:0:0:
126,167,32647,1,0,0:0:0:0:
126,167,32733,5,0,0:0:0:0:
146,311,33418,5,0,0:0:0:0:
126,167,33590,1,0,0:0:0:0:
272,156,34104,5,0,0:0:0:0:
261,313,34447,1,0,0:0:0:0:
272,156,34790,5,0,0:0:0:0:
261,313,34961,1,0,0:0:0:0:
407,170,35475,5,0,0:0:0:0:
388,316,36161,5,0,0:0:0:0:
407,170,36333,1,0,0:0:0:0:
304,163,37018,6,0,P|353:192|407:170,1,120,4|0,0:0|0:0,0:0:0:0:
280,88,37361,6,0,P|237:120|249:215,1,150,4|0,0:0|0:0,0:0:0:0:
307,257,37704,5,8,0:0:0:0:
353,273,37790,1,8,0:0:0:0:
397,252,37875,1,8,0:0:0:0:
414,206,37961,1,8,0:0:0:0:
394,162,38047,1,8,0:0:0:0:
349,144,38133,1,8,0:0:0:0:
304,162,38218,6,0,P|294:208|300:273,1,100,2|2,0:0|0:0,0:0:0:0:
181,367,38561,1,8,0:0:0:0:
112,196,38733,1,2,0:0:0:0:
112,196,38818,1,2,0:0:0:0:
112,196,38904,2,0,L|167:199,1,50,2|0,0:0|0:0,0:0:0:0:
224,280,39075,2,0,L|273:274,1,50,2|0,0:0|0:0,0:0:0:0:
338,191,39247,1,8,0:0:0:0:
206,58,39418,1,0,0:0:0:0:
206,58,39504,1,8,0:0:0:0:
206,58,39590,6,0,L|145:62,1,50,2|0,0:0|0:0,0:0:0:0:
78,155,39761,2,0,L|134:159,1,50,2|0,0:0|0:0,0:0:0:0:
210,232,39933,1,10,0:0:0:0:
242,218,40018,1,2,0:0:0:0:
276,213,40104,1,2,0:0:0:0:
311,218,40190,1,2,0:0:0:0:
343,232,40275,6,0,L|350:124,1,100,2|2,0:0|0:0,0:0:0:0:
208,35,40618,1,10,0:0:0:0:
207,44,40704,1,2,0:0:0:0:
206,53,40790,1,2,0:0:0:0:
205,62,40875,1,2,0:0:0:0:
204,72,40961,5,2,0:0:0:0:
54,100,41132,1,2,0:0:0:0:
203,81,41304,1,0,0:0:0:0:
185,228,41475,1,2,0:0:0:0:
185,228,41561,1,2,0:0:0:0:
185,228,41647,2,0,L|238:224,1,50,2|0,0:0|0:0,0:0:0:0:
298,138,41818,2,0,L|350:142,1,50,2|0,0:0|0:0,0:0:0:0:
456,208,41990,6,0,P|464:299|380:333,1,179.999994506836,8|8,0:0|0:0,0:0:0:0:
301,270,42333,6,0,P|347:252|396:258,1,100,2|2,0:0|0:0,0:0:0:0:
257,354,42675,1,10,0:0:0:0:
229,332,42761,1,2,0:0:0:0:
212,302,42847,1,2,0:0:0:0:
209,267,42933,1,2,0:0:0:0:
219,234,43018,2,0,L|330:234,1,100,2|8,0:0|0:0,0:0:0:0:
376,143,43275,1,8,0:0:0:0:
376,143,43361,2,0,L|322:140,1,50,8|8,0:0|0:0,0:0:0:0:
218,212,43533,2,0,L|267:209,1,50,8|8,0:0|0:0,0:0:0:0:
381,113,43704,6,0,L|280:107,1,100,2|2,0:0|0:0,0:0:0:0:
126,157,44047,1,8,0:0:0:0:
212,302,44218,1,2,0:0:0:0:
212,302,44304,1,2,0:0:0:0:
212,302,44390,2,0,L|221:243,1,50,2|0,0:0|0:0,0:0:0:0:
317,217,44561,2,0,L|306:156,1,50,2|0,0:0|0:0,0:0:0:0:
211,112,44733,5,8,0:0:0:0:
212,87,44818,1,0,0:0:0:0:
213,62,44904,1,0,0:0:0:0:
215,37,44990,1,8,0:0:0:0:
216,12,45075,5,2,0:0:0:0:
76,5,45247,1,2,0:0:0:0:
118,172,45418,1,8,0:0:0:0:
216,12,45590,1,2,0:0:0:0:
317,217,45761,1,2,0:0:0:0:
168,100,45933,1,0,0:0:0:0:
384,177,46104,5,10,0:0:0:0:
395,224,46190,1,2,0:0:0:0:
375,269,46275,1,2,0:0:0:0:
332,292,46361,1,2,0:0:0:0:
283,284,46447,6,0,P|260:242|254:185,1,100,2|2,0:0|0:0,0:0:0:0:
329,57,46790,1,8,0:0:0:0:
253,191,46961,1,2,0:0:0:0:
253,191,47047,1,2,0:0:0:0:
253,191,47133,2,0,L|188:184,1,50,2|0,0:0|0:0,0:0:0:0:
121,92,47304,2,0,L|173:88,1,50,2|0,0:0|0:0,0:0:0:0:
287,35,47475,6,0,P|343:60|334:171,1,179.999994506836,8|8,0:0|0:0,0:0:0:0:
196,139,47818,6,0,P|235:110|285:111,1,100,2|2,0:0|0:0,0:0:0:0:
342,256,48161,1,10,0:0:0:0:
303,284,48247,1,2,0:0:0:0:
256,271,48333,1,2,0:0:0:0:
237,227,48418,1,2,0:0:0:0:
258,184,48504,6,0,P|281:178|312:179,1,50,2|2,0:0|0:0,0:0:0:0:
407,81,48675,2,0,P|381:83|351:80,1,50,2|2,0:0|0:0,0:0:0:0:
249,25,48847,2,0,P|224:24|199:30,1,50,10|2,0:0|0:0,0:0:0:0:
121,128,49018,1,10,0:0:0:0:
121,128,49104,1,10,0:0:0:0:
121,128,49190,6,0,P|128:184|122:237,1,100,2|2,0:0|0:0,0:0:0:0:
208,334,49533,1,8,0:0:0:0:
307,167,49704,1,2,0:0:0:0:
307,167,49790,1,2,0:0:0:0:
307,167,49875,2,0,L|309:226,1,50,2|0,0:0|0:0,0:0:0:0:
421,313,50047,2,0,L|419:260,1,50,2|0,0:0|0:0,0:0:0:0:
496,160,50218,5,8,0:0:0:0:
492,130,50304,1,0,0:0:0:0:
489,100,50390,1,2,0:0:0:0:
486,70,50475,1,8,0:0:0:0:
483,40,50561,6,0,L|429:43,1,50,2|0,0:0|0:0,0:0:0:0:
375,118,50733,2,0,L|321:121,1,50,2|0,0:0|0:0,0:0:0:0:
238,160,50904,1,8,0:0:0:0:
381,290,51075,1,2,0:0:0:0:
381,290,51161,1,2,0:0:0:0:
381,290,51247,5,2,0:0:0:0:
400,245,51333,1,2,0:0:0:0:
381,201,51418,1,2,0:0:0:0:
335,184,51504,1,2,0:0:0:0:
292,207,51590,5,10,0:0:0:0:
313,155,51675,1,10,0:0:0:0:
292,105,51761,1,10,0:0:0:0:
239,86,51847,1,10,0:0:0:0:
191,112,51933,6,0,P|181:163|183:211,1,100,2|2,0:0|0:0,0:0:0:0:
291,348,52275,1,8,0:0:0:0:
362,186,52447,1,2,0:0:0:0:
182,210,52618,5,2,0:0:0:0:
364,161,52790,1,2,0:0:0:0:
173,188,52961,6,0,L|327:187,1,150,8|8,0:0|0:0,0:0:0:0:
386,271,53304,2,0,L|275:269,1,100,2|2,0:0|0:0,0:0:0:0:
142,200,53647,1,10,0:0:0:0:
123,149,53733,1,2,0:0:0:0:
144,100,53818,1,2,0:0:0:0:
194,81,53904,1,2,0:0:0:0:
243,102,53990,6,0,L|250:165,1,50,2|0,0:0|0:0,0:0:0:0:
333,215,54161,2,0,L|328:273,1,50,2|0,0:0|0:0,0:0:0:0:
254,346,54333,1,8,0:0:0:0:
127,214,54504,1,0,0:0:0:0:
127,214,54590,1,8,0:0:0:0:
127,214,54675,5,2,0:0:0:0:
243,102,54847,1,2,0:0:0:0:
243,102,55018,1,8,0:0:0:0:
127,214,55190,5,2,0:0:0:0:
313,198,55361,1,2,0:0:0:0:
313,198,55533,1,2,0:0:0:0:
127,214,55704,5,8,0:0:0:0:
349,95,55875,1,2,0:0:0:0:
221,257,56047,5,2,0:0:0:0:
349,95,56218,1,2,0:0:0:0:
243,274,56390,1,8,0:0:0:0:
257,50,56561,1,2,0:0:0:0:
257,50,56647,1,2,0:0:0:0:
257,50,56733,6,0,P|264:77|261:107,1,50,2|0,0:0|0:0,0:0:0:0:
343,120,56904,2,0,P|332:145|312:168,1,50,2|0,0:0|0:0,0:0:0:0:
371,227,57075,2,0,P|347:242|318:248,1,50,10|0,0:0|0:0,0:0:0:0:
192,216,57247,1,2,0:0:0:0:
192,216,57333,1,10,0:0:0:0:
192,216,57418,6,0,P|194:165|189:113,1,100
61,14,57761,1,8,0:0:0:0:
6,200,57933,1,0,0:0:0:0:
6,200,58018,1,0,0:0:0:0:
6,200,58104,1,0,0:0:0:0:
98,48,58275,1,0,0:0:0:0:
192,216,58447,1,8,0:0:0:0:
6,200,58618,1,0,0:0:0:0:
6,200,58704,1,8,0:0:0:0:
6,200,58790,1,0,0:0:0:0:
135,82,58961,5,0,0:0:0:0:
188,265,59133,1,8,0:0:0:0:
280,56,59304,1,0,0:0:0:0:
287,85,59390,1,0,0:0:0:0:
294,114,59475,1,0,0:0:0:0:
122,153,59647,5,8,0:0:0:0:
167,174,59733,1,8,0:0:0:0:
192,216,59818,1,8,0:0:0:0:
188,265,59904,1,8,0:0:0:0:
158,303,59990,1,8,0:0:0:0:
111,317,60075,1,8,0:0:0:0:
64,302,60161,6,0,P|30:252|37:186,1,129.999994049073,4|0,0:0|0:0,0:0:0:0:
97,115,60418,2,0,B|145:99|193:131|241:115,1,129.999994049073
315,102,60675,1,0,0:0:0:0:
120,228,60847,1,0,0:0:0:0:
120,228,60933,2,0,P|186:211|247:244,1,129.999994049073
254,335,61190,2,0,P|200:357|176:304,1,129.999994049073,8|0,0:0|0:0,0:0:0:0:
239,236,61447,1,0,0:0:0:0:
239,236,61533,6,0,P|298:257|361:229,1,129.999994049073
320,45,61875,1,8,0:0:0:0:
296,68,61961,1,0,0:0:0:0:
283,97,62047,1,0,0:0:0:0:
283,129,62133,1,0,0:0:0:0:
294,159,62218,1,0,0:0:0:0:
171,33,62390,1,0,0:0:0:0:
68,173,62561,5,8,0:0:0:0:
112,180,62647,1,8,0:0:0:0:
144,212,62733,1,8,0:0:0:0:
152,256,62818,1,8,0:0:0:0:
135,297,62904,6,0,P|70:318|14:279,1,129.999994049073
20,288,63161,1,0,0:0:0:0:
20,288,63247,1,0,0:0:0:0:
100,101,63418,1,0,0:0:0:0:
82,241,63590,1,0,0:0:0:0:
12,64,63761,1,0,0:0:0:0:
187,156,63933,1,8,0:0:0:0:
0,185,64104,1,0,0:0:0:0:
0,185,64190,1,0,0:0:0:0:
0,185,64275,5,0,0:0:0:0:
35,168,64361,1,0,0:0:0:0:
73,163,64447,1,0,0:0:0:0:
110,173,64533,1,0,0:0:0:0:
141,196,64618,5,8,0:0:0:0:
199,217,64704,1,0,0:0:0:0:
246,177,64790,1,0,0:0:0:0:
235,116,64875,1,0,0:0:0:0:
176,95,64961,5,2,0:0:0:0:
121,147,65047,1,2,0:0:0:0:
123,223,65133,1,2,0:0:0:0:
181,272,65218,1,2,0:0:0:0:
256,262,65304,2,0,P|286:255|328:262,1,64.9999970245363,8|8,0:0|0:0,0:0:0:0:
425,167,65475,2,0,P|395:174|353:167,1,64.9999970245363,8|8,0:0|0:0,0:0:0:0:
197,184,65647,5,4,0:0:0:0:
390,94,65818,2,0,P|312:51|263:125,1,194.999991073609
298,238,66161,2,0,B|339:227|339:227|427:238,1,129.999994049073
390,121,66418,2,0,P|327:133|263:125,1,129.999994049073
170,242,66675,2,0,P|233:229|297:238,1,129.999994049073,8|0,0:0|0:0,0:0:0:0:
317,338,66933,1,0,0:0:0:0:
298,352,67018,6,0,P|273:354|246:351,1,50
140,271,67190,2,0,P|165:274|195:270,1,50
313,182,67361,2,0,P|289:184|262:181,1,50,8|0,0:0|0:0,0:0:0:0:
127,94,67533,2,0,P|150:96|178:93,1,50
321,70,67704,1,0,0:0:0:0:
305,272,67875,1,0,0:0:0:0:
191,127,68047,5,0,0:0:0:0:
128,121,68133,1,0,0:0:0:0:
87,168,68218,1,0,0:0:0:0:
100,229,68304,1,0,0:0:0:0:
158,254,68390,5,0,0:0:0:0:
342,95,68561,1,0,0:0:0:0:
161,16,68732,1,8,0:0:0:0:
248,182,68904,1,0,0:0:0:0:
248,182,68990,1,0,0:0:0:0:
248,182,69075,6,0,P|278:188|319:175,1,64.9999970245363
370,26,69247,2,0,P|340:20|299:33,1,64.9999970245363
218,90,69418,1,8,0:0:0:0:
374,269,69590,1,0,0:0:0:0:
374,269,69675,1,0,0:0:0:0:
374,269,69761,5,0,0:0:0:0:
326,234,69847,1,0,0:0:0:0:
267,230,69933,1,0,0:0:0:0:
218,263,70018,1,0,0:0:0:0:
187,312,70104,5,10,0:0:0:0:
130,327,70190,1,2,0:0:0:0:
73,311,70275,1,2,0:0:0:0:
48,258,70361,1,2,0:0:0:0:
69,203,70447,1,2,0:0:0:0:
121,176,70533,1,2,0:0:0:0:
176,194,70618,1,2,0:0:0:0:
211,239,70704,1,2,0:0:0:0:
267,255,70790,2,0,L|338:251,1,64.9999970245363,10|10,0:0|0:0,0:0:0:0:
398,101,70961,2,0,L|333:104,1,64.9999970245363,10|10,0:0|0:0,0:0:0:0:
253,345,71133,6,0,L|388:336,1,129.999994049073,6|0,0:0|0:0,0:0:0:0:
396,174,71390,2,0,L|264:181,1,129.999994049073
176,194,71647,1,2,0:0:0:0:
253,345,71818,1,2,0:0:0:0:
396,174,71990,1,2,0:0:0:0:
396,174,72075,1,0,0:0:0:0:
396,174,72161,1,8,0:0:0:0:
180,264,72333,5,2,0:0:0:0:
218,271,72418,1,2,0:0:0:0:
256,277,72504,2,0,P|296:220|279:155,1,129.999994049073,2|2,0:0|0:0,0:0:0:0:
72,37,72847,5,10,0:0:0:0:
208,204,73018,1,2,0:0:0:0:
72,37,73190,5,2,0:0:0:0:
106,302,73361,1,2,0:0:0:0:
200,98,73533,5,8,0:0:0:0:
251,61,73618,1,0,0:0:0:0:
311,79,73704,1,0,0:0:0:0:
334,138,73790,1,0,0:0:0:0:
301,192,73875,6,0,P|239:205|170:188,1,129.999994049073,2|0,0:0|0:0,0:0:0:0:
175,190,74133,1,0,0:0:0:0:
175,190,74218,1,8,0:0:0:0:
299,0,74390,1,2,0:0:0:0:
299,0,74475,1,2,0:0:0:0:
299,0,74561,1,2,0:0:0:0:
390,249,74733,1,2,0:0:0:0:
242,82,74904,1,8,0:0:0:0:
348,330,75075,5,2,0:0:0:0:
397,342,75161,1,2,0:0:0:0:
446,325,75247,1,2,0:0:0:0:
477,284,75333,1,2,0:0:0:0:
481,233,75418,2,0,P|478:198|457:162,1,64.9999970245363,2|2,0:0|0:0,0:0:0:0:
376,79,75590,1,10,0:0:0:0:
277,260,75761,5,0,0:0:0:0:
223,291,75847,1,0,0:0:0:0:
170,260,75933,1,0,0:0:0:0:
173,198,76018,1,0,0:0:0:0:
229,171,76104,5,8,0:0:0:0:
202,169,76190,1,8,0:0:0:0:
175,167,76275,1,8,0:0:0:0:
149,165,76361,1,8,0:0:0:0:
122,163,76447,1,8,0:0:0:0:
95,161,76533,1,8,0:0:0:0:
68,159,76618,6,0,P|39:213|59:277,1,129.999994049073,2|0,0:0|0:0,0:0:0:0:
124,316,76875,1,0,0:0:0:0:
246,127,77047,1,0,0:0:0:0:
246,127,77133,2,0,P|310:109|368:153,1,129.999994049073,2|0,0:0|0:0,0:0:0:0:
338,282,77390,2,0,P|287:246|299:186,1,129.999994049073
360,140,77647,1,2,0:0:0:0:
425,319,77818,6,0,P|387:313|354:319,1,64.9999970245363
225,250,77990,2,0,P|257:253|288:247,1,64.9999970245363
381,162,78161,1,0,0:0:0:0:
170,37,78333,1,0,0:0:0:0:
254,165,78504,1,0,0:0:0:0:
254,165,78590,1,0,0:0:0:0:
254,165,78675,1,0,0:0:0:0:
170,37,78847,1,0,0:0:0:0:
103,230,79018,5,0,0:0:0:0:
103,230,79104,1,0,0:0:0:0:
103,230,79190,1,0,0:0:0:0:
103,230,79275,1,0,0:0:0:0:
103,230,79361,6,0,L|168:226,1,64.9999970245363,2|0,0:0|0:0,0:0:0:0:
310,130,79533,2,0,L|245:126,1,64.9999970245363
122,118,79704,1,0,0:0:0:0:
265,298,79875,1,2,0:0:0:0:
338,127,80047,1,0,0:0:0:0:
103,230,80218,5,2,0:0:0:0:
357,205,80390,1,0,0:0:0:0:
191,22,80561,2,0,P|180:78|184:120,1,100,2|0,0:0|0:0,0:0:0:0:
225,245,80904,5,2,0:0:0:0:
267,274,80990,1,2,0:0:0:0:
319,274,81075,1,2,0:0:0:0:
361,246,81161,1,2,0:0:0:0:
381,198,81247,1,2,0:0:0:0:
372,148,81333,1,2,0:0:0:0:
336,112,81418,5,2,0:0:0:0:
286,154,81504,1,2,0:0:0:0:
265,214,81590,1,2,0:0:0:0:
289,273,81675,1,2,0:0:0:0:
346,301,81761,5,10,0:0:0:0:
415,279,81847,1,10,0:0:0:0:
456,222,81933,1,10,0:0:0:0:
443,154,82018,1,10,0:0:0:0:
385,116,82104,6,0,L|270:118,1,115.000002193451,4|0,0:0|0:0,0:0:0:0:
146,226,82447,1,8,0:0:0:0:
308,346,82618,1,2,0:0:0:0:
308,334,82704,1,2,0:0:0:0:
308,322,82790,1,2,0:0:0:0:
270,117,82961,1,2,0:0:0:0:
270,129,83047,1,2,0:0:0:0:
270,141,83132,1,10,0:0:0:0:
414,260,83304,1,2,0:0:0:0:
414,260,83390,1,0,0:0:0:0:
414,260,83475,6,0,B|428:216|428:216|417:138,1,115.000002193451
305,32,83818,1,8,0:0:0:0:
223,248,83990,1,2,0:0:0:0:
223,248,84075,1,0,0:0:0:0:
223,248,84161,2,0,L|284:245,1,57.5000010967255
418,147,84333,2,0,L|357:144,1,57.5000010967255,2|0,0:0|0:0,0:0:0:0:
232,71,84504,1,8,0:0:0:0:
203,273,84675,1,2,0:0:0:0:
203,273,84761,1,2,0:0:0:0:
203,273,84847,6,0,L|85:266,1,115.000002193451
37,169,85104,1,0,0:0:0:0:
55,145,85190,2,0,B|116:152|116:152|171:136,1,115.000002193451,8|2,0:0|0:0,0:0:0:0:
328,227,85533,2,0,P|323:262|301:289,1,57.5000010967255
365,337,85704,2,0,P|334:355|300:356,1,57.5000010967255,2|0,0:0|0:0,0:0:0:0:
190,366,85875,2,0,P|173:311|180:249,1,115.000002193451,8|2,0:0|0:0,0:0:0:0:
238,165,86133,1,0,0:0:0:0:
238,165,86218,6,0,P|272:165|302:173,1,57.5000010967255
367,276,86390,2,0,P|331:281|299:277,1,57.5000010967255,2|0,0:0|0:0,0:0:0:0:
202,240,86561,1,8,0:0:0:0:
105,351,86733,1,2,0:0:0:0:
105,351,86818,1,0,0:0:0:0:
105,351,86904,2,0,P|80:288|101:239,1,115.000002193451
241,128,87247,1,8,0:0:0:0:
158,294,87418,1,0,0:0:0:0:
38,88,87590,6,0,P|106:107|202:80,1,172.500003290176,2|0,0:0|0:0,0:0:0:0:
201,80,87933,1,8,0:0:0:0:
205,256,88104,1,2,0:0:0:0:
209,246,88190,1,0,0:0:0:0:
213,236,88275,2,0,P|245:242|277:237,1,57.5000010967255
380,136,88447,2,0,P|348:142|316:137,1,57.5000010967255,2|0,0:0|0:0,0:0:0:0:
201,80,88618,1,8,0:0:0:0:
440,72,88790,1,2,0:0:0:0:
465,110,88875,1,0,0:0:0:0:
465,155,88961,6,0,P|403:169|334:158,1,115.000002193451,0|2,0:0|0:0,0:0:0:0:
283,136,89218,1,0,0:0:0:0:
283,136,89304,1,8,0:0:0:0:
388,291,89475,1,2,0:0:0:0:
396,66,89647,1,0,0:0:0:0:
178,233,89818,1,2,0:0:0:0:
352,163,89990,1,8,0:0:0:0:
137,5,90161,1,0,0:0:0:0:
137,5,90247,1,0,0:0:0:0:
137,5,90333,6,0,P|70:57|133:133,1,194.999991073609,2|0,0:0|0:0,0:0:0:0:
275,71,90675,6,0,B|204:90|204:90|131:68,1,150,10|0,0:0|0:0,0:0:0:0:
47,85,91018,1,2,0:0:0:0:
126,250,91190,1,2,0:0:0:0:
275,71,91361,1,8,0:0:0:0:
340,246,91533,1,2,0:0:0:0:
340,246,91618,1,2,0:0:0:0:
340,246,91704,6,0,P|309:253|277:250,1,57.5000010967255,2|0,0:0|0:0,0:0:0:0:
141,168,91875,2,0,P|172:175|204:172,1,57.5000010967255
340,90,92047,2,0,P|309:97|277:94,1,57.5000010967255,2|0,0:0|0:0,0:0:0:0:
154,58,92218,1,0,0:0:0:0:
97,278,92390,1,2,0:0:0:0:
98,272,92475,1,2,0:0:0:0:
99,266,92561,1,2,0:0:0:0:
101,260,92647,1,2,0:0:0:0:
103,254,92733,5,10,0:0:0:0:
138,298,92818,1,2,0:0:0:0:
194,306,92904,1,2,0:0:0:0:
241,275,92990,1,2,0:0:0:0:
254,221,93075,6,0,P|253:160|235:97,1,115.000002193451,4|0,0:0|0:0,0:0:0:0:
98,3,93418,1,8,0:0:0:0:
45,247,93590,1,2,0:0:0:0:
45,247,93675,1,0,0:0:0:0:
45,247,93761,2,0,P|76:245|107:254,1,57.5000010967255
239,108,93933,2,0,P|211:115|177:115,1,57.5000010967255,2|0,0:0|0:0,0:0:0:0:
48,96,94104,1,8,0:0:0:0:
282,244,94275,1,2,0:0:0:0:
282,244,94361,1,0,0:0:0:0:
282,244,94447,5,0,0:0:0:0:
197,31,94618,1,0,0:0:0:0:
129,295,94790,1,8,0:0:0:0:
396,166,94961,1,2,0:0:0:0:
396,166,95047,1,0,0:0:0:0:
396,166,95133,2,0,P|397:135|392:102,1,57.5000010967255
203,71,95304,2,0,P|199:99|200:128,1,57.5000010967255,2|0,0:0|0:0,0:0:0:0:
273,263,95475,5,8,0:0:0:0:
102,136,95647,1,2,0:0:0:0:
102,136,95733,1,0,0:0:0:0:
102,136,95818,5,0,0:0:0:0:
283,107,95990,1,0,0:0:0:0:
200,293,96161,1,8,0:0:0:0:
233,271,96247,1,0,0:0:0:0:
273,263,96333,1,2,0:0:0:0:
312,268,96418,1,0,0:0:0:0:
348,286,96504,6,0,P|358:229|349:168,1,115.000002193451,0|2,0:0|0:0,0:0:0:0:
236,36,96847,1,8,0:0:0:0:
124,233,97018,1,2,0:0:0:0:
124,233,97104,1,0,0:0:0:0:
124,233,97190,6,0,P|205:215|257:293,1,172.500003290176
240,365,97533,2,0,P|216:377|176:378,1,57.5000010967255,10|0,0:0|0:0,0:0:0:0:
71,336,97704,1,0,0:0:0:0:
145,113,97875,1,2,0:0:0:0:
180,289,98047,1,0,0:0:0:0:
44,95,98218,2,0,L|43:165,1,57.5000010967255,8|8,0:0|0:0,0:0:0:0:
180,289,98390,2,0,L|180:231,1,57.5000010967255,8|8,0:0|0:0,0:0:0:0:
8,119,98561,6,0,P|1:177|7:238,1,115.000002193451,0|0,1:0|0:0,0:0:0:0:
6,233,98818,1,0,0:0:0:0:
6,233,98904,1,8,0:0:0:0:
193,307,99075,1,2,0:0:0:0:
243,64,99247,5,0,0:0:0:0:
284,209,99418,1,2,0:0:0:0:
128,73,99590,5,8,0:0:0:0:
96,232,99761,1,2,0:0:0:0:
96,232,99847,1,0,0:0:0:0:
96,232,99933,5,0,0:0:0:0:
331,117,100104,1,0,0:0:0:0:
99,120,100275,5,8,0:0:0:0:
355,155,100447,1,0,0:0:0:0:
355,155,100533,1,0,0:0:0:0:
355,155,100618,2,0,L|294:154,1,57.5000010967255,2|0,0:0|0:0,0:0:0:0:
170,246,100790,2,0,L|227:244,1,57.5000010967255
355,71,100961,2,0,L|227:69,1,115.000002193451,8|2,0:0|0:0,0:0:0:0:
162,89,101218,1,0,0:0:0:0:
162,89,101304,5,0,1:0:0:0:
231,296,101475,1,0,0:0:0:0:
355,71,101647,1,8,0:0:0:0:
330,222,101818,1,2,0:0:0:0:
330,222,101904,1,0,0:0:0:0:
330,222,101990,5,0,1:0:0:0:
147,60,102161,1,2,0:0:0:0:
208,325,102333,1,8,0:0:0:0:
355,128,102504,2,0,P|357:98|352:59,1,57.5000010967255,2|0,0:0|0:0,0:0:0:0:
452,209,102675,5,0,1:0:0:0:
368,48,102847,1,0,0:0:0:0:
490,216,103018,5,8,0:0:0:0:
354,70,103190,1,2,0:0:0:0:
354,70,103275,1,0,0:0:0:0:
354,70,103361,2,0,P|345:127|350:193,1,115.000002193451,0|2,1:0|0:0,0:0:0:0:
255,325,103704,1,10,0:0:0:0:
203,348,103790,1,10,0:0:0:0:
150,330,103875,1,10,0:0:0:0:
122,282,103961,1,10,0:0:0:0:
134,227,104047,6,0,P|183:218|238:222,1,100,2|2,1:0|0:0,0:0:0:0:
383,280,104390,1,0,0:0:0:0:
421,95,104561,1,2,0:0:0:0:
313,181,104733,1,2,1:0:0:0:
493,272,104904,1,2,0:0:0:0:
443,146,105075,1,8,0:0:0:0:
342,336,105247,1,2,0:0:0:0:
342,336,105333,1,2,0:0:0:0:
342,336,105418,6,0,P|316:342|286:337,1,50,2|0,0:0|0:0,0:0:0:0:
202,268,105590,2,0,P|192:243|193:212,1,50,2|0,0:0|0:0,0:0:0:0:
239,110,105761,1,8,0:0:0:0:
315,261,105933,1,2,0:0:0:0:
318,241,106018,1,2,0:0:0:0:
321,221,106104,2,0,P|364:216|423:222,1,100,2|2,1:0|0:0,0:0:0:0:
496,82,106447,5,10,0:0:0:0:
470,82,106533,1,2,0:0:0:0:
444,82,106618,1,2,0:0:0:0:
419,82,106704,1,10,0:0:0:0:
393,82,106790,6,0,P|374:99|364:126,1,50,2|0,0:0|0:0,0:0:0:0:
277,115,106961,2,0,P|275:140|287:166,1,50,2|0,0:0|0:0,0:0:0:0:
209,216,107133,1,8,0:0:0:0:
316,30,107304,1,2,0:0:0:0:
316,30,107390,1,2,0:0:0:0:
316,30,107475,1,2,1:0:0:0:
363,209,107647,1,2,0:0:0:0:
235,100,107818,5,10,0:0:0:0:
202,88,107904,1,2,0:0:0:0:
167,91,107990,1,2,0:0:0:0:
138,110,108075,1,2,0:0:0:0:
120,139,108161,6,0,P|114:193|123:250,1,100,2|0,0:0|0:0,0:0:0:0:
192,317,108418,1,0,0:0:0:0:
192,317,108504,2,0,P|243:306|298:324,1,100,10|0,0:0|0:0,0:0:0:0:
365,300,108761,1,0,0:0:0:0:
365,300,108847,1,2,1:0:0:0:
235,100,109018,1,2,0:0:0:0:
119,238,109190,2,0,L|116:184,1,50,8|8,0:0|0:0,0:0:0:0:
235,100,109361,2,0,L|232:149,1,50,8|8,0:0|0:0,0:0:0:0:
278,254,109533,5,2,0:0:0:0:
426,184,109704,1,2,0:0:0:0:
426,184,109875,1,8,0:0:0:0:
297,279,110047,1,2,0:0:0:0:
297,279,110133,1,2,0:0:0:0:
297,279,110218,1,2,1:0:0:0:
357,106,110390,1,2,0:0:0:0:
442,228,110561,1,8,0:0:0:0:
316,304,110733,1,10,0:0:0:0:
316,304,110818,1,2,0:0:0:0:
316,304,110904,6,0,L|310:250,1,50,2|0,0:0|0:0,0:0:0:0:
206,215,111075,2,0,L|212:158,1,50,2|0,0:0|0:0,0:0:0:0:
288,57,111247,1,10,0:0:0:0:
288,57,111333,1,2,0:0:0:0:
288,57,111418,1,2,0:0:0:0:
288,57,111504,1,2,0:0:0:0:
288,57,111590,5,2,1:0:0:0:
398,51,111761,1,0,0:0:0:0:
437,154,111933,1,8,0:0:0:0:
352,223,112104,1,10,0:0:0:0:
352,223,112190,1,2,0:0:0:0:
352,223,112275,5,2,0:0:0:0:
215,87,112447,1,2,0:0:0:0:
364,203,112618,1,8,0:0:0:0:
184,200,112790,1,2,0:0:0:0:
184,200,112875,1,2,0:0:0:0:
184,200,112961,2,0,L|239:193,1,50,2|0,1:0|0:0,0:0:0:0:
334,291,113133,2,0,L|392:291,1,50,2|0,0:0|0:0,0:0:0:0:
500,177,113304,2,0,L|442:173,1,50,10|0,0:0|0:0,0:0:0:0:
353,70,113475,2,0,L|293:76,1,50,8|8,0:0|0:0,0:0:0:0:
212,196,113647,6,0,P|216:247|213:304,1,100,2|2,0:0|0:0,0:0:0:0:
452,273,113990,2,0,P|448:222|451:165,1,100,8|2,0:0|0:0,0:0:0:0:
387,91,114247,1,2,0:0:0:0:
387,91,114333,2,0,L|277:95,1,100,2|2,1:0|0:0,0:0:0:0:
162,274,114675,5,10,0:0:0:0:
178,275,114761,1,10,0:0:0:0:
193,279,114847,1,10,0:0:0:0:
208,284,114933,1,10,0:0:0:0:
221,293,115018,6,0,P|206:248|214:188,1,100,2|2,0:0|0:0,0:0:0:0:
303,68,115361,1,8,0:0:0:0:
296,238,115533,1,2,0:0:0:0:
296,238,115618,1,2,0:0:0:0:
296,238,115704,2,0,L|302:182,1,50,2|0,1:0|0:0,0:0:0:0:
406,160,115875,2,0,L|397:101,1,50,2|0,0:0|0:0,0:0:0:0:
313,30,116047,1,8,0:0:0:0:
205,237,116218,1,10,0:0:0:0:
205,237,116304,1,2,0:0:0:0:
205,237,116390,6,0,L|198:131,1,100,2|2,0:0|0:0,0:0:0:0:
82,45,116733,1,10,0:0:0:0:
80,59,116818,1,2,0:0:0:0:
78,73,116904,1,2,0:0:0:0:
76,87,116990,1,2,0:0:0:0:
74,101,117075,1,2,1:0:0:0:
198,137,117247,1,2,0:0:0:0:
102,268,117418,5,8,0:0:0:0:
100,315,117504,1,8,0:0:0:0:
137,346,117590,1,8,0:0:0:0:
184,333,117675,1,8,0:0:0:0:
203,289,117761,6,0,B|195:263|205:243|212:222|203:190|203:190|232:210|242:232|246:245|246:245|273:233|290:190|290:190|291:226|284:253|305:275|306:300,1,350,2|0,0:0|0:0,0:0:0:0:
426,300,119133,5,2,0:0:0:0:
432,273,119218,1,2,0:0:0:0:
435,245,119304,1,2,0:0:0:0:
434,217,119390,1,2,0:0:0:0:
431,189,119475,1,2,0:0:0:0:
427,162,119561,1,2,0:0:0:0:
419,135,119647,5,2,0:0:0:0:
395,153,119733,1,2,0:0:0:0:
366,162,119818,1,2,0:0:0:0:
336,166,119904,1,2,0:0:0:0:
306,162,119990,1,2,0:0:0:0:
276,156,120075,1,2,0:0:0:0:
247,146,120161,5,2,0:0:0:0:
250,158,120247,1,2,0:0:0:0:
252,170,120333,1,2,0:0:0:0:
253,182,120418,1,2,0:0:0:0:
253,194,120504,1,2,0:0:0:0:
