osu file format v14

[General]
AudioFilename: audio.mp3
AudioLeadIn: 0
PreviewTime: 128288
Countdown: 0
SampleSet: Soft
StackLeniency: 0.7
Mode: 0
LetterboxInBreaks: 0
WidescreenStoryboard: 1

[Editor]
Bookmarks: 87788,94645,168360,175217
DistanceSpacing: 1.2
BeatDivisor: 4
GridSize: 32
TimelineZoom: 1

[Metadata]
Title:Growing!
TitleUnicode:Growing!
Artist:Mera Azusa (CV: Satou Shizuku)
ArtistUnicode:布良梓 (CV: 佐藤しずく)
Creator:kuragehime
Version:Normal
Source:DRACU-RIOT!
Tags:yuuma yuzu soft yuzusoft ドラクリオット! ゆずソフト visual novel eroge character song japanese pop jpop j-pop video game
BeatmapID:4552583
BeatmapSetID:2157260

[Difficulty]
HPDrainRate:3
CircleSize:3.5
OverallDifficulty:4
ApproachRate:5
SliderMultiplier:1.1
SliderTickRate:1

[Events]
//Background and Video events
0,0,"1.jpg",0,0
//Break Periods
2,87788,93445
2,168559,174017
//Storyboard Layer 0 (Background)
//Storyboard Layer 1 (Fail)
//Storyboard Layer 2 (Pass)
//Storyboard Layer 3 (Foreground)
//Storyboard Layer 4 (Overlay)
//Storyboard Sound Samples

[TimingPoints]
360,428.571428571429,4,2,1,50,1,0
360,-111.111111111111,4,2,1,50,0,0
5502,-111.111111111111,4,2,1,70,0,0
7217,-100,4,2,1,80,0,0
14074,-111.111111111111,4,2,1,60,0,0
27788,-100,4,2,1,70,0,0
55217,-100,4,2,1,80,0,1
80931,-100,4,2,1,80,0,0
94645,-100,4,2,1,60,0,0
101502,-100,4,2,1,70,0,0
128931,-100,4,2,1,80,0,1
154645,-100,4,2,1,80,0,0
166431,-125,4,2,1,80,0,0
168360,-125,4,2,1,50,0,0
175217,-111.111111111111,4,2,1,50,0,0
180145,-111.111111111111,4,2,1,70,0,0
182074,-100,4,2,1,80,0,1
194074,-100,4,2,1,80,0,0

[Colours]
Combo1 : 255,0,0
Combo2 : 244,153,176
Combo3 : 0,64,128
Combo4 : 192,192,192

[HitObjects]
76,51,360,6,0,L|86:168,1,98.9999969787599,2|0,3:2|3:2,0:0:0:0:
93,247,1217,2,0,P|60:263|11:250,2,74.2499977340699,2|0|0,3:2|0:0|0:0,0:0:0:0:
136,223,2074,2,0,P|183:198|233:207,1,98.9999969787599,2|0,3:2|3:2,0:0:0:0:
311,256,2931,2,0,L|298:332,2,74.2499977340699,2|0|0,3:2|0:0|0:0,0:0:0:0:
354,231,3788,2,0,L|373:113,1,98.9999969787599,2|0,3:2|3:2,0:0:0:0:
352,37,4645,2,0,P|400:38|432:56,2,74.2499977340699,2|0|0,3:2|0:0|0:0,0:0:0:0:
307,58,5502,6,0,P|250:90|203:81,1,98.9999969787599,10|8,0:0|0:0,0:0:0:0:
128,45,6360,1,10,0:0:0:0:
75,129,6788,1,10,0:0:0:0:
166,190,7217,6,0,P|211:228|279:224,1,110,6|8,3:2|0:0,0:0:0:0:
330,147,8074,2,0,P|300:127|253:125,2,82.5,2|0|2,3:2|0:0|0:0,0:0:0:0:
370,185,8931,2,0,L|357:303,1,110,0|8,3:0|0:0,0:0:0:0:
467,298,9788,2,0,L|454:389,2,82.5,2|0|2,3:2|0:0|0:0,0:0:0:0:
504,256,10645,6,0,B|513:222|513:222|496:142,1,110,0|8,3:0|0:0,0:0:0:0:
508,39,11502,2,0,P|467:39|433:61,1,82.5,2|0,3:2|0:0,0:0:0:0:
381,125,12145,2,0,P|326:125|277:95,1,110,14|10,0:0|0:0,0:0:0:0:
240,60,12788,2,0,P|214:51|184:52,1,55,10|10,0:0|0:0,0:0:0:0:
134,66,13217,1,10,0:0:0:0:
33,234,14074,6,0,L|52:338,1,98.9999969787599,6|0,3:2|3:0,0:0:0:0:
149,356,14931,2,0,L|131:258,1,98.9999969787599,2|0,3:2|3:2,0:0:0:0:
108,160,15788,1,2,3:2:0:0:
202,187,16217,1,0,3:2:0:0:
297,159,16645,2,0,L|314:42,1,98.9999969787599,2|0,3:2|3:2,0:0:0:0:
407,31,17502,6,0,P|443:24|504:61,1,98.9999969787599,2|0,3:2|3:2,0:0:0:0:
474,149,18360,2,0,P|438:156|377:119,1,98.9999969787599,2|0,3:2|3:2,0:0:0:0:
311,61,19217,2,0,P|269:35|221:41,1,98.9999969787599,0|0,3:0|3:2,0:0:0:0:
132,88,20074,2,0,L|124:39,2,49.4999984893799,2|0|2,3:2|0:0|3:2,0:0:0:0:
141,137,20717,1,2,0:0:0:0:
141,136,20931,6,0,P|97:160|48:163,1,98.9999969787599,2|0,3:2|3:2,0:0:0:0:
78,259,21788,2,0,P|121:235|170:232,1,98.9999969787599,2|0,3:2|3:2,0:0:0:0:
263,265,22645,1,2,3:2:0:0:
294,170,23074,1,0,3:2:0:0:
329,78,23502,2,0,L|434:101,1,98.9999969787599,2|0,3:2|3:2,0:0:0:0:
499,166,24360,6,0,P|514:208|495:262,1,98.9999969787599,2|0,3:2|3:2,0:0:0:0:
410,310,25217,2,0,P|395:268|414:214,1,98.9999969787599,2|0,3:2|3:2,0:0:0:0:
321,175,26074,2,0,L|208:148,1,98.9999969787599,0|0,3:0|3:2,0:0:0:0:
180,62,26931,2,0,L|228:54,2,49.4999984893799,2|10|10,3:2|0:0|0:0,0:0:0:0:
132,78,27574,1,8,0:0:0:0:
132,78,27788,6,0,P|107:115|103:130,1,55,6|0,3:2|0:0,0:0:0:0:
76,169,28217,2,0,P|81:207|97:237,1,55,8|0,0:0|0:0,0:0:0:0:
113,271,28645,1,2,3:2:0:0:
217,234,29074,1,8,0:0:0:0:
301,307,29502,2,0,L|362:297,1,55,2|0,3:2|0:0,0:0:0:0:
409,284,29931,2,0,L|421:220,1,55,8|0,0:0|0:0,0:0:0:0:
431,176,30360,2,0,L|496:187,2,55,2|0|8,3:2|0:0|0:0,0:0:0:0:
388,141,31002,1,0,0:0:0:0:
388,141,31217,6,0,P|305:117|276:126,1,110,2|8,3:2|0:0,0:0:0:0:
285,233,32074,2,0,P|230:237|181:214,1,110,2|8,3:2|0:0,0:0:0:0:
139,179,32717,2,0,B|111:135|111:135|126:64,1,110,2|0,0:0|0:0,0:0:0:0:
138,25,33360,1,8,0:0:0:0:
245,56,33788,2,0,L|237:-1,2,55,2|2|10,3:2|0:0|0:0,0:0:0:0:
256,110,34431,1,10,0:0:0:0:
256,110,34645,6,0,P|282:124|313:121,1,55,2|0,3:2|0:0,0:0:0:0:
356,99,35074,2,0,P|395:88|426:96,1,55,8|0,0:0|0:0,0:0:0:0:
459,112,35502,2,0,L|446:172,1,55,2|0,3:2|0:0,0:0:0:0:
436,221,35931,1,8,0:0:0:0:
408,328,36360,2,0,P|380:324|355:314,1,55,2|0,3:2|0:0,0:0:0:0:
315,277,36788,2,0,P|275:265|249:268,1,55,8|0,0:0|0:0,0:0:0:0:
211,288,37217,2,0,L|220:350,2,55,2|0|8,3:2|0:0|0:0,0:0:0:0:
160,268,37860,1,0,0:0:0:0:
160,268,38074,6,0,L|173:148,1,110,2|8,3:2|0:0,0:0:0:0:
134,57,38931,2,0,P|182:46|246:80,1,110,2|8,3:2|0:0,0:0:0:0:
278,104,39574,2,0,P|318:134|384:128,1,110,2|8,0:0|0:0,0:0:0:0:
427,108,40217,1,8,0:0:0:0:
506,186,40645,2,0,L|490:251,1,55,10|10,0:0|0:0,0:0:0:0:
445,268,41074,2,0,L|428:327,1,55,10|10,0:0|0:0,0:0:0:0:
379,343,41502,6,0,P|327:351|268:325,1,110,14|10,0:0|0:0,0:0:0:0:
234,295,42145,1,8,0:0:0:0:
234,295,42360,2,0,P|183:272|143:279,1,82.5,10|2,0:0|0:0,0:0:0:0:
28,323,43217,2,0,P|16:277|22:210,1,110,10|10,0:0|0:0,0:0:0:0:
39,163,43860,1,8,0:0:0:0:
39,163,44074,2,0,P|63:124|69:77,1,82.5,10|2,0:0|0:0,0:0:0:0:
134,34,44717,6,0,P|179:41|241:59,1,110,8|0,0:0|0:0,0:0:0:0:
286,90,45360,2,0,P|319:100|342:102,1,55,8|0,0:0|0:0,0:0:0:0:
391,82,45788,1,2,3:2:0:0:
499,62,46217,1,8,0:0:0:0:
461,167,46645,2,0,P|496:161|521:159,2,55,2|10|10,3:2|0:0|0:0,0:0:0:0:
412,193,47288,1,10,0:0:0:0:
412,193,47502,2,0,L|390:304,1,110,2|10,3:2|0:0,0:0:0:0:
298,357,48360,6,0,P|243:358|193:320,1,110,6|10,0:0|0:0,0:0:0:0:
167,282,49002,1,8,0:0:0:0:
167,282,49217,2,0,L|158:184,1,82.5,10|2,0:0|0:0,0:0:0:0:
257,97,50074,2,0,P|225:59|165:59,1,110,14|10,0:0|0:0,0:0:0:0:
116,75,50717,1,8,0:0:0:0:
116,75,50931,2,0,L|21:97,1,82.5,10|2,0:0|0:0,0:0:0:0:
25,177,51574,6,0,L|44:299,1,110,8|0,0:0|0:0,0:0:0:0:
52,340,52217,1,8,0:0:0:0:
144,285,52645,2,0,P|175:269|211:268,1,55,2|0,3:2|0:0,0:0:0:0:
246,289,53074,2,0,P|286:304|308:305,1,55,8|0,0:0|0:0,0:0:0:0:
351,290,53502,2,0,P|400:246|301:167,1,220,14|10,0:0|0:0,0:0:0:0:
109,44,55217,6,0,P|151:48|232:50,1,110,6|8,3:2|0:0,0:0:0:0:
210,159,56074,2,0,P|168:155|87:153,1,110,2|8,3:2|0:0,0:0:0:0:
50,177,56717,2,0,L|69:286,1,110,2|0,0:0|0:0,0:0:0:0:
80,340,57360,1,8,0:0:0:0:
80,340,57574,1,0,0:0:0:0:
177,288,58002,2,0,P|225:273|254:276,1,55,0|8,0:0|0:0,0:0:0:0:
278,293,58431,6,0,P|332:321|393:310,1,110,2|0,0:0|0:0,0:0:0:0:
429,291,59074,1,8,0:0:0:0:
429,291,59288,2,0,P|451:241|444:171,1,110,2|0,0:0|0:0,0:0:0:0:
425,138,59931,1,8,0:0:0:0:
364,43,60360,2,0,P|311:35|247:19,2,110,2|8|2,3:2|0:0|3:2,0:0:0:0:
313,139,61645,2,0,P|280:132|252:127,1,55,8|0,0:0|0:0,0:0:0:0:
204,139,62074,6,0,L|221:257,1,110,6|8,3:2|0:0,0:0:0:0:
111,268,62931,2,0,L|95:159,1,110,2|8,3:2|0:0,0:0:0:0:
53,126,63574,2,0,P|33:89|49:24,1,110,2|0,0:0|0:0,0:0:0:0:
103,16,64217,1,8,0:0:0:0:
103,16,64431,1,0,0:0:0:0:
200,66,64860,2,0,P|237:61|261:52,1,55,0|8,0:0|0:0,0:0:0:0:
301,32,65288,6,0,P|322:68|302:153,1,110
288,182,65931,1,8,0:0:0:0:
288,182,66145,2,0,P|266:251|284:299,1,110
300,334,66788,1,8,0:0:0:0:
405,293,67217,2,0,P|453:300|518:318,2,110,6|8|2,3:2|0:0|3:2,0:0:0:0:
390,188,68502,2,0,P|436:178|458:169,1,55,8|8,0:0|0:0,0:0:0:0:
487,143,68931,6,0,P|503:95|481:29,1,110,6|8,3:2|0:0,0:0:0:0:
377,61,69788,2,0,P|320:88|264:73,1,110,2|8,3:2|0:0,0:0:0:0:
230,52,70431,2,0,P|192:29|124:40,1,110,2|0,0:0|0:0,0:0:0:0:
86,69,71074,1,8,0:0:0:0:
86,69,71288,1,0,0:0:0:0:
24,160,71717,2,0,P|33:192|41:229,1,55,0|8,0:0|0:0,0:0:0:0:
22,266,72145,6,0,P|58:238|141:244,1,110,2|0,0:0|0:0,0:0:0:0:
171,259,72788,1,8,0:0:0:0:
171,259,73002,2,0,P|239:299|280:287,1,110,2|0,0:0|0:0,0:0:0:0:
314,267,73645,1,8,0:0:0:0:
418,242,74074,2,0,L|399:355,2,110,2|8|2,3:2|0:0|3:2,0:0:0:0:
502,173,75360,2,0,L|492:111,1,55,8|0,0:0|0:0,0:0:0:0:
485,64,75788,6,0,B|451:45|451:45|367:58,1,110,6|8,3:2|0:0,0:0:0:0:
336,160,76645,2,0,B|265:170|265:170|231:151,1,110,2|8,3:2|0:0,0:0:0:0:
190,117,77288,2,0,P|152:81|81:84,1,110,2|0,0:0|0:0,0:0:0:0:
46,101,77931,1,8,0:0:0:0:
46,101,78145,1,0,0:0:0:0:
58,208,78574,2,0,P|96:231|123:232,1,55,0|8,0:0|0:0,0:0:0:0:
161,226,79002,6,0,L|276:214,1,110
325,211,79645,1,8,0:0:0:0:
325,211,79860,1,0,0:0:0:0:
418,267,80288,2,0,L|403:329,2,55,0|8|8,0:0|0:0|0:0,0:0:0:0:
466,241,80931,6,0,P|498:204|494:135,1,110,6|8,3:2|0:0,0:0:0:0:
434,55,81788,2,0,P|378:31|328:54,1,110,2|8,3:2|0:0,0:0:0:0:
253,121,82645,1,2,3:2:0:0:
321,206,83074,1,8,0:0:0:0:
267,302,83502,2,0,P|234:298|206:292,1,55,2|0,3:2|0:0,0:0:0:0:
158,303,83931,2,0,P|116:282|97:269,1,55,8|0,0:0|0:0,0:0:0:0:
57,261,84360,6,0,P|46:197|45:147,1,110,2|8,3:2|0:0,0:0:0:0:
143,105,85217,2,0,P|197:122|251:126,1,110,2|8,3:2|0:0,0:0:0:0:
302,106,85860,1,14,0:0:0:0:
413,87,86288,2,0,P|406:51|401:14,2,55,10|10|10,0:0|0:0|0:0,0:0:0:0:
433,139,86931,1,10,0:0:0:0:
445,93,94645,6,0,P|411:68|338:75,1,110,2|0,3:2|3:2,0:0:0:0:
368,182,95502,2,0,P|314:188|268:159,1,110,2|0,3:2|3:2,0:0:0:0:
199,68,96360,1,2,3:2:0:0:
95,96,96788,1,0,3:2:0:0:
154,193,97217,2,0,L|173:311,2,110,2|0|2,3:2|3:2|3:2,0:0:0:0:
430,101,100645,2,0,L|438:42,2,55,2|10|10,3:2|0:0|0:0,0:0:0:0:
417,154,101288,1,10,0:0:0:0:
417,154,101502,6,0,P|364:170|342:170,1,55,6|0,3:2|0:0,0:0:0:0:
314,151,101931,2,0,P|279:138|252:136,1,55,8|0,0:0|0:0,0:0:0:0:
208,154,102360,1,2,3:2:0:0:
142,65,102788,1,8,0:0:0:0:
45,120,103217,2,0,L|56:186,1,55,2|0,3:2|0:0,0:0:0:0:
45,229,103645,2,0,L|58:301,1,55,8|0,0:0|0:0,0:0:0:0:
62,338,104074,2,0,P|33:349|-3:345,2,55,2|0|8,3:2|0:0|0:0,0:0:0:0:
110,310,104717,1,0,0:0:0:0:
110,310,104931,6,0,P|174:280|219:287,1,110,2|8,3:2|0:0,0:0:0:0:
307,336,105788,2,0,P|356:363|429:347,1,110,2|8,3:2|0:0,0:0:0:0:
456,333,106431,2,0,B|482:294|482:294|475:222,1,110,2|0,0:0|0:0,0:0:0:0:
465,177,107074,1,8,0:0:0:0:
407,88,107502,2,0,P|439:77|463:67,2,55,2|2|10,3:2|0:0|0:0,0:0:0:0:
351,87,108145,1,10,0:0:0:0:
351,87,108360,6,0,P|313:73|286:67,1,55,2|0,3:2|0:0,0:0:0:0:
244,84,108788,2,0,P|201:94|178:95,1,55,8|0,0:0|0:0,0:0:0:0:
137,85,109217,2,0,P|104:78|79:75,1,55,2|0,3:2|0:0,0:0:0:0:
30,96,109645,1,8,0:0:0:0:
66,222,110074,2,0,P|125:236|131:236,1,55,2|0,3:2|0:0,0:0:0:0:
169,220,110502,2,0,P|208:211|238:207,1,55,8|0,0:0|0:0,0:0:0:0:
277,220,110931,1,2,3:2:0:0:
362,295,111360,1,8,0:0:0:0:
463,244,111788,6,0,P|491:203|490:139,1,110,2|8,3:2|0:0,0:0:0:0:
446,42,112645,2,0,P|405:14|341:15,1,110,2|8,3:2|0:0,0:0:0:0:
299,42,113288,2,0,L|313:159,1,110,2|8,0:0|0:0,0:0:0:0:
321,205,113931,1,8,0:0:0:0:
329,316,114360,2,0,L|269:304,1,55,10|10,0:0|0:0,0:0:0:0:
226,331,114788,2,0,L|166:319,1,55,10|10,0:0|0:0,0:0:0:0:
122,347,115217,6,0,P|64:336|32:292,1,110,14|10,0:0|0:0,0:0:0:0:
17,245,115860,1,8,0:0:0:0:
17,245,116074,2,0,L|28:157,1,82.5,10|2,0:0|0:0,0:0:0:0:
142,88,116931,2,0,P|200:99|232:143,1,110,14|10,0:0|0:0,0:0:0:0:
247,190,117574,1,8,0:0:0:0:
247,190,117788,2,0,L|236:278,1,82.5,10|2,0:0|0:0,0:0:0:0:
281,344,118431,6,0,P|339:359|391:327,1,110,8|0,0:0|0:0,0:0:0:0:
421,298,119074,1,8,0:0:0:0:
423,189,119502,2,0,P|466:197|486:201,2,55,2|0|8,3:2|0:0|0:0,0:0:0:0:
368,192,120145,1,0,3:2:0:0:
368,192,120360,2,0,P|348:145|364:81,1,110,2|10,3:2|0:0,0:0:0:0:
380,42,121002,1,10,0:0:0:0:
380,42,121217,2,0,L|251:23,1,110,2|10,3:2|0:0,0:0:0:0:
194,100,122074,6,0,L|75:134,1,110,14|10,0:0|0:0,0:0:0:0:
38,154,122717,1,8,0:0:0:0:
38,154,122931,2,0,P|37:207|73:241,1,82.5,10|2,0:0|0:0,0:0:0:0:
83,365,123788,2,0,P|130:343|201:343,1,110,14|10,0:0|0:0,0:0:0:0:
238,361,124431,1,8,0:0:0:0:
238,361,124645,2,0,L|258:269,1,82.5,10|2,0:0|0:0,0:0:0:0:
332,242,125288,6,0,L|320:122,1,110,8|0,0:0|0:0,0:0:0:0:
316,77,125931,1,8,0:0:0:0:
424,89,126360,2,0,L|415:21,2,55,2|0|8,3:2|0:0|0:0,0:0:0:0:
436,143,127002,1,8,0:0:0:0:
436,143,127217,2,0,P|384:208|255:188,1,220,14|10,0:0|0:0,0:0:0:0:
119,25,128931,6,0,P|65:36|8:54,1,110,6|8,3:2|0:0,0:0:0:0:
6,162,129788,2,0,P|60:173|117:191,1,110,2|8,3:2|0:0,0:0:0:0:
163,210,130431,2,0,L|144:327,1,110,2|0,0:0|0:0,0:0:0:0:
133,372,131074,1,8,0:0:0:0:
133,372,131288,1,0,0:0:0:0:
237,334,131717,2,0,P|263:327|304:324,1,55,0|8,0:0|0:0,0:0:0:0:
341,344,132145,6,0,P|404:356|451:321,1,110,2|0,0:0|0:0,0:0:0:0:
481,295,132788,1,8,0:0:0:0:
481,295,133002,2,0,L|493:177,1,110,2|0,0:0|0:0,0:0:0:0:
496,129,133645,1,8,0:0:0:0:
415,54,134074,2,0,P|458:22|512:22,2,110,2|8|2,3:2|0:0|3:2,0:0:0:0:
344,134,135360,2,0,P|309:157|281:155,1,55,8|0,0:0|0:0,0:0:0:0:
245,135,135788,6,0,P|184:114|123:105,1,110,6|8,3:2|0:0,0:0:0:0:
110,212,136645,2,0,P|164:222|215:240,1,110,2|8,3:2|0:0,0:0:0:0:
256,278,137288,2,0,P|300:307|365:295,1,110,2|0,0:0|0:0,0:0:0:0:
404,279,137931,1,8,0:0:0:0:
404,279,138145,1,0,0:0:0:0:
491,212,138574,2,0,P|484:162|477:142,1,55,0|8,0:0|0:0,0:0:0:0:
461,108,139002,6,0,P|422:83|346:87,1,110
322,124,139645,1,8,0:0:0:0:
322,124,139860,2,0,P|267:156|201:147,1,110
174,129,140502,1,8,0:0:0:0:
65,145,140931,2,0,P|72:90|92:39,2,110,6|8|2,3:2|0:0|3:2,0:0:0:0:
72,253,142217,2,0,P|100:298|112:310,1,55,8|8,0:0|0:0,0:0:0:0:
148,329,142645,6,0,L|260:309,1,110,6|8,3:2|0:0,0:0:0:0:
359,341,143502,2,0,L|471:321,1,110,2|8,3:2|0:0,0:0:0:0:
495,273,144145,2,0,P|508:228|490:166,1,110,2|0,0:0|0:0,0:0:0:0:
461,123,144788,1,8,0:0:0:0:
461,123,145002,1,0,0:0:0:0:
415,223,145431,2,0,P|378:220|357:215,1,55,0|8,0:0|0:0,0:0:0:0:
321,176,145860,6,0,P|274:145|202:151,1,110,2|0,0:0|0:0,0:0:0:0:
178,176,146502,1,8,0:0:0:0:
178,176,146717,2,0,P|117:213|69:205,1,110,2|0,0:0|0:0,0:0:0:0:
40,172,147360,1,8,0:0:0:0:
105,81,147788,2,0,P|63:60|-14:52,2,110,2|8|2,3:2|0:0|3:2,0:0:0:0:
214,76,149074,2,0,P|261:64|279:58,1,55,8|0,0:0|0:0,0:0:0:0:
316,38,149502,6,0,P|373:32|426:62,1,110,6|8,3:2|0:0,0:0:0:0:
472,151,150360,2,0,P|415:145|362:175,1,110,2|8,3:2|0:0,0:0:0:0:
328,204,151002,2,0,L|348:314,1,110,2|0,0:0|0:0,0:0:0:0:
360,366,151645,1,8,0:0:0:0:
360,366,151860,1,0,0:0:0:0:
260,322,152288,2,0,L|200:311,1,55,0|8,0:0|0:0,0:0:0:0:
157,336,152717,6,0,P|108:337|43:299,1,110
35,259,153360,1,8,0:0:0:0:
35,259,153574,2,0,P|26:197|35:148,1,110
52,98,154217,1,8,0:0:0:0:
52,98,154431,5,14,0:0:0:0:
156,66,154860,2,0,P|152:29|145:8,2,55,8|8|8,0:0|0:0|0:0,0:0:0:0:
147,120,155502,1,8,0:0:0:0:
147,120,155717,1,8,0:0:0:0:
164,229,156145,1,14,0:0:0:0:
268,190,156574,2,0,P|260:149|262:126,2,55,8|8|8,0:0|0:0|0:0,0:0:0:0:
295,237,157217,1,8,0:0:0:0:
295,237,157431,1,8,0:0:0:0:
391,290,157860,5,14,0:0:0:0:
457,201,158288,2,0,L|512:212,2,55,8|8|8,0:0|0:0|0:0,0:0:0:0:
404,186,158931,1,8,0:0:0:0:
404,186,159145,1,8,0:0:0:0:
455,86,159574,1,14,0:0:0:0:
347,62,160002,2,0,L|354:1,2,55,8|8|8,0:0|0:0|0:0,0:0:0:0:
338,116,160645,2,0,P|285:127|277:126,1,55,8|8,0:0|0:0,0:0:0:0:
231,113,161074,1,8,0:0:0:0:
231,113,161288,6,0,P|161:86|107:99,1,110,14|0,0:0|3:2,0:0:0:0:
77,114,161931,1,10,0:0:0:0:
93,219,162360,2,0,P|49:235|21:234,2,55,10|0|10,0:0|3:2|0:0,0:0:0:0:
144,201,163002,2,0,L|156:321,1,110,14|0,0:0|3:2,0:0:0:0:
162,366,163645,1,10,0:0:0:0:
254,308,164074,2,0,L|246:251,2,55,10|0|10,0:0|3:2|0:0,0:0:0:0:
300,340,164717,6,0,P|351:348|403:326,1,110,14|10,0:0|0:0,0:0:0:0:
441,283,165360,2,0,P|454:242|452:215,1,55,10|10,0:0|0:0,0:0:0:0:
440,176,165788,2,0,L|511:167,2,55,10|10|10,0:0|0:0|0:0,0:0:0:0:
410,133,166431,2,0,B|383:68|340:43|264:64|230:123|258:182|291:200|262:257|213:271|145:252,1,396,14|2,0:0|0:0,0:0:0:0:
462,73,175217,6,0,P|424:60|366:57,1,98.9999969787599,2|0,0:0|0:0,0:0:0:0:
337,154,176074,2,0,P|287:152|240:138,1,98.9999969787599,2|0,0:0|0:0,0:0:0:0:
165,71,176931,2,0,L|139:169,1,98.9999969787599
50,214,177788,2,0,L|76:312,1,98.9999969787599
164,355,178645,6,0,P|230:363|270:330,1,98.9999969787599,2|0,0:0|0:0,0:0:0:0:
290,311,179288,2,0,P|331:281|389:291,1,98.9999969787599
426,304,179931,1,0,0:0:0:0:
426,304,180145,1,14,0:0:0:0:
450,208,180574,2,0,L|514:218,2,49.4999984893799,10|10|10,0:0|0:0|0:0,0:0:0:0:
402,194,181217,2,0,L|392:124,1,49.4999984893799,10|10,0:0|0:0,0:0:0:0:
386,96,181645,1,10,0:0:0:0:
296,37,182074,6,0,P|236:22|178:35,1,110,6|8,3:2|0:0,0:0:0:0:
233,135,182931,2,0,P|178:142|126:128,1,110,2|8,3:2|0:0,0:0:0:0:
86,90,183574,2,0,P|42:108|21:168,1,110,2|0,0:0|0:0,0:0:0:0:
31,217,184217,1,8,0:0:0:0:
31,217,184431,1,0,0:0:0:0:
25,328,184860,2,0,P|67:318|98:315,1,55,0|8,0:0|0:0,0:0:0:0:
118,280,185288,6,0,P|172:299|230:307,1,110,2|0,0:0|0:0,0:0:0:0:
276,288,185931,1,8,0:0:0:0:
276,288,186145,2,0,P|290:219|291:156,1,110,2|0,0:0|0:0,0:0:0:0:
281,127,186788,1,8,0:0:0:0:
191,66,187217,2,0,P|123:57|86:10,2,110,2|8|2,3:2|0:0|3:2,0:0:0:0:
294,20,188502,2,0,P|338:19|354:27,1,55,8|0,0:0|0:0,0:0:0:0:
394,49,188931,6,0,L|414:161,1,110,6|8,3:2|0:0,0:0:0:0:
505,223,189788,2,0,L|485:335,1,110,2|8,3:2|0:0,0:0:0:0:
434,353,190431,2,0,P|385:364|329:331,1,110,2|0,0:0|0:0,0:0:0:0:
294,300,191074,1,8,0:0:0:0:
294,300,191288,1,0,0:0:0:0:
283,189,191717,2,0,P|253:173|226:173,1,55,0|8,0:0|0:0,0:0:0:0:
185,201,192145,6,0,P|144:230|72:229,1,110
39,204,192788,1,8,0:0:0:0:
39,204,193002,1,0,0:0:0:0:
82,104,193431,2,0,P|40:96|28:89,2,55,0|8|0,0:0|0:0|0:0,0:0:0:0:
133,85,194074,6,0,P|183:60|249:54,1,110,6|8,3:2|0:0,0:0:0:0:
347,23,194931,2,0,P|381:42|429:115,1,110,2|8,3:2|0:0,0:0:0:0:
445,203,195788,1,2,3:2:0:0:
388,298,196217,1,8,0:0:0:0:
286,327,196645,2,0,L|226:312,1,55,2|0,3:2|0:0,0:0:0:0:
183,328,197074,2,0,L|125:316,1,55,8|0,0:0|0:0,0:0:0:0:
79,339,197502,6,0,L|65:227,1,110,6|8,3:2|0:0,0:0:0:0:
175,234,198360,2,0,L|161:122,1,110,2|8,3:2|0:0,0:0:0:0:
71,63,199217,1,2,3:2:0:0:
165,9,199645,1,8,0:0:0:0:
256,75,200074,2,0,P|292:86|316:89,1,55,2|0,3:2|0:0,0:0:0:0:
347,126,200502,2,0,P|383:114|416:95,1,55,12|0,0:0|0:0,0:0:0:0:
447,82,200931,6,0,P|459:127|461:211,1,110,6|8,3:2|0:0,0:0:0:0:
489,300,201788,2,0,P|419:290|383:268,1,110,2|8,3:2|0:0,0:0:0:0:
296,212,202645,1,2,3:2:0:0:
268,321,203074,1,8,0:0:0:0:
169,282,203502,2,0,P|157:244|154:220,1,55,2|0,3:2|0:0,0:0:0:0:
116,192,203931,2,0,P|126:153|139:126,1,55,8|0,0:0|0:0,0:0:0:0:
130,85,204360,6,0,P|183:71|239:72,1,110,6|8,3:2|0:0,0:0:0:0:
282,168,205217,2,0,P|336:168|389:154,1,110,2|8,3:2|0:0,0:0:0:0:
437,128,205860,1,14,0:0:0:0:
387,33,206288,1,10,0:0:0:0:
387,33,206502,2,0,P|351:25|323:23,1,55,10|10,0:0|0:0,0:0:0:0:
280,34,206931,1,10,0:0:0:0:
