osu file format v14

[General]
AudioFilename: audio.mp3
AudioLeadIn: 0
PreviewTime: 128288
Countdown: 0
SampleSet: Soft
StackLeniency: 0.7
Mode: 0
LetterboxInBreaks: 0
WidescreenStoryboard: 0

[Editor]
Bookmarks: 87788,94645,168360,175217
DistanceSpacing: 1.2
BeatDivisor: 4
GridSize: 32
TimelineZoom: 1

[Metadata]
Title:Growing!
TitleUnicode:Growing!
Artist:Mera Azusa (CV: Satou Shizuku)
ArtistUnicode:布良梓 (CV: 佐藤しずく)
Creator:kuragehime
Version:Insane
Source:DRACU-RIOT!
Tags:yuuma yuzu soft yuzusoft ドラクリオット! ゆずソフト visual novel eroge character song japanese pop jpop j-pop video game
BeatmapID:4547644
BeatmapSetID:2157260

[Difficulty]
HPDrainRate:5
CircleSize:4
OverallDifficulty:7.5
ApproachRate:8.3
SliderMultiplier:1.7
SliderTickRate:1

[Events]
//Background and Video events
0,0,"3.jpg",0,0
//Break Periods
2,87788,93788
2,168560,174513
//Storyboard Layer 0 (Background)
//Storyboard Layer 1 (Fail)
//Storyboard Layer 2 (Pass)
//Storyboard Layer 3 (Foreground)
//Storyboard Layer 4 (Overlay)
//Storyboard Sound Samples

[TimingPoints]
360,428.571428571429,4,2,1,50,1,0
360,-142.857142857143,4,2,1,50,0,0
5502,-111.111111111111,4,2,1,70,0,0
7217,-100,4,2,1,80,0,0
14074,-125,4,2,1,60,0,0
27788,-111.111111111111,4,2,1,70,0,0
55217,-100,4,2,1,80,0,1
80931,-100,4,2,1,80,0,0
94645,-125,4,2,1,60,0,0
101502,-111.111111111111,4,2,1,70,0,0
128931,-100,4,2,1,80,0,1
154431,-100,4,2,1,80,0,0
168360,-100,4,2,1,50,0,0
175217,-166.666666666667,4,2,1,50,0,0
178645,-125,4,2,1,50,0,0
180145,-111.111111111111,4,2,1,70,0,0
182074,-100,4,2,1,80,0,1
194074,-100,4,2,1,80,0,0

[Colours]
Combo1 : 255,0,0
Combo2 : 244,153,176
Combo3 : 0,64,128
Combo4 : 192,192,192

[HitObjects]
380,180,360,6,0,P|366:215|357:249,1,59.4999981842042,2|0,3:2|0:0,0:0:0:0:
275,289,788,2,0,P|265:250|255:223,1,59.4999981842042,0|0,3:2|0:0,0:0:0:0:
168,278,1217,2,0,P|135:277|94:236,2,89.2499972763062,2|0|0,3:2|0:0|0:0,0:0:0:0:
258,231,2074,6,0,P|310:216|323:215,1,59.4999981842042,2|0,3:2|0:0,0:0:0:0:
175,171,2502,2,0,P|125:153|106:150,1,59.4999981842042,0|0,3:2|0:0,0:0:0:0:
275,121,2931,2,0,P|298:57|278:21,2,89.2499972763062,2|0|0,3:2|0:0|0:0,0:0:0:0:
193,61,3788,6,0,L|131:48,1,59.4999981842042,2|0,3:2|0:0,0:0:0:0:
37,152,4217,2,0,L|107:142,1,59.4999981842042,0|0,3:2|0:0,0:0:0:0:
174,220,4645,2,0,L|154:318,2,89.2499972763062,2|0|0,3:2|0:0|0:0,0:0:0:0:
278,186,5502,6,0,L|271:148,3,25.4999992218018,10|8|8|8,0:0|0:0|0:0|0:0,0:0:0:0:
368,286,5931,1,8,0:0:0:0:
368,286,6038,1,0,3:0:0:0:
368,286,6145,2,0,L|376:248,1,38.2499988327027,0|0,3:0|3:2,0:0:0:0:
383,122,6360,6,0,L|428:110,3,38.2499988327027,10|0|0|0,0:0|3:0|3:0|3:0,0:0:0:0:
278,186,6788,5,10,0:0:0:0:
249,210,6895,1,8,0:0:0:0:
232,244,7002,1,8,0:0:0:0:
232,282,7110,1,8,0:0:0:0:
247,317,7217,6,0,P|291:343|323:351,1,85,6|0,3:2|0:0,0:0:0:0:
278,186,7645,2,0,P|234:160|202:152,1,85,8|0,0:0|0:0,0:0:0:0:
67,186,8074,1,2,3:2:0:0:
145,316,8288,1,0,0:0:0:0:
145,316,8395,1,0,0:0:0:0:
145,316,8502,1,8,0:0:0:0:
328,254,8717,6,0,P|368:210|477:228,1,170,2|0,0:0|0:0,0:0:0:0:
475,119,9360,2,0,P|437:116|387:106,1,85,8|0,0:0|0:0,0:0:0:0:
273,36,9788,2,0,P|266:76|265:96,1,42.5,2|8,3:2|0:0,0:0:0:0:
273,174,10002,1,0,0:0:0:0:
273,174,10110,1,0,0:0:0:0:
273,174,10217,1,8,0:0:0:0:
146,59,10431,6,0,P|93:55|49:166,1,170,2|0,0:0|0:0,0:0:0:0:
41,289,11074,2,0,L|133:265,1,85,8|0,0:0|0:0,0:0:0:0:
313,191,11502,2,0,L|209:168,1,85,2|0,3:2|0:0,0:0:0:0:
198,170,11824,1,0,0:0:0:0:
198,170,11931,2,0,L|209:225,1,42.5,8|8,0:0|0:0,0:0:0:0:
238,336,12145,5,14,0:0:0:0:
238,336,12574,1,10,0:0:0:0:
435,275,12788,1,10,0:0:0:0:
362,90,13002,1,10,0:0:0:0:
322,277,13217,1,10,0:0:0:0:
101,105,14074,5,6,3:2:0:0:
101,105,14288,2,0,P|57:95|27:82,1,68,0|0,0:0|3:0,0:0:0:0:
42,179,14717,1,0,0:0:0:0:
179,141,14931,2,0,P|182:83|165:57,1,68,2|0,3:2|0:0,0:0:0:0:
126,209,15360,2,0,P|114:261|161:339,1,136,0|2,3:2|3:2,0:0:0:0:
280,239,16002,5,0,0:0:0:0:
194,263,16217,1,0,3:2:0:0:
280,239,16431,1,0,0:0:0:0:
355,293,16645,2,0,B|434:284|405:250|480:241,1,136,2|0,3:2|3:2,0:0:0:0:
477,241,17288,1,0,0:0:0:0:
419,172,17502,6,0,L|407:97,1,68,2|0,3:2|0:0,0:0:0:0:
326,65,17931,2,0,L|315:132,1,68,0|0,3:2|0:0,0:0:0:0:
246,190,18360,2,0,P|180:207|121:155,1,136,2|0,3:2|3:2,0:0:0:0:
70,82,19002,6,0,P|111:77|148:67,1,68,2|0,0:0|3:0,0:0:0:0:
212,23,19431,1,0,0:0:0:0:
197,131,19645,1,0,3:2:0:0:
212,23,19860,1,0,0:0:0:0:
328,152,20074,6,0,P|323:190|311:246,1,68,2|0,3:2|0:0,0:0:0:0:
458,124,20502,1,2,3:2:0:0:
364,22,20717,1,2,0:0:0:0:
235,56,20931,5,2,3:2:0:0:
235,56,21145,2,0,P|181:45|151:32,2,68,0|0|0,0:0|3:2|0:0,0:0:0:0:
179,138,21788,1,2,3:2:0:0:
179,138,22002,1,0,0:0:0:0:
84,71,22217,2,0,P|54:118|77:206,1,136,0|2,3:2|3:2,0:0:0:0:
121,297,22860,5,0,0:0:0:0:
207,241,23074,1,0,3:2:0:0:
246,339,23288,1,0,0:0:0:0:
121,297,23502,2,0,P|89:288|41:281,1,68,2|0,3:2|0:0,0:0:0:0:
118,182,23931,1,0,3:2:0:0:
118,182,24145,1,0,0:0:0:0:
249,237,24360,6,0,P|294:226|329:212,1,68,2|0,3:2|0:0,0:0:0:0:
409,184,24788,2,0,P|376:150|347:127,1,68,0|0,3:2|0:0,0:0:0:0:
283,71,25217,2,0,P|265:146|255:217,1,136,2|0,3:2|3:2,0:0:0:0:
273,316,25860,6,0,P|217:314|194:294,1,68,2|0,0:0|3:0,0:0:0:0:
178,199,26288,1,0,0:0:0:0:
178,199,26502,2,0,P|146:186|113:191,1,68,0|0,3:2|0:0,0:0:0:0:
88,301,26931,5,2,3:2:0:0:
250,240,27145,1,10,0:0:0:0:
167,85,27360,1,10,0:0:0:0:
323,155,27574,1,8,0:0:0:0:
113,191,27788,5,6,3:2:0:0:
113,191,28002,2,0,P|48:176|23:166,1,76.4999976654053,0|8,0:0|0:0,0:0:0:0:
104,56,28431,1,0,0:0:0:0:
201,170,28645,1,2,3:2:0:0:
230,45,28860,1,0,0:0:0:0:
201,170,29074,2,0,P|189:231|177:336,1,152.999995330811,8|2,0:0|3:2,0:0:0:0:
327,195,29717,5,0,0:0:0:0:
327,195,29931,2,0,P|375:173|409:181,1,76.4999976654053,8|0,0:0|0:0,0:0:0:0:
386,300,30360,2,0,P|338:322|304:314,1,76.4999976654053,2|0,3:2|0:0,0:0:0:0:
190,275,30788,1,8,0:0:0:0:
221,144,31002,1,0,0:0:0:0:
221,144,31110,1,0,0:0:0:0:
221,144,31217,6,0,P|230:81|232:39,1,76.4999976654053,2|0,3:2|0:0,0:0:0:0:
73,49,31645,2,0,P|64:112|62:154,1,76.4999976654053,8|0,0:0|0:0,0:0:0:0:
100,274,32074,2,0,B|152:262|178:269|178:269|209:245|258:242,1,152.999995330811,2|8,3:2|0:0,0:0:0:0:
426,225,32717,6,0,P|443:184|436:144,1,76.4999976654053,2|0,0:0|3:0,0:0:0:0:
347,77,33145,1,0,0:0:0:0:
325,202,33360,1,8,0:0:0:0:
347,77,33574,1,0,0:0:0:0:
184,66,33788,6,0,P|137:53|99:38,1,76.4999976654053,2|2,3:2|0:0,0:0:0:0:
97,188,34217,1,10,0:0:0:0:
246,136,34431,1,10,0:0:0:0:
246,136,34538,1,8,0:0:0:0:
246,136,34645,5,2,3:2:0:0:
288,279,34860,2,0,P|288:325|270:363,2,76.4999976654053,0|8|0,0:0|0:0|0:0,0:0:0:0:
199,239,35502,1,2,3:2:0:0:
340,199,35717,1,0,0:0:0:0:
199,239,35931,2,0,P|137:230|47:203,1,152.999995330811,8|2,0:0|3:2,0:0:0:0:
148,96,36574,6,0,P|139:41|138:10,2,76.4999976654053,0|8|0,0:0|0:0|0:0,0:0:0:0:
248,162,37217,1,2,3:2:0:0:
273,53,37431,1,0,0:0:0:0:
427,79,37645,1,8,0:0:0:0:
323,124,37860,1,0,0:0:0:0:
173,92,38074,6,0,P|124:79|85:67,1,76.4999976654053,2|0,3:2|0:0,0:0:0:0:
104,203,38502,2,0,P|117:251|126:291,1,76.4999976654053,8|0,0:0|0:0,0:0:0:0:
235,208,38931,2,0,P|270:172|379:154,1,152.999995330811,2|8,3:2|0:0,0:0:0:0:
367,311,39574,6,0,P|313:301|285:282,1,76.4999976654053,2|0,0:0|3:0,0:0:0:0:
211,177,40002,1,8,0:0:0:0:
189,335,40217,1,8,0:0:0:0:
211,177,40431,1,8,0:0:0:0:
368,231,40645,1,10,0:0:0:0:
368,231,40752,1,8,0:0:0:0:
368,231,40860,1,10,0:0:0:0:
313,68,41074,1,10,0:0:0:0:
153,126,41288,1,10,0:0:0:0:
153,126,41395,1,8,0:0:0:0:
153,126,41502,6,0,L|64:109,1,76.4999976654053,14|8,0:0|0:0,0:0:0:0:
48,107,41824,1,0,0:0:0:0:
48,107,41931,1,10,0:0:0:0:
223,50,42145,1,8,0:0:0:0:
223,50,42252,1,0,0:0:0:0:
223,50,42360,1,10,0:0:0:0:
254,202,42574,2,0,L|241:258,1,38.2499988327027,10|2,0:0|0:0,0:0:0:0:
475,82,43217,6,0,L|382:101,1,76.4999976654053,10|8,0:0|0:0,0:0:0:0:
370,107,43538,1,0,0:0:0:0:
370,107,43645,1,10,0:0:0:0:
473,251,43860,1,8,0:0:0:0:
473,251,43967,1,0,0:0:0:0:
473,251,44074,1,10,0:0:0:0:
297,186,44288,1,10,0:0:0:0:
297,186,44395,1,2,0:0:0:0:
297,186,44502,2,0,L|305:241,1,38.2499988327027,10|8,0:0|0:0,0:0:0:0:
322,323,44717,1,8,0:0:0:0:
175,254,44931,6,0,P|122:236|87:231,1,76.4999976654053,6|0,3:2|0:0,0:0:0:0:
173,127,45360,1,8,0:0:0:0:
173,127,45574,1,0,0:0:0:0:
302,223,45788,2,0,P|354:212|387:195,1,76.4999976654053,2|0,3:2|0:0,0:0:0:0:
299,79,46217,1,8,0:0:0:0:
214,218,46431,1,0,3:2:0:0:
214,218,46538,1,8,0:0:0:0:
214,218,46645,5,2,3:2:0:0:
55,133,46860,1,10,0:0:0:0:
125,301,47074,1,10,0:0:0:0:
284,245,47288,1,10,0:0:0:0:
321,236,47395,1,8,0:0:0:0:
359,239,47502,1,2,3:2:0:0:
394,252,47610,1,8,0:0:0:0:
424,276,47717,1,10,0:0:0:0:
469,132,47931,1,10,0:0:0:0:
469,132,48038,1,8,0:0:0:0:
469,132,48145,1,10,0:0:0:0:
469,132,48252,1,0,3:0:0:0:
469,132,48360,6,0,P|412:116|383:105,1,76.4999976654053,6|8,0:0|0:0,0:0:0:0:
367,101,48681,1,0,0:0:0:0:
367,101,48788,1,10,0:0:0:0:
286,246,49002,1,8,0:0:0:0:
286,246,49110,1,0,0:0:0:0:
286,246,49217,1,10,0:0:0:0:
189,107,49431,2,0,P|180:70|178:55,1,38.2499988327027,10|2,0:0|0:0,0:0:0:0:
45,282,50074,6,0,P|92:262|132:252,1,76.4999976654053,14|8,0:0|0:0,0:0:0:0:
155,254,50395,1,0,0:0:0:0:
155,254,50502,1,10,0:0:0:0:
99,103,50717,1,8,0:0:0:0:
99,103,50824,1,0,0:0:0:0:
99,103,50931,1,10,0:0:0:0:
242,198,51145,1,10,0:0:0:0:
242,198,51252,1,2,0:0:0:0:
242,198,51360,2,0,L|251:140,1,38.2499988327027,8|8,0:0|0:0,0:0:0:0:
267,49,51574,1,8,0:0:0:0:
386,150,51788,6,0,P|446:134|472:122,1,76.4999976654053,6|0,3:2|0:0,0:0:0:0:
390,283,52217,1,8,0:0:0:0:
286,219,52431,1,0,0:0:0:0:
286,219,52538,1,8,0:0:0:0:
286,219,52645,2,0,P|220:201|187:200,1,76.4999976654053,2|0,3:2|0:0,0:0:0:0:
221,324,53074,1,8,0:0:0:0:
394,288,53288,1,0,0:0:0:0:
394,288,53395,1,8,0:0:0:0:
394,288,53502,5,14,0:0:0:0:
300,112,53717,1,10,0:0:0:0:
157,243,53931,1,10,0:0:0:0:
213,48,54145,1,10,0:0:0:0:
405,109,54360,1,10,0:0:0:0:
213,169,54574,1,10,0:0:0:0:
320,342,54788,1,10,0:0:0:0:
320,342,54895,1,8,0:0:0:0:
320,342,55002,1,8,0:0:0:0:
320,342,55110,1,8,0:0:0:0:
320,342,55217,6,0,P|333:260|333:228,1,85,6|0,3:2|0:0,0:0:0:0:
432,153,55645,2,0,P|414:93|398:59,1,85,8|0,0:0|0:0,0:0:0:0:
213,48,56074,2,0,P|149:47|91:141,1,170,2|8,3:2|0:0,0:0:0:0:
83,299,56717,6,0,P|149:290|168:273,1,85,2|0,0:0|3:0,0:0:0:0:
320,173,57145,1,0,0:0:0:0:
186,130,57360,1,8,0:0:0:0:
280,286,57574,1,0,0:0:0:0:
395,239,57788,1,2,3:2:0:0:
395,239,57895,1,8,0:0:0:0:
395,239,58002,1,0,0:0:0:0:
291,87,58217,1,8,0:0:0:0:
190,235,58431,6,0,P|110:237|57:158,1,170,2|0,0:0|0:0,0:0:0:0:
58,170,59074,1,8,0:0:0:0:
189,53,59288,2,0,P|269:51|322:130,1,170,2|0,0:0|0:0,0:0:0:0:
320,117,59931,1,8,0:0:0:0:
148,161,60145,1,0,0:0:0:0:
222,332,60360,6,0,B|313:304|273:270|379:245,1,170,2|8,3:2|0:0,0:0:0:0:
457,168,61002,2,0,P|427:162|407:154,1,42.5,0|8,0:0|0:0,0:0:0:0:
320,117,61217,1,2,3:2:0:0:
320,117,61324,1,8,0:0:0:0:
320,117,61431,1,0,0:0:0:0:
357,293,61645,1,8,0:0:0:0:
193,235,61860,1,0,0:0:0:0:
152,220,61967,1,8,0:0:0:0:
110,216,62074,6,0,L|16:229,1,85,6|0,3:2|0:0,0:0:0:0:
151,354,62502,2,0,L|235:342,1,85,8|0,0:0|0:0,0:0:0:0:
413,236,62931,2,0,P|401:168|302:150,1,170,2|8,3:2|0:0,0:0:0:0:
145,270,63574,6,0,P|129:206|126:173,1,85,2|0,0:0|3:0,0:0:0:0:
161,68,64002,1,0,0:0:0:0:
238,223,64217,1,8,0:0:0:0:
380,126,64431,1,0,0:0:0:0:
275,61,64645,1,2,3:2:0:0:
275,61,64752,1,8,0:0:0:0:
275,61,64860,1,0,0:0:0:0:
344,226,65074,1,8,0:0:0:0:
500,131,65288,1,0,0:0:0:0:
365,17,65502,6,0,P|355:57|348:102,1,85,6|0,3:2|0:0,0:0:0:0:
349,245,65931,1,8,0:0:0:0:
210,165,66145,1,0,0:0:0:0:
242,344,66360,6,0,P|262:278|265:241,1,85,6|0,3:2|0:0,0:0:0:0:
289,105,66788,1,8,0:0:0:0:
419,174,67002,1,0,0:0:0:0:
240,49,67217,6,0,P|192:35|146:21,1,85,6|0,3:2|0:0,0:0:0:0:
168,208,67645,1,8,0:0:0:0:
315,137,67860,2,0,P|322:177|324:200,1,42.5,0|8,0:0|0:0,0:0:0:0:
332,297,68074,1,2,3:2:0:0:
332,297,68181,1,8,0:0:0:0:
332,297,68288,1,0,0:0:0:0:
214,137,68502,1,8,0:0:0:0:
174,122,68610,1,8,0:0:0:0:
133,128,68717,1,8,0:0:0:0:
100,155,68824,1,8,0:0:0:0:
86,195,68931,6,0,L|102:290,1,85,6|0,3:2|0:0,0:0:0:0:
245,351,69360,2,0,L|259:267,1,85,8|0,0:0|0:0,0:0:0:0:
286,93,69788,2,0,B|353:112|353:112|374:139|374:139|439:157,1,170,2|8,3:2|0:0,0:0:0:0:
285,189,70431,6,0,P|213:168|200:149,1,85,2|0,0:0|3:0,0:0:0:0:
154,67,70860,1,0,0:0:0:0:
118,242,71074,1,8,0:0:0:0:
285,189,71288,1,0,0:0:0:0:
192,156,71502,1,2,3:2:0:0:
192,156,71610,1,8,0:0:0:0:
192,156,71717,1,0,0:0:0:0:
339,59,71931,1,8,0:0:0:0:
405,226,72145,6,0,B|371:261|336:274|336:274|293:246|235:245,1,170,2|0,0:0|0:0,0:0:0:0:
256,246,72788,1,8,0:0:0:0:
134,346,73002,2,0,B|104:311|96:273|96:273|127:241|129:181,1,170,2|0,0:0|0:0,0:0:0:0:
128,194,73645,1,8,0:0:0:0:
269,333,73860,1,0,0:0:0:0:
330,158,74074,6,0,P|289:94|202:103,1,170,2|8,3:2|0:0,0:0:0:0:
236,258,74717,2,0,L|294:247,1,42.5,0|8,0:0|0:0,0:0:0:0:
385,235,74931,1,2,3:2:0:0:
385,235,75038,1,8,0:0:0:0:
385,235,75145,1,0,0:0:0:0:
307,80,75360,1,8,0:0:0:0:
177,190,75574,1,0,0:0:0:0:
133,193,75681,1,8,0:0:0:0:
92,177,75788,6,0,L|76:82,1,85,6|0,3:2|0:0,0:0:0:0:
238,11,76217,2,0,L|252:94,1,85,8|0,0:0|0:0,0:0:0:0:
297,271,76645,2,0,P|377:285|432:225,1,170,2|8,3:2|0:0,0:0:0:0:
506,90,77288,6,0,P|463:84|422:75,1,85,2|0,0:0|3:2,0:0:0:0:
346,202,77717,1,0,0:0:0:0:
251,46,77931,1,8,0:0:0:0:
142,188,78145,1,0,0:0:0:0:
267,142,78360,1,2,3:2:0:0:
267,142,78467,1,8,0:0:0:0:
267,142,78574,1,0,0:0:0:0:
234,319,78788,1,8,0:0:0:0:
409,262,79002,1,0,0:0:0:0:
359,68,79217,6,0,L|347:154,1,85,6|0,3:2|0:0,0:0:0:0:
325,291,79645,1,8,0:0:0:0:
223,213,79860,1,0,0:0:0:0:
381,59,80074,6,0,L|369:145,1,85,6|0,3:2|0:0,0:0:0:0:
344,322,80502,1,8,0:0:0:0:
197,214,80717,1,8,0:0:0:0:
197,214,80824,1,8,0:0:0:0:
197,214,80931,5,6,3:2:0:0:
215,338,81145,1,0,0:0:0:0:
98,137,81360,1,8,0:0:0:0:
73,256,81574,1,0,0:0:0:0:
266,276,81788,1,2,3:2:0:0:
157,205,82002,1,0,0:0:0:0:
303,89,82217,1,8,0:0:0:0:
347,218,82431,1,0,0:0:0:0:
497,113,82645,6,0,P|511:42|514:12,1,85,2|0,3:2|0:0,0:0:0:0:
303,63,83074,2,0,P|309:105|318:147,1,85,8|0,0:0|0:0,0:0:0:0:
372,293,83502,1,2,3:2:0:0:
372,293,83610,1,8,0:0:0:0:
372,293,83717,1,0,0:0:0:0:
244,195,83931,1,8,0:0:0:0:
104,220,84145,1,0,0:0:0:0:
275,321,84360,5,2,3:2:0:0:
332,199,84574,1,0,0:0:0:0:
155,115,84788,1,8,0:0:0:0:
201,265,85002,1,0,0:0:0:0:
344,100,85217,1,2,3:2:0:0:
211,179,85431,1,0,0:0:0:0:
379,293,85645,2,0,L|351:248,1,42.5,8|8,0:0|0:0,0:0:0:0:
304,178,85860,1,14,0:0:0:0:
304,178,86288,5,10,0:0:0:0:
85,258,86502,1,10,0:0:0:0:
219,87,86717,1,10,0:0:0:0:
240,341,86931,1,10,0:0:0:0:
334,58,94645,5,2,3:2:0:0:
334,58,94860,2,0,P|389:49|410:44,2,68,0|0|0,0:0|3:2|0:0,0:0:0:0:
269,131,95502,2,0,P|314:145|345:150,1,68,2|0,3:2|0:0,0:0:0:0:
207,56,95931,2,0,P|171:98|182:179,1,136,0|2,3:2|3:2,0:0:0:0:
213,285,96574,6,0,P|171:276|119:270,2,68,0|0|0,0:0|3:2|0:0,0:0:0:0:
304,324,97217,1,2,3:2:0:0:
304,324,97431,1,0,0:0:0:0:
278,225,97645,1,0,3:2:0:0:
278,225,97860,1,0,0:0:0:0:
382,251,98074,6,0,P|438:250|488:190,1,136,2|0,3:2|0:0,0:0:0:0:
413,40,98931,2,0,P|357:41|307:101,1,136,2|0,0:0|0:0,0:0:0:0:
310,191,99574,1,0,0:0:0:0:
310,191,100002,2,0,P|273:180|239:167,1,68,2|0,0:0|0:0,0:0:0:0:
158,124,100431,1,0,0:0:0:0:
101,308,100645,5,2,3:2:0:0:
253,252,100860,1,10,0:0:0:0:
158,124,101074,1,10,0:0:0:0:
43,244,101288,1,10,0:0:0:0:
245,169,101502,5,6,3:2:0:0:
245,169,101717,2,0,P|256:124|250:89,2,76.4999976654053,0|8|0,0:0|0:0|0:0,0:0:0:0:
177,274,102360,2,0,P|219:302|255:300,1,76.4999976654053,2|0,3:2|0:0,0:0:0:0:
437,267,102788,2,0,P|414:212|306:207,1,152.999995330811,8|2,0:0|3:2,0:0:0:0:
341,307,103431,5,0,0:0:0:0:
341,307,103645,2,0,L|350:382,1,76.4999976654053,8|0,0:0|0:0,0:0:0:0:
240,217,104074,2,0,L|253:129,1,76.4999976654053,2|0,3:2|0:0,0:0:0:0:
378,159,104502,1,8,0:0:0:0:
330,36,104717,1,0,0:0:0:0:
251,141,104931,6,0,P|187:132|166:119,1,76.4999976654053,2|0,3:2|0:0,0:0:0:0:
78,175,105360,2,0,P|69:120|74:80,1,76.4999976654053,8|0,0:0|0:0,0:0:0:0:
44,290,105788,2,0,P|119:289|175:240,1,152.999995330811,2|8,3:2|0:0,0:0:0:0:
251,141,106431,6,0,P|297:125|335:126,1,76.4999976654053,2|0,0:0|3:0,0:0:0:0:
312,259,106860,1,0,0:0:0:0:
430,210,107074,1,8,0:0:0:0:
324,124,107288,1,0,0:0:0:0:
198,266,107502,6,0,P|144:253|108:232,1,76.4999976654053,2|2,3:2|0:0,0:0:0:0:
67,137,107931,1,10,0:0:0:0:
192,106,108145,1,10,0:0:0:0:
192,106,108252,1,8,0:0:0:0:
192,106,108360,1,2,3:2:0:0:
312,259,108574,6,0,P|321:318|323:363,1,76.4999976654053,0|8,0:0|0:0,0:0:0:0:
220,213,109002,1,0,0:0:0:0:
362,165,109217,2,0,P|422:146|450:135,1,76.4999976654053,2|0,3:2|0:0,0:0:0:0:
264,116,109645,2,0,P|215:75|120:96,1,152.999995330811,8|2,0:0|3:2,0:0:0:0:
70,200,110288,5,0,0:0:0:0:
182,160,110502,1,8,0:0:0:0:
70,200,110717,1,0,0:0:0:0:
182,160,110931,2,0,L|168:238,1,76.4999976654053,2|0,3:2|0:0,0:0:0:0:
151,338,111360,1,8,0:0:0:0:
151,338,111574,1,0,0:0:0:0:
260,259,111788,6,0,P|303:239|347:252,1,76.4999976654053,2|0,3:2|0:0,0:0:0:0:
470,187,112217,2,0,P|420:159|385:165,1,76.4999976654053,8|0,0:0|0:0,0:0:0:0:
315,323,112645,2,0,P|394:300|409:228,1,152.999995330811,2|8,3:2|0:0,0:0:0:0:
331,113,113288,6,0,P|279:100|245:89,1,76.4999976654053,2|0,0:0|3:2,0:0:0:0:
164,220,113717,1,8,0:0:0:0:
130,61,113931,1,8,0:0:0:0:
164,220,114145,1,8,0:0:0:0:
331,113,114360,1,10,0:0:0:0:
331,113,114467,1,8,0:0:0:0:
331,113,114574,1,10,0:0:0:0:
293,279,114788,1,10,0:0:0:0:
173,134,115002,1,10,0:0:0:0:
173,134,115110,1,8,0:0:0:0:
173,134,115217,6,0,L|81:157,1,76.4999976654053,14|8,0:0|0:0,0:0:0:0:
68,162,115538,1,0,0:0:0:0:
68,162,115645,1,10,0:0:0:0:
169,310,115860,1,8,0:0:0:0:
169,310,115967,1,0,0:0:0:0:
169,310,116074,1,10,0:0:0:0:
281,180,116288,2,0,L|324:189,1,38.2499988327027,10|2,0:0|0:0,0:0:0:0:
496,82,116931,6,0,P|456:62|417:63,1,76.4999976654053,14|8,0:0|0:0,0:0:0:0:
393,71,117252,1,0,0:0:0:0:
393,71,117360,1,10,0:0:0:0:
431,229,117574,1,8,0:0:0:0:
281,180,117788,1,10,0:0:0:0:
177,79,118002,1,10,0:0:0:0:
177,79,118110,1,2,0:0:0:0:
177,79,118217,2,0,L|118:88,1,38.2499988327027,10|8,0:0|0:0,0:0:0:0:
80,159,118431,1,8,0:0:0:0:
267,153,118645,6,0,L|253:234,1,76.4999976654053,6|0,3:2|0:0,0:0:0:0:
151,346,119074,1,8,0:0:0:0:
296,305,119288,1,0,0:0:0:0:
187,183,119502,2,0,P|136:170|96:156,1,76.4999976654053,2|0,3:2|0:0,0:0:0:0:
41,258,119931,1,8,0:0:0:0:
69,89,120145,1,0,3:2:0:0:
69,89,120252,1,8,0:0:0:0:
69,89,120360,5,2,3:2:0:0:
230,118,120574,1,10,0:0:0:0:
154,273,120788,1,10,0:0:0:0:
313,236,121002,1,10,0:0:0:0:
338,207,121110,1,8,0:0:0:0:
351,171,121217,1,2,3:2:0:0:
352,133,121324,1,8,0:0:0:0:
339,98,121431,1,10,0:0:0:0:
202,84,121645,1,10,0:0:0:0:
202,84,121752,1,8,0:0:0:0:
202,84,121860,1,10,0:0:0:0:
202,84,121967,1,0,3:0:0:0:
202,84,122074,6,0,P|187:137|180:173,1,76.4999976654053,14|8,0:0|0:0,0:0:0:0:
177,196,122395,1,0,0:0:0:0:
177,196,122502,1,10,0:0:0:0:
351,171,122717,1,8,0:0:0:0:
351,171,122824,1,0,0:0:0:0:
351,171,122931,1,10,0:0:0:0:
314,311,123145,2,0,P|304:346|300:357,1,38.2499988327027,10|2,0:0|0:0,0:0:0:0:
115,286,123788,6,0,P|100:223|97:193,1,76.4999976654053,14|8,0:0|0:0,0:0:0:0:
92,182,124110,1,0,0:0:0:0:
92,182,124217,1,10,0:0:0:0:
243,141,124431,1,8,0:0:0:0:
243,141,124538,1,0,0:0:0:0:
243,141,124645,1,10,0:0:0:0:
273,288,124860,1,10,0:0:0:0:
273,288,124967,1,2,0:0:0:0:
273,288,125074,2,0,P|303:280|326:268,1,38.2499988327027,10|8,0:0|0:0,0:0:0:0:
397,222,125288,1,8,0:0:0:0:
377,84,125502,6,0,P|328:69|289:65,1,76.4999976654053,6|0,3:2|0:0,0:0:0:0:
218,188,125931,1,8,0:0:0:0:
90,110,126145,1,0,0:0:0:0:
90,110,126252,1,8,0:0:0:0:
90,110,126360,2,0,P|81:63|81:24,1,76.4999976654053,2|0,3:2|0:0,0:0:0:0:
224,29,126788,1,8,0:0:0:0:
315,159,127002,1,8,0:0:0:0:
315,159,127110,1,8,0:0:0:0:
315,159,127217,5,14,0:0:0:0:
85,220,127431,1,10,0:0:0:0:
249,90,127645,1,10,0:0:0:0:
344,276,127860,1,10,0:0:0:0:
173,166,128074,1,10,0:0:0:0:
347,45,128288,1,10,0:0:0:0:
436,250,128502,1,10,0:0:0:0:
436,250,128610,1,8,0:0:0:0:
436,250,128717,1,8,0:0:0:0:
436,250,128824,1,8,0:0:0:0:
436,250,128931,6,0,P|435:309|420:342,1,85,6|0,3:2|0:0,0:0:0:0:
271,220,129360,2,0,P|272:161|287:128,1,85,8|0,0:0|0:0,0:0:0:0:
443,79,129788,2,0,P|447:138|340:181,1,170,2|8,3:2|0:0,0:0:0:0:
207,149,130431,6,0,P|157:132|118:113,1,85,2|0,0:0|3:0,0:0:0:0:
107,279,130860,1,0,0:0:0:0:
263,225,131074,1,8,0:0:0:0:
216,69,131288,1,0,0:0:0:0:
170,172,131502,1,2,3:2:0:0:
170,172,131610,1,8,0:0:0:0:
170,172,131717,1,0,0:0:0:0:
332,124,131931,1,8,0:0:0:0:
361,292,132145,6,0,P|318:348|207:326,1,170,2|0,0:0|0:0,0:0:0:0:
225,343,132788,1,8,0:0:0:0:
116,228,133002,2,0,P|159:172|270:194,1,170,2|0,0:0|0:0,0:0:0:0:
251,176,133645,1,8,0:0:0:0:
137,315,133860,1,0,0:0:0:0:
320,280,134074,6,0,B|363:222|363:222|340:108,1,170,2|8,3:2|0:0,0:0:0:0:
231,65,134717,2,0,L|223:122,1,42.5,0|8,0:0|0:0,0:0:0:0:
209,209,134931,1,2,3:2:0:0:
209,209,135038,1,8,0:0:0:0:
209,209,135145,1,0,0:0:0:0:
30,234,135360,1,8,0:0:0:0:
65,51,135574,1,0,0:0:0:0:
106,40,135681,1,8,0:0:0:0:
147,49,135788,6,0,P|199:62|231:65,1,85,6|0,3:2|0:0,0:0:0:0:
366,152,136217,2,0,P|429:137|466:133,1,85,8|0,0:0|0:0,0:0:0:0:
326,14,136645,2,0,P|301:87|280:187,1,170,2|8,3:2|0:0,0:0:0:0:
278,336,137288,6,0,P|329:331|360:306,1,85,2|0,0:0|3:0,0:0:0:0:
430,239,137717,1,0,0:0:0:0:
296,141,137931,1,8,0:0:0:0:
204,280,138145,1,0,0:0:0:0:
316,233,138360,1,2,3:2:0:0:
316,233,138467,1,8,0:0:0:0:
316,233,138574,1,0,0:0:0:0:
187,132,138788,1,8,0:0:0:0:
94,267,139002,1,0,0:0:0:0:
267,167,139217,6,0,P|279:103|284:63,1,85,6|0,3:2|0:0,0:0:0:0:
120,88,139645,1,8,0:0:0:0:
185,237,139860,1,0,0:0:0:0:
356,177,140074,6,0,P|367:236|369:289,1,85,6|0,3:2|0:0,0:0:0:0:
233,109,140502,1,8,0:0:0:0:
389,48,140717,1,0,0:0:0:0:
389,48,140824,1,8,0:0:0:0:
389,48,140931,5,6,3:2:0:0:
433,185,141145,1,8,0:0:0:0:
260,193,141360,1,8,0:0:0:0:
165,37,141574,2,0,P|151:82|147:102,1,42.5,0|8,0:0|0:0,0:0:0:0:
139,185,141788,1,2,3:2:0:0:
139,185,141895,1,8,0:0:0:0:
139,185,142002,1,0,0:0:0:0:
281,80,142217,1,8,0:0:0:0:
322,81,142324,1,8,0:0:0:0:
358,104,142431,1,8,0:0:0:0:
378,141,142538,1,8,0:0:0:0:
377,182,142645,6,0,L|363:286,1,85,6|0,3:2|0:0,0:0:0:0:
225,137,143074,2,0,L|211:241,1,85,8|0,0:0|0:0,0:0:0:0:
121,341,143502,2,0,P|200:347|278:305,1,170,2|8,3:2|0:0,0:0:0:0:
377,182,144145,6,0,P|341:152|295:151,1,85,2|0,0:0|3:0,0:0:0:0:
174,196,144574,1,0,0:0:0:0:
213,55,144788,1,8,0:0:0:0:
183,216,145002,1,0,0:0:0:0:
71,170,145217,1,2,3:2:0:0:
71,170,145324,1,8,0:0:0:0:
71,170,145431,1,0,0:0:0:0:
102,327,145645,1,8,0:0:0:0:
151,130,145860,6,0,P|213:132|269:231,1,170,2|0,0:0|0:0,0:0:0:0:
270,214,146502,1,8,0:0:0:0:
462,228,146717,2,0,P|400:230|344:329,1,170,2|0,0:0|0:0,0:0:0:0:
342,312,147359,1,8,0:0:0:0:
333,137,147574,1,0,0:0:0:0:
211,266,147788,6,0,B|121:256|150:209|54:200,1,170,2|8,3:2|0:0,0:0:0:0:
179,136,148431,2,0,P|222:120|235:114,1,42.5,0|8,0:0|0:0,0:0:0:0:
280,203,148645,1,2,3:2:0:0:
280,203,148752,1,8,0:0:0:0:
280,203,148860,1,0,0:0:0:0:
328,24,149074,1,8,0:0:0:0:
464,134,149288,1,0,0:0:0:0:
473,176,149395,1,8,0:0:0:0:
474,219,149502,6,0,P|461:282|447:320,1,85,6|0,3:2|0:0,0:0:0:0:
301,191,149931,2,0,P|290:136|285:91,1,85,8|0,0:0|0:0,0:0:0:0:
361,351,150360,2,0,P|305:284|211:303,1,170,2|8,3:2|0:0,0:0:0:0:
85,196,151002,6,0,P|74:141|69:96,1,85,2|0,0:0|3:0,0:0:0:0:
64,297,151431,1,0,0:0:0:0:
197,211,151645,1,8,0:0:0:0:
156,57,151860,1,0,0:0:0:0:
273,114,152074,1,2,3:2:0:0:
273,114,152181,1,8,0:0:0:0:
273,114,152288,1,0,0:0:0:0:
97,163,152502,1,8,0:0:0:0:
174,321,152717,1,0,0:0:0:0:
324,218,152931,6,0,L|410:198,1,85,6|0,3:2|0:0,0:0:0:0:
210,171,153360,1,8,0:0:0:0:
296,308,153574,1,0,0:0:0:0:
348,123,153788,6,0,L|259:100,1,85,6|0,3:2|0:0,0:0:0:0:
145,228,154217,1,8,0:0:0:0:
179,13,154431,6,0,L|192:116,1,85,14|0,0:0|0:0,0:0:0:0:
220,271,154860,1,8,0:0:0:0:
359,222,155074,1,8,0:0:0:0:
289,56,155288,1,8,0:0:0:0:
272,190,155502,1,8,0:0:0:0:
414,79,155717,2,0,P|470:62|512:47,1,85,8|0,0:0|0:0,0:0:0:0:
440,264,156145,6,0,P|424:323|414:368,1,85,14|0,0:0|0:0,0:0:0:0:
339,137,156574,1,8,0:0:0:0:
266,270,156788,1,8,0:0:0:0:
149,78,157002,1,8,0:0:0:0:
256,180,157217,1,8,0:0:0:0:
107,267,157431,2,0,P|47:240|34:205,1,85,8|0,0:0|0:0,0:0:0:0:
149,78,157860,6,0,L|245:67,1,85,14|0,0:0|0:0,0:0:0:0:
282,240,158288,1,8,0:0:0:0:
370,121,158502,1,8,0:0:0:0:
485,306,158717,1,8,0:0:0:0:
371,212,158931,1,8,0:0:0:0:
510,95,159145,2,0,L|492:197,1,85,8|0,0:0|0:0,0:0:0:0:
375,322,159574,6,0,P|311:343|276:323,1,85,14|0,0:0|0:0,0:0:0:0:
149,225,160002,1,8,0:0:0:0:
285,188,160217,1,8,0:0:0:0:
152,316,160431,1,8,0:0:0:0:
58,201,160645,1,8,0:0:0:0:
209,118,160860,1,8,0:0:0:0:
266,288,161074,1,8,0:0:0:0:
266,288,161181,1,8,0:0:0:0:
266,288,161288,6,0,P|283:359|285:382,1,85,14|0,0:0|0:0,0:0:0:0:
315,180,161717,1,0,3:2:0:0:
157,227,161931,2,0,P|104:215|63:194,1,85,10|0,0:0|3:2,0:0:0:0:
155,63,162360,1,10,0:0:0:0:
227,171,162574,1,0,3:2:0:0:
323,83,162788,1,10,0:0:0:0:
323,83,162895,1,8,0:0:0:0:
323,83,163002,6,0,P|386:67|429:62,1,85,14|0,0:0|0:0,0:0:0:0:
375,191,163431,1,0,3:2:0:0:
490,152,163645,1,10,0:0:0:0:
455,281,163860,1,0,3:2:0:0:
455,281,163967,1,0,3:2:0:0:
455,281,164074,1,10,0:0:0:0:
361,182,164288,1,0,3:2:0:0:
300,294,164502,1,10,0:0:0:0:
186,155,164717,6,0,P|176:102|174:70,1,85,14|0,0:0|0:0,0:0:0:0:
135,232,165145,1,10,0:0:0:0:
275,177,165360,1,10,0:0:0:0:
206,338,165574,1,10,0:0:0:0:
56,221,165788,1,10,0:0:0:0:
174,71,166002,1,10,0:0:0:0:
221,237,166217,1,10,0:0:0:0:
256,7,166431,5,14,0:0:0:0:
256,192,166538,12,2,168360,0:0:0:0:
214,212,175217,6,0,P|186:176|183:115,1,101.999996887207,2|0,0:0|0:0,0:0:0:0:
310,22,176074,2,0,P|338:58|341:119,1,101.999996887207,2|0,0:0|0:0,0:0:0:0:
303,201,176717,2,0,P|350:192|406:188,1,101.999996887207,2|0,0:0|0:0,0:0:0:0:
487,196,177360,1,0,0:0:0:0:
487,196,177574,1,2,0:0:0:0:
375,325,178002,2,0,P|343:331|317:331,1,50.9999984436036,2|0,0:0|0:0,0:0:0:0:
250,303,178431,1,0,0:0:0:0:
153,236,178645,5,2,0:0:0:0:
153,236,178860,2,0,L|142:147,2,68,0|0|0,0:0|0:0|0:0,0:0:0:0:
314,187,179502,1,2,0:0:0:0:
314,187,179717,2,0,L|321:120,1,68,0|0,0:0|0:0,0:0:0:0:
191,70,180145,5,14,0:0:0:0:
191,70,180574,1,10,0:0:0:0:
238,254,180788,1,10,0:0:0:0:
408,187,181002,1,10,0:0:0:0:
408,187,181109,1,8,0:0:0:0:
408,187,181216,1,10,0:0:0:0:
408,187,181323,1,8,0:0:0:0:
408,187,181431,1,10,0:0:0:0:
242,143,181645,1,10,0:0:0:0:
204,142,181752,1,8,0:0:0:0:
170,158,181859,1,8,0:0:0:0:
147,188,181966,1,8,0:0:0:0:
140,226,182074,6,0,L|150:321,1,85,6|0,3:2|0:0,0:0:0:0:
320,206,182502,2,0,L|328:121,1,85,8|0,0:0|0:0,0:0:0:0:
178,55,182931,2,0,P|116:53|65:144,1,170,2|8,3:2|0:0,0:0:0:0:
53,289,183574,6,0,P|130:264|150:262,1,85,2|0,0:0|3:2,0:0:0:0:
243,279,184002,1,0,0:0:0:0:
157,147,184217,1,8,0:0:0:0:
310,101,184431,1,0,0:0:0:0:
239,197,184645,1,2,3:2:0:0:
239,197,184752,1,8,0:0:0:0:
239,197,184860,1,0,0:0:0:0:
406,153,185074,1,8,0:0:0:0:
281,18,185288,6,0,P|264:98|254:202,1,170,2|0,0:0|0:0,0:0:0:0:
254,185,185931,1,8,0:0:0:0:
423,145,186145,2,0,P|440:225|450:329,1,170,2|0,0:0|0:0,0:0:0:0:
450,312,186788,1,8,0:0:0:0:
289,273,187002,1,0,0:0:0:0:
134,343,187217,6,0,P|61:344|22:253,1,170,2|8,3:2|0:0,0:0:0:0:
101,161,187860,2,0,P|130:155|153:147,1,42.5,0|8,0:0|0:0,0:0:0:0:
206,231,188074,1,2,3:2:0:0:
206,231,188181,1,8,0:0:0:0:
206,231,188288,1,0,0:0:0:0:
354,158,188502,1,8,0:0:0:0:
218,52,188717,1,0,0:0:0:0:
177,38,188824,1,8,0:0:0:0:
135,32,188931,6,0,P|81:41|43:53,1,85,6|0,3:2|0:0,0:0:0:0:
30,231,189360,2,0,P|84:222|122:210,1,85,8|0,0:0|0:0,0:0:0:0:
273,120,189788,2,0,P|330:110|399:204,1,170,2|8,3:2|0:0,0:0:0:0:
410,351,190431,6,0,P|350:338|317:322,1,85,2|0,0:0|3:0,0:0:0:0:
187,270,190860,1,0,0:0:0:0:
315,188,191074,1,8,0:0:0:0:
244,342,191288,1,0,0:0:0:0:
111,294,191502,1,2,3:2:0:0:
111,294,191610,1,8,0:0:0:0:
111,294,191717,1,0,0:0:0:0:
172,127,191931,1,8,0:0:0:0:
280,263,192145,1,0,0:0:0:0:
278,52,192360,6,0,P|222:44|179:39,1,85,6|0,3:2|0:0,0:0:0:0:
202,210,192788,1,8,0:0:0:0:
362,129,193002,1,0,0:0:0:0:
362,129,193110,1,8,0:0:0:0:
362,129,193217,6,0,P|418:121|461:116,1,85,6|0,3:2|0:0,0:0:0:0:
433,287,193645,1,8,0:0:0:0:
279,167,193860,1,0,0:0:0:0:
279,167,193967,1,8,0:0:0:0:
279,167,194074,5,6,3:2:0:0:
261,284,194288,1,0,0:0:0:0:
76,179,194502,1,8,0:0:0:0:
190,215,194717,1,0,0:0:0:0:
72,345,194931,1,2,3:2:0:0:
184,318,195145,1,0,0:0:0:0:
146,125,195360,1,8,0:0:0:0:
119,242,195574,1,0,0:0:0:0:
86,56,195788,6,0,P|141:33|180:42,1,85,2|0,3:2|0:0,0:0:0:0:
232,210,196217,2,0,P|274:210|310:190,1,85,8|0,0:0|0:0,0:0:0:0:
415,57,196645,1,2,3:2:0:0:
415,57,196752,1,8,0:0:0:0:
415,57,196860,1,0,0:0:0:0:
450,180,197074,1,8,0:0:0:0:
307,89,197288,1,0,0:0:0:0:
344,236,197502,5,6,3:2:0:0:
234,181,197717,1,0,0:0:0:0:
138,320,197931,1,8,0:0:0:0:
251,269,198145,1,0,0:0:0:0:
186,74,198360,1,2,3:2:0:0:
152,213,198574,1,0,0:0:0:0:
36,47,198788,1,8,0:0:0:0:
147,139,199002,1,0,0:0:0:0:
300,51,199217,6,0,P|345:38|393:32,1,85,2|0,3:2|0:0,0:0:0:0:
373,202,199645,2,0,P|352:249|328:280,1,85,8|0,0:0|0:0,0:0:0:0:
230,177,200074,1,2,3:2:0:0:
230,177,200181,1,8,0:0:0:0:
230,177,200288,1,0,0:0:0:0:
353,120,200502,1,12,0:0:0:0:
234,27,200717,1,0,0:0:0:0:
112,166,200931,5,6,3:2:0:0:
226,124,201145,1,0,0:0:0:0:
287,308,201360,1,8,0:0:0:0:
202,225,201574,1,0,0:0:0:0:
348,120,201788,1,2,3:2:0:0:
307,228,202002,1,0,0:0:0:0:
467,164,202217,1,8,0:0:0:0:
423,50,202431,1,0,0:0:0:0:
264,105,202645,6,0,P|205:87|179:73,1,85,2|0,3:2|0:0,0:0:0:0:
49,36,203074,2,0,P|42:106|52:154,1,85,8|0,0:0|0:0,0:0:0:0:
69,239,203502,1,2,3:2:0:0:
69,239,203610,1,8,0:0:0:0:
69,239,203717,1,0,0:0:0:0:
192,189,203931,1,8,0:0:0:0:
279,289,204145,1,0,0:0:0:0:
375,163,204360,5,6,3:2:0:0:
411,278,204574,1,0,0:0:0:0:
192,189,204788,1,8,0:0:0:0:
301,112,205002,1,0,0:0:0:0:
260,294,205217,1,2,3:2:0:0:
120,245,205431,1,0,0:0:0:0:
210,71,205645,2,0,L|228:123,1,42.5,8|8,0:0|0:0,0:0:0:0:
267,205,205860,1,14,0:0:0:0:
267,205,206288,5,10,0:0:0:0:
459,100,206502,1,10,0:0:0:0:
389,293,206717,1,10,0:0:0:0:
304,44,206931,1,10,0:0:0:0:
