osu file format v14

[General]
AudioFilename: audio.mp3
AudioLeadIn: 0
PreviewTime: 187453
Countdown: 0
SampleSet: Drum
StackLeniency: 0
Mode: 0
LetterboxInBreaks: 0
WidescreenStoryboard: 0

[Editor]
Bookmarks: 80250,92250,122250,128250,140250,152250,164250,176250,176625,177000,177375,177750,178125,178500,178875,179250,179625,180000,180375,180562,180750,180937,181125,181312,181500,181687,181875,182250,182625,183000,183375,183750,184125,184500,184875,185250,185625,186000,186375,186750,187125,187500,200250,212250,232112,251974,271836,291698
DistanceSpacing: 1.4
BeatDivisor: 6
GridSize: 32
TimelineZoom: 2.6

[Metadata]
Title:Nordlys
TitleUnicode:Nordlys
Artist:Mental Cruelty
ArtistUnicode:Mental Cruelty
Creator:Sh4rq_
Version:Heimdallr av Bivrost
Source:
Tags:zwielicht english aleksine sh3rg_ nahuel lozano marvin kessler viktor dick danny straßer blackened deathcore death metal lukas nicolai
BeatmapID:4155614
BeatmapSetID:1999022

[Difficulty]
HPDrainRate:4
CircleSize:4.2
OverallDifficulty:10
ApproachRate:10
SliderMultiplier:2
SliderTickRate:1

[Events]
//Background and Video events
0,0,"nordlysextende.jpg",0,0
//Break Periods
2,176450,187050
//Storyboard Layer 0 (Background)
//Storyboard Layer 1 (Fail)
//Storyboard Layer 2 (Pass)
//Storyboard Layer 3 (Foreground)
//Storyboard Layer 4 (Overlay)
//Storyboard Sound Samples

[TimingPoints]
750,250,3,2,4,35,1,0
750,-500.000000000003,3,2,4,35,0,0
24750,-312.5,4,3,2,70,0,0
26125,-312.5,4,3,2,5,0,0
26250,-142.857142857143,4,3,2,70,0,0
27000,-142.857142857143,4,3,3,70,0,0
29375,-100,3,3,2,5,0,0
29500,-100,3,3,2,70,0,0
29750,-100,3,3,3,70,0,0
30000,-100,3,3,2,70,0,0
30125,-100,3,3,2,5,0,0
30250,-100,3,3,3,70,0,0
30750,-250,3,3,2,70,0,0
33000,-250,3,3,3,70,0,0
35250,-100,3,3,2,70,0,0
35375,-100,3,3,2,5,0,0
35500,-100,3,3,2,70,0,0
35750,-100,3,3,3,70,0,0
36000,-100,3,3,2,70,0,0
36125,-100,3,3,2,5,0,0
36250,-100,3,3,3,70,0,0
36750,-250,3,3,2,70,0,0
38125,-250,3,3,2,5,0,0
38250,-250,3,3,2,70,0,0
39000,-250,3,3,3,70,0,0
41250,-100,3,3,2,70,0,0
41375,-100,3,3,2,5,0,0
41500,-100,3,3,2,70,0,0
41750,-100,3,3,3,70,0,0
42000,-100,3,3,2,70,0,0
42125,-100,3,3,2,5,0,0
42250,-100,3,3,3,70,0,0
42750,-250,3,3,2,70,0,0
44125,-250,3,3,2,5,0,0
44250,-250,3,3,2,70,0,0
45000,-250,3,3,3,70,0,0
46250,-100,3,3,3,70,0,0
46375,-100,3,3,2,70,0,0
46500,-100,3,3,2,70,0,0
47000,-100,3,3,3,70,0,0
47250,-100,3,3,2,70,0,0
47750,-100,3,3,3,70,0,0
48000,-100,3,3,2,70,0,0
49750,-100,3,3,3,70,0,0
50250,-500.000000000003,4,2,4,40,0,0
56000,-250,4,2,4,40,0,0
56187,-250,4,3,2,5,0,0
56250,-66.6666666666667,3,3,2,40,0,0
56437,-66.6666666666667,3,3,2,40,0,0
56500,-100,3,3,2,85,0,1
67500,-100,3,3,3,85,0,0
67625,-100,3,3,2,85,0,0
68000,-100,3,3,3,85,0,0
68250,-66.6666666666667,3,3,2,85,0,0
68500,-100,3,3,2,85,0,1
80000,-100,3,3,3,85,0,0
80250,-125,3,3,2,70,0,0
80437,-125,3,3,2,5,0,0
80500,-125,3,3,2,70,0,0
80625,-125,3,3,2,5,0,0
80750,-125,3,3,2,70,0,0
80875,-125,3,3,2,5,0,0
81000,-125,3,3,2,70,0,0
81375,-125,3,3,2,5,0,0
81500,-125,3,3,2,70,0,0
83437,-125,3,3,2,5,0,0
83500,-125,3,3,2,70,0,0
83625,-125,3,3,2,5,0,0
83750,-125,3,3,2,70,0,0
83875,-125,3,3,2,5,0,0
84000,-125,3,3,2,70,0,0
85625,-125,3,3,2,5,0,0
85750,-125,3,3,2,70,0,0
85875,-125,3,3,2,5,0,0
86000,-115.393491807062,3,3,2,70,0,0
86125,-115.393491807062,3,3,2,5,0,0
86250,-125,3,3,2,70,0,0
86625,-125,3,3,2,5,0,0
86750,-125,3,3,2,70,0,0
86875,-125,3,3,2,5,0,0
87000,-125,3,3,2,70,0,0
91625,-125,3,3,2,5,0,0
91750,-125,3,3,3,70,0,0
92250,-176.470608996542,3,3,2,70,0,0
93375,-176.470608996542,3,3,2,5,0,0
93500,-176.470608996542,3,3,2,70,0,0
93625,-176.470608996542,3,3,2,5,0,0
93750,-176.470608996542,3,3,2,70,0,0
94875,-176.470608996542,3,3,2,5,0,0
95000,-176.470608996542,3,3,2,70,0,0
95125,-176.470608996542,3,3,2,5,0,0
95250,-176.470608996542,3,3,2,70,0,0
95625,-176.470608996542,3,3,2,5,0,0
95750,-176.470608996542,3,3,2,70,0,0
95875,-176.470608996542,3,3,2,5,0,0
96000,-176.470608996542,3,3,2,70,0,0
96375,-176.470608996542,3,3,2,5,0,0
96500,-176.470608996542,3,3,2,70,0,0
96625,-176.470608996542,3,3,2,5,0,0
96750,-176.470608996542,3,3,2,70,0,0
97125,-176.470608996542,3,3,2,5,0,0
97250,-176.470608996542,3,3,2,70,0,0
98625,-176.470608996542,3,3,2,5,0,0
98750,-176.470608996542,3,3,2,70,0,0
98875,-176.470608996542,3,3,2,5,0,0
99000,-176.470608996542,3,3,2,70,0,0
99375,-176.470608996542,3,3,2,5,0,0
99500,-176.470608996542,3,3,2,70,0,0
99625,-176.470608996542,3,3,2,5,0,0
99750,-176.470608996542,3,3,2,70,0,0
100875,-176.470608996542,3,3,2,5,0,0
101000,-176.470608996542,3,3,2,70,0,0
101125,-176.470608996542,3,3,2,5,0,0
101250,-176.470608996542,3,3,2,70,0,0
102375,-176.470608996542,3,3,2,5,0,0
102500,-176.470608996542,3,3,2,70,0,0
102750,-176.470608996542,3,3,2,70,0,0
103583,-176.470608996542,3,3,3,70,0,0
104250,-176.470608996542,3,3,2,78,0,0
113437,-176.470608996542,3,3,2,78,0,0
113500,-176.470608996542,3,3,2,78,0,0
114500,-115.385502965407,3,3,2,78,0,0
116437,-115.385502965407,3,3,2,78,0,0
116500,-176.472664384287,3,3,2,78,0,0
122000,-66.6666666666667,3,3,2,78,0,0
122250,-115.385502965407,3,3,2,78,0,0
125187,-115.385502965407,3,3,2,78,0,0
125250,-100,3,3,2,78,0,0
125375,-100,3,3,2,78,0,0
125500,-100,3,3,2,78,0,0
125750,-115.393491807062,3,3,3,78,0,0
125875,-115.393491807062,3,3,2,78,0,0
126250,-115.393491807062,3,3,3,78,0,0
126750,-115.393491807062,3,3,2,78,0,0
127625,-115.393491807062,3,3,2,78,0,0
128250,-250,3,3,2,70,0,0
128437,-250,3,3,2,5,0,0
128500,-250,3,3,2,85,0,1
134250,-100,3,3,2,85,0,1
139500,-100,3,3,3,85,0,0
139625,-100,3,3,2,85,0,0
140000,-100,3,3,3,85,0,0
140250,-100,3,3,2,85,0,1
146437,-100,3,3,2,5,0,1
146500,-100,3,3,2,85,0,1
151500,-100,3,3,3,85,0,1
152250,-90.9090909090909,3,3,2,70,0,0
152937,-90.9090909090909,3,3,2,5,0,0
153000,-90.9090909090909,3,3,2,70,0,0
158125,-90.9090909090909,3,3,3,70,0,0
158250,-250,3,3,2,70,0,0
158437,-250,3,3,2,5,0,0
158500,-100,3,3,2,70,0,0
164000,-100,3,3,3,70,0,0
164250,-100,3,3,2,70,0,0
165000,-200,4,3,2,56,0,0
165500,-200,4,3,2,35,0,0
165750,-200,4,3,2,56,0,0
166437,-200,4,3,2,5,0,0
166500,-200,4,3,2,56,0,0
168687,-200,4,3,2,5,0,0
168750,-200,4,3,2,56,0,0
171500,-200,4,3,2,35,0,0
171750,-200,4,3,2,56,0,0
172437,-200,4,3,2,5,0,0
172500,-200,4,3,2,56,0,0
174000,-166.666666666667,4,3,2,56,0,0
174125,-166.666666666667,4,3,2,5,0,0
174250,-166.666666666667,4,3,2,56,0,0
174625,-166.666666666667,4,3,3,56,0,0
174750,-166.666666666667,4,3,2,56,0,0
175000,-166.666666666667,4,3,3,56,0,0
175500,-166.666666666667,4,3,2,56,0,0
175750,-166.666666666667,4,3,3,56,0,0
176000,-166.666666666667,4,3,2,56,0,0
187500,-1000,4,3,2,56,0,0
188125,-500,4,3,2,56,0,0
188250,-250,3,3,2,85,0,0
188437,-250,3,3,2,5,0,0
188500,-100,3,3,2,85,0,1
199500,-100,3,3,3,85,0,1
199750,-100,3,3,2,85,0,1
200000,-100,3,3,3,85,0,1
200250,-100,4,3,2,85,0,1
203125,-303.030303030303,4,3,2,85,0,1
203250,-100,4,3,2,85,0,1
206000,-83.3333333333333,4,3,2,85,0,1
206187,-83.3333333333333,4,3,2,85,0,1
206250,-100,4,3,2,85,0,1
209187,-100,4,3,2,5,0,1
209250,-100,4,3,2,85,0,1
209437,-100,4,3,2,5,0,1
209500,-100,4,3,2,85,0,1
209750,-100,4,3,3,85,0,1
210000,-100,4,3,2,85,0,1
210250,-100,4,3,3,85,0,1
210750,-100,4,3,2,85,0,1
212250,827.586206896552,4,3,2,50,1,0
212250,-333.333333333333,4,3,2,50,0,0
212870,-333.333333333333,4,3,2,5,0,0
213077,-333.333333333333,4,3,2,50,0,0
215353,-333.333333333333,4,3,2,5,0,0
215560,-333.333333333333,4,3,2,50,0,0
216181,-333.333333333333,4,3,2,5,0,0
216387,-333.333333333333,4,3,2,50,0,0
217836,-333.333333333333,4,3,2,5,0,0
218043,-333.333333333333,4,3,2,50,0,0
218663,-333.333333333333,4,3,2,5,0,0
218870,-285.714285714286,4,3,2,50,0,0
219491,-285.714285714286,4,3,2,5,0,0
219698,-285.714285714286,4,3,2,50,0,0
221974,-285.714285714286,4,3,2,5,0,0
222181,-285.714285714286,4,3,2,50,0,0
222801,-285.714285714286,4,3,2,5,0,0
223008,-285.714285714286,4,3,2,50,0,0
224456,-285.714285714286,4,3,2,5,0,0
224663,-285.714285714286,4,3,2,50,0,0
225284,-285.714285714286,4,3,2,5,0,0
225491,-181.818181818182,4,3,2,50,0,0
226112,-181.818181818182,4,3,2,5,0,0
226318,-222.222222222222,4,3,2,50,0,0
226939,-222.222222222222,4,3,2,5,0,0
227146,-181.818181818182,4,3,2,50,0,0
227767,-181.818181818182,4,3,2,5,0,0
227974,-153.846153846154,4,3,2,50,0,0
228594,-153.846153846154,4,3,2,5,0,0
228801,-133.333333333333,4,3,2,50,0,0
229422,-133.333333333333,4,3,2,5,0,0
229629,-153.846153846154,4,3,2,50,0,0
230250,-153.846153846154,4,3,2,5,0,0
230456,-133.333333333333,4,3,2,50,0,0
231077,-133.333333333333,4,3,2,5,0,0
231284,-153.846153846154,4,3,2,50,0,0
231905,-153.846153846154,4,3,2,5,0,0
232112,-133.333333333333,4,3,2,60,0,0
232732,-133.333333333333,4,3,2,5,0,0
232939,-133.333333333333,4,3,2,60,0,0
233560,-133.333333333333,4,3,2,5,0,0
233767,-117.647058823529,4,3,2,60,0,0
234387,-117.647058823529,4,3,2,5,0,0
234594,-100,4,3,2,60,0,0
235215,-100,4,3,2,5,0,0
235422,-111.111111111111,4,3,2,60,0,0
236043,-111.111111111111,4,3,2,5,0,0
236250,-133.333333333333,4,3,2,60,0,0
236870,-133.333333333333,4,3,2,5,0,0
237077,-111.111111111111,4,3,2,60,0,0
237698,-111.111111111111,4,3,2,5,0,0
237905,-181.818181818181,4,3,2,60,0,0
238525,-181.818181818181,4,3,2,5,0,0
238732,-100,4,3,2,60,0,0
239353,-100,4,3,2,5,0,0
239560,-222.222222222221,4,3,2,60,0,0
241215,-133.333333333333,4,3,2,60,0,0
241629,-133.333333333333,4,3,3,60,0,0
242043,-117.647058823529,4,3,2,60,0,0
244939,-66.6666666666667,4,3,2,60,0,0
245043,-66.6666666666667,4,3,2,5,0,0
245146,-45.4545454545455,4,3,2,60,0,0
245250,-45.4545454545455,4,3,2,5,0,0
245353,-100,4,3,2,60,0,0
245560,-100,4,3,2,5,0,0
245767,-83.3333333333333,4,3,2,60,0,0
247146,-83.3333333333333,4,3,2,5,0,0
247284,-83.3333333333333,4,3,2,60,0,0
247422,-83.3333333333333,4,3,2,5,0,0
247560,-83.3333333333333,4,3,2,60,0,0
247698,-83.3333333333333,4,3,2,5,0,0
247836,-83.3333333333333,4,3,2,60,0,0
248250,-83.3333333333333,4,3,3,60,0,0
248663,-83.3333333333333,4,3,2,60,0,0
249284,-83.3333333333333,4,3,2,5,0,0
249491,-83.3333333333333,4,3,2,70,0,0
249905,-83.3333333333333,4,3,3,70,0,0
250181,-83.3333333333333,4,3,2,70,0,0
251974,413.793103448276,4,3,2,70,1,0
251974,-200,4,3,2,70,0,0
252594,-200,4,3,2,5,0,0
252801,-133.333333333333,4,3,2,70,0,0
253422,-133.333333333333,4,3,2,5,0,0
253629,-133.333333333333,4,3,2,70,0,0
254042,-133.333333333333,4,3,2,49,0,0
254456,-133.333333333333,4,3,2,70,0,0
255284,-200,4,3,2,70,0,0
255905,-200,4,3,2,5,0,0
256111,-133.333333333333,4,3,2,70,0,0
256732,-133.333333333333,4,3,2,5,0,0
256939,-133.333333333333,4,3,2,70,0,0
258594,-200,4,3,2,70,0,0
259215,-200,4,3,2,5,0,0
259422,-133.333333333333,4,3,2,70,0,0
260042,-133.333333333333,4,3,2,5,0,0
260249,-133.333333333333,4,3,2,70,0,0
260663,-133.333333333333,4,3,2,50,0,0
261077,-133.333333333333,4,3,2,70,0,0
261905,-200,4,3,2,70,0,0
262525,-200,4,3,2,5,0,0
262732,-133.333333333333,4,3,2,70,0,0
263353,-133.333333333333,4,3,2,5,0,0
263560,-133.333333333333,4,3,2,70,0,0
265215,-200,4,3,2,70,0,0
265836,-200,4,3,2,5,0,0
266042,-133.333333333333,4,3,2,70,0,0
266663,-133.333333333333,4,3,2,5,0,0
266870,-133.333333333333,4,3,2,70,0,0
267284,-133.333333333333,4,3,2,50,0,0
267698,-133.333333333333,4,3,2,70,0,0
268525,-200,4,3,2,70,0,0
269146,-200,4,3,2,5,0,0
269353,-133.333333333333,4,3,2,70,0,0
269974,-133.333333333333,4,3,2,5,0,0
270180,-133.333333333333,4,3,2,70,0,0
271836,-200,4,3,2,70,0,0
272456,-200,4,3,2,5,0,0
272663,-133.333333333333,4,3,2,70,0,0
273284,-133.333333333333,4,3,2,5,0,0
273491,-133.333333333333,4,3,2,70,0,0
275146,-181.818181818181,4,3,2,70,0,0
275767,-181.818181818181,4,3,2,5,0,0
275974,-133.333333333333,4,3,2,70,0,0
276594,-133.333333333333,4,3,2,5,0,0
276801,-133.333333333333,4,3,2,70,0,0
277215,-133.333333333333,4,3,3,70,0,0
278042,-133.333333333333,4,3,2,70,0,0
279284,-133.333333333333,4,3,2,70,0,0
279594,-133.333333333333,4,3,2,5,0,0
279698,-133.333333333333,4,3,2,70,0,0
280008,-133.333333333333,4,3,2,5,0,0
280111,-133.333333333333,4,3,2,70,0,0
281249,-133.333333333333,4,3,2,5,0,0
281353,-66.6666666666667,4,3,2,70,0,0
281663,-66.6666666666667,4,3,2,5,0,0
281767,-133.333333333333,4,3,2,70,0,0
283353,-133.333333333333,4,3,2,5,0,0
283422,-133.333333333333,4,3,2,70,0,0
285767,-133.333333333333,4,3,2,5,0,0
285905,-100,4,3,2,70,0,0
286594,-100,4,3,2,5,0,0
286732,-100,4,3,2,70,0,0
287560,-133.333333333333,4,3,2,70,0,0
287836,-133.333333333333,4,3,2,5,0,0
287974,-66.6666666666667,4,3,2,70,0,0
288249,-66.6666666666667,4,3,2,5,0,0
288387,-133.333333333333,4,3,2,70,0,0
289491,-133.333333333333,4,3,2,5,0,0
289629,-133.333333333333,4,3,2,70,0,0
289905,-133.333333333333,4,3,2,5,0,0
290042,-133.333333333333,4,3,2,70,0,0
291698,-133.333333333333,4,3,2,70,0,0
292387,-133.333333333333,4,3,2,5,0,0
292525,-100,4,3,2,70,0,0
293215,-100,4,3,2,5,0,0
293353,-100,4,3,2,70,0,0
294387,-100,4,3,2,5,0,0
294594,-100,4,3,2,70,0,0
294801,-100,4,3,2,5,0,0
295008,-100,4,3,2,70,0,0
295836,-100,4,3,2,70,0,0
296111,-100,4,3,2,5,0,0
296249,-100,4,3,2,70,0,0
296525,-100,4,3,2,5,0,0
296663,-100,4,3,2,70,0,0
298318,-133.333333333333,4,3,2,70,0,0
299008,-133.333333333333,4,3,2,5,0,0
299146,-100,4,3,2,70,0,0
299422,-100,4,3,2,5,0,0
299560,-100,4,3,2,70,0,0
299836,-100,4,3,2,5,0,0
299974,-100,4,3,2,70,0,0
301077,-100,4,3,2,5,0,0
301215,-100,4,3,2,70,0,0
301491,-100,4,3,2,5,0,0
301629,-100,4,3,2,70,0,0
302732,-100,4,3,2,5,0,0
302870,-100,4,3,2,70,0,0
303146,-100,4,3,2,5,0,0
303284,-100,4,3,2,70,0,0
303698,-100,4,3,3,70,0,0
303974,-100,4,3,2,70,0,0
304663,-100,4,3,3,70,0,0
304939,-100,4,3,2,70,0,0
306594,-100,4,3,2,60,0,0
308249,-100,4,3,2,47,0,0
309905,-100,4,3,2,39,0,0
311560,-100,4,3,2,22,0,0
313215,-100,4,2,2,5,0,0

[Colours]
Combo1 : 73,73,73
Combo2 : 192,192,192
Combo3 : 128,128,128

[HitObjects]
146,115,750,6,0,P|131:126|116:144,1,40,2|2,0:0|0:0,0:0:0:0:
96,213,1250,1,2,0:0:0:0:
172,278,1500,2,0,P|191:259|209:251,2,40,2|0|0,0:0|0:0|0:0,0:0:0:0:
258,172,2250,6,0,P|273:180|297:187,1,40
369,172,2750,1,0,0:0:0:0:
370,277,3000,2,0,P|354:261|335:250,1,40
266,341,3500,1,2,0:0:0:0:
279,333,3625,1,2,0:0:0:0:
300,349,3750,6,0,P|318:347|341:345,1,39.9999987792969,2|0,0:0|0:0,0:0:0:0:
416,359,4250,1,0,0:0:0:0:
463,289,4500,2,0,P|475:266|490:249,2,40
413,214,5250,6,0,P|407:190|399:177,1,40
327,162,5750,1,0,0:0:0:0:
308,67,6000,5,2,0:0:0:0:
280,55,6125,1,2,0:0:0:0:
264,75,6250,1,2,0:0:0:0:
249,78,6375,1,2,0:0:0:0:
217,62,6500,2,0,L|200:53,1,20,2|2,0:0|0:0,0:0:0:0:
158,22,6750,5,2,0:0:0:0:
135,48,6875,1,2,0:0:0:0:
100,56,7000,1,2,0:0:0:0:
145,171,7250,1,0,0:0:0:0:
72,236,7500,2,0,P|107:246|128:251,2,40
145,318,8250,5,2,0:0:0:0:
168,330,8375,1,2,0:0:0:0:
199,303,8500,1,2,0:0:0:0:
206,297,8625,1,2,0:0:0:0:
222,328,8750,1,2,0:0:0:0:
250,346,8875,1,2,0:0:0:0:
265,328,9000,6,0,P|274:319|283:316,2,20,2|2|2,0:0|0:0|0:0,0:0:0:0:
336,364,9375,2,0,P|345:373|354:376,2,20,2|2|2,0:0|0:0|0:0,0:0:0:0:
429,350,9750,6,0,P|437:334|448:313,1,40,2|0,0:0|0:0,0:0:0:0:
411,237,10250,1,0,0:0:0:0:
512,218,10500,2,0,P|492:235|476:257,2,40,2|0|0,0:0|0:0|0:0,0:0:0:0:
427,159,11250,5,2,0:0:0:0:
436,144,11375,1,2,0:0:0:0:
424,118,11500,1,2,0:0:0:0:
360,144,11750,1,2,0:0:0:0:
279,77,12000,2,0,P|293:109|298:132,2,40,2|0|2,0:0|0:0|0:0,0:0:0:0:
194,168,12750,6,0,P|171:151|160:145,1,40,2|2,0:0|0:0,0:0:0:0:
76,181,13250,1,2,0:0:0:0:
24,70,13500,2,0,P|46:81|69:95,2,40,2|0|0,0:0|0:0|0:0,0:0:0:0:
148,38,14250,6,0,P|170:32|188:26,1,40
237,84,14750,1,0,0:0:0:0:
352,10,15000,2,0,P|332:22|313:22,2,40
425,91,15750,5,2,0:0:0:0:
363,134,16000,1,2,0:0:0:0:
431,75,16250,1,2,0:0:0:0:
478,192,16500,2,0,P|461:227|458:236,2,40,2|0|0,0:0|0:0|0:0,0:0:0:0:
411,302,17250,6,0,P|394:284|383:271,1,40
281,293,17750,1,0,0:0:0:0:
333,384,18000,2,0,P|343:355|350:339,2,40
241,256,18750,5,2,0:0:0:0:
164,311,19000,1,2,0:0:0:0:
159,312,19083,1,2,0:0:0:0:
154,313,19166,1,2,0:0:0:0:
148,314,19250,1,2,0:0:0:0:
99,249,19500,1,2,0:0:0:0:
148,314,19750,1,2,0:0:0:0:
143,315,19833,1,2,0:0:0:0:
138,316,19916,1,2,0:0:0:0:
132,317,20000,1,2,0:0:0:0:
181,207,20250,5,2,0:0:0:0:
106,111,20500,1,2,0:0:0:0:
103,115,20583,1,2,0:0:0:0:
100,119,20666,1,2,0:0:0:0:
98,123,20750,1,2,0:0:0:0:
184,105,21000,1,2,0:0:0:0:
98,123,21250,1,2,0:0:0:0:
95,127,21333,1,2,0:0:0:0:
92,131,21416,1,2,0:0:0:0:
90,135,21500,1,2,0:0:0:0:
29,53,21750,5,2,0:0:0:0:
101,21,22000,2,0,P|117:31|139:38,1,40
180,94,22500,1,0,0:0:0:0:
314,24,22750,6,0,L|322:52,1,20,2|0,0:0|0:0,0:0:0:0:
257,93,23000,2,0,L|252:74,1,20,2|0,0:0|0:0,0:0:0:0:
369,172,23250,6,0,P|341:155|324:148,5,40,2|0|0|0|0|0,0:0|0:0|0:0|0:0|0:0|0:0,0:0:0:0:
448,315,24750,6,0,B|458:307|477:300|477:300|447:288|406:295|401:314|401:314|394:308|394:308|371:336|318:339|318:339|339:353|339:353|314:339|288:335|265:341|265:341|288:341|305:360,1,352,4|0,3:0|0:0,0:0:0:0:
183,350,26250,5,4,0:0:0:0:
262,214,26375,1,0,0:0:0:0:
168,337,26500,1,4,0:2:0:0:
34,176,26750,5,4,0:2:0:0:
92,226,27000,1,8,0:3:0:0:
160,23,27250,1,8,0:3:0:0:
160,23,29250,6,0,P|142:69|134:134,1,104.999996795654,4|0,0:0|2:0,0:0:0:0:
192,196,29500,5,8,0:0:0:0:
237,215,29562,1,8,0:0:0:0:
276,202,29625,1,8,0:0:0:0:
289,168,29687,1,8,0:0:0:0:
281,160,29750,5,2,2:1:0:0:
282,122,29812,1,2,2:1:0:0:
325,93,29875,1,2,2:1:0:0:
374,116,29937,1,2,2:1:0:0:
365,194,30000,6,0,B|349:225|349:225|417:196,1,100,4|0,0:2|0:0,0:0:0:0:
482,292,30250,5,4,2:1:0:0:
477,291,30312,1,4,2:1:0:0:
472,290,30375,1,4,2:1:0:0:
467,289,30437,1,4,2:1:0:0:
436,314,30500,5,8,2:1:0:0:
431,315,30562,1,8,2:1:0:0:
426,316,30625,1,8,2:1:0:0:
421,317,30687,1,8,2:1:0:0:
384,297,30750,6,0,B|415:347|415:347|286:308|286:308|284:303|284:303|152:261|152:261|193:320,1,400,4|0,0:0|2:0,0:0:0:0:
260,369,32250,5,4,0:0:0:0:
171,131,32375,1,4,0:2:0:0:
267,355,32500,1,4,0:0:0:0:
420,116,32750,5,4,0:1:0:0:
342,95,33000,1,8,0:3:0:0:
507,383,33250,1,8,0:3:0:0:
503,378,35250,6,0,P|449:345|395:325,1,100,4|0,0:0|0:0,0:0:0:0:
371,207,35500,5,8,0:0:0:0:
317,193,35562,1,8,0:0:0:0:
278,215,35625,1,8,0:0:0:0:
269,250,35687,1,8,0:0:0:0:
277,263,35750,5,2,2:1:0:0:
275,298,35812,1,2,2:1:0:0:
237,324,35875,1,2,2:1:0:0:
186,306,35937,1,2,2:1:0:0:
166,230,36000,6,0,P|117:255|61:274,1,100,4|0,0:2|0:0,0:0:0:0:
37,142,36250,5,4,2:1:0:0:
35,146,36312,1,4,2:1:0:0:
33,150,36375,1,4,2:1:0:0:
32,154,36437,1,4,2:1:0:0:
5,181,36500,5,8,2:1:0:0:
7,185,36562,1,8,2:1:0:0:
9,189,36625,1,8,2:1:0:0:
10,193,36687,1,8,2:1:0:0:
43,212,36750,6,0,B|105:171|167:159|167:159|174:148|174:148|240:132|306:162|306:162|318:156|318:156|385:164|437:241,1,440,4|0,0:0|0:0,0:0:0:0:
376,307,38250,5,4,0:0:0:0:
303,71,38375,1,4,0:2:0:0:
387,293,38500,1,4,0:0:0:0:
136,72,38750,5,4,0:2:0:0:
209,120,39000,1,8,0:3:0:0:
29,352,39250,1,8,0:3:0:0:
29,352,41250,6,0,B|81:339|81:339|83:334|83:334|136:321,1,100,4|0,0:0|0:0,0:0:0:0:
256,246,41500,5,8,0:3:0:0:
214,279,41562,1,8,0:3:0:0:
170,274,41625,1,8,0:3:0:0:
150,245,41687,1,8,0:3:0:0:
134,242,41750,5,2,2:1:0:0:
108,215,41812,1,2,2:1:0:0:
107,168,41875,1,2,2:1:0:0:
141,133,41937,1,2,2:1:0:0:
215,158,42000,6,0,P|247:116|283:84,1,100,4|0,0:2|0:0,0:0:0:0:
366,144,42250,5,4,2:1:0:0:
370,145,42312,1,4,2:1:0:0:
374,146,42375,1,4,2:1:0:0:
378,147,42437,1,4,2:1:0:0:
400,127,42500,5,8,2:1:0:0:
404,126,42562,1,8,2:1:0:0:
408,125,42625,1,8,2:1:0:0:
412,124,42687,1,8,2:1:0:0:
448,149,42750,6,0,B|427:131|393:133|393:133|386:127|386:127|353:129|335:158|335:158|326:156|326:156|344:197|318:235|318:235|326:241|326:241|301:297|245:299|245:299|213:266|226:216|226:216|239:207|239:207,1,440,4|0,0:0|2:0,0:0:0:0:
257,125,44250,5,4,0:0:0:0:
106,262,44375,1,4,0:2:0:0:
263,107,44500,1,4,0:0:0:0:
35,32,44750,5,4,0:1:0:0:
106,85,45000,1,8,0:3:0:0:
374,0,45250,1,8,0:3:0:0:
374,0,46250,5,4,2:1:0:0:
380,2,46312,1,4,2:1:0:0:
394,19,46375,1,0,0:0:0:0:
384,52,46437,1,0,0:0:0:0:
331,74,46500,5,8,0:0:0:0:
281,66,46562,1,8,0:0:0:0:
231,58,46625,2,0,L|180:46,1,50
289,5,46750,5,8,0:0:0:0:
296,59,46812,1,8,0:0:0:0:
304,113,46875,2,0,L|312:169,1,50
216,224,47000,5,2,2:1:0:0:
189,250,47062,1,2,2:1:0:0:
164,257,47124,1,4,2:1:0:0:
145,254,47187,1,4,2:1:0:0:
114,191,47250,6,0,P|148:215|172:275,1,100,4|4,0:0|0:2,0:0:0:0:
233,360,47500,5,8,0:0:0:0:
237,359,47562,1,8,0:0:0:0:
241,358,47625,1,8,0:0:0:0:
245,357,47687,1,8,0:0:0:0:
264,337,47750,5,4,2:1:0:0:
268,338,47812,1,4,2:1:0:0:
272,339,47875,1,4,2:1:0:0:
276,340,47937,1,4,2:1:0:0:
313,363,48000,6,0,B|351:338|351:338|417:355,1,100,4|4,0:2|0:0,0:0:0:0:
480,252,48250,5,8,0:0:0:0:
435,270,48312,1,8,0:0:0:0:
390,258,48375,1,0,0:0:0:0:
374,232,48437,1,0,0:0:0:0:
382,228,48500,5,8,0:0:0:0:
398,198,48562,1,8,0:0:0:0:
386,150,48625,1,0,0:0:0:0:
339,134,48687,1,0,0:0:0:0:
292,191,48750,5,4,0:0:0:0:
350,38,48875,1,4,0:2:0:0:
301,205,49000,1,4,0:0:0:0:
115,64,49125,5,4,0:1:0:0:
269,113,49250,1,4,0:0:0:0:
54,193,49375,1,4,0:2:0:0:
268,17,49500,5,8,3:3:0:0:
326,7,49562,1,8,3:3:0:0:
382,28,49625,1,8,3:3:0:0:
411,79,49687,1,8,3:3:0:0:
404,139,49750,1,4,0:3:0:0:
365,176,49812,1,4,0:3:0:0:
314,184,49875,1,4,0:3:0:0:
269,165,49937,1,4,0:3:0:0:
253,121,50000,1,8,0:3:0:0:
264,83,50062,1,8,0:3:0:0:
295,69,50125,1,8,0:3:0:0:
324,77,50187,1,8,0:3:0:0:
331,91,50250,6,0,P|311:98|294:111,1,40,8|0,0:3|0:0,0:0:0:0:
211,71,50750,1,0,0:0:0:0:
128,83,51000,2,0,P|139:101|151:120,2,40,2|2|2,0:0|0:0|0:0,0:0:0:0:
78,180,51750,6,0,P|86:202|92:222,2,40,2|0|0,0:0|0:0|0:0,0:0:0:0:
196,196,52500,1,2,0:0:0:0:
157,315,52750,1,2,0:0:0:0:
178,204,53000,1,2,0:0:0:0:
239,252,53250,6,0,P|256:240|275:230,1,40,2|0,0:0|0:0,0:0:0:0:
345,271,53750,1,0,0:0:0:0:
390,201,54000,2,0,P|407:213|426:223,2,40,2|2|2,0:0|0:0|0:0,0:0:0:0:
498,159,54750,5,2,0:0:0:0:
451,291,55000,1,2,0:0:0:0:
505,177,55250,1,2,0:0:0:0:
421,112,55500,6,0,P|402:106|379:94,1,40,2|2,0:0|0:0,0:0:0:0:
286,161,56000,2,0,B|255:166|263:145|222:148,1,60,2|0,2:0|2:0,2:0:0:0:
467,11,56250,6,0,B|442:118|442:118|437:121|437:121|405:248,1,225.000008583069,4|0,0:2|2:0,0:0:0:0:
458,308,56500,1,2,0:0:0:0:
442,320,56562,1,8,2:2:0:0:
421,320,56625,2,0,P|396:310|378:288,1,50,0|8,0:0|2:2,0:0:0:0:
362,124,56750,5,2,0:0:0:0:
313,86,56812,1,8,2:2:0:0:
252,92,56875,1,0,0:0:0:0:
218,141,56937,1,8,2:2:0:0:
221,201,57000,1,2,0:0:0:0:
258,247,57062,1,8,2:2:0:0:
266,307,57125,1,0,0:0:0:0:
237,358,57187,1,8,2:2:0:0:
181,377,57250,1,2,0:0:0:0:
132,356,57312,1,8,2:0:0:0:
118,312,57375,1,0,0:0:0:0:
132,278,57437,1,8,2:0:0:0:
153,269,57500,2,0,P|159:296|184:325,3,50,2|8|0|8,0:0|2:0|0:0|2:0,0:0:0:0:
49,310,57750,5,4,0:0:0:0:
61,262,57812,1,8,2:0:0:0:
74,213,57875,1,0,0:0:0:0:
86,165,57937,1,8,2:0:0:0:
99,116,58000,2,0,L|117:185,1,50,2|8,0:0|2:0,0:0:0:0:
0,223,58125,2,0,L|18:154,1,50,0|8,0:0|2:0,0:0:0:0:
109,22,58250,5,2,0:0:0:0:
156,36,58312,1,8,2:0:0:0:
204,51,58375,1,0,0:0:0:0:
251,65,58437,1,8,2:0:0:0:
298,80,58500,2,0,L|266:133,3,50,2|8|0|8,0:0|2:0|0:0|2:0,0:0:0:0:
205,186,58750,5,2,0:0:0:0:
224,220,58812,1,8,2:0:0:0:
261,234,58875,1,0,0:0:0:0:
299,224,58937,1,8,2:0:0:0:
321,190,59000,1,2,0:0:0:0:
353,167,59062,1,8,2:0:0:0:
392,172,59125,1,0,0:0:0:0:
420,199,59187,1,8,2:0:0:0:
425,238,59250,5,4,0:0:0:0:
417,256,59312,1,8,2:0:0:0:
408,274,59375,2,0,L|386:329,1,50,0|8,0:0|2:0,0:0:0:0:
276,320,59500,1,2,0:0:0:0:
284,302,59562,1,8,2:0:0:0:
293,284,59625,2,0,L|315:229,1,50,0|8,0:0|2:0,0:0:0:0:
457,98,59750,5,2,0:0:0:0:
416,53,59812,1,8,2:0:0:0:
355,47,59875,1,0,0:0:0:0:
308,83,59937,1,8,2:0:0:0:
299,143,60000,1,2,0:0:0:0:
266,192,60062,1,8,2:0:0:0:
206,202,60125,1,0,0:0:0:0:
155,168,60187,1,8,2:0:0:0:
146,108,60250,1,2,0:0:0:0:
170,65,60312,1,8,2:0:0:0:
209,49,60375,1,0,0:0:0:0:
248,63,60437,1,8,2:0:0:0:
257,83,60500,2,0,P|218:90|192:121,3,50,2|8|0|8,0:0|2:0|0:0|2:0,0:0:0:0:
82,80,60750,5,4,0:0:0:0:
45,105,60812,1,8,2:0:0:0:
44,150,60875,1,0,0:0:0:0:
81,173,60937,1,8,2:0:0:0:
124,160,61000,1,2,0:0:0:0:
164,178,61062,1,8,2:0:0:0:
172,222,61125,1,0,0:0:0:0:
145,257,61187,1,8,2:0:0:0:
99,256,61250,1,2,0:0:0:0:
65,285,61312,1,8,2:0:0:0:
59,330,61375,1,0,0:0:0:0:
91,360,61437,1,8,2:0:0:0:
136,354,61500,5,2,0:0:0:0:
145,305,61562,1,8,2:0:0:0:
119,261,61625,1,0,0:0:0:0:
69,257,61687,1,8,2:0:0:0:
33,221,61750,1,2,0:0:0:0:
32,171,61812,1,8,2:0:0:0:
62,131,61875,1,0,0:0:0:0:
111,125,61937,1,8,2:0:0:0:
153,151,62000,1,2,0:0:0:0:
176,194,62062,1,8,2:0:0:0:
223,209,62125,1,0,0:0:0:0:
268,189,62187,1,8,2:0:0:0:
292,144,62250,5,4,0:0:0:0:
291,129,62312,1,8,2:0:0:0:
285,114,62375,2,0,P|257:85|229:81,1,50,0|8,0:0|2:0,0:0:0:0:
209,18,62500,1,2,0:2:0:0:
196,26,62562,1,8,2:0:0:0:
186,39,62625,2,0,P|174:77|185:103,1,50,2|8,0:1|2:0,0:0:0:0:
157,197,62750,5,2,0:2:0:0:
181,227,62812,1,8,2:0:0:0:
220,234,62875,1,2,0:1:0:0:
254,214,62937,1,8,2:0:0:0:
264,175,63000,1,2,0:1:0:0:
293,148,63062,1,8,2:0:0:0:
333,151,63125,1,2,0:2:0:0:
358,181,63187,1,8,2:0:0:0:
351,220,63250,1,2,0:1:0:0:
325,241,63312,1,8,2:0:0:0:
295,233,63375,1,2,0:2:0:0:
287,217,63437,1,8,2:0:0:0:
293,208,63500,2,0,P|321:216|353:208,3,50,2|8|2|8,0:1|2:0|0:1|2:0,0:0:0:0:
380,320,63750,6,0,L|405:253,1,50,4|8,0:0|2:0,0:0:0:0:
462,137,63875,2,0,L|487:204,1,50,2|8,0:2|2:0,0:0:0:0:
341,213,64000,1,2,0:2:0:0:
294,197,64062,1,8,2:0:0:0:
246,180,64125,1,2,0:2:0:0:
199,163,64187,1,8,2:0:0:0:
151,146,64250,2,0,L|161:211,3,50,2|8|2|8,0:1|2:0|0:2|2:0,0:0:0:0:
95,311,64500,5,2,0:1:0:0:
84,262,64562,1,8,2:0:0:0:
74,212,64625,1,2,0:2:0:0:
64,163,64687,1,8,2:0:0:0:
54,113,64750,2,0,L|36:173,1,50,2|8,0:1|2:0,0:0:0:0:
172,243,64875,2,0,L|154:183,1,50,2|8,0:2|2:0,0:0:0:0:
261,56,65000,6,0,L|202:70,3,50,2|8|2|8,0:1|2:0|0:2|2:0,0:0:0:0:
308,146,65250,5,4,0:1:0:0:
322,160,65312,1,8,2:0:0:0:
340,169,65375,2,0,P|374:162|390:141,1,50,0|8,0:0|2:0,0:0:0:0:
411,74,65500,1,2,0:2:0:0:
425,60,65562,1,8,2:0:0:0:
443,51,65625,2,0,P|477:58|493:79,1,50,2|8,0:2|2:0,0:0:0:0:
499,229,65750,5,2,0:1:0:0:
454,268,65812,1,8,2:0:0:0:
393,262,65875,1,2,0:2:0:0:
358,213,65937,1,8,2:0:0:0:
356,152,66000,1,2,0:1:0:0:
329,98,66062,1,8,2:0:0:0:
271,78,66125,1,2,0:2:0:0:
215,100,66187,1,8,2:0:0:0:
199,158,66250,1,2,0:1:0:0:
219,207,66312,1,8,2:0:0:0:
261,222,66375,1,2,0:2:0:0:
292,211,66437,1,8,2:0:0:0:
299,194,66500,2,0,P|269:205|231:204,3,50,2|8|2|8,0:1|2:0|0:2|2:0,0:0:0:0:
202,92,66750,5,4,0:0:0:0:
158,68,66812,1,8,2:0:0:0:
110,83,66875,1,2,0:2:0:0:
92,129,66937,1,8,2:0:0:0:
112,175,67000,1,2,0:2:0:0:
158,191,67062,1,8,2:0:0:0:
181,235,67125,1,2,0:2:0:0:
165,282,67187,1,8,2:0:0:0:
185,328,67250,1,2,0:1:0:0:
233,338,67312,1,8,2:0:0:0:
273,308,67375,1,2,0:2:0:0:
279,258,67437,1,8,2:0:0:0:
315,223,67500,5,4,2:1:0:0:
353,232,67562,1,4,2:1:0:0:
391,242,67625,2,0,L|406:304,1,50
458,383,67750,5,8,0:0:0:0:
467,329,67812,1,8,0:0:0:0:
476,274,67875,1,0,0:0:0:0:
485,220,67937,1,0,0:0:0:0:
512,188,68000,6,0,L|498:130,1,50,4|4,2:1|2:1,0:0:0:0:
330,149,68125,1,8,0:0:0:0:
322,187,68187,1,8,0:0:0:0:
315,223,68250,6,0,B|210:193|210:193|205:195|205:195|46:151,1,225.000008583069,4|8,0:0|2:0,0:0:0:0:
58,91,68500,1,2,0:0:0:0:
70,83,68562,1,8,2:0:0:0:
85,81,68625,2,0,P|121:91|138:107,1,50,0|8,0:0|2:0,0:0:0:0:
218,66,68750,5,2,0:0:0:0:
262,105,68812,1,8,2:0:0:0:
258,165,68875,1,0,0:0:0:0:
215,206,68937,1,8,2:0:0:0:
154,202,69000,1,2,0:0:0:0:
103,233,69062,1,8,2:0:0:0:
88,291,69125,1,0,0:0:0:0:
110,346,69187,1,8,2:0:0:0:
165,369,69250,1,2,0:0:0:0:
212,351,69312,1,8,2:0:0:0:
224,306,69375,1,0,0:0:0:0:
206,274,69437,1,8,2:0:0:0:
181,272,69500,2,0,P|192:298|196:329,3,50,2|8|0|8,0:0|2:0|0:0|2:0,0:0:0:0:
281,353,69750,5,4,0:0:0:0:
328,337,69812,1,8,2:0:0:0:
376,321,69875,1,0,0:0:0:0:
423,306,69937,1,8,2:0:0:0:
471,291,70000,2,0,L|452:354,1,50,2|8,0:0|2:0,0:0:0:0:
366,189,70125,2,0,L|347:126,1,50,0|8,0:0|2:0,0:0:0:0:
507,27,70250,5,2,0:0:0:0:
496,75,70312,1,8,2:0:0:0:
485,124,70375,1,0,0:0:0:0:
475,172,70437,1,8,2:0:0:0:
463,220,70500,6,0,L|443:147,3,50,2|8|0|8,0:0|2:0|0:0|2:0,0:0:0:0:
395,65,70750,1,2,0:0:0:0:
367,36,70812,1,8,2:0:0:0:
327,28,70875,1,0,0:0:0:0:
291,45,70937,1,8,2:0:0:0:
276,82,71000,1,2,0:0:0:0:
283,120,71062,1,8,2:0:0:0:
272,158,71125,1,0,0:0:0:0:
240,182,71187,1,8,2:0:0:0:
199,182,71250,5,4,0:0:0:0:
195,167,71312,1,8,2:0:0:0:
191,152,71375,2,0,L|177:94,1,50,0|8,0:0|2:0,0:0:0:0:
119,39,71500,1,2,0:0:0:0:
115,54,71562,1,8,2:0:0:0:
111,69,71625,2,0,L|97:127,1,50,0|8,0:0|2:0,0:0:0:0:
22,206,71750,5,2,0:0:0:0:
45,249,71812,1,8,2:0:0:0:
93,263,71875,1,0,0:0:0:0:
137,240,71937,1,8,2:0:0:0:
150,191,72000,1,2,0:0:0:0:
184,155,72062,1,8,2:0:0:0:
234,155,72125,1,0,0:0:0:0:
268,190,72187,1,8,2:0:0:0:
264,240,72250,1,2,0:0:0:0:
232,272,72312,1,8,2:0:0:0:
194,272,72375,1,0,0:0:0:0:
178,252,72437,1,8,2:0:0:0:
181,240,72500,2,0,P|210:254|232:250,3,50,2|8|0|8,0:0|2:0|0:0|2:0,0:0:0:0:
293,345,72750,5,4,0:0:0:0:
347,345,72812,1,8,2:0:0:0:
378,299,72875,1,0,0:0:0:0:
358,248,72937,1,8,2:0:0:0:
304,233,73000,1,2,0:0:0:0:
278,184,73062,1,8,2:0:0:0:
304,135,73125,1,0,0:0:0:0:
357,127,73187,1,8,2:0:0:0:
393,168,73250,1,2,0:0:0:0:
447,167,73312,1,8,2:0:0:0:
473,118,73375,1,0,0:0:0:0:
448,69,73437,1,8,2:0:0:0:
392,65,73500,5,2,0:0:0:0:
366,113,73562,1,8,2:0:0:0:
392,161,73625,1,0,0:0:0:0:
445,170,73687,1,8,2:0:0:0:
478,213,73750,1,2,0:0:0:0:
473,267,73812,1,8,2:0:0:0:
429,301,73875,1,0,0:0:0:0:
375,290,73937,1,8,2:0:0:0:
345,243,74000,1,2,0:0:0:0:
297,216,74062,1,8,2:0:0:0:
242,227,74125,1,0,0:0:0:0:
222,277,74187,1,8,2:0:0:0:
241,328,74250,5,4,0:0:0:0:
258,337,74312,1,8,2:0:0:0:
278,335,74375,2,0,P|303:313|319:284,1,50,2|8,0:2|2:0,0:0:0:0:
311,207,74500,1,2,0:1:0:0:
328,198,74562,1,8,2:0:0:0:
348,200,74625,2,0,P|373:222|389:251,1,50,2|8,0:2|2:0,0:0:0:0:
478,348,74750,5,2,0:1:0:0:
431,364,74812,1,8,2:0:0:0:
387,337,74875,1,2,0:2:0:0:
379,288,74937,1,8,2:0:0:0:
402,243,75000,1,2,0:1:0:0:
397,193,75062,1,8,2:0:0:0:
362,156,75125,1,2,0:2:0:0:
313,166,75187,1,8,2:0:0:0:
291,211,75250,1,2,0:1:0:0:
305,254,75312,1,8,2:0:0:0:
341,267,75375,1,2,0:2:0:0:
368,255,75437,1,8,2:0:0:0:
373,240,75500,2,0,P|344:248|311:251,3,50,2|8|2|8,0:1|2:0|0:2|2:0,0:0:0:0:
297,106,75750,5,4,0:0:0:0:
248,93,75812,1,8,2:0:0:0:
199,80,75875,1,2,0:2:0:0:
150,68,75937,1,8,2:0:0:0:
101,54,76000,2,0,L|115:116,1,50,2|8,0:1|2:0,0:0:0:0:
188,205,76125,2,0,L|202:143,1,50,2|8,0:2|2:0,0:0:0:0:
290,25,76250,5,2,0:1:0:0:
339,20,76312,1,8,2:0:0:0:
389,15,76375,1,2,0:2:0:0:
438,11,76437,1,8,2:0:0:0:
488,8,76500,2,0,L|467:57,3,50,2|8|2|8,0:1|2:0|0:2|2:0,0:0:0:0:
496,163,76750,5,2,0:2:0:0:
462,192,76812,1,8,2:0:0:0:
416,195,76875,1,2,0:2:0:0:
380,168,76937,1,8,2:0:0:0:
360,127,77000,1,2,0:1:0:0:
333,91,77062,1,8,2:0:0:0:
291,72,77125,1,2,0:2:0:0:
246,78,77187,1,8,2:0:0:0:
217,113,77250,5,4,0:0:0:0:
220,132,77312,1,8,2:0:0:0:
223,151,77375,2,0,L|234:206,1,50,2|8,0:2|2:0,0:0:0:0:
297,267,77500,1,2,0:1:0:0:
300,248,77562,1,8,2:0:0:0:
303,229,77625,2,0,L|314:174,1,50,2|8,0:2|2:0,0:3:0:0:
149,164,77750,5,2,0:1:0:0:
109,164,77812,1,8,2:0:0:0:
76,188,77875,1,2,0:2:0:0:
69,227,77937,1,8,2:0:0:0:
92,260,78000,1,2,0:1:0:0:
130,268,78062,1,8,2:0:0:0:
165,247,78125,1,2,0:2:0:0:
204,248,78187,1,8,2:0:0:0:
229,279,78250,1,2,0:1:0:0:
222,315,78312,1,8,2:0:0:0:
197,333,78375,1,2,0:2:0:0:
178,335,78437,1,8,2:0:0:0:
171,327,78500,2,0,P|198:308|218:282,3,50,2|8|2|8,0:1|2:0|0:2|2:0,0:0:0:0:
301,358,78750,5,4,0:0:0:0:
366,335,78812,1,0,0:0:0:0:
390,268,78875,1,0,0:0:0:0:
361,204,78937,1,0,0:0:0:0:
296,176,79000,1,4,0:1:0:0:
269,111,79062,1,0,0:0:0:0:
299,47,79125,1,0,0:0:0:0:
367,34,79187,1,0,0:0:0:0:
425,73,79250,1,4,0:0:0:0:
430,142,79312,1,0,0:0:0:0:
386,197,79375,1,0,0:0:0:0:
401,264,79437,1,0,0:0:0:0:
466,289,79500,5,8,0:0:0:0:
478,251,79562,1,8,0:0:0:0:
490,212,79625,5,0,0:0:0:0:
481,217,79687,1,0,0:0:0:0:
472,222,79750,5,8,0:0:0:0:
176,182,79875,1,8,0:0:0:0:
290,364,80000,1,4,0:1:0:0:
361,287,80125,1,4,0:1:0:0:
466,360,80250,6,0,B|455:369|455:369|433:244,1,119.999996337891,4|0,0:0|2:0,0:0:0:0:
421,142,80500,2,0,B|434:161|470:158|470:158|474:177|492:192,1,79.9999975585938,0|0,2:0|2:0,0:0:0:0:
340,241,80750,2,0,B|363:211|363:211|338:161,1,79.9999975585938
275,105,81000,2,0,B|238:127|188:89|212:17|270:-5|331:15|366:49|358:74,1,239.999992675781,10|0,0:0|2:0,0:0:0:0:
352,83,81500,1,0,0:0:0:0:
191,297,81750,2,0,B|198:281|198:281|128:140|128:140|128:134|128:134|77:28|77:28|91:-12,1,319.999990234375,2|0,0:0|0:0,0:0:0:0:
16,318,82500,2,0,B|-3:337|-35:293|-3:227|71:219|102:288|102:288|108:288|108:288|117:331|171:359|232:306|198:269|179:281|167:296|161:304|159:308,1,319.999990234375,10|0,0:0|0:0,0:0:0:0:
311,177,83250,6,0,P|368:204|437:225,1,119.999996337891,2|0,0:0|2:0,0:0:0:0:
492,144,83500,2,0,B|499:136|470:123|453:138|453:138|439:151|414:143|428:134,1,79.9999975585938,0|0,2:0|2:0,0:0:0:0:
463,291,83750,2,0,P|510:269|479:240,1,79.9999975585938,0|0,0:0|2:0,0:0:0:0:
355,352,84000,2,0,B|376:355|411:307|378:256|323:247|293:299|293:299|289:298|289:298|266:356|203:350|182:302|193:280,1,319.999990234375,10|0,0:0|0:0,0:0:0:0:
167,121,84750,6,0,B|139:120|149:80|217:83|242:119|230:167|224:186|224:186|286:110|334:148|342:194|324:222|296:175|317:161,1,319.999990234375,2|0,0:0|0:0,0:0:0:0:
93,234,85500,2,0,L|74:146,1,79.9999975585938,10|0,0:0|0:0,0:0:0:0:
19,31,85750,2,0,B|-5:64|-5:64|20:113,1,80,4|0,0:0|2:0,0:0:0:0:
126,92,86000,2,0,B|146:52|146:52|120:18,1,86.6599986142017,4|0,0:2|2:0,0:0:0:0:
12,98,86250,6,0,P|216:125|297:150,1,239.999992675781,4|0,0:0|2:0,0:0:0:0:
279,213,86750,2,0,P|248:201|247:142,1,79.9999975585938,0|0,0:0|2:0,0:0:0:0:
358,31,87000,2,0,B|357:9|415:-2|449:46|449:46|347:52|334:170|395:207,1,319.999990234375,10|0,0:0|0:0,0:0:0:0:
512,222,87750,2,0,B|532:179|484:152|472:155|472:155|396:204|438:283|461:286|461:286|460:287|460:287|488:312|485:348|455:359,1,319.999990234375,2|0,0:0|0:0,0:0:0:0:
334,369,88500,2,0,P|402:256|439:380,1,319.999990234375,10|0,0:0|0:0,0:0:0:0:
392,326,89250,6,0,B|407:310|391:271|346:258|346:258|337:250|337:250|269:236|220:295|220:295|251:338|220:388,1,319.999990234375,2|0,0:0|0:0,0:0:0:0:
160,345,90000,2,0,P|193:167|202:-16,1,319.999990234375,10|0,0:0|0:0,0:0:0:0:
132,4,90750,6,0,B|109:-2|109:-2|74:117|74:117|76:122|76:122|35:253|35:253|-5:288,1,319.999990234375,2|0,0:0|0:0,0:0:0:0:
0,202,91500,6,0,B|41:194|41:194|96:234,1,79.9999975585938,10|0,0:0|2:0,0:0:0:0:
104,341,91750,5,4,0:3:0:0:
122,336,91875,1,4,0:3:0:0:
177,283,92000,5,8,0:1:0:0:
212,300,92125,1,8,0:1:0:0:
311,357,92250,6,0,B|361:347|389:309|389:309|398:314|398:314|439:254|485:259|485:259|469:270|456:286,1,226.666636691627,4|0,0:0|0:0,0:0:0:0:
355,181,93000,2,0,B|315:171|281:121|281:121|275:123|275:123|266:102|218:83,1,169.99997751872,10|0,0:0|2:0,0:0:0:0:
146,187,93500,2,0,P|187:165|215:152,1,56.6666591729068,0|0,0:0|2:0,0:0:0:0:
189,347,93750,2,0,B|161:325|124:321|73:383|54:380|17:360|36:288|68:289|99:313|101:333,1,226.666636691627,2|0,0:0|0:0,0:0:0:0:
26,233,94500,2,0,P|56:159|87:49,1,169.99997751872,10|0,0:0|2:0,0:0:0:0:
146,187,95000,2,0,P|174:170|212:153,1,56.6666591729068,0|0,0:0|2:0,0:0:0:0:
307,251,95250,6,0,B|327:246|334:283|293:291|273:265|259:215|275:172|325:172,1,169.99997751872,2|0,0:0|2:0,0:0:0:0:
381,127,95750,2,0,P|415:143|436:171,1,56.6666591729068,0|0,0:0|2:0,0:0:0:0:
511,275,96000,2,0,B|496:313|458:335|458:335|452:330|452:330|427:352|392:351|392:351|405:345|409:337,1,169.99997751872,10|0,0:0|0:0,0:0:0:0:
374,225,96500,2,0,P|395:255|409:288,1,56.6666591729068
267,309,96750,2,0,B|246:271|196:256|196:256|203:250|203:250|161:244|155:224|155:224|174:224,1,169.99997751872,4|0,0:1|2:0,0:0:0:0:
181,132,97250,5,0,0:0:0:0:
176,135,97312,1,0,0:0:0:0:
171,138,97375,1,0,0:0:0:0:
166,141,97437,1,0,0:0:0:0:
161,145,97500,5,10,0:0:0:0:
16,52,97750,1,4,0:0:0:0:
86,248,98000,1,4,0:1:0:0:
264,130,98250,6,0,B|299:137|324:108|324:108|375:114|375:114|400:130|402:160,1,169.99997751872,4|0,0:0|2:0,0:0:0:0:
474,211,98750,2,0,P|463:236|430:269,1,56.6666591729068,0|0,0:0|2:0,0:0:0:0:
327,339,99000,2,0,B|299:271|300:237|300:237|307:228|307:228|309:260|323:286,1,169.99997751872,10|0,0:0|2:0,0:0:0:0:
224,281,99500,2,0,P|187:249|161:238,1,56.6666591729068,0|0,0:0|2:0,0:0:0:0:
20,320,99750,2,0,B|16:346|41:357|41:357|43:273|88:160,1,226.666636691627,2|0,0:0|0:0,0:0:0:0:
48,86,100500,2,0,B|50:97|36:113|36:113|70:97|115:102|102:128|142:133|176:109,1,169.99997751872,10|0,0:0|2:0,0:0:0:0:
211,38,101000,2,0,P|197:64|190:109,1,56.6666591729068,0|0,0:0|2:0,0:0:0:0:
282,166,101250,6,0,B|266:146|266:146|304:125|311:73|311:73|305:124|338:155|338:155|312:172,1,226.666636691627,2|0,0:0|0:0,0:0:0:0:
467,261,102000,2,0,B|429:256|392:219|392:219|381:222|381:222|394:257|380:310,1,169.99997751872,10|0,0:0|2:0,0:0:0:0:
418,379,102500,2,0,P|433:348|458:313,1,56.6666591729068,0|0,0:0|2:0,0:0:0:0:
238,161,102750,5,4,0:0:0:0:
328,358,103000,1,4,0:1:0:0:
380,88,103250,1,4,0:0:0:0:
155,242,103500,5,4,0:0:0:0:
130,230,103583,5,4,0:1:0:0:
127,206,103666,5,4,0:1:0:0:
107,197,103750,5,4,0:3:0:0:
143,119,103875,1,8,0:1:0:0:
92,52,104000,1,4,0:3:0:0:
56,130,104125,1,8,0:1:0:0:
246,157,104250,5,4,0:1:0:0:
214,56,104375,1,0,0:0:0:0:
263,132,104500,1,0,0:0:0:0:
327,33,104625,1,0,0:0:0:0:
384,207,104750,1,0,0:0:0:0:
336,109,104875,1,0,0:0:0:0:
270,289,105000,6,0,P|216:250|158:222,1,113.333335494995,12|0,0:0|0:0,0:0:0:0:
81,291,105375,1,0,0:0:0:0:
170,211,105500,1,0,0:0:0:0:
188,346,105625,1,0,0:0:0:0:
87,195,105750,6,0,P|108:150|130:138,1,56.6666677474976,4|0,0:2|0:0,0:0:0:0:
228,126,106000,1,0,0:0:0:0:
123,52,106125,1,0,0:0:0:0:
202,134,106250,1,0,0:0:0:0:
97,132,106375,1,0,0:0:0:0:
214,51,106500,6,0,P|274:79|318:119,1,113.333335494995,12|0,0:0|0:0,0:0:0:0:
311,194,106875,1,0,0:0:0:0:
399,98,107000,1,4,0:2:0:0:
297,182,107125,1,0,0:0:0:0:
453,247,107250,6,0,P|426:220|399:205,1,56.6666677474976,4|0,0:0|0:0,0:0:0:0:
291,292,107500,1,0,0:0:0:0:
388,210,107625,1,0,0:0:0:0:
379,347,107750,1,0,0:0:0:0:
311,194,107875,1,0,0:0:0:0:
230,377,108000,6,0,P|192:332|141:302,1,113.333335494995,12|0,0:0|0:0,0:0:0:0:
62,331,108375,1,0,0:0:0:0:
177,226,108500,1,0,0:0:0:0:
104,141,108625,1,0,0:0:0:0:
172,71,108750,5,4,0:0:0:0:
193,77,108812,1,0,0:0:0:0:
214,83,108875,2,0,L|254:95,1,28.3333338737488
315,147,109000,5,0,0:0:0:0:
326,145,109062,1,0,0:0:0:0:
337,144,109125,2,0,L|376:140,1,28.3333338737488
446,79,109250,5,0,0:0:0:0:
450,68,109312,1,0,0:0:0:0:
454,57,109375,1,0,0:0:0:0:
459,46,109437,1,0,0:0:0:0:
464,35,109500,5,12,0:0:0:0:
418,20,109562,1,0,0:0:0:0:
371,34,109625,1,0,0:0:0:0:
348,76,109687,1,0,0:0:0:0:
356,123,109750,1,0,0:0:0:0:
395,150,109812,1,0,0:0:0:0:
421,190,109875,1,0,0:0:0:0:
426,237,109937,1,0,0:0:0:0:
402,279,110000,1,4,0:2:0:0:
358,297,110062,1,0,0:0:0:0:
310,288,110125,1,0,0:0:0:0:
277,252,110187,1,0,0:0:0:0:
274,203,110250,5,4,0:0:0:0:
209,307,110375,1,0,0:0:0:0:
164,158,110500,1,0,0:0:0:0:
202,229,110625,1,0,0:0:0:0:
45,187,110750,1,0,0:0:0:0:
126,232,110875,1,0,0:0:0:0:
43,336,111000,6,0,B|47:306|60:295|60:295|125:255,1,113.333335494995,12|0,0:0|0:0,0:0:0:0:
202,229,111375,1,0,0:0:0:0:
61,168,111500,1,0,0:0:0:0:
195,304,111625,1,0,0:0:0:0:
206,90,111750,5,4,0:0:0:0:
187,97,111812,1,0,0:0:0:0:
167,98,111875,1,0,0:0:0:0:
148,91,111937,1,0,0:0:0:0:
133,76,112000,1,0,0:0:0:0:
130,56,112062,1,0,0:0:0:0:
118,39,112125,1,0,0:0:0:0:
102,27,112187,1,0,0:0:0:0:
82,22,112250,2,0,P|66:28|48:44,3,28.3333338737488
0,84,112500,2,0,P|16:90|34:106,3,28.3333338737488,12|0|0|0,0:0|0:0|0:0|0:0,0:0:0:0:
4,212,112750,5,0,0:3:0:0:
33,206,112812,1,0,0:3:0:0:
63,199,112875,1,0,0:3:0:0:
94,192,112937,1,0,0:3:0:0:
124,185,113000,1,4,0:2:0:0:
154,178,113062,1,0,0:3:0:0:
184,171,113125,1,0,0:3:0:0:
214,165,113187,1,0,0:3:0:0:
244,136,113250,6,0,P|214:169|199:214,1,85.0000016212464,4|0,0:0|2:0,0:0:0:0:
142,318,113500,5,2,0:0:0:0:
181,345,113562,1,8,2:0:0:0:
229,337,113625,1,0,0:0:0:0:
263,303,113687,1,8,2:0:0:0:
267,254,113750,1,2,0:0:0:0:
296,216,113812,1,8,2:0:0:0:
342,200,113875,1,0,0:0:0:0:
387,215,113937,1,8,2:0:0:0:
407,258,114000,1,2,0:0:0:0:
399,305,114062,1,8,2:0:0:0:
357,330,114125,1,0,0:0:0:0:
311,316,114187,1,8,2:0:0:0:
292,271,114250,1,2,0:0:0:0:
312,227,114312,1,8,2:0:0:0:
359,215,114375,1,0,0:0:0:0:
394,183,114437,1,8,2:0:0:0:
402,135,114500,2,0,P|395:120|366:88,3,43.3329989819364,2|8|0|8,0:0|2:0|0:0|2:0,0:0:0:0:
275,178,114750,5,4,0:0:0:0:
233,199,114812,1,8,2:0:0:0:
185,196,114875,2,0,P|169:188|146:148,1,43.3333313496908,0|8,0:0|2:0,0:0:0:0:
181,10,115000,5,2,0:0:0:0:
215,41,115062,1,8,2:0:0:0:
230,87,115125,2,0,P|228:104|199:140,1,43.3333313496908,0|8,0:0|2:0,0:0:0:0:
103,103,115250,5,2,0:0:0:0:
90,100,115312,1,8,2:0:0:0:
77,97,115375,1,0,0:0:0:0:
64,94,115437,1,8,2:0:0:0:
52,91,115500,5,2,0:0:0:0:
89,36,115562,1,8,2:0:0:0:
156,27,115625,1,0,0:0:0:0:
199,76,115687,1,8,2:0:0:0:
183,141,115750,1,2,0:0:0:0:
123,170,115812,1,8,2:0:0:0:
99,232,115875,1,0,0:0:0:0:
126,292,115937,1,8,2:0:0:0:
190,308,116000,1,2,0:0:0:0:
248,277,116062,1,8,2:0:0:0:
268,212,116125,1,0,0:0:0:0:
323,175,116187,1,8,2:0:0:0:
389,188,116250,6,0,P|365:255|349:348,1,129.999994049073,4|0,0:0|2:0,0:0:0:0:
441,358,116500,5,2,0:0:0:0:
399,260,116625,1,0,0:0:0:0:
458,346,116750,1,2,0:0:0:0:
501,230,116875,1,0,0:0:0:0:
380,260,117000,6,0,P|343:246|314:247,1,56.6659977122971,10|0,0:0|0:0,0:0:0:0:
209,291,117250,1,2,0:0:0:0:
237,183,117375,1,0,0:0:0:0:
229,282,117500,1,2,0:0:0:0:
316,213,117625,1,0,0:0:0:0:
168,226,117750,6,0,P|116:192|51:180,1,113.331995424594,4|0,0:1|0:0,0:0:0:0:
44,265,118125,1,0,0:0:0:0:
136,157,118250,1,0,0:0:0:0:
66,258,118375,1,0,0:0:0:0:
10,120,118500,6,0,P|47:94|68:88,1,56.6659977122971,12|0,0:0|0:0,0:0:0:0:
155,35,118750,1,0,0:0:0:0:
126,138,118875,1,0,0:0:0:0:
239,88,119000,1,4,0:2:0:0:
144,127,119125,1,0,0:0:0:0:
261,165,119250,6,0,P|225:210|204:263,1,113.331995424594,4|0,0:0|0:0,0:0:0:0:
302,278,119625,1,0,0:0:0:0:
376,191,119750,2,0,P|407:165|437:159,1,56.6659977122971
465,264,120000,5,12,0:0:0:0:
363,202,120125,1,0,0:0:0:0:
443,272,120250,1,0,0:0:0:0:
341,339,120375,1,0,0:0:0:0:
419,278,120500,1,0,0:0:0:0:
292,234,120625,1,0,0:0:0:0:
209,339,120750,6,0,P|189:288|152:238,1,113.331995424594,4|0,0:0|0:0,0:0:0:0:
195,164,121125,1,0,0:0:0:0:
84,257,121250,1,0,0:0:0:0:
176,161,121375,1,0,0:0:0:0:
81,149,121500,6,0,P|97:113|114:91,1,56.6659977122971,12|0,0:0|0:0,0:0:0:0:
186,72,121750,1,0,0:0:0:0:
92,88,121875,1,0,0:0:0:0:
195,170,122000,1,4,0:2:0:0:
106,98,122125,1,0,0:0:0:0:
48,333,122250,5,4,0:0:0:0:
60,335,122312,1,0,0:0:0:0:
72,338,122375,2,0,L|121:348,1,43.3333313496908
190,269,122500,5,0,0:0:0:0:
202,266,122562,1,0,0:0:0:0:
214,263,122625,2,0,L|262:252,1,43.3333313496908
374,298,122750,5,0,0:0:0:0:
371,311,122812,1,0,0:0:0:0:
368,324,122875,1,0,0:0:0:0:
365,337,122937,1,0,0:0:0:0:
363,347,123000,5,12,0:0:0:0:
391,372,123062,1,0,0:0:0:0:
434,369,123125,1,0,0:0:0:0:
459,329,123187,1,0,0:0:0:0:
444,283,123250,1,0,0:0:0:0:
399,266,123312,1,0,0:0:0:0:
384,220,123375,1,0,0:0:0:0:
404,177,123437,1,0,0:0:0:0:
454,172,123500,2,0,L|460:222,3,43.3333313496908
325,266,123750,5,4,0:2:0:0:
319,264,123812,1,0,0:0:0:0:
313,262,123875,2,0,L|261:245,1,43.3333313496908
53,177,124000,5,0,0:0:0:0:
74,134,124062,1,0,0:0:0:0:
120,122,124125,1,0,0:0:0:0:
164,137,124187,1,0,0:0:0:0:
182,181,124250,1,0,0:0:0:0:
170,226,124312,1,0,0:0:0:0:
127,249,124375,1,0,0:0:0:0:
124,296,124437,1,0,0:0:0:0:
162,316,124500,5,12,0:0:0:0:
193,293,124562,1,0,0:0:0:0:
190,253,124625,1,0,0:0:0:0:
156,233,124687,1,0,0:0:0:0:
119,247,124750,1,0,0:0:0:0:
106,283,124812,1,0,0:0:0:0:
68,294,124875,1,0,0:0:0:0:
35,273,124937,1,0,0:0:0:0:
32,233,125000,6,0,P|124:267|173:288,1,129.999994049073,4|0,0:2|2:0,0:0:0:0:
245,359,125250,6,0,B|283:323|283:323|260:232,1,100.000003814697,4|0,0:0|2:0,0:0:0:0:
145,144,125500,5,8,0:0:0:0:
177,130,125562,1,8,0:0:0:0:
209,117,125625,2,0,L|270:96,1,50.0000019073487
305,23,125750,5,4,0:1:0:0:
311,30,125812,1,4,0:1:0:0:
317,36,125875,2,0,L|369:80,1,43.3333313496908
498,200,126000,5,8,0:0:0:0:
511,150,126062,1,8,0:0:0:0:
479,107,126125,1,8,0:0:0:0:
427,106,126187,1,8,0:0:0:0:
393,146,126250,5,2,2:1:0:0:
407,186,126312,1,2,2:1:0:0:
378,218,126375,1,2,2:1:0:0:
336,205,126437,1,2,2:1:0:0:
331,173,126500,6,0,L|392:186,3,43.3333313496908,4|4|4|4,2:1|2:1|2:1|2:1,2:1:0:0:
245,359,126750,5,4,0:0:0:0:
187,210,126875,1,4,0:2:0:0:
49,318,127000,5,8,0:0:0:0:
85,330,127062,1,8,0:0:0:0:
122,342,127125,2,0,L|188:362,1,43.3333313496908
210,123,127250,5,8,0:0:0:0:
194,129,127312,1,8,0:0:0:0:
177,135,127375,2,0,L|119:157,1,43.3333313496908
27,183,127500,6,0,B|22:176|22:176|50:117|50:117|41:98,1,86.6666626993817,0|0,0:0|2:0,0:0:0:0:
392,345,128250,6,0,P|366:329|336:323,1,60,4|0,0:0|2:0,0:0:0:0:
241,340,128500,5,2,0:0:0:0:
223,353,128562,1,8,2:0:0:0:
201,357,128625,1,0,0:0:0:0:
180,349,128687,1,8,2:0:0:0:
166,331,128750,1,2,0:0:0:0:
162,309,128812,1,8,2:0:0:0:
168,287,128875,1,0,0:0:0:0:
184,272,128937,1,8,2:0:0:0:
205,265,129000,5,2,0:0:0:0:
228,286,129062,1,8,2:0:0:0:
259,291,129125,1,0,0:0:0:0:
288,278,129187,1,8,2:0:0:0:
303,249,129250,1,2,0:0:0:0:
299,217,129312,1,8,2:0:0:0:
278,192,129375,1,0,0:0:0:0:
266,162,129437,1,8,2:0:0:0:
270,130,129500,1,2,0:0:0:0:
292,107,129562,1,8,2:0:0:0:
323,101,129625,1,0,0:0:0:0:
352,113,129687,1,8,2:0:0:0:
365,142,129750,5,4,0:0:0:0:
337,164,129812,1,8,2:0:0:0:
301,172,129875,1,0,0:0:0:0:
267,159,129937,1,8,2:0:0:0:
252,125,130000,1,2,0:0:0:0:
255,89,130062,1,8,2:0:0:0:
248,53,130125,1,0,0:0:0:0:
224,25,130187,1,8,2:0:0:0:
189,15,130250,1,2,0:0:0:0:
154,22,130312,1,8,2:0:0:0:
127,46,130375,1,0,0:0:0:0:
118,80,130437,1,8,2:0:0:0:
130,113,130500,5,2,0:0:0:0:
94,87,130562,1,8,2:0:0:0:
49,91,130625,1,0,0:0:0:0:
19,122,130687,1,8,2:0:0:0:
17,166,130750,1,2,0:0:0:0:
38,203,130812,1,8,2:0:0:0:
80,216,130875,1,0,0:0:0:0:
119,198,130937,1,8,2:0:0:0:
162,191,131000,1,2,0:0:0:0:
201,210,131062,1,8,2:0:0:0:
219,250,131125,1,0,0:0:0:0:
213,293,131187,1,8,2:0:0:0:
178,320,131250,5,4,0:0:0:0:
137,290,131312,1,8,2:0:0:0:
132,239,131375,1,0,0:0:0:0:
164,201,131437,1,8,2:0:0:0:
214,197,131500,1,2,0:0:0:0:
251,229,131562,1,8,2:0:0:0:
259,278,131625,1,0,0:0:0:0:
293,314,131687,1,8,2:0:0:0:
342,321,131750,1,2,0:0:0:0:
382,292,131812,1,8,2:0:0:0:
394,243,131875,1,0,0:0:0:0:
430,209,131937,1,8,2:0:0:0:
480,203,132000,5,2,0:0:0:0:
470,257,132062,1,8,2:0:0:0:
431,298,132125,1,0,0:0:0:0:
375,296,132187,1,8,2:0:0:0:
334,256,132250,1,2,0:0:0:0:
324,201,132312,1,8,2:0:0:0:
346,149,132375,1,0,0:0:0:0:
397,127,132437,1,8,2:0:0:0:
427,79,132500,1,2,0:0:0:0:
418,24,132562,1,8,2:0:0:0:
364,4,132625,1,0,0:0:0:0:
312,23,132687,1,8,2:0:0:0:
293,76,132750,5,4,0:0:0:0:
251,36,132812,1,8,2:0:0:0:
192,31,132875,1,0,0:0:0:0:
146,66,132937,1,8,2:0:0:0:
135,123,133000,1,2,0:0:0:0:
164,172,133062,1,8,2:0:0:0:
220,186,133125,1,0,0:0:0:0:
259,228,133187,1,8,2:0:0:0:
265,286,133250,1,2,0:0:0:0:
232,329,133312,1,8,2:0:0:0:
182,332,133375,1,0,0:0:0:0:
151,306,133437,1,8,2:0:0:0:
152,276,133500,5,4,0:1:0:0:
194,231,133562,1,8,2:0:0:0:
256,237,133625,1,0,0:0:0:0:
284,291,133687,1,8,2:0:0:0:
335,326,133750,1,2,0:0:0:0:
396,321,133812,1,8,2:0:0:0:
441,276,133875,1,0,0:0:0:0:
443,214,133937,1,8,2:0:0:0:
410,159,134000,1,2,0:0:0:0:
346,149,134062,1,8,2:0:0:0:
307,96,134125,1,0,0:0:0:0:
319,29,134187,1,8,2:0:0:0:
384,5,134250,6,0,P|365:25|354:57,3,50,4|8|0|8,0:0|2:0|0:0|2:0,0:0:0:0:
257,148,134500,2,0,P|246:125|229:107,3,50,2|8|2|8,0:1|2:0|0:2|2:0,0:0:0:0:
153,30,134750,5,2,0:1:0:0:
98,26,134812,1,8,2:0:0:0:
52,57,134875,1,2,0:2:0:0:
47,111,134937,1,8,2:0:0:0:
81,154,135000,1,2,0:1:0:0:
134,164,135062,1,8,2:0:0:0:
167,208,135125,1,2,0:2:0:0:
157,261,135187,1,8,2:0:0:0:
115,298,135250,1,2,0:1:0:0:
67,298,135312,1,8,2:0:0:0:
45,269,135375,1,2,0:2:0:0:
47,243,135437,1,8,2:0:0:0:
61,230,135500,2,0,P|74:267|92:278,3,50,2|8|2|8,0:1|2:0|0:2|2:0,0:0:0:0:
188,365,135750,5,4,0:2:0:0:
171,329,135812,1,8,2:0:0:0:
185,291,135875,1,0,0:0:0:0:
222,278,135937,1,8,2:0:0:0:
260,290,136000,2,0,P|239:301|227:332,1,50,2|8,0:1|2:0,0:0:0:0:
343,384,136125,2,0,P|322:373|310:342,1,50,2|8,0:2|2:0,0:0:0:0:
409,259,136250,2,0,L|387:321,3,50,2|8|2|8,0:1|2:0|0:2|2:0,0:0:0:0:
441,136,136500,5,2,0:1:0:0:
431,124,136562,1,8,2:0:0:0:
417,118,136625,2,0,P|369:111|347:121,1,50,2|8,0:2|2:0,0:0:0:0:
323,187,136750,1,2,0:1:0:0:
313,199,136812,1,8,2:0:0:0:
299,205,136875,2,0,P|251:212|229:202,1,50,2|8,0:2|2:0,0:0:0:0:
203,83,137000,1,2,0:1:0:0:
218,85,137062,1,8,2:0:0:0:
230,94,137125,2,0,P|260:132|262:156,1,50,2|8,0:2|2:0,0:0:0:0:
97,115,137250,6,0,P|79:104|31:85,3,50,4|8|0|8,0:0|2:0|0:0|2:0,0:0:0:0:
145,195,137500,2,0,P|163:184|211:165,3,50,2|8|2|8,0:1|2:0|0:2|2:0,0:0:0:0:
51,272,137750,5,2,0:2:0:0:
83,309,137812,1,8,2:0:0:0:
131,323,137875,1,2,0:2:0:0:
178,310,137937,1,8,2:0:0:0:
205,267,138000,1,2,0:1:0:0:
215,218,138062,1,8,2:0:0:0:
252,184,138125,1,2,0:2:0:0:
301,189,138187,1,8,2:0:0:0:
328,231,138250,1,2,0:1:0:0:
321,274,138312,1,8,2:0:0:0:
292,302,138375,1,2,0:2:0:0:
258,301,138437,1,8,2:0:0:0:
244,286,138500,2,0,P|279:279|298:260,3,50,2|8|2|8,0:1|2:0|0:2|2:0,0:0:0:0:
411,218,138750,6,0,L|393:272,1,50,4|8,0:0|2:0,0:0:0:0:
288,161,138875,2,0,L|270:107,1,50,0|8,0:0|2:0,0:0:0:0:
397,343,139000,1,2,0:1:0:0:
428,358,139062,1,8,2:0:0:0:
463,354,139125,2,0,P|484:342|506:303,1,50,2|8,0:2|2:0,0:0:0:0:
492,189,139250,2,0,P|504:159|526:122,3,50,2|8|2|8,0:2|2:0|0:2|2:0,0:0:0:0:
412,67,139500,5,2,0:1:0:0:
378,59,139562,1,2,0:1:0:0:
343,51,139625,1,0,0:0:0:0:
309,43,139687,1,0,0:0:0:0:
257,13,139750,5,8,0:0:0:0:
274,69,139812,1,8,0:0:0:0:
291,126,139875,2,0,L|308:181,1,50
147,175,140000,5,4,0:1:0:0:
159,137,140062,1,4,0:1:0:0:
170,98,140125,1,4,0:1:0:0:
181,60,140187,1,4,0:1:0:0:
151,32,140250,6,0,L|87:64,3,50,4|0|0|0,0:0|0:0|0:0|0:0,0:0:0:0:
12,86,140500,2,0,P|4:114|-4:160,3,50,10|0|0|0,0:0|0:0|0:0|0:0,0:0:0:0:
121,352,140750,1,10,0:0:0:0:
60,346,140812,1,0,0:0:0:0:
32,291,140875,1,0,0:0:0:0:
53,234,140937,1,0,0:0:0:0:
112,216,141000,1,10,0:0:0:0:
163,245,141062,1,0,0:0:0:0:
180,297,141125,1,0,0:0:0:0:
224,316,141187,1,0,0:0:0:0:
267,305,141250,1,10,0:0:0:0:
288,273,141312,1,0,0:0:0:0:
288,239,141375,1,0,0:0:0:0:
269,218,141437,1,0,0:0:0:0:
252,224,141500,2,0,P|261:248|266:278,3,50,10|0|0|0,0:0|0:0|0:0|0:0,0:0:0:0:
210,125,141750,5,10,0:0:0:0:
252,139,141812,1,0,0:0:0:0:
295,154,141875,1,0,0:0:0:0:
337,169,141937,1,0,0:0:0:0:
383,192,142000,2,0,L|449:181,1,50,10|0,0:0|0:0,0:0:0:0:
386,27,142125,2,0,L|322:34,1,50
474,255,142250,1,10,0:0:0:0:
488,253,142312,1,0,0:0:0:0:
501,245,142375,2,0,P|510:212|503:186,1,50
365,119,142500,5,10,0:0:0:0:
318,103,142562,1,0,0:0:0:0:
273,116,142625,2,0,P|251:134|246:183,1,50
255,301,142750,1,10,0:0:0:0:
299,279,142812,1,0,0:0:0:0:
322,238,142875,2,0,P|324:209|293:171,1,50
96,264,143000,2,0,L|165:256,3,50,10|0|0|0,0:0|0:0|0:0|0:0,0:0:0:0:
20,203,143250,6,0,P|3:241|-3:276,3,50,12|0|0|0,0:0|0:0|0:0|0:0,0:0:0:0:
47,77,143500,2,0,P|13:83|-17:106,3,50,10|0|0|0,0:0|0:0|0:0|0:0,0:0:0:0:
148,153,143750,1,10,0:0:0:0:
179,190,143812,1,0,0:0:0:0:
229,192,143875,1,0,0:0:0:0:
261,154,143937,1,0,0:0:0:0:
252,104,144000,1,10,0:0:0:0:
263,55,144062,1,0,0:0:0:0:
301,31,144125,1,0,0:0:0:0:
340,36,144187,1,0,0:0:0:0:
350,50,144250,2,0,P|314:48|271:72,3,50,10|0|0|0,0:0|0:0|0:0|0:0,0:0:0:0:
438,166,144500,2,0,L|466:100,3,50,10|0|0|0,0:0|0:0|0:0|0:0,0:0:0:0:
264,206,144750,5,10,0:0:0:0:
270,181,144812,1,0,0:0:0:0:
275,156,144875,2,0,L|252:93,1,50
453,357,145000,1,10,0:0:0:0:
447,332,145062,1,0,0:0:0:0:
442,307,145125,2,0,L|465:244,1,50
306,280,145250,2,0,L|381:268,3,50,10|0|0|0,0:0|0:0|0:0|0:0,0:0:0:0:
169,101,145500,5,12,0:0:0:0:
111,81,145562,1,0,0:0:0:0:
52,103,145625,1,8,0:0:0:0:
26,164,145687,1,0,0:0:0:0:
49,229,145750,1,12,0:0:0:0:
113,260,145812,1,0,0:0:0:0:
188,240,145875,1,8,0:0:0:0:
223,171,145937,1,0,0:0:0:0:
284,123,146000,1,12,0:0:0:0:
358,139,146062,1,0,0:0:0:0:
390,210,146125,1,8,0:0:0:0:
366,282,146187,1,0,0:0:0:0:
289,296,146250,6,0,B|272:255|272:255|348:121,1,150,4|0,0:1|2:0,0:0:0:0:
493,122,146500,5,2,0:0:0:0:
464,81,146562,1,8,2:0:0:0:
414,70,146625,1,0,0:0:0:0:
374,99,146687,1,8,2:0:0:0:
367,149,146750,1,2,0:0:0:0:
341,191,146812,1,8,2:0:0:0:
290,191,146875,1,0,0:0:0:0:
253,156,146937,1,8,2:0:0:0:
268,107,147000,5,2,0:0:0:0:
321,116,147062,1,8,2:0:0:0:
349,163,147125,1,0,0:0:0:0:
342,217,147187,1,8,2:0:0:0:
298,250,147250,1,2,0:0:0:0:
244,237,147312,1,8,2:0:0:0:
190,251,147375,1,0,0:0:0:0:
173,303,147437,1,8,2:0:0:0:
205,347,147500,2,0,L|263:353,3,50,2|8|0|8,0:0|2:0|0:0|2:0,0:0:0:0:
3,185,147750,5,4,0:0:0:0:
50,179,147812,1,8,2:0:0:0:
87,211,147875,1,0,0:0:0:0:
85,259,147937,1,8,2:0:0:0:
47,289,148000,2,0,P|38:269|19:243,1,50,2|8,0:0|2:0,0:0:0:0:
197,122,148125,2,0,P|186:144|171:202,1,50,0|8,0:0|2:0,0:0:0:0:
274,276,148250,5,2,0:0:0:0:
310,292,148312,1,8,2:0:0:0:
347,277,148375,1,0,0:0:0:0:
362,240,148437,1,8,2:0:0:0:
339,206,148500,5,2,0:0:0:0:
314,210,148562,1,8,2:0:0:0:
299,230,148625,2,0,P|294:268|306:299,1,50,0|8,0:0|2:0,0:0:0:0:
323,352,148750,1,2,0:0:0:0:
302,366,148812,1,8,2:0:0:0:
277,363,148875,2,0,P|246:339|233:309,1,50,0|8,0:0|2:0,0:0:0:0:
138,250,149000,1,2,0:0:0:0:
132,263,149062,1,8,2:0:0:0:
126,277,149125,1,0,0:0:0:0:
120,291,149187,1,8,2:0:0:0:
103,311,149250,5,4,0:0:0:0:
146,335,149312,1,8,2:0:0:0:
195,327,149375,1,0,0:0:0:0:
216,283,149437,1,8,2:0:0:0:
205,234,149500,1,2,0:0:0:0:
157,219,149562,1,8,2:0:0:0:
135,174,149625,1,0,0:0:0:0:
161,133,149687,1,8,2:0:0:0:
208,138,149750,5,2,0:0:0:0:
228,182,149812,1,8,2:0:0:0:
211,229,149875,1,0,0:0:0:0:
165,250,149937,1,8,2:0:0:0:
118,243,150000,1,2,0:0:0:0:
86,206,150062,1,8,2:0:0:0:
84,156,150125,1,0,0:0:0:0:
117,123,150187,1,8,2:0:0:0:
162,114,150250,1,2,0:0:0:0:
196,82,150312,1,8,2:0:0:0:
198,32,150375,1,0,0:0:0:0:
162,0,150437,1,8,2:0:0:0:
112,1,150500,2,0,L|60:35,3,50,2|8|0|8,0:0|2:0|0:0|2:0,0:0:0:0:
373,86,150750,5,4,0:0:0:0:
335,278,150875,1,4,0:2:0:0:
504,175,151000,1,4,0:0:0:0:
378,379,151125,1,4,0:1:0:0:
358,132,151250,1,4,0:0:0:0:
507,265,151375,1,4,0:2:0:0:
106,374,151500,5,2,0:1:0:0:
136,292,151625,1,2,0:1:0:0:
303,196,151750,5,4,0:1:0:0:
252,81,151875,1,4,0:1:0:0:
227,319,152000,5,8,0:1:0:0:
358,132,152125,1,8,0:1:0:0:
58,78,152250,6,0,P|120:52|172:7,1,110.000003356934,4|0,0:0|0:0,0:0:0:0:
244,186,152500,1,0,0:0:0:0:
261,71,152625,1,0,0:0:0:0:
469,106,152750,2,0,P|433:86|450:167,1,165.000005035401,2|0,0:0|2:0,0:0:0:0:
450,302,153000,6,0,P|396:270|346:253,1,110.000003356934,10|0,0:0|0:0,0:0:0:0:
208,348,153250,2,0,B|230:362|230:362|274:336|274:336|307:353,1,110.000003356934
344,242,153500,1,8,2:0:0:0:
127,367,153625,1,8,2:0:0:0:
192,132,153750,6,0,B|224:119|224:119|189:229,1,110.000003356934,4|0,0:0|0:0,0:0:0:0:
109,251,154000,1,2,0:0:0:0:
203,330,154125,1,0,0:0:0:0:
300,153,154250,2,0,B|357:135|343:176|415:160,1,110.000003356934,2|0,0:0|0:0,0:0:0:0:
243,30,154500,5,10,0:0:0:0:
96,150,154625,1,8,2:0:0:0:
210,205,154750,1,2,0:0:0:0:
62,23,154875,5,8,0:2:0:0:
179,116,155000,1,0,0:0:0:0:
18,265,155125,1,8,0:0:0:0:
225,194,155250,6,0,B|251:182|251:182|275:191|275:191|338:185,1,110.000003356934,4|0,0:0|0:0,0:0:0:0:
412,264,155500,1,2,0:0:0:0:
334,116,155625,1,0,0:0:0:0:
458,35,155750,2,0,B|480:64|480:64|445:178,1,110.000003356934,2|0,0:0|0:0,0:0:0:0:
171,37,156000,6,0,B|208:19|208:19|248:86|248:86|212:144|212:144|218:198,1,220.000006713867,10|0,0:0|0:0,0:0:0:0:
279,248,156375,1,0,0:0:0:0:
106,140,156500,1,8,2:2:0:0:
258,106,156625,1,8,2:3:0:0:
142,290,156750,6,0,P|87:256|43:233,1,110.000003356934,4|0,0:0|0:0,0:0:0:0:
12,303,157000,1,2,0:0:0:0:
132,211,157125,1,0,0:0:0:0:
251,338,157250,6,0,B|267:319|291:315|291:315|366:328,1,110.000003356934,2|0,0:0|0:0,0:0:0:0:
447,380,157500,1,10,0:0:0:0:
295,180,157625,1,8,0:0:0:0:
484,260,157750,1,0,0:0:0:0:
364,309,157875,1,0,0:0:0:0:
436,192,158000,5,8,0:0:0:0:
440,176,158062,1,8,0:0:0:0:
444,159,158125,1,4,0:1:0:0:
448,143,158187,1,4,0:1:0:0:
426,115,158250,6,0,P|396:132|364:144,1,60,4|0,0:0|2:0,0:0:0:0:
291,56,158500,5,2,0:1:0:0:
250,28,158562,1,8,2:0:0:0:
201,40,158625,1,2,0:2:0:0:
176,83,158687,1,8,2:0:0:0:
187,132,158750,1,2,0:1:0:0:
161,174,158812,1,8,2:0:0:0:
110,177,158875,1,2,0:2:0:0:
84,134,158937,1,8,2:0:0:0:
100,91,159000,5,2,0:1:0:0:
144,113,159062,1,8,2:0:0:0:
152,162,159125,1,2,0:2:0:0:
122,202,159187,1,8,2:0:0:0:
73,214,159250,1,2,0:1:0:0:
57,261,159312,1,8,2:0:0:0:
89,299,159375,1,2,0:2:0:0:
138,294,159437,1,8,2:0:0:0:
177,325,159500,2,0,L|196:270,1,50,2|8,0:1|2:0,0:0:0:0:
246,168,159625,2,0,L|265:223,1,50,2|8,0:2|2:0,0:0:0:0:
385,346,159750,5,4,0:0:0:0:
396,292,159812,1,8,2:0:0:0:
408,237,159875,1,2,0:2:0:0:
420,183,159937,1,8,2:0:0:0:
433,129,160000,2,0,L|444:78,1,50,2|8,0:2|2:0,0:0:0:0:
329,12,160125,5,2,0:2:0:0:
318,66,160187,1,8,2:0:0:0:
306,121,160250,1,2,0:1:0:0:
294,175,160312,1,8,2:0:0:0:
281,229,160375,2,0,L|270:277,1,50,2|8,0:2|2:0,0:0:0:0:
153,342,160500,5,2,0:1:0:0:
164,288,160562,1,8,2:0:0:0:
176,233,160625,1,2,0:2:0:0:
188,179,160687,1,8,2:0:0:0:
201,125,160750,2,0,L|151:148,1,50,2|8,0:1|2:0,0:0:0:0:
50,247,160875,2,0,L|95:226,1,50,2|8,0:2|2:0,0:0:0:0:
201,35,161000,2,0,L|155:55,3,50,4|8|0|8,0:1|2:0|0:0|2:0,0:0:0:0:
297,0,161250,5,4,0:0:0:0:
315,46,161312,1,8,2:0:0:0:
333,92,161375,1,0,0:0:0:0:
351,138,161437,1,8,2:0:0:0:
369,184,161500,2,0,L|402:271,1,50,2|8,0:1|2:0,0:0:0:0:
333,363,161625,5,2,0:2:0:0:
315,317,161687,1,8,2:0:0:0:
297,271,161750,1,2,0:1:0:0:
279,225,161812,1,8,2:0:0:0:
261,179,161875,2,0,L|243:132,1,50,2|8,0:2|2:0,0:0:0:0:
107,65,162000,5,2,0:1:0:0:
125,111,162062,1,8,2:0:0:0:
143,157,162125,1,2,0:2:0:0:
161,203,162187,1,8,2:0:0:0:
179,249,162250,2,0,L|212:336,1,50,2|8,0:2|2:0,0:0:0:0:
89,363,162375,5,2,0:1:0:0:
71,317,162437,1,8,2:0:0:0:
53,271,162500,1,2,0:2:0:0:
35,225,162562,1,8,2:0:0:0:
17,179,162625,2,0,L|0:132,1,50,2|8,0:2|2:0,0:0:0:0:
96,57,162750,5,4,0:0:0:0:
114,63,162812,1,0,0:0:0:0:
133,69,162875,1,0,0:0:0:0:
151,75,162937,1,0,0:0:0:0:
172,110,163000,5,4,0:2:0:0:
190,104,163062,1,0,0:0:0:0:
209,98,163125,1,0,0:0:0:0:
227,92,163187,1,0,0:0:0:0:
253,67,163250,5,4,0:0:0:0:
271,73,163312,1,0,0:0:0:0:
290,79,163375,1,0,0:0:0:0:
308,85,163437,1,0,0:0:0:0:
342,70,163500,5,8,0:0:0:0:
323,115,163562,1,8,0:0:0:0:
304,161,163625,2,0,L|277:228,1,50
311,330,163750,5,8,0:0:0:0:
250,365,163812,1,8,0:0:0:0:
193,342,163875,1,8,0:0:0:0:
178,289,163937,1,8,0:0:0:0:
197,247,164000,1,4,0:1:0:0:
193,203,164062,1,4,0:1:0:0:
161,185,164125,1,4,0:1:0:0:
135,198,164187,1,4,0:1:0:0:
152,224,164250,5,4,0:0:0:0:
148,220,164312,1,0,0:0:0:0:
145,217,164375,1,0,0:0:0:0:
143,214,164437,1,0,0:0:0:0:
142,210,164500,1,4,0:1:0:0:
143,206,164562,1,0,0:0:0:0:
144,203,164625,1,0,0:0:0:0:
146,200,164687,1,0,0:0:0:0:
146,196,164750,1,4,0:0:0:0:
145,192,164812,1,0,0:0:0:0:
143,188,164875,1,0,0:0:0:0:
140,185,164937,1,0,0:0:0:0:
97,164,165000,6,0,B|71:156|71:156|119:109|119:109|126:109|126:109|170:60|170:60|127:51,1,200,10|0,0:0|2:0,0:0:0:0:
64,39,165750,2,0,B|35:56|35:56|266:147,1,275,4|0,2:1|2:0,0:0:0:0:
423,202,166500,5,12,0:0:0:0:
445,186,166562,1,0,0:0:0:0:
454,159,166625,1,0,0:0:0:0:
442,134,166687,1,0,0:0:0:0:
416,123,166750,1,4,0:1:0:0:
390,132,166812,1,0,0:0:0:0:
363,124,166875,1,0,0:0:0:0:
350,99,166937,1,0,0:0:0:0:
358,72,167000,1,4,0:0:0:0:
382,59,167062,1,0,0:0:0:0:
381,31,167125,1,0,0:0:0:0:
358,16,167187,1,0,0:0:0:0:
346,17,167250,5,4,0:0:0:0:
331,51,167312,1,0,0:0:0:0:
296,66,167375,1,0,0:0:0:0:
258,65,167437,1,0,0:0:0:0:
227,42,167500,1,4,0:0:0:0:
190,37,167562,1,0,0:0:0:0:
156,55,167625,1,0,0:0:0:0:
143,90,167687,1,0,0:0:0:0:
153,126,167750,1,4,0:2:0:0:
185,144,167812,1,0,0:0:0:0:
196,180,167875,1,0,0:0:0:0:
186,216,167937,1,0,0:0:0:0:
178,219,168000,6,0,B|157:218|144:200|144:200|187:211|223:183|223:183|227:181|227:181|231:182|231:182|271:153|300:167|300:167|266:185|262:227,1,275.000010490418,10|0,0:0|2:0,0:0:0:0:
326,270,168750,5,4,0:1:0:0:
335,266,168812,1,0,0:0:0:0:
344,262,168875,1,0,0:0:0:0:
353,258,168937,1,0,0:0:0:0:
362,254,169000,1,0,0:0:0:0:
312,296,169250,5,0,0:0:0:0:
171,318,169500,5,10,0:0:0:0:
156,301,169562,1,0,0:0:0:0:
139,284,169625,1,0,0:0:0:0:
122,268,169687,1,0,0:0:0:0:
103,254,169750,1,0,0:0:0:0:
182,370,170000,5,0,0:0:0:0:
25,298,170250,5,4,0:0:0:0:
14,278,170312,1,0,0:0:0:0:
18,255,170375,1,0,0:0:0:0:
37,244,170437,1,0,0:0:0:0:
59,247,170500,1,4,0:1:0:0:
77,235,170562,1,0,0:0:0:0:
81,210,170625,1,0,0:0:0:0:
67,189,170687,1,0,0:0:0:0:
42,185,170750,1,4,0:0:0:0:
29,163,170812,1,0,0:0:0:0:
33,138,170875,1,0,0:0:0:0:
53,124,170937,1,0,0:0:0:0:
70,132,171000,6,0,B|157:118|157:118|164:110|164:110|225:99|225:99|203:110|193:124,1,200,10|0,0:0|2:0,0:0:0:0:
178,242,171750,2,0,B|204:230|189:175|123:163|79:199|79:264|123:275|123:275|124:279|124:279|148:285|157:336|120:347|121:325|131:324|132:313|140:313|142:318,1,275.000010490418,4|0,2:1|0:0,0:0:0:0:
238,366,172500,5,12,0:0:0:0:
220,342,172562,1,0,0:0:0:0:
217,311,172625,1,0,0:0:0:0:
232,285,172687,1,0,0:0:0:0:
260,276,172750,1,4,0:1:0:0:
287,287,172812,1,0,0:0:0:0:
299,314,172875,1,0,0:0:0:0:
323,331,172937,1,0,0:0:0:0:
351,328,173000,1,4,0:0:0:0:
372,305,173062,1,0,0:0:0:0:
374,274,173125,1,0,0:0:0:0:
354,251,173187,1,0,0:0:0:0:
345,253,173250,5,4,0:1:0:0:
309,229,173312,1,0,0:0:0:0:
304,186,173375,1,0,0:0:0:0:
334,157,173437,1,0,0:0:0:0:
376,163,173500,1,4,0:3:0:0:
400,197,173562,1,0,0:0:0:0:
442,204,173625,1,0,0:0:0:0:
474,177,173687,1,0,0:0:0:0:
476,134,173750,1,4,0:1:0:0:
445,104,173812,1,0,0:0:0:0:
402,108,173875,1,0,0:0:0:0:
373,77,173937,1,0,0:0:0:0:
390,22,174000,6,0,L|460:37,1,59.9999981689454,12|0,0:0|0:0,0:0:0:0:
267,151,174250,5,4,0:0:0:0:
219,10,174375,1,4,0:1:0:0:
173,209,174500,1,4,0:0:0:0:
79,88,174625,5,4,2:1:0:0:
87,91,174687,1,4,2:1:0:0:
95,94,174750,1,4,0:0:0:0:
285,139,174875,1,4,0:2:0:0:
69,309,175000,5,2,0:1:0:0:
84,306,175062,1,2,0:1:0:0:
100,304,175125,2,0,L|153:296,1,29.9999990844727,2|2,0:1|0:1,0:0:0:0:
202,212,175250,1,4,0:1:0:0:
210,214,175312,1,4,0:1:0:0:
218,216,175375,2,0,L|261:227,1,29.9999990844727,4|4,0:1|0:1,0:0:0:0:
343,334,175500,5,4,0:0:0:0:
285,139,175625,1,4,0:2:0:0:
464,224,175750,5,8,0:1:0:0:
460,215,175812,1,8,0:1:0:0:
457,206,175875,2,0,L|447:157,1,29.9999990844727,8|8,0:1|0:1,0:0:0:0:
497,67,176000,5,8,0:0:0:0:
450,55,176062,1,8,0:0:0:0:
402,44,176125,1,8,0:0:0:0:
355,33,176187,1,8,0:0:0:0:
291,67,176250,5,4,0:0:0:0:
157,192,187500,6,0,L|107:177,1,50,8|0,0:0|2:0,0:0:0:0:
216,267,188250,6,0,P|232:234|247:213,1,60,4|0,0:0|0:0,0:0:0:0:
277,102,188500,5,2,0:0:0:0:
306,102,188562,1,8,2:0:0:0:
334,112,188625,1,0,0:0:0:0:
360,129,188687,1,8,2:0:0:0:
378,152,188750,1,2,0:0:0:0:
390,179,188812,1,8,2:0:0:0:
394,209,188875,1,0,0:0:0:0:
390,238,188937,1,8,2:0:0:0:
377,266,189000,5,2,0:0:0:0:
333,241,189062,1,8,2:0:0:0:
313,194,189125,1,0,0:0:0:0:
327,146,189187,1,8,2:0:0:0:
370,119,189250,1,2,0:0:0:0:
392,75,189312,1,8,2:0:0:0:
375,27,189375,1,0,0:0:0:0:
329,6,189437,1,8,2:0:0:0:
280,20,189500,1,2,0:0:0:0:
269,59,189562,1,8,2:0:0:0:
282,94,189625,1,0,0:0:0:0:
309,104,189687,1,8,2:0:0:0:
323,97,189750,5,4,0:0:0:0:
302,46,189812,1,8,2:0:0:0:
250,24,189875,1,0,0:0:0:0:
199,44,189937,1,8,2:0:0:0:
181,96,190000,1,2,0:0:0:0:
196,148,190062,1,8,2:0:0:0:
246,171,190125,1,0,0:0:0:0:
275,216,190187,1,8,2:0:0:0:
274,271,190250,1,2,0:0:0:0:
235,309,190312,1,8,2:0:0:0:
179,313,190375,1,0,0:0:0:0:
138,276,190437,1,8,2:0:0:0:
134,220,190500,1,2,0:0:0:0:
167,177,190562,1,8,2:0:0:0:
221,168,190625,1,0,0:0:0:0:
264,201,190687,1,8,2:0:0:0:
269,256,190750,1,2,0:0:0:0:
235,298,190812,1,8,2:0:0:0:
237,353,190875,1,0,0:0:0:0:
282,383,190937,1,8,2:0:0:0:
337,376,191000,1,2,0:0:0:0:
358,331,191062,1,8,2:0:0:0:
346,286,191125,1,0,0:0:0:0:
311,273,191187,1,8,2:0:0:0:
283,283,191250,5,4,0:0:0:0:
293,331,191312,1,8,2:0:0:0:
338,352,191375,1,0,0:0:0:0:
383,332,191437,1,8,2:0:0:0:
402,285,191500,1,2,0:0:0:0:
390,236,191562,1,8,2:0:0:0:
348,207,191625,1,0,0:0:0:0:
329,161,191687,1,8,2:0:0:0:
344,112,191750,1,2,0:0:0:0:
386,93,191812,1,8,2:0:0:0:
423,102,191875,1,0,0:0:0:0:
441,129,191937,1,8,2:0:0:0:
438,146,192000,5,2,0:0:0:0:
388,178,192062,1,8,2:0:0:0:
328,168,192125,1,0,0:0:0:0:
291,121,192187,1,8,2:0:0:0:
282,61,192250,1,2,0:0:0:0:
242,16,192312,1,8,2:0:0:0:
181,9,192375,1,0,0:0:0:0:
130,39,192437,1,8,2:0:0:0:
113,97,192500,1,2,0:0:0:0:
133,153,192562,1,8,2:0:0:0:
185,183,192625,1,0,0:0:0:0:
213,235,192687,1,8,2:0:0:0:
193,292,192750,2,0,P|166:270|146:262,3,50,4|8|0|8,0:0|2:0|0:0|2:0,0:0:0:0:
265,168,193000,2,0,P|292:146|312:138,3,50,2|8|0|8,0:0|2:0|0:0|2:0,0:0:0:0:
458,317,193250,5,2,0:0:0:0:
416,369,193312,1,8,2:0:0:0:
349,382,193375,1,0,0:0:0:0:
289,351,193437,1,8,2:0:0:0:
270,285,193500,1,2,0:0:0:0:
289,221,193562,1,8,2:0:0:0:
349,189,193625,1,0,0:0:0:0:
381,130,193687,1,8,2:0:0:0:
362,64,193750,1,2,0:0:0:0:
301,34,193812,1,8,2:0:0:0:
233,44,193875,1,0,0:0:0:0:
197,101,193937,1,8,2:0:0:0:
132,123,194000,1,2,0:0:0:0:
76,99,194062,1,8,2:0:0:0:
57,49,194125,1,0,0:0:0:0:
76,9,194187,1,8,2:0:0:0:
100,0,194250,5,4,0:0:0:0:
127,22,194312,1,8,2:0:0:0:
138,55,194375,1,0,0:0:0:0:
141,89,194437,1,8,2:0:0:0:
132,123,194500,1,2,0:2:0:0:
115,153,194562,1,8,2:0:0:0:
90,178,194625,1,2,0:2:0:0:
60,195,194687,1,8,2:0:0:0:
25,204,194750,2,0,P|46:183|69:148,3,50,2|8|2|8,0:1|2:0|0:2|2:0,0:0:0:0:
72,308,195000,5,2,0:1:0:0:
98,322,195062,1,8,2:0:0:0:
128,324,195125,1,2,0:2:0:0:
155,312,195187,1,8,2:0:0:0:
172,286,195250,1,2,0:1:0:0:
176,256,195312,1,8,2:0:0:0:
193,231,195375,1,2,0:2:0:0:
220,219,195437,1,8,2:0:0:0:
249,224,195500,1,2,0:1:0:0:
261,241,195562,1,8,2:0:0:0:
263,255,195625,1,2,0:2:0:0:
259,263,195687,1,8,2:0:0:0:
252,269,195750,5,4,0:0:0:0:
213,258,195812,1,8,2:0:0:0:
192,223,195875,1,0,0:0:0:0:
202,184,195937,1,8,2:0:0:0:
237,164,196000,1,2,0:1:0:0:
276,169,196062,1,8,2:0:0:0:
299,201,196125,1,2,0:2:0:0:
334,219,196187,1,8,2:0:0:0:
372,205,196250,1,2,0:1:0:0:
393,171,196312,1,8,2:0:0:0:
384,131,196375,1,2,0:2:0:0:
351,107,196437,1,8,2:0:0:0:
310,109,196500,2,0,P|339:125|366:153,3,50,2|8|2|8,0:1|2:0|0:2|2:0,0:0:0:0:
231,34,196750,5,2,0:1:0:0:
202,26,196812,1,8,2:0:0:0:
172,32,196875,1,2,0:2:0:0:
150,53,196937,1,8,2:0:0:0:
146,83,197000,1,2,0:1:0:0:
135,110,197062,1,8,2:0:0:0:
111,128,197125,1,2,0:1:0:0:
85,128,197187,1,8,2:0:0:0:
73,118,197250,5,4,0:0:0:0:
94,73,197312,1,8,2:0:0:0:
144,68,197375,1,2,0:2:0:0:
177,104,197437,1,8,2:0:0:0:
166,153,197500,1,2,0:1:0:0:
125,181,197562,1,8,2:0:0:0:
100,225,197625,1,2,0:2:0:0:
107,273,197687,1,8,2:0:0:0:
144,306,197750,1,2,0:1:0:0:
188,313,197812,1,8,2:0:0:0:
220,288,197875,1,2,0:2:0:0:
227,254,197937,1,8,2:0:0:0:
207,231,198000,1,2,0:1:0:0:
177,233,198062,1,8,2:0:0:0:
158,257,198125,1,2,0:2:0:0:
159,286,198187,1,8,2:0:0:0:
183,304,198250,1,2,0:2:0:0:
212,301,198312,1,8,2:0:0:0:
234,280,198375,1,2,0:2:0:0:
262,272,198437,1,8,2:0:0:0:
290,282,198500,2,0,P|266:304|248:334,3,50,2|8|2|8,0:2|2:0|0:2|2:0,0:0:0:0:
393,352,198750,5,4,0:0:0:0:
440,300,198812,1,8,2:0:0:0:
424,231,198875,1,2,0:2:0:0:
356,215,198937,1,8,2:0:0:0:
301,259,199000,1,2,0:2:0:0:
233,237,199062,1,8,2:0:0:0:
216,168,199125,1,2,0:2:0:0:
257,111,199187,1,8,2:0:0:0:
235,42,199250,1,2,0:1:0:0:
166,30,199312,1,8,2:0:0:0:
121,85,199375,1,2,0:2:0:0:
143,151,199437,1,8,2:0:0:0:
212,164,199500,5,4,0:1:0:0:
290,150,199562,1,4,0:1:0:0:
369,136,199625,1,0,0:0:0:0:
445,116,199687,1,0,0:0:0:0:
490,93,199750,5,8,0:0:0:0:
477,141,199812,1,8,0:0:0:0:
469,190,199875,2,0,L|451:273,1,50
342,384,200000,5,4,0:1:0:0:
335,334,200062,1,4,0:1:0:0:
328,284,200125,1,8,0:1:0:0:
318,235,200187,1,8,0:1:0:0:
298,222,200250,5,4,0:0:0:0:
216,366,200375,1,0,0:0:0:0:
182,172,200500,1,2,0:0:0:0:
137,383,200625,1,0,0:0:0:0:
14,112,200750,1,2,0:0:0:0:
51,332,200875,1,0,0:0:0:0:
104,77,201000,6,0,B|119:71|119:71|194:82|194:82|198:81|198:81|284:94|284:94|310:89,1,200,12|2,0:0|0:0,0:0:0:0:
220,3,201375,1,0,0:0:0:0:
255,188,201500,1,2,0:0:0:0:
419,82,201625,1,0,0:0:0:0:
190,368,201750,6,0,P|180:269|87:203,1,200,4|2,0:2|0:0,0:0:0:0:
29,276,202125,1,0,0:0:0:0:
249,311,202250,1,2,0:0:0:0:
11,247,202375,1,0,0:0:0:0:
285,223,202500,6,0,B|326:250|326:250|400:213,1,100,12|0,0:0|0:0,0:0:0:0:
318,100,202750,1,2,0:0:0:0:
249,311,202875,1,0,0:0:0:0:
435,142,203000,2,0,B|482:157|482:157|504:211,1,100.000003814697,2|0,0:0|0:0,0:0:0:0:
379,380,203250,6,0,B|346:338|346:338|379:311|379:311|381:307|381:307|421:275|421:275|385:187,1,200,4|2,0:0|0:0,0:0:0:0:
245,334,203625,1,0,0:0:0:0:
195,198,203750,2,0,B|217:190|235:201|235:201|239:197|239:197|261:224|312:225,1,100,2|0,0:0|0:0,0:0:0:0:
103,381,204000,6,0,B|134:342|134:342|108:288,1,100,12|0,0:0|0:0,0:0:0:0:
38,95,204250,2,0,P|2:178|-2:207,1,100,2|0,0:0|0:0,0:0:0:0:
318,100,204500,2,0,B|312:65|298:49|298:49|300:41|300:41|288:19|258:-1,1,100,2|0,0:0|0:0,0:0:0:0:
284,222,204750,6,0,P|362:249|387:135,1,200,4|2,0:2|0:0,0:0:0:0:
308,118,205125,1,0,0:0:0:0:
491,40,205250,1,2,0:0:0:0:
276,13,205375,1,0,0:0:0:0:
501,264,205500,6,0,B|478:261|478:261|401:325,1,100,12|0,0:0|0:0,0:0:0:0:
319,368,205750,1,2,0:0:0:0:
301,361,205875,1,0,0:0:0:0:
137,207,206000,2,0,P|228:206|195:293,1,179.999994506836,4|0,0:2|0:0,0:0:0:0:
62,344,206250,5,4,0:0:0:0:
54,350,206312,1,0,0:0:0:0:
43,350,206375,1,0,0:0:0:0:
34,344,206437,1,0,0:0:0:0:
28,335,206500,1,0,0:0:0:0:
26,325,206562,1,0,0:0:0:0:
28,315,206625,1,0,0:0:0:0:
34,307,206687,1,0,0:0:0:0:
43,305,206750,1,0,0:0:0:0:
52,306,206812,1,0,0:0:0:0:
60,311,206875,1,0,0:0:0:0:
65,319,206937,1,0,0:0:0:0:
67,328,207000,5,12,0:0:0:0:
97,360,207062,1,0,0:0:0:0:
142,362,207125,1,0,0:0:0:0:
176,334,207187,1,0,0:0:0:0:
181,288,207250,1,0,0:0:0:0:
154,252,207312,1,0,0:0:0:0:
108,251,207375,1,0,0:0:0:0:
73,223,207437,1,0,0:0:0:0:
83,172,207500,6,0,L|162:182,3,50
63,25,207750,5,4,0:0:0:0:
62,32,207812,1,0,0:0:0:0:
62,39,207875,2,0,L|58:94,1,50
215,196,208000,5,0,0:0:0:0:
259,191,208062,1,0,0:0:0:0:
283,152,208125,1,0,0:0:0:0:
267,110,208187,1,0,0:0:0:0:
222,99,208250,1,0,0:0:0:0:
201,59,208312,1,0,0:0:0:0:
216,16,208375,1,0,0:0:0:0:
259,5,208437,1,0,0:0:0:0:
303,44,208500,5,12,0:0:0:0:
268,50,208562,1,0,0:0:0:0:
234,57,208625,1,0,0:0:0:0:
199,64,208687,1,0,0:0:0:0:
165,70,208750,1,0,0:0:0:0:
131,77,208812,1,0,0:0:0:0:
96,84,208875,1,0,0:0:0:0:
62,90,208937,1,0,0:0:0:0:
23,124,209000,6,0,B|90:132|90:132|93:131|93:131|202:143,1,150,4|0,0:2|0:0,0:0:0:0:
421,218,209250,2,0,B|365:269|365:269|268:216,1,150,2|0,0:0|0:0,0:0:0:0:
261,153,209500,5,8,0:0:0:0:
285,153,209562,1,8,0:0:0:0:
302,172,209625,2,0,P|311:197|295:234,1,50
148,307,209750,1,4,0:1:0:0:
146,300,209812,1,4,0:1:0:0:
145,292,209875,2,0,L|137:233,1,50
43,58,210000,5,8,0:0:0:0:
90,73,210062,1,8,0:0:0:0:
137,89,210125,1,8,0:0:0:0:
185,105,210187,1,8,0:0:0:0:
212,135,210250,5,2,0:1:0:0:
240,125,210312,1,2,0:1:0:0:
268,115,210375,1,2,0:1:0:0:
296,105,210437,1,2,0:1:0:0:
334,50,210500,5,4,0:1:0:0:
335,74,210562,1,4,0:1:0:0:
351,92,210625,1,4,0:1:0:0:
375,97,210687,1,4,0:1:0:0:
414,64,210750,5,4,0:0:0:0:
244,26,210875,1,4,0:2:0:0:
361,360,211000,6,8,L|348:299,1,50
469,204,211125,5,0,0:0:0:0:
438,171,211187,1,0,0:0:0:0:
392,165,211250,2,8,P|364:173|347:204,1,50.0000019073487
246,291,211375,1,0,0:0:0:0:
251,277,211437,1,0,0:0:0:0:
256,262,211500,1,4,0:0:0:0:
203,145,211625,1,4,0:2:0:0:
100,262,211750,6,8,L|119:197,1,50
38,48,211875,1,0,0:0:0:0:
32,60,211937,1,0,0:0:0:0:
0,104,212000,5,8,0:0:0:0:
67,120,212062,1,8,0:0:0:0:
136,133,212125,1,8,0:0:0:0:
203,145,212187,1,8,0:0:0:0:
238,100,212250,6,0,P|273:82|286:79,1,44.999998626709,0|0,2:0|2:0,2:0:0:0:
302,155,213077,2,0,P|330:163|415:270,1,164.9999949646,0|0,2:0|2:0,2:0:0:0:
300,356,215560,6,0,P|320:348|345:347,1,44.999998626709,0|0,2:0|2:0,2:0:0:0:
254,282,216387,2,0,P|211:257|155:234,1,104.999996795654,0|0,2:0|2:0,2:0:0:0:
140,316,218043,2,0,P|167:305|192:300,1,44.999998626709,0|0,2:0|2:0,2:0:0:0:
71,235,218870,6,0,P|64:206|55:179,1,52.4999983978272,4|0,0:0|2:0,0:0:0:0:
18,103,219698,2,0,P|49:110|218:121,1,192.499994125366,0|0,2:0|2:0,2:0:0:0:
264,62,222181,6,0,P|291:52|311:38,1,52.4999983978272,0|0,2:0|2:0,2:0:0:0:
412,52,223008,2,0,P|380:67|373:155,1,122.499996261597,0|0,2:0|2:0,2:0:0:0:
461,188,224663,6,0,P|425:205|415:226,1,52.4999983978272,0|0,2:0|2:0,2:0:0:0:
385,294,225491,2,0,P|358:280|370:313,1,82.5000025177003,4|0,0:0|2:0,0:0:0:0:
299,353,226318,6,0,P|268:330|242:317,1,67.4999979400635,0|0,2:0|2:0,2:0:0:0:
172,351,227146,2,0,P|165:304|154:271,1,82.5000025177003,0|0,2:0|2:0,2:0:0:0:
77,247,227974,2,0,P|106:209|128:166,1,97.4999955368044,0|0,2:0|2:0,2:0:0:0:
66,101,228801,2,0,P|134:90|183:74,1,112.500004291535,4|0,2:1|2:0,2:0:0:0:
200,4,229629,6,0,P|238:33|282:56,1,97.4999955368044,0|0,2:0|2:0,2:0:0:0:
358,25,230456,2,0,P|367:90|383:138,1,112.500004291535,0|0,2:0|2:0,2:0:0:0:
464,161,231284,2,0,P|434:199|412:242,1,97.4999955368044,0|0,2:0|2:0,2:0:0:0:
350,336,232112,6,0,B|351:343|366:348|383:338|383:338|330:323|310:267,1,112.500004291535,4|0,3:0|2:0,2:0:0:0:
306,145,232939,2,0,P|324:203|267:224,1,112.500004291535,0|0,2:0|2:0,2:0:0:0:
251,288,233767,2,0,L|220:144,1,127.50000243187,0|0,2:0|2:0,2:0:0:0:
211,74,234594,2,0,B|228:82|228:82|117:121|117:121|149:142,1,150,0|0,2:0|2:0,2:0:0:0:
140,250,235422,6,0,B|160:252|160:252|83:188|83:188|86:233,1,134.999995880127,0|0,2:0|2:0,2:0:0:0:
58,311,236250,2,0,B|112:319|112:319|116:318|116:318|176:328,1,112.500004291535,0|0,2:0|2:0,2:0:0:0:
317,253,237077,2,0,B|329:236|297:219|267:231|241:265|242:302|240:335,1,134.999995880127,0|0,2:0|2:0,2:0:0:0:
303,364,237905,2,0,B|314:347|310:327|310:327|333:345|372:341,1,82.5000025177003,0|0,2:0|2:0,2:0:0:0:
427,343,238732,6,0,B|453:316|431:277|431:277|372:252|378:184,1,150,4|0,3:0|2:0,2:0:0:0:
396,146,239560,6,0,L|453:157,1,44.999998626709,4|0,2:1|2:0,2:0:0:0:
492,88,240387,2,0,L|435:78,1,44.999998626709,0|0,2:0|2:0,2:0:0:0:
319,53,241215,2,0,P|336:114|339:146,1,75.0000028610231,4|4,2:1|3:1,2:0:0:0:
80,141,242043,5,4,3:2:0:0:
80,141,242456,2,0,B|111:171|111:171|96:236,2,85.0000016212464,0|4|0,2:0|2:1|2:0,2:0:0:0:
9,228,243698,6,0,L|33:231,5,14.1666669368744,2|2|2|2|2|2,2:1|2:0|2:0|2:0|2:0|2:0,2:0:0:0:
99,295,244112,2,0,L|75:298,5,14.1666669368744,2|2|2|2|2|2,2:1|2:0|2:0|2:0|2:0|2:0,2:0:0:0:
13,351,244525,2,0,L|37:354,5,14.1666669368744,2|2|2|2|2|2,2:1|2:0|2:0|2:0|2:0|2:0,2:0:0:0:
147,374,244939,6,0,L|171:308,1,37.5000014305115,4|0,3:0|2:0,2:0:0:0:
235,245,245146,2,0,L|257:311,1,55.0000016784668,4|0,3:2|2:0,2:0:0:0:
328,335,245353,2,0,B|350:323|350:323|392:343,1,50,4|0,3:0|2:0,2:0:0:0:
353,372,245767,6,0,P|348:246|355:216,2,119.999996337891,0|4|0,2:0|2:1|2:0,2:0:0:0:
470,325,247008,6,0,L|422:318,1,39.9999987792969,0|0,2:0|2:0,2:0:0:0:
464,223,247284,2,0,L|513:216,1,39.9999987792969,0|0,2:0|2:0,2:0:0:0:
461,308,247560,2,0,L|413:301,1,39.9999987792969,0|0,2:0|2:0,2:0:0:0:
399,112,247836,2,0,B|387:202|387:202|350:246,1,119.999996337891,4|4,2:1|0:1,2:0:0:0:
162,60,248663,6,0,P|256:74|233:159,1,179.999994506836,4|0,3:3|2:0,2:0:0:0:
198,192,249491,5,8,0:0:0:0:
171,182,249560,1,8,0:0:0:0:
144,172,249629,1,8,0:0:0:0:
117,162,249698,1,8,0:0:0:0:
90,151,249767,2,0,L|58:139,1,19.9999993896485
3,188,249905,5,4,0:1:0:0:
5,199,249974,1,4,0:1:0:0:
7,210,250043,1,4,0:1:0:0:
9,221,250112,1,4,0:1:0:0:
11,232,250181,2,0,L|19:267,1,19.9999993896485
36,346,250318,5,8,0:0:0:0:
36,346,251974,6,0,P|87:322|185:285,1,150,4|0,0:0|2:0,0:0:0:0:
298,356,252801,2,0,B|257:292|244:218|244:218|257:208|257:208|265:239|286:278,1,225.000008583069,12|0,0:0|0:0,0:0:0:0:
391,277,253629,1,4,0:0:0:0:
209,153,253836,1,4,0:2:0:0:
415,271,254042,1,4,0:0:0:0:
405,2,254456,2,0,B|378:23|378:23|368:101|368:101|331:144,1,150.000005722046,12|4,0:0|0:2,0:0:0:0:
221,61,255284,6,0,B|224:43|247:36|267:82|239:125|179:138|171:124|154:89,1,150,4|0,0:0|0:0,0:0:0:0:
58,24,256111,2,0,B|72:14|97:3|97:3|53:76|43:148|43:148|51:136|60:126,1,225.000008583069,12|0,0:0|0:0,0:0:0:0:
140,207,256939,5,4,0:0:0:0:
167,218,257008,1,0,0:0:0:0:
189,237,257077,1,0,0:0:0:0:
203,262,257146,1,0,0:0:0:0:
219,286,257215,1,0,0:0:0:0:
244,300,257284,1,0,0:0:0:0:
272,304,257353,5,4,0:0:0:0:
261,269,257422,1,0,0:0:0:0:
274,235,257491,1,0,0:0:0:0:
308,221,257560,1,0,0:0:0:0:
342,232,257629,1,0,0:0:0:0:
357,264,257698,1,0,0:0:0:0:
352,278,257767,5,12,0:0:0:0:
317,262,257836,1,0,0:0:0:0:
293,231,257905,1,0,0:0:0:0:
298,192,257974,1,0,0:0:0:0:
326,167,258042,1,0,0:0:0:0:
341,132,258111,1,0,0:0:0:0:
333,94,258180,5,4,0:0:0:0:
293,111,258249,1,0,0:0:0:0:
277,150,258318,1,0,0:0:0:0:
293,190,258387,1,0,0:0:0:0:
333,206,258456,1,0,0:0:0:0:
373,190,258525,1,0,0:0:0:0:
389,150,258594,6,0,P|409:138|442:230,1,150,4|0,0:0|0:0,0:0:0:0:
375,276,259422,2,0,P|303:231|171:169,1,225.000008583069,12|0,0:0|0:0,0:0:0:0:
71,89,260249,1,4,0:0:0:0:
170,284,260456,1,4,0:2:0:0:
85,69,260663,1,4,0:0:0:0:
24,306,261077,2,0,B|57:288|57:288|123:315|123:315|162:296,1,150.000005722046,12|4,0:0|0:2,0:0:0:0:
302,251,261905,6,0,B|338:237|338:237|212:219,1,150,4|0,0:0|0:0,0:0:0:0:
369,345,262732,2,0,B|353:305|353:305|363:251|363:251|370:249|370:249|391:169|391:169|408:234,1,225.000008583069,12|0,0:0|0:0,0:0:0:0:
472,133,263560,5,4,0:0:0:0:
444,142,263629,1,0,0:0:0:0:
414,142,263698,1,0,0:0:0:0:
389,127,263767,1,0,0:0:0:0:
376,100,263836,1,0,0:0:0:0:
381,70,263905,1,0,0:0:0:0:
404,52,263974,5,4,0:0:0:0:
412,87,264042,1,0,0:0:0:0:
401,121,264111,1,0,0:0:0:0:
372,142,264180,1,0,0:0:0:0:
351,171,264249,1,0,0:0:0:0:
346,206,264318,1,0,0:0:0:0:
334,219,264387,5,12,0:0:0:0:
310,180,264456,1,0,0:0:0:0:
267,170,264525,1,0,0:0:0:0:
225,182,264594,1,0,0:0:0:0:
203,220,264663,1,0,0:0:0:0:
166,243,264732,1,0,0:0:0:0:
122,239,264801,5,4,0:0:0:0:
140,192,264870,1,0,0:0:0:0:
185,171,264939,1,0,0:0:0:0:
232,187,265008,1,0,0:0:0:0:
251,232,265077,1,0,0:0:0:0:
234,279,265146,1,0,0:0:0:0:
188,299,265215,6,0,B|126:270|66:272|66:272|92:258,1,150,4|0,0:0|0:0,0:0:0:0:
171,211,266042,2,0,B|206:192|206:192|208:182|208:182|282:138|282:138|341:148|322:212,1,225.000008583069,12|0,0:0|0:0,0:0:0:0:
206,66,266870,1,4,0:0:0:0:
299,281,267077,1,4,0:2:0:0:
184,68,267284,1,4,0:0:0:0:
467,113,267698,2,0,B|422:95|422:95|444:170|444:170|468:146,1,150.000005722046,12|4,0:0|0:2,0:0:0:0:
441,317,268525,6,0,B|427:278|387:282|387:282|366:322|316:321,1,150,4|0,0:0|0:0,0:0:0:0:
266,196,269353,2,0,B|280:180|315:183|315:183|280:192|239:216|259:225|209:253|157:224,1,225.000008583069,12|0,0:0|0:0,0:0:0:0:
139,43,270180,5,4,0:0:0:0:
159,57,270249,1,0,0:0:0:0:
171,78,270318,1,0,0:0:0:0:
175,102,270387,1,0,0:0:0:0:
183,125,270456,1,0,0:0:0:0:
201,142,270525,1,0,0:0:0:0:
225,144,270594,5,4,0:0:0:0:
211,108,270663,1,0,0:0:0:0:
176,94,270732,1,0,0:0:0:0:
142,110,270801,1,0,0:0:0:0:
122,142,270870,1,0,0:0:0:0:
91,164,270939,1,0,0:0:0:0:
74,161,271008,5,12,0:0:0:0:
110,183,271077,1,0,0:0:0:0:
124,223,271146,1,0,0:0:0:0:
110,263,271215,1,0,0:0:0:0:
76,289,271284,1,0,0:0:0:0:
33,290,271353,1,0,0:0:0:0:
3,259,271422,5,4,0:0:0:0:
41,230,271491,1,0,0:0:0:0:
88,229,271560,1,0,0:0:0:0:
120,264,271629,1,0,0:0:0:0:
124,311,271698,1,0,0:0:0:0:
153,347,271767,1,0,0:0:0:0:
200,347,271836,6,0,B|221:328|221:328|276:340|276:340|280:339|280:339|347:353,1,150,4|0,0:0|0:0,0:0:0:0:
472,330,272663,2,0,B|473:356|505:289|468:232|394:235|384:294|384:294|412:319|408:347,1,225.000008583069,12|0,0:0|0:0,0:0:0:0:
291,266,273491,1,4,0:0:0:0:
421,146,273698,1,4,0:2:0:0:
266,262,273905,1,4,0:0:0:0:
198,71,274318,2,0,B|187:56|187:56|298:45|298:45|288:75,1,150.000005722046,12|4,0:0|0:2,0:0:0:0:
91,222,275146,6,0,B|106:232|113:254|113:254|133:233|126:202|98:178|74:191|80:122,1,165.000005035401,4|0,0:0|0:0,0:0:0:0:
367,301,275974,2,0,B|356:286|356:286|170:304|170:304|150:342,1,225.000008583069,12|0,0:0|0:0,0:0:0:0:
420,381,276801,5,4,0:0:0:0:
459,259,276939,1,4,0:2:0:0:
510,330,277077,1,4,0:1:0:0:
358,167,277215,5,8,0:1:0:0:
370,168,277283,1,8,0:1:0:0:
382,169,277352,1,8,0:1:0:0:
395,171,277421,1,8,0:1:0:0:
409,173,277491,2,0,L|446:177,1,25.0000009536744
507,84,277629,5,4,0:3:0:0:
497,50,277698,1,4,0:3:0:0:
465,35,277767,1,4,0:3:0:0:
430,43,277836,1,4,0:3:0:0:
411,72,277905,2,0,L|412:106,1,25.0000009536744
497,261,278042,5,8,0:2:0:0:
350,317,278180,5,8,0:0:0:0:
280,149,278318,5,8,0:0:0:0:
277,347,278456,5,4,0:0:0:0:
307,357,278525,1,0,0:0:0:0:
338,348,278594,1,0,0:0:0:0:
350,317,278663,1,0,0:0:0:0:
336,287,278732,1,0,0:0:0:0:
306,274,278801,1,0,0:0:0:0:
278,291,278870,1,4,0:1:0:0:
246,281,278939,1,0,0:0:0:0:
225,256,279008,1,0,0:0:0:0:
227,223,279077,1,0,0:0:0:0:
251,201,279146,1,0,0:0:0:0:
283,204,279215,1,0,0:0:0:0:
288,216,279284,6,0,B|257:221|233:205|233:205|235:200|235:200|201:179|162:192,1,112.500004291535,12|0,0:0|0:0,0:0:0:0:
147,61,279698,2,0,B|149:53|181:51|205:79|205:79|209:78|209:78|237:116|221:123|207:126,1,112.500004291535,4|0,2:3|0:0,0:0:0:0:
44,251,280111,5,4,0:0:0:0:
54,234,280180,1,0,0:0:0:0:
46,218,280249,1,0,0:0:0:0:
13,202,280318,5,0,0:0:0:0:
0,184,280387,1,0,0:0:0:0:
6,162,280456,1,0,0:0:0:0:
56,124,280525,5,4,0:1:0:0:
85,137,280594,1,0,0:0:0:0:
114,151,280663,1,0,0:0:0:0:
142,166,280732,1,0,0:0:0:0:
169,182,280801,1,0,0:0:0:0:
195,200,280870,1,0,0:0:0:0:
201,262,280939,6,0,B|178:257|168:285|168:285|199:305|197:349,1,112.500004291535,12|0,0:0|0:0,0:0:0:0:
110,352,281353,2,0,P|247:330|361:326,1,225.000008583069,4|0,0:2|0:0,0:0:0:0:
495,358,281767,5,4,0:0:0:0:
468,371,281836,1,0,0:0:0:0:
440,359,281905,1,0,0:0:0:0:
428,331,281974,1,0,0:0:0:0:
435,302,282042,1,0,0:0:0:0:
463,291,282111,1,0,0:0:0:0:
485,270,282180,1,4,0:0:0:0:
488,240,282249,1,0,0:0:0:0:
473,216,282318,1,0,0:0:0:0:
446,210,282387,1,0,0:0:0:0:
420,219,282456,1,0,0:0:0:0:
393,210,282525,1,0,0:0:0:0:
393,195,282594,6,0,B|401:182|401:182|410:156|401:132|401:132|416:119,1,75.0000028610231,12|0,0:0|2:0,0:0:0:0:
333,267,283008,2,0,B|316:289|316:289|246:262|246:262|242:248|233:237,1,125.000004768372,4|0,2:1|0:0,0:0:0:0:
115,301,283422,5,4,0:0:0:0:
134,281,283491,1,0,0:0:0:0:
135,253,283560,1,0,0:0:0:0:
115,233,283629,1,0,0:0:0:0:
108,206,283698,1,0,0:0:0:0:
122,182,283767,1,0,0:0:0:0:
148,173,283836,5,4,0:0:0:0:
183,200,283905,1,0,0:0:0:0:
227,194,283974,1,0,0:0:0:0:
252,157,284042,1,0,0:0:0:0:
242,112,284111,1,0,0:0:0:0:
200,95,284180,1,0,0:0:0:0:
158,113,284249,5,12,0:0:0:0:
167,162,284318,1,0,0:0:0:0:
210,186,284387,1,0,0:0:0:0:
258,175,284456,1,0,0:0:0:0:
287,134,284525,1,0,0:0:0:0:
334,117,284594,1,0,0:0:0:0:
381,133,284663,5,4,0:0:0:0:
375,190,284732,1,0,0:0:0:0:
319,206,284801,1,0,0:0:0:0:
273,170,284870,1,0,0:0:0:0:
281,113,284939,1,0,0:0:0:0:
329,82,285008,1,0,0:0:0:0:
346,51,285077,6,0,B|351:41|329:32|329:32|227:56|227:56|229:59|229:59|157:78|157:78|130:79|117:63,1,250.000009536744,4|0,0:0|0:0,0:0:0:0:
0,55,285905,2,0,B|-6:42|33:34|33:34|50:88|50:88|55:93|55:93|76:158|76:158|43:187|14:177|14:177|-5:211|1:245|1:245|14:233|30:230,1,333.333333333333,12|0,0:0|0:0,0:0:0:0:
122,265,286732,5,4,0:0:0:0:
146,253,286801,1,0,0:0:0:0:
171,261,286870,1,0,0:0:0:0:
180,301,286939,5,0,0:0:0:0:
206,320,287008,1,0,0:0:0:0:
236,309,287077,1,0,0:0:0:0:
268,257,287146,5,4,0:0:0:0:
248,222,287215,1,0,0:0:0:0:
242,182,287284,1,0,0:0:0:0:
247,142,287353,1,0,0:0:0:0:
265,106,287422,1,0,0:0:0:0:
297,82,287491,1,0,0:0:0:0:
362,86,287560,6,0,B|361:98|346:100|328:72|341:39|373:27|384:31|385:47,1,100.000003814697,12|0,0:0|0:0,0:0:0:0:
475,53,287974,2,0,P|324:72|244:87,1,200.000007629395,4|0,0:2|0:0,0:0:0:0:
128,101,288387,5,4,0:2:0:0:
161,110,288456,1,0,0:0:0:0:
181,138,288525,1,0,0:0:0:0:
181,173,288594,1,0,0:0:0:0:
158,199,288663,1,0,0:0:0:0:
123,203,288732,1,0,0:0:0:0:
92,185,288801,1,4,0:0:0:0:
57,189,288870,1,0,0:0:0:0:
31,213,288939,1,0,0:0:0:0:
26,247,289008,1,0,0:0:0:0:
44,276,289077,1,0,0:0:0:0:
78,283,289146,1,0,0:0:0:0:
96,269,289215,6,0,B|101:289|104:306|104:306|116:310|116:310|118:349|123:374,1,100.000003814697,12|0,0:0|2:0,0:0:0:0:
13,338,289629,2,0,B|27:340|27:340|84:314|84:314|91:295|102:285,1,100.000003814697,4|0,0:0|2:0,0:0:0:0:
196,261,290042,5,4,0:0:0:0:
206,288,290111,1,0,0:0:0:0:
231,303,290180,1,0,0:0:0:0:
261,303,290249,1,0,0:0:0:0:
285,286,290318,1,0,0:0:0:0:
314,283,290387,1,0,0:0:0:0:
337,300,290456,5,4,0:0:0:0:
351,337,290525,1,0,0:0:0:0:
389,349,290594,1,0,0:0:0:0:
425,333,290663,1,0,0:0:0:0:
436,294,290732,1,0,0:0:0:0:
419,257,290801,1,0,0:0:0:0:
380,247,290870,5,12,0:0:0:0:
352,291,290939,1,0,0:0:0:0:
373,339,291008,1,0,0:0:0:0:
423,354,291077,1,0,0:0:0:0:
471,334,291146,1,0,0:0:0:0:
487,284,291215,1,0,0:0:0:0:
465,238,291284,5,4,0:0:0:0:
417,220,291353,1,0,0:0:0:0:
403,172,291422,1,0,0:0:0:0:
425,128,291491,1,0,0:0:0:0:
474,119,291560,1,0,0:0:0:0:
501,77,291629,1,0,0:0:0:0:
482,31,291698,6,0,B|431:18|431:18|386:58|386:58|388:68|388:68|340:116|340:116|273:103,1,250.000009536744,4|0,0:0|0:0,0:0:0:0:
198,37,292525,2,0,B|251:24|266:72|237:143|158:128|138:75|138:75|128:79|128:79|63:58|21:114,1,333.333333333333,12|0,0:0|0:0,0:0:0:0:
47,196,293353,5,4,0:0:0:0:
75,223,293422,1,0,0:0:0:0:
115,223,293491,1,0,0:0:0:0:
144,182,293560,5,0,0:0:0:0:
167,165,293629,1,0,0:0:0:0:
198,167,293698,1,0,0:0:0:0:
221,204,293767,5,4,0:0:0:0:
251,235,293836,1,0,0:0:0:0:
293,240,293905,1,0,0:0:0:0:
330,217,293974,1,0,0:0:0:0:
337,174,294042,1,0,0:0:0:0:
317,135,294111,1,0,0:0:0:0:
296,131,294180,6,0,B|323:154|323:154|428:122,1,133.333333333333,12|0,0:0|0:0,0:0:0:0:
463,41,294594,2,0,B|436:18|436:18|339:50,1,133.333333333333,4|0,0:2|0:0,0:0:0:0:
498,136,295008,5,4,0:0:0:0:
492,158,295077,1,0,0:0:0:0:
482,179,295146,1,0,0:0:0:0:
465,195,295215,1,0,0:0:0:0:
444,206,295284,1,0,0:0:0:0:
423,217,295353,1,0,0:0:0:0:
406,233,295422,1,4,0:0:0:0:
395,253,295491,1,0,0:0:0:0:
394,276,295560,1,0,0:0:0:0:
403,297,295629,1,0,0:0:0:0:
420,312,295698,1,0,0:0:0:0:
442,317,295767,1,0,0:0:0:0:
479,280,295836,6,0,P|437:302|348:280,1,133.333333333333,12|0,0:0|2:0,0:0:0:0:
294,359,296249,2,0,P|247:342|205:261,1,133.333333333333,4|0,0:0|0:0,0:0:0:0:
298,164,296663,5,4,0:0:0:0:
266,144,296732,1,0,0:0:0:0:
229,147,296801,1,0,0:0:0:0:
204,174,296870,1,0,0:0:0:0:
173,195,296939,1,0,0:0:0:0:
136,197,297008,1,0,0:0:0:0:
107,174,297077,5,4,0:0:0:0:
151,134,297146,1,0,0:0:0:0:
211,135,297215,1,0,0:0:0:0:
249,180,297284,1,0,0:0:0:0:
245,239,297353,1,0,0:0:0:0:
198,276,297422,1,0,0:0:0:0:
176,269,297491,5,12,0:0:0:0:
196,230,297560,1,0,0:0:0:0:
237,216,297629,1,0,0:0:0:0:
277,230,297698,1,0,0:0:0:0:
303,264,297767,1,0,0:0:0:0:
342,281,297836,1,0,0:0:0:0:
382,266,297905,5,4,0:0:0:0:
359,241,297973,1,0,0:0:0:0:
355,209,298042,1,0,0:0:0:0:
371,180,298111,1,0,0:0:0:0:
400,165,298180,1,0,0:0:0:0:
432,170,298249,1,0,0:0:0:0:
456,193,298318,6,0,B|432:154|432:154|444:98|444:98|451:93|451:93|467:21|467:21|454:47|413:72,1,250.000009536744,4|0,0:0|2:0,0:0:0:0:
309,122,299146,2,0,B|271:124|257:152|257:152|285:133|345:122,1,133.333333333333,12|0,0:0|0:0,0:0:0:0:
170,34,299560,2,0,B|208:36|222:64|222:64|194:45|134:34,1,133.333333333333,4|0,2:3|0:0,0:0:0:0:
70,103,299974,5,4,0:0:0:0:
53,131,300042,1,0,0:0:0:0:
50,164,300111,1,0,0:0:0:0:
87,187,300180,5,0,0:0:0:0:
109,211,300249,1,0,0:0:0:0:
110,244,300318,1,0,0:0:0:0:
75,274,300387,5,4,0:0:0:0:
111,256,300456,1,0,0:0:0:0:
150,263,300525,1,0,0:0:0:0:
175,293,300594,1,0,0:0:0:0:
178,332,300663,1,0,0:0:0:0:
200,365,300732,1,0,0:0:0:0:
248,354,300801,6,0,B|255:311|300:285|300:285|281:309|273:330,1,133.333333333333,12|0,0:0|0:0,0:0:0:0:
397,295,301215,2,0,B|390:252|345:226|345:226|364:250|372:271,1,133.333333333333,4|0,0:2|0:0,0:0:0:0:
463,163,301629,5,4,0:0:0:0:
426,128,301698,1,0,0:0:0:0:
376,118,301767,1,0,0:0:0:0:
329,135,301836,1,0,0:0:0:0:
300,173,301905,1,0,0:0:0:0:
300,212,301974,1,0,0:0:0:0:
316,230,302042,5,4,0:0:0:0:
357,201,302111,1,0,0:0:0:0:
365,151,302180,1,0,0:0:0:0:
337,109,302249,1,0,0:0:0:0:
296,92,302318,1,0,0:0:0:0:
270,59,302387,1,0,0:0:0:0:
301,9,302456,6,0,B|316:2|356:11|340:54|285:74|248:26,1,133.333333333333,12|0,0:0|0:0,0:0:0:0:
145,143,302870,2,0,B|129:148|107:183|149:202|202:177|194:117,1,133.333333333333,4|0,0:3|0:0,0:0:0:0:
54,47,303284,5,8,0:0:0:0:
39,101,303353,1,8,0:0:0:0:
23,155,303422,1,8,0:0:0:0:
46,198,303491,5,8,0:0:0:0:
61,238,303560,1,0,0:0:0:0:
75,278,303629,1,0,0:0:0:0:
51,318,303698,5,8,0:1:0:0:
83,294,303767,1,8,0:1:0:0:
122,302,303836,1,8,0:1:0:0:
159,287,303905,1,8,0:1:0:0:
194,305,303974,1,0,0:0:0:0:
233,307,304042,1,0,0:0:0:0:
254,340,304111,5,4,0:0:0:0:
195,127,304249,1,4,0:2:0:0:
374,250,304387,5,8,0:0:0:0:
425,212,304456,1,8,0:0:0:0:
432,157,304525,1,8,0:0:0:0:
394,116,304594,1,8,0:0:0:0:
344,117,304663,1,4,0:3:0:0:
313,148,304732,1,4,0:3:0:0:
317,184,304801,1,4,0:3:0:0:
342,198,304870,1,4,0:3:0:0:
369,169,304939,5,4,0:0:0:0:
256,192,305008,12,0,313215,0:0:0:0:
