osu file format v14

[General]
AudioFilename: audio.mp3
AudioLeadIn: 0
PreviewTime: 187476
Countdown: 0
SampleSet: Soft
StackLeniency: 0
Mode: 0
LetterboxInBreaks: 0
WidescreenStoryboard: 1

[Editor]
Bookmarks: 57876,115476,137076,158676,181176,201876,216276,230676,245076,273876,288276,302676,345876
DistanceSpacing: 0.2
BeatDivisor: 4
GridSize: 16
TimelineZoom: 2.999999

[Metadata]
Title:Abadon
TitleUnicode:Abadon
Artist:Mental Cruelty
ArtistUnicode:Mental Cruelty
Creator:Blood9
Version:Take Me into Hell the Place Where I Belong
Source:
Tags:itCBuHTEP kyst_t blackened deathcore metal symphonic english A Hill to Die Upon Unique Leader Records
BeatmapID:3353695
BeatmapSetID:1643018

[Difficulty]
HPDrainRate:5
CircleSize:4.2
OverallDifficulty:9.5
ApproachRate:9.7
SliderMultiplier:2
SliderTickRate:1

[Events]
//Background and Video events
0,0,"artem-demura-ms-graves.jpg",0,0
//Break Periods
2,72476,83481
2,274076,285981
//Storyboard Layer 0 (Background)
//Storyboard Layer 1 (Fail)
//Storyboard Layer 2 (Pass)
//Storyboard Layer 3 (Foreground)
//Storyboard Layer 4 (Overlay)
//Storyboard Sound Samples

[TimingPoints]
276,300,3,3,2,100,1,0
276,-66.6666666666667,3,3,2,100,0,0
501,-66.6666666666667,3,3,2,5,0,0
576,-80,3,3,2,100,0,0
876,-80,3,3,3,100,0,0
1176,-80,3,3,4,100,0,0
1401,-80,3,3,2,5,0,0
1476,-80,3,3,3,100,0,0
2076,-80,3,3,4,100,0,0
2301,-80,3,3,2,5,0,0
2376,-80,3,3,2,100,0,0
2676,-80,3,3,3,100,0,0
2976,-100,3,3,2,100,0,0
3201,-100,3,3,2,5,0,0
3276,-80,3,3,2,100,0,0
3501,-80,3,3,2,5,0,0
3576,-250,3,3,2,100,0,0
3801,-250,3,3,2,5,0,0
3876,-58.8235294117647,3,3,2,100,0,0
4101,-58.8235294117647,3,3,2,5,0,0
4176,-100,3,3,6,100,0,0
6576,-100,3,3,4,100,0,0
6651,-100,3,3,6,100,0,0
7026,-100,3,3,4,100,0,0
7101,-100,3,3,6,100,0,0
7476,-80,3,3,2,100,0,0
7701,-80,3,3,2,5,0,0
7776,-80,3,3,2,100,0,0
8076,-80,3,3,3,100,0,0
8376,-80,3,3,4,100,0,0
8601,-80,3,3,2,5,0,0
8676,-80,3,3,3,100,0,0
9276,-80,3,3,4,100,0,0
9501,-80,3,3,2,5,0,0
9576,-80,3,3,2,100,0,0
9876,-80,3,3,3,100,0,0
10176,-100,3,3,4,100,0,0
10401,-100,3,3,2,5,0,0
10476,-83.3333333333333,3,3,2,100,0,0
10701,-83.3333333333333,3,3,2,5,0,0
10776,-250,3,3,2,100,0,0
11001,-250,3,3,2,5,0,0
11076,-1000,3,3,3,100,0,0
11301,-1000,3,3,2,5,0,0
11376,-100,3,3,6,100,0,0
13776,-83.3333333333333,3,3,2,100,0,0
14001,-83.3333333333333,3,3,2,5,0,0
14076,-71.4285714285714,3,3,3,100,0,0
14301,-71.4285714285714,3,3,2,5,0,0
14376,-166.666666666666,3,3,2,100,0,0
14601,-166.666666666666,3,3,2,5,0,0
14676,-50,3,3,4,100,0,0
14751,-50,3,3,2,5,0,0
15126,-500,3,2,2,50,0,0
15501,-500,3,2,2,5,0,0
15576,-500,3,2,2,50,0,0
21876,-133.333333333333,3,2,2,50,0,0
22176,-500,3,2,2,50,0,0
27201,-500,3,2,2,5,0,0
27276,-285.714285714286,3,3,2,100,0,0
27501,-285.714285714286,3,3,2,5,0,0
27576,-100,3,3,2,100,0,0
27726,-100,3,3,3,100,0,0
27876,-100,3,3,2,100,0,0
28026,-100,3,3,3,100,0,0
28176,-100,3,3,4,100,0,0
28401,-100,3,3,2,5,0,0
28476,-133.333333333333,3,3,2,100,0,0
28701,-133.333333333333,3,3,2,5,0,0
28776,-200,3,3,4,100,0,0
29001,-200,3,3,2,5,0,0
29076,-500,3,3,2,100,0,0
29301,-500,3,3,2,5,0,0
29376,-95.2380952380952,3,3,6,100,0,0
29976,-95.2380952380952,3,3,3,100,0,0
30051,-95.2380952380952,3,3,6,100,0,0
30876,-95.2380952380952,3,3,3,100,0,0
30951,-95.2380952380952,3,3,6,100,0,0
31326,-95.2380952380952,3,3,3,100,0,0
31401,-95.2380952380952,3,3,6,100,0,0
32076,-95.2380952380952,3,3,2,100,0,0
32226,-95.2380952380952,3,3,3,100,0,0
32376,-95.2380952380952,3,3,2,100,0,0
32526,-95.2380952380952,3,3,3,100,0,0
32676,-95.2380952380952,3,3,2,100,0,0
34176,-95.2380952380952,3,3,4,100,0,0
35076,-95.2380952380952,3,3,3,100,0,0
35376,-95.2380952380952,3,3,2,100,0,0
35676,-95.2380952380952,3,3,2,100,0,0
35826,-95.2380952380952,3,3,3,100,0,0
35976,-95.2380952380952,3,3,2,100,0,0
36126,-95.2380952380952,3,3,3,100,0,0
36276,-67.1140939597315,3,3,3,100,0,0
36501,-67.1140939597315,3,3,2,5,0,0
36576,-95.2380952380952,3,3,6,100,0,0
38376,-95.2380952380952,3,3,2,100,0,0
38451,-95.2380952380952,3,3,6,100,0,0
39876,-95.2380952380952,3,3,2,100,0,0
39951,-95.2380952380952,3,3,6,100,0,0
41676,-95.2380952380952,3,3,2,100,0,0
41901,-95.2380952380952,3,3,2,5,0,0
41976,-285.714285714286,3,3,6,100,0,0
42126,-285.714285714286,3,3,3,100,0,0
42276,-285.714285714286,3,3,2,100,0,0
42426,-285.714285714286,3,3,3,100,0,0
42576,-80,3,3,4,100,0,0
42801,-80,3,3,2,5,0,0
42876,-153.846153846154,3,3,2,100,0,0
43176,-153.846153846154,3,3,3,100,0,0
43476,-66.6666666666667,3,3,2,100,0,0
43701,-66.6666666666667,3,3,2,5,0,0
43776,-90.9090909090909,3,3,2,100,0,0
45276,-153.846153846153,3,3,2,100,0,0
45501,-153.846153846153,3,3,2,5,0,0
45576,-100,3,3,6,100,0,0
47076,-153.846153846153,3,3,2,100,0,0
47301,-153.846153846153,3,3,2,5,0,0
47376,-81.9672131147541,3,3,2,100,0,0
47976,-81.9672131147541,3,3,4,100,0,0
48876,-153.846153846153,3,3,2,100,0,0
49101,-153.846153846153,3,3,2,5,0,0
49176,-153.846153846153,3,3,4,100,0,0
49776,-357.142857142857,3,3,2,100,0,0
50001,-357.142857142857,3,3,2,5,0,0
50076,-100,3,3,2,100,0,0
50226,-100,3,3,3,100,0,0
50376,-100,3,3,2,100,0,0
50676,-90.0900900900901,3,3,6,100,0,0
52476,-90.0900900900901,3,3,4,100,0,0
52551,-90.0900900900901,3,3,6,100,0,0
53376,-90.0900900900901,3,3,2,100,0,0
53676,-90.0900900900901,3,3,4,100,0,0
54276,-227.272727272727,3,3,2,100,0,0
54501,-227.272727272727,3,3,2,5,0,0
54576,-100,3,3,4,100,0,0
56076,-163.934426229508,3,3,3,100,0,0
56301,-163.934426229508,3,3,2,5,0,0
56376,-100,3,3,2,100,0,0
56676,-100,3,3,3,100,0,0
56826,-100,3,3,2,100,0,0
56976,-140.845070422535,3,3,2,100,0,0
57201,-140.845070422535,3,3,2,5,0,0
57276,-140.845070422535,3,3,2,100,0,0
57426,-140.845070422535,3,3,3,100,0,0
57576,-140.845070422535,3,3,2,100,0,0
57726,-140.845070422535,3,3,3,100,0,0
57876,-140.845070422535,3,3,2,100,0,0
59226,-140.845070422535,3,3,3,100,0,0
59376,-140.845070422535,3,3,2,100,0,0
59526,-140.845070422535,3,3,3,100,0,0
59676,-140.845070422535,3,3,2,100,0,0
62826,-140.845070422535,3,3,3,100,0,0
62976,-140.845070422535,3,3,2,100,0,0
63126,-140.845070422535,3,3,3,100,0,0
63276,-140.845070422535,3,3,2,100,0,0
64176,-140.845070422535,3,3,6,100,0,0
65076,-140.845070422535,3,3,2,100,0,0
65151,-140.845070422535,3,3,6,100,0,0
68676,-140.845070422535,3,3,2,100,0,0
68751,-140.845070422535,3,3,6,100,0,0
69576,-140.845070422535,3,3,2,100,0,0
69651,-140.845070422535,3,3,6,100,0,0
70476,-140.845070422535,3,3,2,100,0,0
70551,-140.845070422535,3,3,6,100,0,0
71376,-140.845070422535,3,3,2,100,0,0
71676,-140.845070422535,3,3,2,100,0,0
71826,-140.845070422535,3,3,3,100,0,0
71976,-140.845070422535,3,3,2,100,0,0
86601,-125,3,3,2,5,0,0
86676,-250,3,3,2,50,0,0
99276,-166.666666666667,3,3,2,50,0,0
100176,-166.666666666667,3,3,2,100,0,0
101076,-166.666666666667,3,3,3,100,0,0
101151,-166.666666666667,3,3,2,100,0,0
102726,-166.666666666667,3,3,3,100,0,0
102801,-166.666666666667,3,3,2,100,0,0
104526,-166.666666666667,3,3,3,100,0,0
104601,-166.666666666667,3,3,2,100,0,0
106326,-166.666666666667,3,3,3,100,0,0
106401,-166.666666666667,3,3,2,100,0,0
107976,-166.666666666667,3,3,3,100,0,0
108126,-166.666666666667,3,3,2,100,0,0
109926,-166.666666666667,3,3,3,100,0,0
110076,-166.666666666667,3,3,2,100,0,0
111426,-166.666666666667,3,3,3,100,0,0
111576,-166.666666666667,3,3,2,100,0,0
113526,-166.666666666667,3,3,3,100,0,0
113601,-166.666666666667,3,3,2,100,0,0
114876,-166.666666666667,3,3,4,100,0,0
115176,-166.666666666667,3,3,2,100,0,0
115326,-166.666666666667,3,3,3,100,0,0
115476,-100,3,3,3,100,0,0
115551,-100,3,3,6,100,0,0
117276,-100,3,3,2,100,0,0
117351,-100,3,3,6,100,0,0
118176,-100,3,3,2,100,0,0
118251,-100,3,3,6,100,0,0
118476,-100,3,3,3,100,0,0
118551,-100,3,3,6,100,0,0
118776,-100,3,3,2,100,0,0
118851,-100,3,3,6,100,0,0
119076,-100,3,3,2,100,0,0
122676,-100,3,3,2,100,0,0
122751,-100,3,3,6,100,0,0
124476,-100,3,3,2,100,0,0
124551,-100,3,3,6,100,0,0
125376,-100,3,3,2,100,0,0
125451,-100,3,3,6,100,0,0
125976,-100,3,3,4,100,0,0
126051,-100,3,3,6,100,0,0
126276,-100,3,3,2,100,0,0
126351,-100,3,3,2,5,0,0
126426,-100,3,3,6,100,0,0
126726,-100,3,3,3,100,0,0
126876,-100,3,3,4,100,0,0
127176,-100,3,3,2,100,0,0
129126,-100,3,3,3,100,0,0
129276,-100,3,3,2,100,0,0
129576,-100,3,3,3,100,0,0
129876,-66.6666666666667,3,3,3,100,0,0
130176,-66.6666666666667,3,3,3,5,0,0
130326,-66.6666666666667,3,3,3,100,0,0
130776,-66.6666666666667,3,3,2,100,0,0
132276,-66.6666666666667,3,3,3,100,0,0
132576,-66.6666666666667,3,3,2,100,0,0
132651,-66.6666666666667,3,3,6,100,0,0
134076,-66.6666666666667,3,3,6,100,0,0
134226,-66.6666666666667,3,3,3,100,0,0
134376,-66.6666666666667,3,3,2,100,0,0
134676,-100,3,3,4,100,0,0
134826,-100,3,3,2,100,0,0
134976,-100,3,3,4,100,0,0
136926,-100,3,3,2,100,0,0
140376,-100,3,3,2,100,0,0
140526,-100,3,3,3,100,0,0
140676,-100,3,3,4,100,0,0
140751,-100,3,3,6,100,0,0
142476,-100,3,3,4,100,0,0
142551,-100,3,3,6,100,0,0
143376,-100,3,3,6,100,0,0
143601,-100,3,3,2,100,0,0
143826,-100,3,3,3,100,0,0
143976,-100,3,3,2,100,0,0
144201,-100,3,3,2,5,0,0
144276,-100,3,3,2,100,0,0
144576,-100,3,3,4,100,0,0
147276,-100,3,3,2,100,0,0
147426,-100,3,3,3,100,0,0
147576,-100,3,3,2,100,0,0
147726,-100,3,3,3,100,0,0
147876,-100,3,3,2,100,0,0
148176,-100,3,3,4,100,0,0
149676,-83.3333333333333,3,3,2,100,0,0
149901,-83.3333333333333,3,3,2,5,0,0
149976,-83.3333333333333,3,3,6,100,0,0
151476,-83.3333333333333,3,3,4,100,0,0
151701,-83.3333333333333,3,3,2,5,0,0
151776,-100,3,3,4,100,0,0
154476,-100,3,3,2,100,0,0
155076,-66.6666666666667,3,3,2,100,0,0
155301,-66.6666666666667,3,3,2,5,0,0
155376,-100,3,3,6,100,0,0
155976,-100,3,3,4,100,0,0
156051,-100,3,3,6,100,0,0
156876,-100,3,3,2,100,0,0
157176,-100,3,3,3,100,0,0
158176,-100,3,3,2,100,0,0
158276,-100,3,3,3,100,0,0
158376,-100,3,3,2,100,0,0
158476,-100,3,3,3,100,0,0
158601,-100,3,3,3,5,0,0
158676,-333.333333333333,3,3,2,100,0,0
159576,-76.9230769230769,3,3,2,100,0,0
159801,-76.9230769230769,3,3,2,5,0,0
159876,-76.9230769230769,3,3,2,100,0,0
160101,-76.9230769230769,3,3,2,5,0,0
160176,-76.9230769230769,3,3,2,100,0,0
160401,-76.9230769230769,3,3,2,5,0,0
160476,-76.9230769230769,3,3,2,100,0,0
160626,-1000,3,3,2,100,0,0
162201,-1000,3,3,2,5,0,0
162276,-1000,3,3,4,100,0,0
164076,-333.333333333333,3,3,2,100,0,0
164976,-76.9230769230769,3,3,2,100,0,0
165201,-76.9230769230769,3,3,2,5,0,0
165276,-76.9230769230769,3,3,2,100,0,0
165501,-76.9230769230769,3,3,2,5,0,0
165576,-76.9230769230769,3,3,2,100,0,0
165801,-76.9230769230769,3,3,2,5,0,0
165876,-250,3,3,2,100,0,0
167676,-50,3,3,2,100,0,0
167751,-50,3,3,2,5,0,0
168126,-133.333333333333,3,3,2,100,0,0
168726,-133.333333333333,3,3,3,100,0,0
168876,-133.333333333333,3,3,2,100,0,0
169026,-133.333333333333,3,3,3,100,0,0
169326,-133.333333333333,3,3,6,100,0,0
169476,-133.333333333333,3,3,2,100,0,0
170901,-133.333333333333,3,3,2,5,0,0
170976,-133.333333333333,3,3,2,100,0,0
171201,-133.333333333333,3,3,2,5,0,0
171276,-333.333333333333,3,3,2,100,0,0
173076,-66.6666666666667,3,3,2,100,0,0
173901,-66.6666666666667,3,3,2,5,0,0
173976,-76.9230769230769,3,3,2,100,0,0
174201,-76.9230769230769,3,3,2,5,0,0
174276,-76.9230769230769,3,3,2,100,0,0
174501,-76.9230769230769,3,3,2,5,0,0
174576,-76.9230769230769,3,3,2,100,0,0
174801,-76.9230769230769,3,3,2,5,0,0
174876,-76.9230769230769,3,3,2,100,0,0
175401,-76.9230769230769,3,3,2,5,0,0
175476,-76.9230769230769,3,3,2,100,0,0
175701,-76.9230769230769,3,3,2,5,0,0
175776,-76.9230769230769,3,3,2,100,0,0
176001,-76.9230769230769,3,3,2,5,0,0
176076,-76.9230769230769,3,3,2,100,0,0
176301,-76.9230769230769,3,3,2,5,0,0
176376,-76.9230769230769,3,3,3,100,0,0
176526,-76.9230769230769,3,3,2,100,0,0
176676,-76.9230769230769,3,3,3,100,0,0
177576,-133.333333333333,3,3,2,100,0,0
177801,-133.333333333333,3,3,2,5,0,0
177876,-181.818181818181,3,3,2,100,0,0
178101,-181.818181818181,3,3,2,5,0,0
178176,-285.714285714284,3,3,2,100,0,0
178401,-285.714285714284,3,3,2,5,0,0
178476,-100,3,3,2,100,0,0
178626,-100,3,3,3,100,0,0
178776,-133.333333333333,3,3,2,100,0,0
179001,-133.333333333333,3,3,2,5,0,0
179076,-181.818181818181,3,3,2,100,0,0
179301,-181.818181818181,3,3,2,5,0,0
179376,-133.333333333333,3,3,2,100,0,0
179601,-133.333333333333,3,3,2,5,0,0
179676,-105.263157894737,3,3,2,100,0,0
179901,-105.263157894737,3,3,2,5,0,0
179976,-86.9565217391303,3,3,2,100,0,0
180201,-86.9565217391303,3,3,2,5,0,0
180276,-86.9565217391303,3,3,2,100,0,0
183576,-86.9565217391303,3,3,3,100,0,0
183876,-86.9565217391303,3,3,2,100,0,0
184326,-86.9565217391303,3,3,3,100,0,0
184776,-86.9565217391303,3,3,2,100,0,0
185676,-86.9565217391303,3,3,3,100,0,0
185751,-86.9565217391303,3,3,2,100,0,0
186801,-86.9565217391303,3,3,2,5,0,0
186876,-86.9565217391303,3,3,3,100,0,0
187101,-86.9565217391303,3,3,2,5,0,0
187176,-86.9565217391303,3,3,2,100,0,0
187326,-86.9565217391303,3,3,3,100,0,0
191076,-86.9565217391303,3,3,4,100,0,0
194676,-100,3,3,2,100,0,0
196326,-100,3,3,3,100,0,0
197976,-100,3,3,2,100,0,0
198276,-100,3,3,2,100,0,0
201276,-100,3,3,3,100,0,0
201876,-100,3,3,2,100,0,0
201951,-100,3,3,6,100,0,0
203676,-100,3,3,4,100,0,0
203751,-100,3,3,6,100,0,0
204576,-100,3,3,2,100,0,0
204651,-100,3,3,6,100,0,0
205176,-100,3,3,2,100,0,0
205251,-100,3,3,6,100,0,0
205476,-100,3,3,2,100,0,0
209076,-100,3,3,2,100,0,0
209151,-100,3,3,6,100,0,0
210876,-100,3,3,2,100,0,0
210951,-100,3,3,6,100,0,0
211776,-100,3,3,2,100,0,0
211851,-100,3,3,6,100,0,0
212076,-100,3,3,2,100,0,0
212151,-100,3,3,6,100,0,0
212376,-100,3,3,4,100,0,0
212451,-100,3,3,6,100,0,0
212676,-83.3333333333333,3,3,2,100,0,0
213276,-83.3333333333333,3,3,3,100,0,0
213576,-83.3333333333333,3,3,2,100,0,0
214176,-83.3333333333333,3,3,3,100,0,0
214476,-133.333333333333,3,3,2,100,0,0
214776,-66.6666666666667,3,3,2,100,0,0
216276,-90.9090909090909,3,3,2,100,0,0
217176,-90.9090909090909,3,3,2,100,0,0
217626,-90.9090909090909,3,3,4,100,0,0
221526,-90.9090909090909,3,3,2,100,0,0
222276,-90.9090909090909,3,3,4,100,0,0
222726,-90.9090909090909,3,3,2,100,0,0
222876,-90.9090909090909,3,3,3,100,0,0
223476,-90.9090909090909,3,3,2,100,0,0
223551,-90.9090909090909,3,3,6,100,0,0
225276,-90.9090909090909,3,3,2,100,0,0
225351,-90.9090909090909,3,3,6,100,0,0
226176,-90.9090909090909,3,3,2,100,0,0
226251,-90.9090909090909,3,3,6,100,0,0
226476,-90.9090909090909,3,3,3,100,0,0
226551,-90.9090909090909,3,3,6,100,0,0
226776,-90.9090909090909,3,3,4,100,0,0
226851,-90.9090909090909,3,3,6,100,0,0
227076,-90.9090909090909,3,3,4,100,0,0
227151,-90.9090909090909,3,3,6,100,0,0
228876,-90.9090909090909,3,3,2,100,0,0
228951,-90.9090909090909,3,3,6,100,0,0
229776,-90.9090909090909,3,3,2,100,0,0
230676,-108.695652173913,3,3,2,100,0,0
232026,-108.695652173913,3,3,3,100,0,0
233076,-108.695652173913,3,3,2,100,0,0
234276,-108.695652173913,3,3,4,100,0,0
234351,-108.695652173913,3,3,6,100,0,0
236076,-108.695652173913,3,3,4,100,0,0
236151,-108.695652173913,3,3,6,100,0,0
236976,-108.695652173913,3,3,4,100,0,0
237051,-108.695652173913,3,3,6,100,0,0
237276,-108.695652173913,3,3,2,100,0,0
237576,-138.888888888889,3,3,3,100,0,0
237876,-108.695652173913,3,3,4,100,0,0
244176,-133.333333333333,3,3,2,100,0,0
244476,-153.846153846153,3,3,3,100,0,0
244776,-181.818181818181,3,3,2,100,0,0
245076,-83.3333333333333,3,3,2,100,0,0
249201,-83.3333333333333,3,3,2,5,0,0
249276,-125,3,3,2,100,0,0
249501,-125,3,3,2,5,0,0
249576,-125,3,3,4,100,0,0
250101,-125,3,3,2,5,0,0
250176,-166.666666666667,3,3,2,100,0,0
250401,-166.666666666667,3,3,2,5,0,0
250476,-83.3333333333333,3,3,2,100,0,0
252276,-222.222222222222,3,3,2,100,0,0
252801,-222.222222222222,3,3,2,5,0,0
252876,-400,3,3,2,100,0,0
253101,-400,3,3,2,5,0,0
253176,-222.222222222222,3,3,2,100,0,0
253701,-222.222222222222,3,3,2,5,0,0
253776,-222.222222222222,3,3,2,100,0,0
257301,-222.222222222222,3,3,2,5,0,0
257676,-222.222222222222,3,3,2,100,0,0
260301,-222.222222222222,3,3,2,5,0,0
260376,-222.222222222222,3,3,2,100,0,0
264501,-222.222222222222,3,3,2,5,0,0
264576,-222.222222222222,3,3,2,100,0,0
264801,-222.222222222222,3,3,2,5,0,0
264876,-222.222222222222,3,3,2,100,0,0
265776,-100,3,3,2,100,0,0
266376,-222.222222222222,3,3,2,100,0,0
269376,-222.222222222221,3,3,2,100,0,0
270426,-222.222222222222,3,3,3,100,0,0
270576,-222.222222222222,3,3,2,100,0,0
270876,-222.222222222222,3,3,2,100,0,0
271176,-222.222222222222,3,3,6,100,0,0
272976,-222.222222222222,3,3,2,100,0,0
273576,-222.222222222222,3,3,3,100,0,0
273876,-222.222222222222,3,3,3,100,0,0
286401,-133.333333333333,3,3,2,100,0,0
287076,-133.333333333333,3,3,2,5,0,0
287376,-79.9999999999999,3,3,2,100,0,0
288126,-79.9999999999999,3,3,2,5,0,0
288276,-79.9999999999999,3,3,2,100,0,0
293076,-79.9999999999999,3,3,6,100,0,0
293376,-79.9999999999999,3,3,2,100,0,0
295176,-79.9999999999999,3,3,3,100,0,0
295476,-79.9999999999999,3,3,2,100,0,0
296976,-79.9999999999999,3,3,6,100,0,0
297276,-79.9999999999999,3,3,2,100,0,0
302676,-83.3333333333333,3,3,2,100,0,1
302751,-83.3333333333333,3,3,6,100,0,1
303576,-83.3333333333333,3,3,3,100,0,1
303651,-83.3333333333333,3,3,6,100,0,1
304176,-83.3333333333333,3,3,3,100,0,1
304251,-83.3333333333333,3,3,6,100,0,1
304476,-83.3333333333333,3,3,3,100,0,1
304551,-83.3333333333333,3,3,6,100,0,1
305376,-83.3333333333333,3,3,4,100,0,1
305451,-83.3333333333333,3,3,6,100,0,1
305976,-83.3333333333333,3,3,4,100,0,1
306051,-83.3333333333333,3,3,6,100,0,1
306276,-256.410256410256,3,3,2,100,0,1
308976,-100,3,3,2,100,0,1
309876,-100,3,3,2,100,0,1
309951,-100,3,3,6,100,0,1
312576,-100,3,3,2,100,0,1
312651,-100,3,3,6,100,0,1
313176,-100,3,3,2,100,0,1
313251,-100,3,3,6,100,0,1
313476,-100,3,3,2,100,0,1
314976,-100,3,3,3,100,0,1
315126,-100,3,3,3,5,0,1
315201,-100,3,3,3,100,0,1
316626,-100,3,3,3,100,0,1
316776,-100,3,3,2,100,0,1
317076,-100,3,3,2,100,0,0
317301,-100,3,3,2,5,0,0
317376,-125,3,3,2,100,0,0
318876,-103.092783505155,3,3,2,100,0,0
320676,-138.888888888889,3,3,2,100,0,0
322176,-138.888888888889,3,3,6,100,0,0
322326,-138.888888888889,3,3,2,100,0,0
323676,-138.888888888889,3,3,3,100,0,0
324276,-138.888888888889,3,3,2,100,0,0
326301,-138.888888888889,3,3,2,5,0,0
326376,-138.888888888889,3,3,2,100,0,0
326526,-166.666666666667,3,3,2,100,0,0
328176,-133.333333333333,3,3,2,100,0,0
329376,-138.888888888889,3,3,6,100,0,0
329526,-138.888888888889,3,3,2,100,0,0
330876,-138.888888888889,3,3,3,100,0,0
331476,-117.647058823529,3,3,2,100,0,0
332976,-250,3,3,2,100,0,0
333201,-250,3,3,2,5,0,0
333276,-117.647058823529,3,3,2,100,0,0
335376,-125,3,3,2,100,0,0
336576,-138.888888888889,3,3,6,100,0,0
336726,-138.888888888889,3,3,2,100,0,0
340776,-138.888888888889,3,3,6,100,0,0
341376,-138.888888888889,3,3,2,100,0,0
342576,-114.942528735632,3,3,2,100,0,0
343776,-138.888888888889,3,3,6,100,0,0
343926,-138.888888888889,3,3,2,100,0,0
344451,-138.888888888889,3,3,2,5,0,0
344526,-138.888888888889,3,3,2,100,0,0
344751,-138.888888888889,3,3,2,5,0,0
344826,-138.888888888889,3,3,2,100,0,0
346776,-138.888888888889,3,3,2,90,0,0
347676,-138.888888888889,3,3,2,80,0,0
347976,-138.888888888889,3,3,2,70,0,0
348276,-138.888888888889,3,3,2,60,0,0
348576,-138.888888888889,3,3,2,50,0,0
348876,-138.888888888889,3,3,2,40,0,0
349176,-138.888888888889,3,3,2,30,0,0
349326,-138.888888888889,3,3,2,20,0,0
349401,-138.888888888889,3,3,2,10,0,0
349476,-138.888888888889,3,3,2,5,0,0

[Colours]
Combo1 : 204,204,91
Combo2 : 88,122,37
Combo3 : 153,197,99
Combo4 : 50,133,56

[HitObjects]
374,13,276,6,0,B|347:30|346:58|363:78|363:78|388:86|416:81|433:62|429:59|426:55|436:30|464:16|496:34,1,225.000008583069,4|0,0:2|2:0,0:0:0:0:
277,42,576,5,8,2:3:0:0:
256,87,651,1,8,2:3:0:0:
268,129,726,1,0,3:0:0:0:
301,146,801,1,0,3:0:0:0:
315,140,876,5,8,2:1:0:0:
354,159,951,1,8,2:1:0:0:
363,196,1026,1,0,3:0:0:0:
352,225,1101,1,0,3:0:0:0:
292,269,1176,6,0,B|303:316|284:365|230:378|230:378|228:344|211:314,1,187.5,12|0,0:2|2:0,0:0:0:0:
153,180,1476,5,8,2:3:0:0:
106,160,1551,1,8,2:3:0:0:
65,177,1626,1,0,3:0:0:0:
52,212,1701,1,0,3:0:0:0:
61,223,1776,5,8,2:1:0:0:
100,241,1851,1,8,2:1:0:0:
117,274,1926,1,0,3:0:0:0:
114,305,2001,1,0,3:0:0:0:
51,343,2076,6,0,B|30:345|9:340|10:316|10:316|160:349,1,187.5,12|0,0:2|2:0,0:0:0:0:
254,260,2376,5,8,2:1:0:0:
303,258,2451,1,8,2:1:0:0:
340,280,2526,1,0,3:0:0:0:
356,313,2601,1,0,3:0:0:0:
349,325,2676,5,8,2:1:0:0:
371,362,2751,1,8,2:1:0:0:
406,373,2826,1,0,3:0:0:0:
433,357,2901,1,0,3:0:0:0:
419,285,2976,6,0,B|428:247|413:207|413:207|439:239|497:234,1,150,12|0,0:2|2:0,0:0:0:0:
459,44,3276,2,0,B|449:31|430:35|430:35|406:78|401:108|401:108|429:66|487:56,1,187.5,0|0,0:0|2:0,0:0:0:0:
486,159,3576,2,0,P|463:151|486:143,1,60,4|0,0:2|2:0,0:0:0:0:
208,150,3876,6,0,B|223:157|211:147|211:147|186:162|192:180|192:180|217:187|241:187|261:166|262:134|285:102|325:108|325:108|325:129|342:156,1,255.000004863739,4|0,0:2|2:0,0:0:0:0:
163,92,4176,6,0,P|144:108|124:141,1,50,2|8,0:3|1:2,0:0:0:0:
52,146,4326,2,0,P|66:183|95:199,1,50,2|8,0:3|1:2,0:0:0:0:
100,268,4476,5,2,0:3:0:0:
108,296,4551,1,8,1:2:0:0:
100,324,4626,1,2,0:3:0:0:
76,342,4701,1,8,1:2:0:0:
46,342,4776,5,2,0:3:0:0:
60,294,4851,1,8,1:2:0:0:
107,277,4926,1,2,0:3:0:0:
155,288,5001,1,8,1:2:0:0:
191,321,5076,1,2,0:3:0:0:
248,338,5151,1,8,1:2:0:0:
305,321,5226,1,2,0:3:0:0:
339,272,5301,1,8,1:2:0:0:
339,212,5376,2,0,B|314:219|314:219|308:218|308:218|270:229,3,50,2|8|2|8,0:3|1:2|0:3|1:2,0:0:0:0:
288,24,5676,5,2,0:3:0:0:
278,28,5751,1,8,1:2:0:0:
270,33,5826,2,0,B|254:44|249:57|249:57|258:70|261:85,1,50,2|8,0:3|1:2,0:0:0:0:
87,205,5976,5,2,0:3:0:0:
101,212,6051,1,8,1:2:0:0:
117,211,6126,2,0,B|137:210|142:203|142:203|145:188|157:172,1,50,2|8,0:3|1:2,0:0:0:0:
41,37,6276,5,2,0:3:0:0:
42,41,6351,1,8,1:2:0:0:
43,45,6426,1,2,0:3:0:0:
44,49,6501,1,8,1:2:0:0:
45,53,6576,5,4,0:2:0:0:
111,29,6651,1,8,1:2:0:0:
178,46,6726,1,2,0:3:0:0:
212,106,6801,1,8,1:2:0:0:
263,153,6876,1,2,0:3:0:0:
332,153,6951,1,8,1:2:0:0:
382,104,7026,5,4,0:2:0:0:
322,97,7101,1,8,1:2:0:0:
278,121,7176,1,2,0:3:0:0:
273,160,7251,1,8,1:2:0:0:
282,193,7326,1,2,0:3:0:0:
304,212,7401,1,8,1:2:0:0:
358,256,7476,6,0,B|377:293|363:350|328:366|283:361|283:361|281:326|314:308,1,187.5,4|0,0:2|2:0,0:0:0:0:
179,254,7776,5,8,2:3:0:0:
133,236,7851,1,8,2:3:0:0:
97,260,7926,1,0,3:0:0:0:
93,297,8001,1,0,3:0:0:0:
107,305,8076,5,8,2:1:0:0:
75,335,8151,1,8,2:1:0:0:
37,336,8226,1,0,3:0:0:0:
15,312,8301,1,0,3:0:0:0:
54,250,8376,6,0,B|93:232|98:187|80:157|80:157|45:157|20:138|10:105,1,187.5,12|0,0:2|2:0,0:0:0:0:
323,122,8676,5,8,2:3:0:0:
273,129,8751,1,8,2:3:0:0:
237,103,8826,1,0,3:0:0:0:
220,70,8901,1,0,3:0:0:0:
226,55,8976,5,8,2:1:0:0:
198,21,9051,1,8,2:1:0:0:
161,19,9126,1,0,3:0:0:0:
134,33,9201,1,0,3:0:0:0:
81,85,9276,6,0,B|96:61|135:55|167:79|167:79|163:83|163:83|195:106|230:99|259:57,1,187.5,12|0,0:2|2:0,0:0:0:0:
348,197,9576,5,8,2:1:0:0:
391,220,9651,1,8,2:1:0:0:
434,212,9726,1,0,3:0:0:0:
458,181,9801,1,0,3:0:0:0:
470,189,9876,5,8,2:1:0:0:
480,146,9951,1,8,2:1:0:0:
460,113,10026,1,0,3:0:0:0:
432,98,10101,1,0,3:0:0:0:
371,45,10176,6,0,B|372:31|394:15|394:15|441:35|438:92|407:123,1,150,12|0,0:2|2:0,0:0:0:0:
422,191,10476,2,0,B|417:221|443:251|406:273|406:273|380:239|415:221|421:188,1,179.999994506836,0|0,0:0|2:0,0:0:0:0:
351,164,10776,2,0,B|346:166|335:185|335:185|331:164|352:151,1,60,4|0,0:2|2:0,0:0:0:0:
227,359,11076,6,0,L|229:375,1,15,4|0,0:2|2:0,0:0:0:0:
216,351,11376,5,2,0:3:0:0:
270,324,11451,1,8,1:2:0:0:
288,266,11526,1,2,0:3:0:0:
253,216,11601,1,8,1:2:0:0:
193,206,11676,1,2,0:3:0:0:
148,228,11751,1,8,1:2:0:0:
123,259,11826,1,2,0:3:0:0:
94,268,11901,1,8,1:2:0:0:
74,262,11976,5,2,0:3:0:0:
38,213,12051,1,8,1:2:0:0:
48,153,12126,1,2,0:3:0:0:
101,125,12201,1,8,1:2:0:0:
153,95,12276,1,2,0:3:0:0:
151,35,12351,1,8,1:2:0:0:
97,8,12426,2,0,L|39:26,1,50,2|8,0:3|1:2,0:0:0:0:
312,81,12576,5,2,0:3:0:0:
321,80,12651,1,8,1:2:0:0:
330,77,12726,1,2,0:3:0:0:
337,70,12801,1,8,1:2:0:0:
342,61,12876,5,2,0:3:0:0:
282,56,12951,1,8,1:2:0:0:
239,98,13026,1,2,0:3:0:0:
251,156,13101,1,8,1:2:0:0:
299,190,13176,1,2,0:3:0:0:
358,179,13251,1,8,1:2:0:0:
400,136,13326,2,0,P|435:137|461:147,1,50,2|8,0:3|1:2,0:0:0:0:
489,367,13476,5,2,0:3:0:0:
449,365,13551,1,8,1:2:0:0:
420,336,13626,1,2,0:3:0:0:
414,296,13701,1,8,1:2:0:0:
457,266,13776,6,0,B|481:255|517:255|517:255|377:224,1,179.999994506836,4|0,0:2|0:0,0:0:0:0:
312,374,14076,2,0,B|296:369|280:381|280:381|260:355|263:306|284:270|327:254|327:254|330:268|351:288,1,209.999993591309,4|0,0:2|0:0,0:0:0:0:
489,367,14376,2,0,B|496:329|496:329|467:347|467:347|473:372,1,89.9999972534181,4|0,0:2|0:0,0:0:0:0:
328,95,14676,6,0,B|326:100|299:100|288:89|288:89|291:84|291:84|288:88|288:88|266:76|242:84,1,100,4|0,0:2|2:0,0:0:0:0:
234,63,15126,6,0,L|283:54,1,50
313,66,15576,5,0,0:0:0:0:
313,66,16176,1,0,0:0:0:0:
437,179,16476,6,0,B|439:196|430:213|430:213|415:189|385:173|356:173,1,120
256,224,17676,6,0,P|256:234|259:245,1,20
322,286,17976,2,0,P|322:296|319:307,1,20
237,340,18276,5,0,0:0:0:0:
223,347,18576,1,0,0:0:0:0:
205,349,18876,1,0,0:0:0:0:
125,252,19176,5,0,0:0:0:0:
81,245,19476,1,0,0:0:0:0:
18,283,19776,1,0,0:0:0:0:
44,369,20076,2,0,P|82:351|125:346,1,80
216,232,20976,5,0,0:0:0:0:
266,163,21276,1,0,0:0:0:0:
213,116,21576,1,0,0:0:0:0:
119,146,21876,6,0,L|126:180,2,25.0000009536744
29,78,22176,6,0,L|76:68,2,40
82,52,23376,1,0,0:0:0:0:
18,127,23676,6,0,B|2:153|8:178|41:190|43:218|29:239,1,120
50,334,24876,6,0,P|66:328|74:327,1,20
129,265,25176,2,0,P|145:271|153:272,1,20
219,344,25476,5,0,0:0:0:0:
256,192,25551,12,0,27201,2:0:0:0:
392,104,27276,6,0,B|391:136|391:136|380:105,1,52.4999983978272,0|0,2:0|2:0,0:0:0:0:
289,40,27576,5,8,2:3:0:0:
240,26,27651,1,8,2:3:0:0:
196,37,27726,1,8,2:3:0:0:
173,70,27801,1,8,2:3:0:0:
176,104,27876,1,8,2:1:0:0:
192,125,27951,1,8,2:1:0:0:
210,133,28026,1,8,2:1:0:0:
222,134,28101,1,8,2:1:0:0:
259,109,28176,6,0,P|207:103|141:183,1,150,4|0,0:2|2:0,0:0:0:0:
344,137,28476,2,0,P|347:83|303:29,1,112.500004291535,0|0,0:0|2:0,0:0:0:0:
281,193,28776,2,0,P|290:216|341:227,1,75,4|0,0:2|2:0,0:0:0:0:
428,281,29076,6,0,L|435:251,1,30,4|0,0:2|2:0,0:0:0:0:
499,325,29376,5,0,0:0:0:0:
458,358,29451,1,8,1:2:0:0:
405,359,29526,1,0,0:0:0:0:
360,331,29601,1,8,1:2:0:0:
330,287,29676,1,0,0:0:0:0:
286,257,29751,1,8,1:2:0:0:
233,251,29826,1,0,0:0:0:0:
183,267,29901,1,8,1:2:0:0:
155,311,29976,5,4,0:2:0:0:
202,308,30051,1,8,1:2:0:0:
235,275,30126,1,0,0:0:0:0:
242,228,30201,1,8,1:2:0:0:
227,183,30276,1,0,0:0:0:0:
188,155,30351,1,8,1:2:0:0:
140,152,30426,1,0,0:0:0:0:
96,169,30501,1,8,1:2:0:0:
72,209,30576,1,0,0:0:0:0:
79,250,30651,1,8,1:2:0:0:
108,271,30726,1,0,0:0:0:0:
139,270,30801,1,8,1:2:0:0:
160,255,30876,5,4,0:2:0:0:
167,235,30951,1,8,1:2:0:0:
160,220,31026,1,0,0:0:0:0:
151,213,31101,1,8,1:2:0:0:
140,210,31176,2,0,P|111:217|85:227,1,52.4999983978272,0|8,0:0|1:2,0:0:0:0:
241,95,31326,5,4,0:2:0:0:
262,79,31401,1,8,1:2:0:0:
288,77,31476,1,0,0:0:0:0:
313,84,31551,1,8,1:2:0:0:
329,104,31626,1,0,0:0:0:0:
356,128,31701,1,8,1:2:0:0:
403,128,31776,5,0,0:0:0:0:
443,86,31851,1,8,1:2:0:0:
425,30,31926,1,0,0:0:0:0:
370,11,32001,1,8,1:2:0:0:
345,55,32076,5,8,0:3:0:0:
350,82,32151,1,8,0:3:0:0:
356,110,32226,1,8,0:3:0:0:
363,137,32301,1,8,0:3:0:0:
389,164,32376,5,8,0:1:0:0:
387,183,32451,1,8,0:1:0:0:
386,201,32526,1,8,0:1:0:0:
385,219,32601,1,8,0:1:0:0:
372,277,32676,5,4,0:2:0:0:
407,299,32751,1,0,0:0:0:0:
448,295,32826,1,0,0:0:0:0:
482,271,32901,1,0,0:0:0:0:
493,230,32976,1,4,0:2:0:0:
486,188,33051,1,0,0:0:0:0:
457,157,33126,1,0,0:0:0:0:
415,148,33201,1,0,0:0:0:0:
374,159,33276,1,4,0:2:0:0:
345,182,33351,1,0,0:0:0:0:
314,188,33426,1,0,0:0:0:0:
289,178,33501,1,0,0:0:0:0:
278,160,33576,5,12,0:2:0:0:
319,152,33651,1,0,0:0:0:0:
351,178,33726,1,0,0:0:0:0:
359,219,33801,1,0,0:0:0:0:
341,257,33876,1,4,0:2:0:0:
306,270,33951,1,0,0:0:0:0:
283,292,34026,1,0,0:0:0:0:
282,318,34101,1,0,0:0:0:0:
291,336,34176,5,4,0:2:0:0:
299,341,34251,1,0,0:0:0:0:
309,343,34326,1,0,0:0:0:0:
319,342,34401,1,0,0:0:0:0:
328,337,34476,5,4,0:2:0:0:
342,297,34551,1,0,0:0:0:0:
330,256,34626,1,0,0:0:0:0:
304,222,34701,1,0,0:0:0:0:
265,204,34776,1,0,0:0:0:0:
228,204,34851,1,0,0:0:0:0:
198,216,34926,1,0,0:0:0:0:
182,237,35001,1,0,0:0:0:0:
162,246,35076,2,0,B|136:238|136:238|118:208,3,52.4999983978272,4|0|0|0,0:2|0:0|0:0|0:0,0:0:0:0:
153,43,35376,5,12,0:2:0:0:
105,20,35451,1,0,0:0:0:0:
61,38,35526,1,0,0:0:0:0:
41,74,35601,1,0,0:0:0:0:
29,83,35676,5,8,0:3:0:0:
65,88,35751,1,8,0:3:0:0:
101,93,35826,1,8,0:3:0:0:
137,99,35901,1,8,0:3:0:0:
170,127,35976,5,8,0:1:0:0:
195,120,36051,1,8,0:1:0:0:
220,113,36126,1,8,0:1:0:0:
245,107,36201,1,8,0:1:0:0:
282,79,36276,6,0,B|266:104|284:131|284:131|297:197|224:217|224:217|219:179|183:156,1,223.499987893296,4|0,0:2|2:0,0:0:0:0:
85,174,36576,5,2,0:3:0:0:
49,212,36651,1,8,1:2:0:0:
42,264,36726,1,2,0:3:0:0:
68,309,36801,1,8,1:2:0:0:
116,328,36876,1,2,0:3:0:0:
168,321,36951,1,8,1:2:0:0:
207,285,37026,1,2,0:3:0:0:
256,256,37101,1,8,1:2:0:0:
318,260,37176,5,2,0:3:0:0:
334,272,37251,1,8,1:2:0:0:
343,290,37326,2,0,L|328:345,1,52.4999983978272,2|8,0:3|1:2,0:0:0:0:
477,244,37476,5,2,0:3:0:0:
425,206,37551,1,8,1:2:0:0:
415,160,37626,1,0,0:0:0:0:
431,102,37701,1,8,1:2:0:0:
486,63,37776,5,2,0:3:0:0:
466,47,37851,1,8,1:2:0:0:
441,41,37926,2,0,P|406:43|377:58,1,52.4999983978272,2|8,0:3|1:2,0:0:0:0:
212,125,38076,5,2,0:3:0:0:
165,132,38151,1,8,1:2:0:0:
124,108,38226,1,2,0:3:0:0:
114,61,38301,1,8,1:2:0:0:
139,21,38376,5,4,0:2:0:0:
159,25,38451,1,8,1:2:0:0:
175,38,38526,2,0,B|189:51|189:51|179:95,1,52.4999983978272,2|8,0:3|1:2,0:0:0:0:
58,175,38676,5,2,0:3:0:0:
46,185,38751,1,8,1:2:0:0:
37,198,38826,2,0,P|19:229|14:258,1,52.4999983978272,2|8,0:3|1:2,0:0:0:0:
301,86,38976,5,2,0:3:0:0:
350,104,39051,1,8,1:2:0:0:
377,148,39126,1,2,0:3:0:0:
372,200,39201,1,8,1:2:0:0:
347,246,39276,5,2,0:3:0:0:
337,250,39351,1,8,1:2:0:0:
326,251,39426,2,0,P|300:236|263:222,1,52.4999983978272,2|8,0:3|1:2,0:0:0:0:
126,280,39576,5,2,0:3:0:0:
130,295,39651,1,8,1:2:0:0:
134,310,39726,1,2,0:3:0:0:
138,325,39801,1,8,1:2:0:0:
143,339,39876,5,4,0:2:0:0:
198,321,39951,1,8,1:2:0:0:
223,269,40026,1,2,0:3:0:0:
207,213,40101,1,8,1:2:0:0:
156,185,40176,1,2,0:3:0:0:
124,149,40251,1,8,1:2:0:0:
125,112,40326,2,0,B|150:107|150:107|155:107|155:107|186:100,1,52.4999983978272,2|8,0:3|1:2,0:0:0:0:
319,20,40476,5,2,0:3:0:0:
344,20,40551,1,8,1:2:0:0:
363,37,40626,1,2,0:3:0:0:
370,64,40701,1,8,1:2:0:0:
357,88,40776,5,2,0:3:0:0:
393,59,40851,1,8,1:2:0:0:
440,54,40926,1,2,0:3:0:0:
479,80,41001,1,8,1:2:0:0:
499,122,41076,1,2,0:3:0:0:
485,173,41151,1,8,1:2:0:0:
446,209,41226,1,2,0:3:0:0:
397,229,41301,1,8,1:2:0:0:
344,227,41376,1,2,0:3:0:0:
288,211,41451,1,8,1:2:0:0:
229,232,41526,1,2,0:3:0:0:
190,288,41601,1,8,1:2:0:0:
204,361,41676,6,0,B|229:333|253:318|300:318|300:318|284:297|245:297,1,157.499995193482,4|0,0:2|2:0,0:0:0:0:
122,248,41976,6,0,L|118:221,1,17.4999994659424,8|8,2:2|2:2,0:0:0:0:
130,239,42126,2,0,L|126:211,1,17.4999994659424,8|8,2:3|2:3,0:0:0:0:
25,293,42276,6,0,L|28:264,1,17.4999994659424,8|8,2:1|2:1,0:0:0:0:
17,284,42426,2,0,L|20:256,1,17.4999994659424,8|8,2:1|2:1,0:0:0:0:
56,105,42576,6,0,B|28:59|28:59|157:113,1,187.5,4|0,0:2|2:0,0:0:0:0:
344,57,42876,6,0,P|325:43|291:34,1,32.4999985122681,8|8,2:1|2:1,0:0:0:0:
333,61,43026,2,0,P|314:47|280:38,1,32.4999985122681,8|8,2:1|2:1,0:0:0:0:
400,116,43176,6,0,P|419:102|453:93,1,32.4999985122681,8|8,2:1|2:1,0:0:0:0:
411,120,43326,2,0,P|430:106|464:97,1,32.4999985122681,8|8,2:1|2:1,0:0:0:0:
242,203,43476,6,0,B|225:182|235:155|235:155|277:151|305:184|305:184|330:242|271:291,1,225.000008583069,4|0,0:2|0:0,0:0:0:0:
198,45,43776,5,8,0:2:0:0:
143,42,43851,1,0,0:0:0:0:
95,69,43926,1,8,0:2:0:0:
78,121,44001,1,0,0:0:0:0:
88,175,44076,1,8,0:2:0:0:
132,207,44151,1,0,0:0:0:0:
177,237,44226,1,8,0:2:0:0:
188,290,44301,1,0,0:0:0:0:
162,338,44376,6,0,L|103:320,1,55.0000016784668,8|0,0:2|0:0,0:0:0:0:
28,302,44526,2,0,L|44:249,3,55.0000016784668,8|0|8|0,0:2|0:0|0:2|0:0,0:0:0:0:
168,123,44826,6,0,L|227:105,1,55.0000016784668,8|0,0:2|0:0,0:0:0:0:
297,53,44976,2,0,L|313:105,3,55.0000016784668,8|0|8|0,0:2|0:0|0:2|0:0,0:0:0:0:
471,43,45276,6,0,B|483:33|492:23|492:23|473:53|461:91,1,97.4999955368044,4|0,0:2|2:0,0:0:0:0:
495,161,45576,5,2,0:2:0:0:
455,158,45651,1,8,1:2:0:0:
419,177,45726,1,2,0:2:0:0:
399,211,45801,1,8,1:2:0:0:
401,250,45876,1,2,0:2:0:0:
426,280,45951,1,8,1:2:0:0:
462,296,46026,1,2,0:2:0:0:
499,282,46101,1,8,1:2:0:0:
509,243,46176,6,0,P|465:228|441:226,1,50,2|8,0:2|1:2,0:0:0:0:
409,290,46326,2,0,P|383:308|360:340,1,50,2|8,0:2|1:2,0:0:0:0:
480,195,46476,2,0,P|445:208|425:224,1,50,2|8,0:2|1:2,0:0:0:0:
356,298,46626,2,0,P|346:319|345:350,1,50,2|8,0:2|1:2,0:0:0:0:
345,148,46776,5,2,0:2:0:0:
305,117,46851,1,8,1:2:0:0:
255,115,46926,1,2,0:2:0:0:
216,146,47001,1,8,1:2:0:0:
165,195,47076,6,0,B|130:184|130:184|113:155|113:155|71:141,1,97.4999955368044,4|0,0:2|0:0,0:0:0:0:
148,347,47376,5,8,0:2:0:0:
379,204,47526,2,8,B|396:218|384:252|384:252|338:263|311:314,1,121.999994973755,8|8,0:2|0:2,0:2:0:0:
415,355,47826,1,8,0:2:0:0:
490,187,47976,5,12,0:2:0:0:
484,173,48126,1,8,0:2:0:0:
250,192,48276,5,12,0:2:0:0:
443,76,48426,1,8,0:2:0:0:
230,25,48576,2,8,B|186:10|160:39|162:40|164:40|139:70|93:48,1,121.999994973755,12|8,0:2|0:2,0:2:0:0:
386,249,48876,6,0,B|420:253|437:276|435:299|435:299|421:290|405:288,1,97.4999955368044,4|0,0:2|0:0,0:0:0:0:
337,322,49176,5,8,0:2:0:0:
324,328,49326,5,8,0:2:0:0:
244,170,49476,1,4,0:2:0:0:
172,340,49626,1,8,0:2:0:0:
120,160,49776,6,0,L|128:204,1,42.0000005126953,4|0,0:2|0:0,0:0:0:0:
235,85,50076,5,8,0:3:0:0:
271,67,50151,1,8,0:3:0:0:
300,69,50226,1,8,0:3:0:0:
316,80,50301,1,8,0:3:0:0:
323,92,50376,5,8,0:2:0:0:
372,93,50451,1,8,0:2:0:0:
405,62,50526,2,0,P|413:38|409:9,1,50
308,213,50676,5,2,0:3:0:0:
343,262,50751,1,8,1:2:0:0:
397,273,50826,1,2,0:3:0:0:
441,249,50901,1,8,1:2:0:0:
459,208,50976,5,0,0:0:0:0:
420,205,51051,1,8,1:2:0:0:
391,231,51126,1,2,0:3:0:0:
383,269,51201,1,8,1:2:0:0:
395,305,51276,2,0,L|481:325,1,55.5000013549805,2|8,0:3|1:2,0:0:0:0:
323,350,51426,2,0,L|237:370,1,55.5000013549805,2|8,0:3|1:2,0:0:0:0:
208,194,51576,5,2,0:3:0:0:
185,177,51651,1,8,1:2:0:0:
158,168,51726,2,0,P|127:168|92:185,1,55.5000013549805,2|8,0:3|1:2,0:0:0:0:
218,315,51876,5,0,0:0:0:0:
239,310,51951,1,8,1:2:0:0:
258,297,52026,2,0,P|275:274|282:233,1,55.5000013549805,2|8,0:3|1:2,0:0:0:0:
75,278,52176,5,2,0:3:0:0:
78,293,52251,1,8,1:2:0:0:
81,308,52326,2,0,B|86:331|86:331|91:340|91:340|96:362,1,55.5000013549805,2|8,0:3|1:2,0:0:0:0:
57,73,52476,5,4,0:2:0:0:
117,46,52551,1,8,1:2:0:0:
176,57,52626,1,2,0:3:0:0:
206,103,52701,1,8,1:2:0:0:
208,152,52776,5,2,0:3:0:0:
170,163,52851,1,8,1:2:0:0:
143,191,52926,1,2,0:3:0:0:
135,229,53001,1,8,1:2:0:0:
150,264,53076,2,0,P|184:253|199:225,1,55.5000013549805,2|8,0:3|1:2,0:0:0:0:
297,180,53226,2,0,P|253:157|244:125,1,55.5000013549805,2|8,0:3|1:2,0:0:0:0:
300,355,53376,5,0,0:0:0:0:
311,353,53451,1,0,0:0:0:0:
322,351,53526,1,0,0:0:0:0:
333,349,53601,1,0,0:0:0:0:
344,346,53676,5,12,0:2:0:0:
405,374,53751,1,0,0:0:0:0:
470,358,53826,1,8,0:2:0:0:
499,299,53901,1,0,0:0:0:0:
481,230,53976,1,12,0:2:0:0:
415,196,54051,1,0,0:0:0:0:
358,148,54126,1,8,0:2:0:0:
344,73,54201,1,0,0:0:0:0:
391,12,54276,6,0,P|439:20|460:40,1,66.0000020141602,4|0,0:2|2:0,0:0:0:0:
263,28,54576,5,12,0:2:0:0:
218,36,54651,1,0,0:0:0:0:
190,71,54726,1,8,0:2:0:0:
158,102,54801,1,0,0:0:0:0:
113,109,54876,1,12,0:2:0:0:
76,100,54951,1,0,0:0:0:0:
58,76,55026,1,8,0:2:0:0:
56,53,55101,1,0,0:0:0:0:
65,41,55176,5,12,0:2:0:0:
114,45,55251,1,0,0:0:0:0:
143,85,55326,1,8,0:2:0:0:
137,134,55401,1,0,0:0:0:0:
107,174,55476,5,12,0:2:0:0:
88,180,55551,1,0,0:0:0:0:
72,193,55626,2,0,P|54:217|42:252,1,50,8|0,0:2|0:0,0:0:0:0:
205,269,55776,5,8,0:2:0:0:
217,276,55851,1,0,0:0:0:0:
225,288,55926,2,0,P|241:322|241:341,1,50,8|0,0:2|0:0,0:0:0:0:
57,353,56076,6,0,B|102:364|102:364|135:319,1,91.4999962303163,4|0,0:2|0:0,0:0:0:0:
257,171,56376,5,8,2:2:0:0:
301,149,56451,1,8,2:2:0:0:
345,158,56526,1,8,2:3:0:0:
369,189,56601,1,8,2:3:0:0:
373,223,56676,1,8,2:3:0:0:
361,250,56751,1,8,2:3:0:0:
339,262,56826,1,8,2:1:0:0:
319,263,56901,1,8,2:1:0:0:
305,256,56976,6,0,B|288:242|288:228|288:228|329:133,1,106.499994637299,4|0,0:2|0:0,0:0:0:0:
466,118,57276,5,8,2:3:0:0:
478,79,57351,1,8,2:3:0:0:
461,46,57426,1,8,2:3:0:0:
430,35,57501,1,8,2:3:0:0:
402,39,57576,1,8,2:1:0:0:
383,54,57651,1,8,2:1:0:0:
376,72,57726,1,8,2:1:0:0:
378,87,57801,1,8,2:1:0:0:
385,96,57876,5,12,0:2:0:0:
364,52,57951,1,0,0:0:0:0:
317,39,58026,1,0,0:0:0:0:
269,47,58101,1,0,0:0:0:0:
239,84,58176,1,0,0:0:0:0:
247,131,58251,1,0,0:0:0:0:
227,175,58326,1,0,0:0:0:0:
181,191,58401,1,0,0:0:0:0:
137,171,58476,1,4,0:2:0:0:
127,124,58551,1,0,0:0:0:0:
148,80,58626,1,0,0:0:0:0:
195,72,58701,1,0,0:0:0:0:
244,86,58776,5,12,0:2:0:0:
264,129,58851,1,0,0:0:0:0:
264,177,58926,1,0,0:0:0:0:
237,216,59001,1,0,0:0:0:0:
192,232,59076,1,0,0:0:0:0:
158,266,59151,1,0,0:0:0:0:
150,312,59226,1,4,0:2:0:0:
171,354,59301,1,0,0:0:0:0:
217,369,59376,1,4,0:2:0:0:
263,355,59451,1,0,0:0:0:0:
281,310,59526,1,4,0:2:0:0:
266,264,59601,1,0,0:0:0:0:
222,241,59676,5,4,0:2:0:0:
174,242,59751,1,0,0:0:0:0:
144,275,59826,1,0,0:0:0:0:
140,314,59901,1,0,0:0:0:0:
116,341,59976,1,0,0:0:0:0:
85,349,60051,1,0,0:0:0:0:
57,348,60126,1,0,0:0:0:0:
38,332,60201,1,0,0:0:0:0:
31,313,60276,1,4,0:2:0:0:
33,297,60351,1,0,0:0:0:0:
41,289,60426,1,0,0:0:0:0:
52,287,60501,1,0,0:0:0:0:
83,335,60576,5,12,0:2:0:0:
35,326,60651,1,0,0:0:0:0:
13,283,60726,1,0,0:0:0:0:
17,235,60801,1,0,0:0:0:0:
49,199,60876,1,0,0:0:0:0:
96,196,60951,1,0,0:0:0:0:
139,175,61026,2,0,P|160:154|175:121,1,35.499998212433
84,32,61176,5,4,0:2:0:0:
73,44,61251,1,0,0:0:0:0:
68,59,61326,2,0,P|89:81|117:91,1,35.499998212433
229,78,61476,5,4,0:2:0:0:
267,37,61551,1,0,0:0:0:0:
322,26,61626,1,0,0:0:0:0:
374,44,61701,1,0,0:0:0:0:
401,92,61776,1,0,0:0:0:0:
404,147,61851,1,0,0:0:0:0:
373,194,61926,1,0,0:0:0:0:
318,205,62001,1,0,0:0:0:0:
262,196,62076,1,4,0:2:0:0:
212,222,62151,1,0,0:0:0:0:
199,276,62226,1,0,0:0:0:0:
226,324,62301,1,0,0:0:0:0:
271,347,62376,5,12,0:2:0:0:
303,300,62451,1,0,0:0:0:0:
292,244,62526,1,0,0:0:0:0:
246,208,62601,1,0,0:0:0:0:
189,210,62676,1,0,0:0:0:0:
140,189,62751,1,0,0:0:0:0:
115,145,62826,1,4,0:2:0:0:
124,99,62901,1,0,0:0:0:0:
158,74,62976,1,4,0:2:0:0:
192,78,63051,1,0,0:0:0:0:
212,97,63126,1,4,0:2:0:0:
215,118,63201,1,0,0:0:0:0:
217,133,63276,5,4,0:2:0:0:
203,124,63351,1,0,0:0:0:0:
192,111,63426,2,0,P|182:85|180:57,1,35.499998212433
316,199,63576,5,0,0:0:0:0:
330,190,63651,1,0,0:0:0:0:
341,177,63726,2,0,P|351:151|353:123,1,35.499998212433
229,284,63876,5,4,0:2:0:0:
214,307,63951,1,0,0:0:0:0:
224,341,64026,1,0,0:0:0:0:
265,356,64101,1,0,0:0:0:0:
310,330,64176,5,8,2:2:0:0:
242,305,64251,1,8,2:2:0:0:
174,280,64326,1,8,2:2:0:0:
106,256,64401,1,8,2:2:0:0:
38,232,64476,5,0,0:0:0:0:
43,247,64551,1,0,0:0:0:0:
48,262,64626,5,8,2:2:0:0:
82,324,64701,1,8,2:2:0:0:
152,337,64776,1,8,2:2:0:0:
197,281,64851,1,8,2:2:0:0:
193,209,64926,1,0,0:0:0:0:
131,172,65001,1,0,0:0:0:0:
60,188,65076,5,4,0:2:0:0:
31,174,65151,1,8,1:2:0:0:
15,145,65226,1,2,0:3:0:0:
12,113,65301,1,8,1:2:0:0:
21,82,65376,1,2,0:3:0:0:
45,62,65451,1,8,1:2:0:0:
76,54,65526,1,2,0:3:0:0:
106,64,65601,1,8,1:2:0:0:
128,87,65676,1,2,0:3:0:0:
138,117,65751,1,8,1:2:0:0:
163,135,65826,1,2,0:3:0:0:
194,141,65901,1,8,1:2:0:0:
224,130,65976,5,2,0:3:0:0:
200,108,66051,1,8,1:2:0:0:
190,77,66126,1,2,0:3:0:0:
198,46,66201,1,8,1:2:0:0:
222,24,66276,1,2,0:3:0:0:
253,23,66351,1,8,1:2:0:0:
280,39,66426,1,2,0:3:0:0:
292,68,66501,1,8,1:2:0:0:
291,99,66576,1,2,0:3:0:0:
276,127,66651,1,8,1:2:0:0:
256,152,66726,1,2,0:3:0:0:
249,183,66801,1,8,1:2:0:0:
255,214,66876,5,2,0:3:0:0:
299,180,66951,1,8,1:2:0:0:
354,178,67026,1,2,0:3:0:0:
395,215,67101,1,8,1:2:0:0:
394,270,67176,1,2,0:3:0:0:
355,305,67251,1,8,1:2:0:0:
307,303,67326,1,2,0:3:0:0:
273,273,67401,1,8,1:2:0:0:
233,268,67476,1,2,0:3:0:0:
199,281,67551,1,8,1:2:0:0:
175,303,67626,2,0,P|166:327|156:356,1,35.499998212433,2|8,0:3|1:2,0:0:0:0:
26,333,67776,5,2,0:3:0:0:
0,283,67851,1,8,1:2:0:0:
15,229,67926,1,2,0:3:0:0:
64,203,68001,1,8,1:2:0:0:
118,216,68076,1,2,0:3:0:0:
168,203,68151,1,8,1:2:0:0:
202,169,68226,1,2,0:3:0:0:
209,125,68301,1,8,1:2:0:0:
190,89,68376,1,2,0:3:0:0:
156,75,68451,1,8,1:2:0:0:
126,86,68526,2,0,P|110:96|98:127,1,35.499998212433,2|8,0:3|1:2,0:0:0:0:
268,216,68676,5,4,0:2:0:0:
325,244,68751,1,8,1:2:0:0:
388,242,68826,1,2,0:3:0:0:
437,201,68901,1,8,1:2:0:0:
449,138,68976,1,2,0:3:0:0:
423,83,69051,1,8,1:2:0:0:
370,63,69126,1,2,0:3:0:0:
319,74,69201,1,8,1:2:0:0:
289,111,69276,1,2,0:3:0:0:
284,154,69351,1,8,1:2:0:0:
306,187,69426,2,0,P|326:173|340:138,1,35.499998212433,2|8,0:3|1:2,0:0:0:0:
220,27,69576,5,4,0:2:0:0:
181,61,69651,1,8,1:2:0:0:
162,109,69726,2,0,P|162:129|166:154,1,35.499998212433,2|8,0:3|1:2,0:0:0:0:
231,252,69876,5,0,0:0:0:0:
248,305,69951,1,8,1:2:0:0:
225,349,70026,1,0,0:0:0:0:
184,361,70101,1,8,1:2:0:0:
149,352,70176,1,0,0:0:0:0:
128,327,70251,1,8,1:2:0:0:
123,298,70326,2,0,P|136:278|166:252,1,35.499998212433,0|8,0:0|1:2,0:0:0:0:
258,141,70476,5,4,0:2:0:0:
309,140,70551,1,8,1:2:0:0:
351,169,70626,2,0,P|367:194|375:222,1,35.499998212433,0|10,0:0|1:2,0:0:0:0:
395,367,70776,1,2,0:3:0:0:
357,331,70851,1,8,1:2:0:0:
357,279,70926,1,2,0:3:0:0:
394,242,71001,1,8,1:2:0:0:
441,236,71076,1,2,0:3:0:0:
472,205,71151,1,8,1:2:0:0:
473,165,71226,1,2,0:3:0:0:
452,135,71301,1,8,1:2:0:0:
420,131,71376,5,4,0:2:0:0:
479,322,71526,1,0,0:0:0:0:
257,153,71676,5,8,2:3:0:0:
258,93,71751,1,8,2:3:0:0:
303,48,71826,1,8,2:3:0:0:
370,51,71901,1,8,2:3:0:0:
412,108,71976,5,8,0:2:0:0:
205,224,72126,1,0,0:0:0:0:
70,37,72276,1,0,0:0:0:0:
256,192,83976,12,0,86601,0:0:0:0:
361,345,86676,6,0,P|344:316|345:261,2,80,0|0|0,3:0|2:0|2:0,0:0:0:0:
486,227,87576,2,0,B|431:204|395:230|388:241|378:252|338:267|279:237,1,200,2|0,2:1|2:0,0:0:0:0:
36,93,88476,6,0,P|49:128|44:179,2,80,0|0|0,3:0|2:0|2:0,0:0:0:0:
136,170,89376,1,2,2:1:0:0:
184,79,89676,1,0,2:0:0:0:
277,44,89976,1,0,2:0:0:0:
421,67,90276,6,0,P|424:113|415:145,2,80,0|0|0,3:0|2:0|2:0,0:0:0:0:
328,221,91176,2,0,B|301:262|304:335|351:360|369:340|370:323|350:311,1,160,2|0,2:1|2:0,0:0:0:0:
213,307,92076,6,0,P|250:295|295:299,2,80,0|0|0,3:0|2:0|2:0,0:0:0:0:
108,369,92976,2,0,L|95:346,11,20,2|4|4|4|2|4|4|4|2|4|4|4,2:1|2:2|2:2|2:2|2:1|2:2|2:2|2:2|2:1|2:2|2:2|2:2,0:0:0:0:
25,212,93876,6,0,L|12:305,1,80,0|0,3:1|2:0,0:0:0:0:
154,227,94476,1,0,2:0:0:0:
28,95,94776,2,0,P|62:102|114:121,2,80,2|0|0,2:1|2:0|2:0,0:0:0:0:
219,16,95676,6,0,L|196:105,1,80,0|0,3:0|2:0,0:0:0:0:
287,192,96276,1,0,2:0:0:0:
391,86,96576,2,0,L|368:-3,1,80,2|0,2:1|2:0,0:0:0:0:
503,194,97176,1,0,2:0:0:0:
381,328,97476,5,0,3:0:0:0:
228,150,97776,1,0,2:0:0:0:
279,206,97926,1,0,2:0:0:0:
236,261,98076,1,0,2:0:0:0:
187,212,98226,1,0,2:0:0:0:
253,274,98376,6,0,P|253:305|246:353,1,80,2|0,2:1|2:0,0:0:0:0:
107,282,98976,1,0,2:0:0:0:
267,280,99276,2,0,P|301:292|383:262,1,119.999996337891,2|2,2:1|2:1,0:0:0:0:
314,122,99876,1,2,2:1:0:0:
502,190,100176,5,8,2:2:0:0:
475,170,100251,1,8,2:2:0:0:
442,165,100326,5,0,0:0:0:0:
436,167,100401,1,0,0:0:0:0:
434,172,100476,1,0,0:0:0:0:
433,177,100551,1,0,0:0:0:0:
434,182,100626,5,8,2:2:0:0:
406,209,100701,1,8,2:2:0:0:
367,215,100776,1,0,0:0:0:0:
361,212,100851,1,0,0:0:0:0:
356,207,100926,2,0,L|365:154,1,29.9999990844727
324,88,101076,5,12,0:2:0:0:
297,124,101151,1,0,0:0:0:0:
252,133,101226,1,0,0:0:0:0:
207,123,101301,1,0,0:0:0:0:
173,93,101376,1,4,0:2:0:0:
146,58,101451,1,0,0:0:0:0:
110,37,101526,1,0,0:0:0:0:
73,30,101601,1,0,0:0:0:0:
39,36,101676,1,4,0:2:0:0:
18,59,101751,1,0,0:0:0:0:
12,86,101826,2,0,P|16:107|27:124,1,29.9999990844727
181,213,101976,5,12,0:2:0:0:
141,186,102051,1,0,0:0:0:0:
93,185,102126,1,0,0:0:0:0:
51,208,102201,1,0,0:0:0:0:
36,253,102276,1,4,0:2:0:0:
43,297,102351,1,0,0:0:0:0:
76,322,102426,1,0,0:0:0:0:
114,329,102501,1,0,0:0:0:0:
148,318,102576,1,4,0:2:0:0:
172,296,102651,1,0,0:0:0:0:
200,286,102726,2,0,P|225:276|252:276,1,29.9999990844727,4|0,0:2|0:0,0:0:0:0:
457,301,102876,5,0,0:0:0:0:
447,351,102951,1,0,0:0:0:0:
404,378,103026,1,0,0:0:0:0:
353,378,103101,1,0,0:0:0:0:
320,338,103176,1,4,0:2:0:0:
310,292,103251,1,0,0:0:0:0:
329,253,103326,1,0,0:0:0:0:
361,228,103401,1,0,0:0:0:0:
397,217,103476,1,4,0:2:0:0:
426,198,103551,1,0,0:0:0:0:
445,173,103626,2,0,P|449:159|450:135,1,29.9999990844727
343,19,103776,5,12,0:2:0:0:
300,34,103851,1,0,0:0:0:0:
278,73,103926,1,0,0:0:0:0:
284,117,104001,1,0,0:0:0:0:
319,144,104076,1,4,0:2:0:0:
336,185,104151,1,0,0:0:0:0:
326,228,104226,1,0,0:0:0:0:
288,252,104301,1,0,0:0:0:0:
243,250,104376,1,4,0:2:0:0:
208,221,104451,1,0,0:0:0:0:
198,177,104526,1,4,0:2:0:0:
219,137,104601,1,0,0:0:0:0:
260,120,104676,5,4,0:2:0:0:
302,153,104751,1,0,0:0:0:0:
355,150,104826,1,0,0:0:0:0:
392,110,104901,1,0,0:0:0:0:
398,56,104976,1,4,0:2:0:0:
362,15,105051,1,0,0:0:0:0:
308,11,105126,1,0,0:0:0:0:
262,39,105201,1,0,0:0:0:0:
246,90,105276,1,4,0:2:0:0:
211,131,105351,1,0,0:0:0:0:
158,141,105426,1,0,0:0:0:0:
107,122,105501,1,0,0:0:0:0:
58,77,105576,5,12,0:2:0:0:
16,111,105651,1,0,0:0:0:0:
1,163,105726,1,0,0:0:0:0:
13,215,105801,1,0,0:0:0:0:
53,250,105876,1,4,0:2:0:0:
106,254,105951,1,0,0:0:0:0:
149,221,106026,1,0,0:0:0:0:
171,172,106101,1,0,0:0:0:0:
217,144,106176,1,4,0:2:0:0:
270,152,106251,1,0,0:0:0:0:
301,195,106326,1,4,0:2:0:0:
301,249,106401,1,0,0:0:0:0:
269,292,106476,5,0,0:0:0:0:
233,265,106551,1,0,0:0:0:0:
220,221,106626,1,0,0:0:0:0:
231,177,106701,1,0,0:0:0:0:
263,145,106776,1,4,0:2:0:0:
304,136,106851,1,0,0:0:0:0:
340,150,106926,1,0,0:0:0:0:
358,180,107001,1,0,0:0:0:0:
356,212,107076,1,4,0:2:0:0:
333,231,107151,1,0,0:0:0:0:
306,231,107226,1,0,0:0:0:0:
290,212,107301,1,0,0:0:0:0:
298,192,107376,5,8,0:2:0:0:
342,184,107451,1,8,0:2:0:0:
386,177,107526,5,0,0:0:0:0:
365,155,107601,1,0,0:0:0:0:
344,133,107676,5,8,0:3:0:0:
353,121,107751,1,8,0:3:0:0:
362,109,107826,5,0,0:0:0:0:
338,90,107901,1,0,0:0:0:0:
314,71,107976,5,8,0:3:0:0:
302,80,108051,1,8,0:3:0:0:
290,89,108126,5,8,0:1:0:0:
283,82,108201,1,8,0:1:0:0:
275,73,108276,5,4,0:2:0:0:
299,35,108351,1,0,0:0:0:0:
342,23,108426,1,0,0:0:0:0:
385,35,108501,1,0,0:0:0:0:
413,69,108576,1,4,0:2:0:0:
426,108,108651,1,0,0:0:0:0:
410,143,108726,1,0,0:0:0:0:
382,165,108801,1,0,0:0:0:0:
360,190,108876,1,4,0:2:0:0:
351,218,108951,1,0,0:0:0:0:
355,244,109026,2,0,P|367:259|388:268,1,29.9999990844727
402,144,109176,5,12,0:2:0:0:
360,119,109251,1,0,0:0:0:0:
312,116,109326,1,0,0:0:0:0:
268,135,109401,1,0,0:0:0:0:
244,176,109476,1,4,0:2:0:0:
237,220,109551,1,0,0:0:0:0:
220,258,109626,1,0,0:0:0:0:
188,280,109701,1,0,0:0:0:0:
152,283,109776,1,4,0:2:0:0:
121,269,109851,1,0,0:0:0:0:
103,244,109926,2,0,P|101:226|105:199,1,29.9999990844727,4|0,0:2|0:0,0:0:0:0:
125,39,110076,5,0,0:0:0:0:
167,11,110151,1,0,0:0:0:0:
217,11,110226,1,0,0:0:0:0:
260,37,110301,1,0,0:0:0:0:
275,85,110376,1,4,0:2:0:0:
264,128,110451,1,0,0:0:0:0:
275,168,110526,1,0,0:0:0:0:
306,190,110601,1,0,0:0:0:0:
341,194,110676,1,4,0:2:0:0:
371,180,110751,1,0,0:0:0:0:
385,153,110826,2,0,P|387:134|395:112,1,29.9999990844727
507,258,110976,5,12,0:2:0:0:
507,312,111051,1,0,0:0:0:0:
474,354,111126,1,0,0:0:0:0:
421,365,111201,1,0,0:0:0:0:
374,336,111276,1,4,0:2:0:0:
349,291,111351,1,0,0:0:0:0:
310,262,111426,1,4,0:2:0:0:
265,254,111501,1,0,0:0:0:0:
224,264,111576,1,4,0:2:0:0:
199,294,111651,1,0,0:0:0:0:
201,329,111726,1,0,0:0:0:0:
229,346,111801,1,0,0:0:0:0:
250,325,111876,5,4,0:2:0:0:
213,277,111951,1,0,0:0:0:0:
153,287,112026,1,0,0:0:0:0:
114,333,112101,1,0,0:0:0:0:
54,342,112176,1,4,0:2:0:0:
8,303,112251,1,0,0:0:0:0:
5,243,112326,1,0,0:0:0:0:
40,194,112401,1,0,0:0:0:0:
99,185,112476,1,4,0:2:0:0:
147,220,112551,1,0,0:0:0:0:
206,214,112626,1,0,0:0:0:0:
241,165,112701,1,0,0:0:0:0:
228,98,112776,5,12,0:2:0:0:
261,147,112851,1,0,0:0:0:0:
320,146,112926,1,0,0:0:0:0:
362,103,113001,1,0,0:0:0:0:
414,73,113076,1,4,0:2:0:0:
473,83,113151,1,0,0:0:0:0:
500,136,113226,1,0,0:0:0:0:
493,195,113301,1,0,0:0:0:0:
443,229,113376,1,4,0:2:0:0:
384,214,113451,1,0,0:0:0:0:
326,229,113526,1,4,0:2:0:0:
296,281,113601,1,0,0:0:0:0:
308,339,113676,5,4,0:2:0:0:
360,368,113751,1,0,0:0:0:0:
418,353,113826,1,0,0:0:0:0:
448,301,113901,1,0,0:0:0:0:
436,239,113976,1,4,0:2:0:0:
380,208,114051,1,0,0:0:0:0:
316,224,114126,1,0,0:0:0:0:
253,203,114201,1,0,0:0:0:0:
209,149,114276,1,4,0:2:0:0:
214,80,114351,1,0,0:0:0:0:
267,32,114426,1,0,0:0:0:0:
338,32,114501,1,0,0:0:0:0:
384,87,114576,5,4,0:2:0:0:
83,172,114726,1,0,0:0:0:0:
465,159,114876,5,4,0:2:0:0:
91,29,115026,1,0,0:0:0:0:
482,52,115176,5,8,2:3:0:0:
431,55,115251,1,8,2:3:0:0:
386,79,115326,1,8,2:3:0:0:
364,125,115401,1,8,2:3:0:0:
371,204,115476,5,4,0:2:0:0:
354,256,115551,1,8,1:2:0:0:
308,287,115626,1,0,0:0:0:0:
253,288,115701,1,8,1:2:0:0:
212,250,115776,1,2,0:3:0:0:
200,196,115851,1,8,1:2:0:0:
217,144,115926,1,2,0:3:0:0:
262,112,116001,1,8,1:2:0:0:
316,110,116076,1,2,0:3:0:0:
366,132,116151,1,8,1:2:0:0:
414,158,116226,1,2,0:3:0:0:
468,151,116301,1,8,1:2:0:0:
504,109,116376,5,2,0:3:0:0:
483,94,116451,1,8,1:2:0:0:
458,91,116526,1,2,0:3:0:0:
433,96,116601,1,8,1:2:0:0:
411,108,116676,1,2,0:3:0:0:
395,127,116751,1,8,1:2:0:0:
387,150,116826,1,2,0:3:0:0:
388,174,116901,1,8,1:2:0:0:
396,197,116976,1,2,0:3:0:0:
408,218,117051,1,8,1:2:0:0:
429,230,117126,1,2,0:3:0:0:
453,236,117201,1,8,1:2:0:0:
477,232,117276,5,4,0:2:0:0:
452,188,117351,1,8,1:2:0:0:
410,165,117426,1,0,0:0:0:0:
365,164,117501,1,8,1:2:0:0:
326,182,117576,1,2,0:3:0:0:
298,211,117651,1,8,1:2:0:0:
262,223,117726,1,2,0:3:0:0:
227,220,117801,1,8,1:2:0:0:
206,194,117876,1,2,0:3:0:0:
203,166,117951,1,8,1:2:0:0:
213,146,118026,1,2,0:3:0:0:
227,135,118101,1,8,1:2:0:0:
239,132,118176,5,4,0:2:0:0:
256,69,118251,1,8,1:2:0:0:
213,23,118326,2,0,P|169:12|154:10,1,50,0|8,0:0|1:2,0:0:0:0:
19,119,118476,5,4,0:2:0:0:
66,146,118551,1,8,1:2:0:0:
117,133,118626,2,0,P|142:107|168:91,1,50,0|8,0:0|1:2,0:0:0:0:
171,282,118776,5,0,0:0:0:0:
153,328,118851,1,8,1:2:0:0:
114,350,118926,1,0,0:0:0:0:
74,349,119001,1,8,1:2:0:0:
46,327,119076,5,4,0:2:0:0:
49,323,119151,1,0,0:0:0:0:
53,320,119226,1,0,0:0:0:0:
57,317,119301,1,0,0:0:0:0:
61,315,119376,1,4,0:2:0:0:
65,313,119451,1,0,0:0:0:0:
69,312,119526,1,0,0:0:0:0:
73,311,119601,1,0,0:0:0:0:
77,310,119676,2,0,P|108:319|128:336,3,50,4|0|0|0,0:2|0:0|0:0|0:0,0:0:0:0:
247,338,119976,5,8,0:2:0:0:
250,334,120051,1,0,0:0:0:0:
253,330,120126,1,0,0:0:0:0:
255,325,120201,1,0,0:0:0:0:
256,320,120276,1,4,0:2:0:0:
256,315,120351,1,0,0:0:0:0:
255,310,120426,1,0,0:0:0:0:
253,305,120501,1,0,0:0:0:0:
256,301,120576,2,0,B|258:274|258:274|257:270|257:270|261:228,3,50,4|0|0|0,0:2|0:0|0:0|0:0,0:0:0:0:
180,242,120876,5,4,0:2:0:0:
179,237,120951,1,0,0:0:0:0:
180,232,121026,1,0,0:0:0:0:
182,227,121101,1,0,0:0:0:0:
184,222,121176,1,4,0:2:0:0:
187,218,121251,1,0,0:0:0:0:
190,214,121326,1,0,0:0:0:0:
194,211,121401,1,0,0:0:0:0:
198,209,121476,1,4,0:2:0:0:
202,207,121551,1,0,0:0:0:0:
206,206,121626,1,0,0:0:0:0:
210,205,121701,1,0,0:0:0:0:
214,205,121776,5,8,2:2:0:0:
273,212,121851,1,8,2:2:0:0:
322,178,121926,5,8,2:2:0:0:
336,163,122001,1,0,0:0:0:0:
338,143,122076,1,0,0:0:0:0:
332,123,122151,1,0,0:0:0:0:
316,109,122226,5,8,2:2:0:0:
338,53,122301,1,8,2:2:0:0:
396,41,122376,5,8,0:2:0:0:
415,45,122451,1,0,0:0:0:0:
429,59,122526,2,0,B|429:87|429:87|412:105,1,50
244,131,122676,5,4,0:2:0:0:
213,85,122751,1,8,1:2:0:0:
162,63,122826,1,2,0:3:0:0:
107,69,122901,1,8,1:2:0:0:
65,104,122976,1,2,0:3:0:0:
58,156,123051,1,8,1:2:0:0:
77,202,123126,1,2,0:3:0:0:
116,228,123201,1,8,1:2:0:0:
160,225,123276,1,2,0:3:0:0:
196,208,123351,1,8,1:2:0:0:
230,204,123426,2,0,P|259:218|277:238,1,50,2|8,0:3|1:2,0:0:0:0:
341,360,123576,5,2,0:3:0:0:
394,372,123651,1,8,1:2:0:0:
447,357,123726,1,2,0:3:0:0:
469,306,123801,1,8,1:2:0:0:
458,252,123876,1,2,0:3:0:0:
410,229,123951,1,8,1:2:0:0:
369,200,124026,1,2,0:3:0:0:
348,156,124101,1,8,1:2:0:0:
355,111,124176,1,2,0:3:0:0:
389,90,124251,1,8,1:2:0:0:
423,91,124326,2,0,L|436:162,1,50,2|8,0:3|1:2,0:0:0:0:
305,292,124476,5,4,0:2:0:0:
256,327,124551,1,8,1:2:0:0:
196,336,124626,1,2,0:3:0:0:
143,306,124701,1,8,1:2:0:0:
108,256,124776,1,2,0:3:0:0:
51,246,124851,1,8,1:2:0:0:
8,281,124926,1,2,0:3:0:0:
2,333,125001,1,8,1:2:0:0:
34,371,125076,1,2,0:3:0:0:
78,373,125151,1,8,1:2:0:0:
112,352,125226,2,0,P|123:309|118:291,1,50,2|8,0:3|1:2,0:0:0:0:
227,111,125376,5,4,0:2:0:0:
202,61,125451,1,8,1:2:0:0:
153,35,125526,2,0,L|82:21,1,50,0|8,0:0|1:2,0:0:0:0:
248,212,125676,5,0,0:0:0:0:
289,195,125751,1,8,1:2:0:0:
330,178,125826,2,0,L|401:194,1,50,0|8,0:0|1:2,0:0:0:0:
148,119,125976,5,4,0:2:0:0:
141,153,126051,1,8,1:2:0:0:
133,187,126126,1,0,0:0:0:0:
125,221,126201,1,8,1:2:0:0:
116,254,126276,2,0,B|114:283|114:283|142:262,1,50,4|0,0:2|0:0,0:0:0:0:
50,334,126426,5,8,0:2:0:0:
97,319,126501,1,8,0:2:0:0:
144,304,126576,1,0,0:0:0:0:
153,306,126651,1,0,0:0:0:0:
161,306,126726,2,0,B|170:323|170:323|157:360,1,50,8|8,0:1|0:1,0:0:0:0:
360,384,126876,5,4,0:2:0:0:
362,374,126951,1,0,0:0:0:0:
364,364,127026,1,0,0:0:0:0:
366,354,127101,1,0,0:0:0:0:
370,342,127176,2,0,B|368:318|368:318|348:336,1,50,4|0,0:2|0:0,0:0:0:0:
300,293,127326,5,0,0:0:0:0:
328,287,127401,1,0,0:0:0:0:
358,283,127476,1,0,0:0:0:0:
363,274,127551,1,0,0:0:0:0:
368,265,127626,2,0,B|379:239|379:239|354:196,1,50,8|8,0:1|0:1,0:0:0:0:
216,227,127776,5,0,0:0:0:0:
472,173,127926,1,0,0:0:0:0:
217,91,128076,5,4,0:2:0:0:
182,83,128151,1,0,0:0:0:0:
148,91,128226,1,0,0:0:0:0:
125,117,128301,1,0,0:0:0:0:
118,151,128376,5,8,0:2:0:0:
174,192,128451,1,8,2:2:0:0:
233,188,128526,1,8,2:2:0:0:
268,153,128601,1,8,2:2:0:0:
276,114,128676,5,0,0:0:0:0:
302,91,128751,1,0,0:0:0:0:
336,86,128826,1,0,0:0:0:0:
370,92,128901,1,0,0:0:0:0:
393,117,128976,5,8,2:2:0:0:
333,116,129051,1,8,2:2:0:0:
298,66,129126,2,0,P|330:43|363:35,1,50,8|8,2:3|2:3,0:0:0:0:
492,24,129276,5,8,2:1:0:0:
490,33,129351,1,8,2:1:0:0:
489,42,129426,2,0,L|478:101,1,50,8|8,2:3|2:3,0:0:0:0:
383,135,129576,5,8,2:1:0:0:
385,144,129651,1,8,2:1:0:0:
386,153,129726,2,0,L|397:212,1,50,8|8,2:1|2:1,0:0:0:0:
326,336,129876,6,0,B|324:304|391:294|432:328|422:331|420:333|424:361|480:354|480:354|487:357|487:357|487:350|487:350|514:310|501:280|457:261,1,300.000011444092,4|0,0:2|0:0,0:0:0:0:
170,365,130326,5,0,0:0:0:0:
127,349,130401,1,0,0:0:0:0:
114,305,130476,1,0,0:0:0:0:
129,262,130551,1,0,0:0:0:0:
158,228,130626,1,0,0:0:0:0:
161,183,130701,1,0,0:0:0:0:
90,174,130776,6,0,B|64:168|64:168|113:151|113:151|136:156|136:156|199:133,1,150.000005722046,12|0,0:2|0:0,0:0:0:0:
303,45,131076,5,0,0:0:0:0:
301,66,131151,1,0,0:0:0:0:
298,88,131226,1,0,0:0:0:0:
296,110,131301,1,0,0:0:0:0:
294,129,131376,5,0,3:0:0:0:
474,242,131526,1,0,0:0:0:0:
432,56,131676,6,0,B|432:18|432:18|465:55|465:55|442:119,1,150.000005722046,4|0,0:2|0:0,0:0:0:0:
371,166,131976,2,0,B|412:185|412:185|446:170|446:170|447:166|447:166|466:142|466:142|521:130,1,150.000005722046
302,121,132276,2,0,B|283:100|283:100|305:56|305:56|359:70|359:70|359:104,1,150.000005722046,4|0,0:2|0:0,0:0:0:0:
306,280,132576,5,8,0:2:0:0:
288,255,132651,1,0,0:0:0:0:
261,241,132726,2,0,B|217:233|217:233|181:251,1,75.0000028610231
38,371,132876,5,0,0:0:0:0:
59,365,132951,1,0,0:0:0:0:
77,351,133026,2,0,B|105:320|105:320|111:270,1,75.0000028610231
82,131,133176,5,0,0:0:0:0:
72,142,133251,1,0,0:0:0:0:
68,156,133326,2,0,B|81:192|81:192|122:209,1,75.0000028610231
190,364,133476,5,4,0:2:0:0:
241,353,133551,1,0,0:0:0:0:
292,344,133626,1,0,0:0:0:0:
343,336,133701,1,0,0:0:0:0:
394,327,133776,6,0,B|344:315|344:315|303:363|303:363|257:355,1,150.000005722046,0|2,0:0|0:3,0:0:0:0:
383,204,134076,2,0,B|355:239|355:239|435:259|435:259|467:231,1,150.000005722046,2|4,0:3|0:2,0:0:0:0:
158,124,134376,6,0,B|115:135|99:170|99:170|90:131|28:97,1,150.000005722046,12|0,0:2|0:0,0:0:0:0:
219,29,134676,6,0,P|251:32|272:52,3,50,0|0|8|8,0:0|0:0|0:3|0:3,0:0:0:0:
338,48,134976,2,0,P|342:77|329:113,3,50
372,204,135276,5,8,0:2:0:0:
410,213,135351,1,8,0:2:0:0:
439,208,135426,2,0,L|449:151,1,50,8|8,0:2|0:2,0:0:0:0:
289,246,135576,5,0,0:0:0:0:
276,254,135651,1,0,0:0:0:0:
269,278,135726,1,8,0:2:0:0:
279,316,135801,1,8,0:2:0:0:
322,340,135876,1,8,0:2:0:0:
376,335,135951,1,8,0:2:0:0:
416,290,136026,6,0,L|403:227,1,50
333,185,136176,1,0,0:0:0:0:
508,150,136326,1,4,0:2:0:0:
340,262,136476,1,0,0:0:0:0:
224,92,136626,1,0,0:0:0:0:
433,18,136776,5,8,0:2:0:0:
413,72,136851,1,8,0:2:0:0:
384,101,136926,1,8,0:3:0:0:
388,125,137001,1,8,0:3:0:0:
428,150,137076,5,4,0:2:0:0:
436,110,137151,1,0,0:0:0:0:
409,80,137226,1,0,0:0:0:0:
371,65,137301,1,0,0:0:0:0:
331,67,137376,6,0,P|305:73|270:89,1,50,4|0,0:2|0:0,0:0:0:0:
335,76,137526,2,0,P|309:82|274:98,1,50
221,271,137676,6,0,P|242:255|268:226,1,50,4|0,0:2|0:0,0:0:0:0:
213,264,137826,2,0,P|234:248|260:219,1,50
220,85,137976,1,12,0:2:0:0:
182,71,138051,1,0,0:0:0:0:
142,75,138126,1,0,0:0:0:0:
110,100,138201,1,0,0:0:0:0:
102,139,138276,6,0,P|99:171|110:205,1,50,4|0,0:2|0:0,0:0:0:0:
233,309,138426,2,0,P|236:277|225:243,1,50
223,314,138576,2,0,P|226:282|215:248,1,50,4|0,0:2|0:0,0:0:0:0:
20,245,138726,2,0,P|44:265|78:276,1,50
262,204,138876,5,4,0:2:0:0:
292,177,138951,1,0,0:0:0:0:
302,138,139026,1,0,0:0:0:0:
292,99,139101,1,0,0:0:0:0:
262,71,139176,6,0,P|236:64|203:66,1,50,4|0,0:2|0:0,0:0:0:0:
10,227,139326,2,0,P|35:233|69:232,1,50
102,77,139476,2,0,P|83:95|68:125,1,50,4|0,0:2|0:0,0:0:0:0:
186,232,139626,2,0,P|179:206|160:178,1,50
77,329,139776,5,12,0:2:0:0:
122,359,139851,1,0,0:0:0:0:
175,347,139926,1,0,0:0:0:0:
210,305,140001,1,0,0:0:0:0:
210,250,140076,1,4,0:2:0:0:
179,204,140151,1,0,0:0:0:0:
182,149,140226,1,0,0:0:0:0:
219,115,140301,1,0,0:0:0:0:
263,110,140376,1,8,0:3:0:0:
284,123,140451,1,8,0:3:0:0:
287,137,140526,1,8,0:3:0:0:
283,146,140601,1,8,0:3:0:0:
280,193,140676,5,4,0:2:0:0:
245,156,140751,1,8,1:2:0:0:
253,106,140826,1,0,0:0:0:0:
287,70,140901,1,8,1:2:0:0:
336,69,140976,1,2,0:3:0:0:
378,95,141051,1,8,1:2:0:0:
393,142,141126,2,0,P|389:174|376:209,1,50,2|8,0:3|1:2,0:0:0:0:
292,318,141276,5,2,0:3:0:0:
336,341,141351,1,8,1:2:0:0:
385,339,141426,2,0,P|414:333|440:321,1,50,2|8,0:3|1:2,0:0:0:0:
270,205,141576,5,2,0:3:0:0:
215,197,141651,1,8,1:2:0:0:
164,218,141726,1,2,0:3:0:0:
131,262,141801,1,8,1:2:0:0:
125,316,141876,1,2,0:3:0:0:
95,362,141951,1,8,1:2:0:0:
41,372,142026,2,0,P|14:368|-11:352,1,50,2|8,0:3|1:2,0:0:0:0:
72,160,142176,5,2,0:3:0:0:
103,198,142251,1,8,1:2:0:0:
103,247,142326,2,0,P|91:279|65:312,1,50,2|8,0:3|1:2,0:0:0:0:
3,107,142476,5,4,0:2:0:0:
36,57,142551,1,8,1:2:0:0:
92,36,142626,1,2,0:3:0:0:
146,43,142701,1,8,1:2:0:0:
183,82,142776,1,2,0:3:0:0:
186,131,142851,1,8,1:2:0:0:
215,165,142926,1,2,0:3:0:0:
258,177,143001,1,8,1:2:0:0:
297,168,143076,1,2,0:3:0:0:
320,141,143151,1,8,1:2:0:0:
324,106,143226,1,2,0:3:0:0:
313,78,143301,1,8,1:2:0:0:
285,58,143376,5,8,2:2:0:0:
275,54,143451,1,8,2:2:0:0:
267,50,143526,1,8,2:2:0:0:
256,45,143601,1,8,2:3:0:0:
214,58,143676,1,8,2:3:0:0:
170,80,143751,1,8,2:3:0:0:
135,101,143826,2,0,P|111:89|92:64,1,50,8|8,2:3|2:3,0:0:0:0:
43,194,143976,2,0,B|27:207|34:228|34:228|88:176|177:176,1,150,8|0,2:3|2:0,0:0:0:0:
276,176,144276,5,12,0:2:0:0:
243,232,144351,1,0,0:0:0:0:
251,296,144426,1,8,0:2:0:0:
296,341,144501,1,0,0:0:0:0:
360,348,144576,1,12,0:2:0:0:
413,311,144651,1,0,0:0:0:0:
436,250,144726,1,8,0:2:0:0:
411,189,144801,1,0,0:0:0:0:
354,156,144876,1,12,0:2:0:0:
323,98,144951,1,0,0:0:0:0:
339,35,145026,1,8,0:2:0:0:
397,6,145101,1,0,0:0:0:0:
461,16,145176,1,12,0:2:0:0:
492,73,145251,1,0,0:0:0:0:
477,136,145326,1,8,0:2:0:0:
424,173,145401,1,0,0:0:0:0:
359,170,145476,1,12,0:2:0:0:
305,132,145551,1,0,0:0:0:0:
240,129,145626,1,8,0:2:0:0:
185,164,145701,1,0,0:0:0:0:
168,226,145776,1,12,0:2:0:0:
194,285,145851,1,0,0:0:0:0:
175,347,145926,1,8,0:2:0:0:
114,370,146001,1,0,0:0:0:0:
52,349,146076,1,12,0:2:0:0:
22,291,146151,1,0,0:0:0:0:
31,226,146226,1,8,0:2:0:0:
84,188,146301,1,0,0:0:0:0:
148,195,146376,1,12,0:2:0:0:
192,242,146451,1,0,0:0:0:0:
219,301,146526,1,8,0:2:0:0:
277,329,146601,1,0,0:0:0:0:
341,322,146676,1,12,0:2:0:0:
383,272,146751,1,0,0:0:0:0:
387,207,146826,1,8,0:2:0:0:
354,150,146901,1,0,0:0:0:0:
291,130,146976,5,8,0:2:0:0:
283,209,147051,1,8,0:2:0:0:
343,253,147126,1,8,0:2:0:0:
412,250,147201,1,8,0:2:0:0:
458,204,147276,2,0,P|468:178|474:144,3,50,8|8|8|8,0:3|0:3|0:3|0:3,0:0:0:0:
404,33,147576,2,0,P|414:58|435:86,3,50,8|8|8|8,0:1|0:1|0:1|0:1,0:0:0:0:
286,152,147876,5,4,0:2:0:0:
272,158,147951,1,0,0:0:0:0:
257,160,148026,1,0,0:0:0:0:
242,159,148101,1,0,0:0:0:0:
227,154,148176,1,4,0:2:0:0:
214,145,148251,1,0,0:0:0:0:
205,132,148326,1,0,0:0:0:0:
199,118,148401,1,0,0:0:0:0:
198,103,148476,1,4,0:2:0:0:
200,88,148551,1,0,0:0:0:0:
206,74,148626,1,0,0:0:0:0:
216,63,148701,1,0,0:0:0:0:
268,104,148776,5,12,0:2:0:0:
259,116,148851,1,0,0:0:0:0:
245,122,148926,1,0,0:0:0:0:
230,123,149001,1,0,0:0:0:0:
215,120,149076,1,4,0:2:0:0:
200,115,149151,1,0,0:0:0:0:
187,107,149226,1,0,0:0:0:0:
177,95,149301,1,0,0:0:0:0:
170,81,149376,1,4,0:2:0:0:
165,66,149451,1,0,0:0:0:0:
165,51,149526,1,0,0:0:0:0:
169,36,149601,1,0,0:0:0:0:
233,57,149676,6,0,B|180:96|180:96|41:80,1,179.999994506836,4|0,0:2|0:0,0:0:0:0:
15,88,149976,5,2,0:3:0:0:
32,104,150051,1,8,1:2:0:0:
42,125,150126,1,2,0:3:0:0:
45,148,150201,1,8,1:2:0:0:
40,171,150276,5,2,0:3:0:0:
60,193,150351,1,8,1:2:0:0:
87,205,150426,1,2,0:3:0:0:
116,209,150501,1,8,1:2:0:0:
145,204,150576,5,2,0:3:0:0:
170,178,150651,1,8,1:2:0:0:
205,169,150726,1,2,0:3:0:0:
240,176,150801,1,8,1:2:0:0:
266,200,150876,5,2,0:3:0:0:
244,236,150951,1,8,1:2:0:0:
244,277,151026,1,2,0:3:0:0:
267,311,151101,1,8,1:2:0:0:
306,326,151176,5,2,0:3:0:0:
346,299,151251,1,8,1:2:0:0:
393,295,151326,1,2,0:3:0:0:
437,311,151401,1,8,1:2:0:0:
456,354,151476,6,0,P|413:299|465:197,1,179.999994506836
509,159,151776,5,12,0:2:0:0:
459,201,151851,1,0,0:0:0:0:
394,203,151926,1,8,0:2:0:0:
333,178,152001,1,0,0:0:0:0:
297,123,152076,1,12,0:2:0:0:
288,58,152151,1,0,0:0:0:0:
323,3,152226,2,0,P|339:32|346:65,1,50,8|0,0:2|0:0,0:0:0:0:
211,189,152376,5,8,0:2:0:0:
167,237,152451,1,0,0:0:0:0:
102,237,152526,1,8,0:2:0:0:
53,194,152601,1,0,0:0:0:0:
52,129,152676,1,12,0:2:0:0:
101,87,152751,1,0,0:0:0:0:
165,90,152826,1,8,0:2:0:0:
208,138,152901,1,0,0:0:0:0:
261,175,152976,1,12,0:2:0:0:
324,161,153051,1,0,0:0:0:0:
373,119,153126,2,0,P|400:129|432:164,1,50,8|0,0:2|0:0,0:0:0:0:
489,251,153276,5,12,0:2:0:0:
451,304,153351,1,0,0:0:0:0:
387,319,153426,1,8,0:2:0:0:
326,294,153501,1,0,0:0:0:0:
297,235,153576,1,12,0:2:0:0:
307,170,153651,1,0,0:0:0:0:
349,121,153726,1,8,0:2:0:0:
413,112,153801,1,0,0:0:0:0:
469,143,153876,1,8,0:2:0:0:
496,201,153951,1,0,0:0:0:0:
480,264,154026,2,0,P|457:281|406:291,1,50,8|0,0:2|0:0,0:0:0:0:
195,200,154176,5,8,0:2:0:0:
267,181,154251,1,8,0:2:0:0:
339,163,154326,5,0,0:0:0:0:
294,139,154401,1,0,0:0:0:0:
249,115,154476,5,8,0:3:0:0:
253,100,154551,1,8,0:3:0:0:
258,85,154626,5,0,0:0:0:0:
306,73,154701,1,0,0:0:0:0:
354,61,154776,5,8,0:2:0:0:
280,44,154851,1,8,0:2:0:0:
206,28,154926,5,0,0:0:0:0:
173,66,155001,1,0,0:0:0:0:
140,103,155076,6,0,B|98:144|32:82|70:16|139:0|230:78,1,225.000008583069,4|0,0:2|0:0,0:0:0:0:
294,139,155376,5,2,0:3:0:0:
316,165,155451,1,8,1:2:0:0:
324,198,155526,1,2,0:3:0:0:
317,232,155601,1,8,1:2:0:0:
298,261,155676,2,0,P|285:283|268:301,3,50,2|8|2|8,0:3|1:2|0:3|1:2,0:0:0:0:
178,373,155976,5,4,0:2:0:0:
143,368,156051,1,8,1:2:0:0:
115,345,156126,1,2,0:3:0:0:
104,311,156201,1,8,1:2:0:0:
109,276,156276,1,2,0:3:0:0:
132,250,156351,1,8,1:2:0:0:
146,218,156426,1,2,0:3:0:0:
141,183,156501,1,8,1:2:0:0:
115,158,156576,2,0,P|92:147|59:147,3,50,2|8|2|8,0:3|1:2|0:3|1:2,0:0:0:0:
27,226,156876,5,8,0:3:0:0:
39,234,156951,1,8,0:3:0:0:
52,241,157026,5,0,0:0:0:0:
98,223,157101,1,0,0:0:0:0:
144,205,157176,5,8,0:3:0:0:
144,219,157251,1,8,0:3:0:0:
144,233,157326,5,0,0:0:0:0:
193,226,157401,1,0,0:0:0:0:
242,219,157476,5,8,0:2:0:0:
275,152,157551,1,8,0:2:0:0:
310,85,157626,5,0,0:0:0:0:
336,127,157701,1,0,0:0:0:0:
363,169,157776,6,0,P|395:174|422:204,1,66.6666666666667,8|8,0:2|0:2,0:0:0:0:
501,250,157976,2,0,P|458:264|436:292,1,66.6666666666667,8|8,0:3|0:3,0:0:0:0:
378,365,158176,5,8,0:3:0:0:
304,317,158276,5,8,0:3:0:0:
243,354,158376,5,8,0:1:0:0:
209,335,158476,6,0,B|186:334|164:344|164:344|160:340|160:340|164:320|153:297,1,83.3333333333333,8|0,0:1|2:0,0:0:0:0:
78,371,158676,5,12,0:2:0:0:
74,368,158751,1,0,0:0:0:0:
71,366,158826,1,0,0:0:0:0:
68,363,158901,1,0,0:0:0:0:
65,359,158976,1,0,0:0:0:0:
63,356,159051,1,0,0:0:0:0:
61,352,159126,1,0,0:0:0:0:
59,348,159201,1,0,0:0:0:0:
58,344,159276,1,0,0:0:0:0:
57,340,159351,1,0,0:0:0:0:
57,336,159426,1,0,0:0:0:0:
57,332,159501,1,0,0:0:0:0:
59,328,159576,6,0,B|42:286|70:234|136:242|136:242|159:279|123:307,1,194.999991073609
225,125,159876,2,0,B|208:156|181:166|181:166|137:144|92:130|92:130|50:137|33:168,1,194.999991073609
270,211,160176,2,0,B|239:219|215:255|229:272|229:272|252:241|288:222|339:230,1,194.999991073609
32,43,160476,5,12,0:2:0:0:
323,310,160626,6,0,P|321:343|315:308,1,105,0|0,0:0|2:2,0:0:0:0:
319,304,162276,5,4,2:2:0:0:
465,43,164076,5,8,0:2:0:0:
465,45,164151,1,0,0:0:0:0:
465,47,164226,1,0,0:0:0:0:
465,49,164301,1,0,0:0:0:0:
465,51,164376,1,0,0:0:0:0:
465,53,164451,1,0,0:0:0:0:
465,55,164526,1,0,0:0:0:0:
465,57,164601,1,0,0:0:0:0:
465,59,164676,1,0,0:0:0:0:
465,61,164751,1,0,0:0:0:0:
466,63,164826,1,0,0:0:0:0:
466,65,164901,1,0,0:0:0:0:
467,71,164976,6,0,B|496:89|496:89|392:72|392:72|298:114,1,194.999991073609
203,93,165276,2,0,B|224:157|224:157|267:5,1,194.999991073609
328,238,165576,2,0,B|326:270|326:270|366:278|366:278|299:155,1,194.999991073609
89,45,165876,5,12,0:2:0:0:
88,44,165951,1,0,0:0:0:0:
87,43,166026,1,0,0:0:0:0:
86,43,166101,1,0,0:0:0:0:
85,42,166176,1,0,0:0:0:0:
84,43,166251,1,0,0:0:0:0:
83,43,166326,1,0,0:0:0:0:
82,43,166401,1,0,0:0:0:0:
81,44,166476,1,0,0:0:0:0:
80,45,166551,1,0,0:0:0:0:
79,46,166626,1,0,0:0:0:0:
79,47,166701,1,0,0:0:0:0:
79,48,166776,1,0,0:0:0:0:
79,49,166851,1,0,0:0:0:0:
79,51,166926,1,0,0:0:0:0:
80,51,167001,1,0,0:0:0:0:
81,52,167076,1,0,0:0:0:0:
82,53,167151,1,0,0:0:0:0:
83,54,167226,1,0,0:0:0:0:
84,54,167301,1,0,0:0:0:0:
85,54,167376,1,0,0:0:0:0:
86,54,167451,1,0,0:0:0:0:
87,53,167526,1,0,0:0:0:0:
89,52,167601,1,0,0:0:0:0:
85,54,167676,6,0,B|47:43|47:43|58:43|58:43|24:31|24:31|38:52,1,100,4|0,0:2|0:0,0:0:0:0:
249,254,168126,6,0,L|255:216,1,37.5000014305115,8|8,2:2|2:2,2:0:0:0:
270,144,168276,1,8,2:2:0:0:
234,333,168426,1,8,2:2:0:0:
157,210,168576,5,8,2:3:0:0:
108,223,168651,1,8,2:3:0:0:
71,260,168726,1,8,2:3:0:0:
46,253,168801,1,8,2:3:0:0:
30,229,168876,5,8,2:1:0:0:
45,301,169026,1,8,2:1:0:0:
63,378,169176,1,8,2:2:0:0:
161,307,169326,5,2,2:3:0:0:
161,307,169476,2,0,B|200:283|226:323|227:326|229:329|260:375|289:340,2,150.000005722046,4|2|2,2:2|2:2|2:2,0:0:0:0:
366,139,170376,5,8,0:2:0:0:
401,149,170451,1,8,0:2:0:0:
421,180,170526,1,0,0:0:0:0:
422,217,170601,1,0,0:0:0:0:
401,248,170676,6,0,B|380:238|380:238|491:214,1,112.500004291535
401,334,170976,2,0,B|380:344|380:344|491:368,1,112.500004291535
257,209,171276,5,4,0:2:0:0:
254,205,171351,1,0,0:0:0:0:
251,201,171426,1,0,0:0:0:0:
249,197,171501,1,0,0:0:0:0:
248,192,171576,1,0,0:0:0:0:
247,187,171651,1,0,0:0:0:0:
247,182,171726,1,0,0:0:0:0:
248,178,171801,1,0,0:0:0:0:
250,174,171876,1,0,0:0:0:0:
251,169,171951,1,0,0:0:0:0:
253,165,172026,1,0,0:0:0:0:
256,162,172101,1,0,0:0:0:0:
259,159,172176,5,12,0:2:0:0:
262,203,172251,1,0,0:0:0:0:
243,244,172326,1,8,0:2:0:0:
201,262,172401,1,0,0:0:0:0:
156,259,172476,1,12,0:2:0:0:
124,226,172551,1,0,0:0:0:0:
81,210,172626,1,8,0:2:0:0:
37,222,172701,1,0,0:0:0:0:
10,258,172776,1,12,0:2:0:0:
10,310,172851,1,0,0:0:0:0:
44,358,172926,1,8,0:2:0:0:
111,356,173001,1,0,0:0:0:0:
174,314,173076,6,0,B|212:287|211:212|152:186|111:190|87:214|87:214|113:190|119:147|119:147|114:152|114:152|121:143|121:143|108:153|108:153|122:137|122:137|103:154|103:154|123:132|123:132|97:154|97:154|123:128|123:128|90:155|90:155|123:122|123:122|86:155|86:155|122:118|122:118|81:154|81:154|123:110|123:110|73:156|73:156,1,825.000031471254,4|0,0:2|0:0,0:0:0:0:
295,69,173976,6,0,B|265:85|247:98|252:121|252:121|294:81|376:58,1,194.999991073609,12|0,0:2|0:0,0:0:0:0:
337,167,174276,2,0,B|363:142|406:129|427:153|430:190|438:211|489:217|523:212|535:183|532:174,1,194.999991073609
294,246,174576,2,0,B|303:264|332:281|367:242|361:216|314:188|314:188|288:143|305:104|341:118,1,194.999991073609
451,373,174876,5,4,0:2:0:0:
364,341,175026,1,0,0:0:0:0:
252,315,175176,2,0,B|275:336|273:365|273:365|227:322|199:314|162:327|132:364,1,194.999991073609
12,277,175476,2,0,B|48:288|64:319|72:353|72:353|74:319|96:282|151:258,1,194.999991073609
164,63,175776,6,0,B|191:58|234:28|234:28|177:90|163:160,1,194.999991073609,12|0,0:2|0:0,0:0:0:0:
18,158,176076,2,0,B|-18:157|-23:123|-23:123|-4:82|52:65|105:139,1,194.999991073609
230,225,176376,5,8,0:3:0:0:
192,243,176451,1,8,0:3:0:0:
159,226,176526,1,8,0:1:0:0:
130,217,176601,1,8,0:1:0:0:
111,226,176676,1,8,0:1:0:0:
111,226,177576,6,0,P|169:240|232:266,1,112.500004291535,12|0,0:2|0:0,0:0:0:0:
292,223,177876,2,0,P|316:277|313:307,1,82.5000025177003
380,346,178176,2,0,P|367:370|341:372,1,52.4999983978272
363,145,178476,6,0,B|399:152|399:152|421:180|421:180|463:188,1,100,4|4,0:2|0:2,0:0:0:0:
335,27,178776,6,0,P|266:58|235:97,1,112.500004291535,4|0,0:2|0:0,0:0:0:0:
158,75,179076,2,0,P|152:130|174:174,1,82.5000025177003
26,352,179376,6,0,P|67:302|117:278,1,112.500004291535,8|0,0:2|0:0,0:0:0:0:
114,194,179676,2,0,P|194:224|237:294,1,142.49999619484,4|0,0:2|0:0,0:0:0:0:
326,274,179976,2,0,P|306:360|231:347,1,172.500003290176
305,168,180276,5,0,0:0:0:0:
300,162,180426,1,0,0:0:0:0:
301,176,181176,5,4,0:2:0:0:
312,172,181251,1,0,0:0:0:0:
323,169,181326,1,0,0:0:0:0:
334,166,181401,1,0,0:0:0:0:
381,197,181476,5,2,0:3:0:0:
387,187,181551,1,0,0:0:0:0:
391,176,181626,1,0,0:0:0:0:
395,165,181701,1,0,0:0:0:0:
442,142,181776,5,2,0:3:0:0:
434,133,181851,1,0,0:0:0:0:
425,125,181926,1,0,0:0:0:0:
415,118,182001,1,0,0:0:0:0:
413,64,182076,5,2,0:3:0:0:
401,64,182151,1,0,0:0:0:0:
389,64,182226,1,4,0:2:0:0:
377,64,182301,1,0,0:0:0:0:
337,25,182376,5,2,0:3:0:0:
328,33,182451,1,0,0:0:0:0:
320,41,182526,1,0,0:0:0:0:
312,49,182601,1,0,0:0:0:0:
256,47,182676,6,0,P|276:67|286:105,1,57.5000010967255,2|0,0:3|0:0,0:0:0:0:
377,165,182826,2,0,P|357:186|320:197,1,57.5000010967255
108,142,182976,5,8,0:2:0:0:
147,133,183051,1,8,0:2:0:0:
185,143,183126,2,0,P|213:156|235:178,1,57.5000010967255
163,309,183276,5,8,0:3:0:0:
148,291,183351,1,8,0:3:0:0:
139,269,183426,2,0,P|137:234|152:190,1,57.5000010967255
387,279,183576,5,8,0:3:0:0:
377,285,183651,1,8,0:3:0:0:
366,289,183726,2,0,P|335:297|295:285,1,57.5000010967255
430,202,183876,5,8,0:1:0:0:
451,210,183951,1,8,0:1:0:0:
466,227,184026,1,8,0:1:0:0:
472,243,184101,1,8,0:1:0:0:
473,260,184176,2,0,P|466:297|448:324,1,57.5000010967255
306,227,184326,5,8,0:1:0:0:
301,210,184401,1,8,0:1:0:0:
299,192,184476,1,8,0:1:0:0:
303,181,184551,1,8,0:1:0:0:
309,171,184626,2,0,P|331:145|362:127,1,57.5000010967255
256,320,184776,5,12,0:2:0:0:
248,311,184851,1,0,0:0:0:0:
240,302,184926,1,0,0:0:0:0:
233,294,185001,1,0,0:0:0:0:
237,241,185076,5,4,0:2:0:0:
227,241,185151,1,0,0:0:0:0:
216,241,185226,1,0,0:0:0:0:
205,241,185301,1,0,0:0:0:0:
173,195,185376,5,4,0:2:0:0:
166,203,185451,1,0,0:0:0:0:
160,212,185526,1,0,0:0:0:0:
153,221,185601,1,0,0:0:0:0:
100,229,185676,5,4,0:2:0:0:
101,240,185751,1,0,0:0:0:0:
102,252,185826,1,0,0:0:0:0:
103,263,185901,1,0,0:0:0:0:
76,310,185976,5,4,0:2:0:0:
85,317,186051,1,0,0:0:0:0:
95,324,186126,1,0,0:0:0:0:
105,330,186201,1,0,0:0:0:0:
117,377,186276,5,4,0:2:0:0:
128,373,186351,1,0,0:0:0:0:
139,368,186426,1,0,0:0:0:0:
151,363,186501,1,0,0:0:0:0:
213,343,186576,6,0,B|261:380|261:380|384:343,1,172.500003290176,4|0,0:2|0:0,0:0:0:0:
394,279,186876,2,0,P|390:311|400:273,1,172.500003290176,4|0,0:2|0:0,0:0:0:0:
331,193,187176,5,8,0:3:0:0:
319,152,187251,1,8,0:3:0:0:
338,111,187326,1,8,0:3:0:0:
369,96,187401,1,8,0:3:0:0:
386,73,187476,1,8,0:1:0:0:
345,205,191076,5,4,0:2:0:0:
350,204,191151,1,0,0:0:0:0:
355,205,191226,1,0,0:0:0:0:
359,208,191301,1,0,0:0:0:0:
361,213,191376,1,4,0:2:0:0:
361,218,191451,1,0,0:0:0:0:
359,223,191526,1,0,0:0:0:0:
356,228,191601,1,0,0:0:0:0:
351,231,191676,1,4,0:2:0:0:
345,232,191751,1,0,0:0:0:0:
339,231,191826,1,0,0:0:0:0:
333,228,191901,1,0,0:0:0:0:
328,224,191976,5,12,0:2:0:0:
341,213,192051,1,0,0:0:0:0:
357,209,192126,1,0,0:0:0:0:
374,210,192201,1,0,0:0:0:0:
390,214,192276,1,4,0:2:0:0:
404,222,192351,1,0,0:0:0:0:
420,228,192426,1,0,0:0:0:0:
436,231,192501,1,0,0:0:0:0:
453,232,192576,1,4,0:2:0:0:
469,227,192651,1,0,0:0:0:0:
483,217,192726,1,0,0:0:0:0:
494,204,192801,1,0,0:0:0:0:
498,187,192876,5,4,0:2:0:0:
497,158,192951,1,0,0:0:0:0:
484,132,193026,1,0,0:0:0:0:
457,120,193101,1,0,0:0:0:0:
428,123,193176,1,4,0:2:0:0:
403,138,193251,1,0,0:0:0:0:
393,165,193326,1,0,0:0:0:0:
395,193,193401,1,0,0:0:0:0:
413,215,193476,1,4,0:2:0:0:
438,228,193551,1,0,0:0:0:0:
456,249,193626,1,0,0:0:0:0:
464,276,193701,1,0,0:0:0:0:
462,304,193776,6,0,P|456:337|441:362,1,57.5000010967255,12|0,0:2|0:0,0:0:0:0:
298,319,193926,2,0,P|331:313|356:298,1,57.5000010967255
281,218,194076,1,4,0:2:0:0:
255,204,194151,1,0,0:0:0:0:
226,201,194226,1,0,0:0:0:0:
197,205,194301,1,0,0:0:0:0:
173,221,194376,5,4,0:2:0:0:
182,227,194451,1,0,0:0:0:0:
189,235,194526,1,0,0:0:0:0:
193,245,194601,1,0,0:0:0:0:
195,256,194676,5,4,0:2:0:0:
147,270,194751,1,0,0:0:0:0:
106,240,194826,1,0,0:0:0:0:
91,192,194901,1,0,0:0:0:0:
110,145,194976,1,4,0:2:0:0:
155,125,195051,1,0,0:0:0:0:
204,130,195126,1,0,0:0:0:0:
239,164,195201,1,0,0:0:0:0:
288,169,195276,1,0,0:0:0:0:
334,150,195351,1,0,0:0:0:0:
356,105,195426,2,0,P|363:79|363:42,1,50
213,37,195576,5,12,0:2:0:0:
209,86,195651,1,0,0:0:0:0:
206,135,195726,1,0,0:0:0:0:
203,184,195801,1,0,0:0:0:0:
200,233,195876,1,0,0:0:0:0:
176,276,195951,1,0,0:0:0:0:
129,294,196026,1,0,0:0:0:0:
79,288,196101,1,0,0:0:0:0:
43,252,196176,1,4,0:2:0:0:
34,202,196251,1,0,0:0:0:0:
53,155,196326,2,0,P|78:132|104:124,1,50,4|0,0:2|0:0,0:0:0:0:
291,173,196476,5,0,0:0:0:0:
327,213,196551,1,0,0:0:0:0:
319,267,196626,1,0,0:0:0:0:
333,320,196701,1,0,0:0:0:0:
381,346,196776,1,0,0:0:0:0:
435,342,196851,1,0,0:0:0:0:
479,309,196926,1,0,0:0:0:0:
485,254,197001,1,0,0:0:0:0:
467,201,197076,1,0,0:0:0:0:
421,170,197151,1,0,0:0:0:0:
410,116,197226,2,0,P|414:88|428:62,1,50
233,243,197376,5,8,0:2:0:0:
196,216,197451,1,0,0:0:0:0:
174,176,197526,1,0,0:0:0:0:
172,131,197601,1,0,0:0:0:0:
198,94,197676,1,4,0:2:0:0:
240,78,197751,1,0,0:0:0:0:
283,87,197826,1,4,0:2:0:0:
310,122,197901,1,0,0:0:0:0:
315,166,197976,1,4,0:2:0:0:
292,204,198051,1,0,0:0:0:0:
255,229,198126,2,0,P|227:241|195:272,1,50
386,369,198276,5,4,0:2:0:0:
351,332,198351,1,0,0:0:0:0:
304,314,198426,1,0,0:0:0:0:
254,314,198501,1,0,0:0:0:0:
207,332,198576,1,4,0:2:0:0:
170,366,198651,1,0,0:0:0:0:
120,375,198726,1,0,0:0:0:0:
71,363,198801,1,0,0:0:0:0:
37,326,198876,1,4,0:2:0:0:
28,276,198951,1,0,0:0:0:0:
47,230,199026,1,0,0:0:0:0:
90,204,199101,1,0,0:0:0:0:
144,212,199176,5,12,0:2:0:0:
109,169,199251,1,0,0:0:0:0:
114,114,199326,1,0,0:0:0:0:
148,70,199401,1,0,0:0:0:0:
200,55,199476,1,4,0:2:0:0:
252,71,199551,1,0,0:0:0:0:
277,119,199626,1,0,0:0:0:0:
275,173,199701,1,0,0:0:0:0:
244,218,199776,1,4,0:2:0:0:
233,271,199851,1,0,0:0:0:0:
253,322,199926,1,0,0:0:0:0:
300,349,200001,1,0,0:0:0:0:
359,342,200076,5,4,0:2:0:0:
400,298,200151,1,0,0:0:0:0:
412,239,200226,1,0,0:0:0:0:
388,183,200301,1,0,0:0:0:0:
344,141,200376,1,4,0:2:0:0:
341,81,200451,1,0,0:0:0:0:
372,29,200526,1,0,0:0:0:0:
430,14,200601,1,0,0:0:0:0:
485,36,200676,1,4,0:2:0:0:
508,91,200751,1,0,0:0:0:0:
504,150,200826,1,0,0:0:0:0:
458,189,200901,1,0,0:0:0:0:
398,194,200976,5,8,0:3:0:0:
407,170,201051,1,8,0:3:0:0:
416,146,201126,1,8,0:3:0:0:
426,123,201201,1,8,0:3:0:0:
419,98,201276,5,8,0:3:0:0:
413,106,201351,1,8,0:3:0:0:
407,114,201426,1,8,0:3:0:0:
401,122,201501,1,8,0:3:0:0:
396,130,201576,5,8,0:2:0:0:
326,122,201651,1,8,0:2:0:0:
256,114,201726,1,8,0:2:0:0:
186,106,201801,1,8,0:2:0:0:
116,98,201876,5,4,0:2:0:0:
66,122,201951,1,8,1:2:0:0:
49,174,202026,1,2,0:3:0:0:
67,225,202101,1,8,1:2:0:0:
114,252,202176,1,2,0:3:0:0:
168,246,202251,1,8,1:2:0:0:
216,219,202326,1,2,0:3:0:0:
270,217,202401,1,8,1:2:0:0:
316,246,202476,1,2,0:3:0:0:
328,299,202551,1,8,1:2:0:0:
309,350,202626,1,2,0:3:0:0:
257,370,202701,1,8,1:2:0:0:
202,363,202776,5,2,0:3:0:0:
193,339,202851,1,8,1:2:0:0:
198,314,202926,1,2,0:3:0:0:
215,296,203001,1,8,1:2:0:0:
238,286,203076,1,2,0:3:0:0:
262,285,203151,1,8,1:2:0:0:
285,293,203226,1,2,0:3:0:0:
302,310,203301,1,8,1:2:0:0:
325,318,203376,1,2,0:3:0:0:
349,318,203451,1,8,1:2:0:0:
371,306,203526,1,2,0:3:0:0:
387,287,203601,1,8,1:2:0:0:
391,262,203676,5,4,0:2:0:0:
345,245,203751,1,8,1:2:0:0:
322,206,203826,1,2,0:3:0:0:
326,163,203901,1,8,1:2:0:0:
351,131,203976,1,2,0:3:0:0:
386,119,204051,1,8,1:2:0:0:
418,104,204126,1,2,0:3:0:0:
440,80,204201,1,8,1:2:0:0:
443,50,204276,1,2,0:3:0:0:
432,27,204351,1,8,1:2:0:0:
413,20,204426,1,2,0:3:0:0:
398,25,204501,1,8,1:2:0:0:
391,32,204576,5,4,0:2:0:0:
397,96,204651,1,8,1:2:0:0:
442,141,204726,2,0,L|498:120,1,50,0|8,0:0|1:2,0:0:0:0:
253,47,204876,5,0,0:0:0:0:
191,26,204951,1,8,1:2:0:0:
133,43,205026,1,0,0:0:0:0:
104,90,205101,1,8,1:2:0:0:
109,139,205176,1,4,0:2:0:0:
139,164,205251,1,8,1:2:0:0:
168,162,205326,1,0,0:0:0:0:
177,144,205401,1,8,1:2:0:0:
173,134,205476,5,4,0:2:0:0:
130,148,205551,1,0,1:0:0:0:
118,191,205626,1,0,0:0:0:0:
132,233,205701,1,0,1:0:0:0:
169,257,205776,1,4,0:2:0:0:
213,260,205851,1,0,1:0:0:0:
249,233,205926,1,0,0:0:0:0:
292,219,206001,1,0,1:0:0:0:
335,229,206076,1,4,0:2:0:0:
363,257,206151,1,0,1:0:0:0:
367,291,206226,2,0,L|344:351,1,50
456,185,206376,5,12,0:2:0:0:
411,185,206451,1,0,0:0:0:0:
378,153,206526,1,0,0:0:0:0:
372,108,206601,1,0,0:0:0:0:
398,71,206676,1,4,0:2:0:0:
440,57,206751,1,0,0:0:0:0:
481,75,206826,1,0,0:0:0:0:
496,117,206901,1,0,0:0:0:0:
485,160,206976,2,0,P|445:161|423:151,3,50,4|0|0|0,0:2|0:0|0:0|0:0,0:0:0:0:
281,34,207276,5,4,0:2:0:0:
276,32,207351,1,0,0:0:0:0:
266,30,207426,1,0,0:0:0:0:
251,31,207501,1,0,0:0:0:0:
232,38,207576,1,4,0:2:0:0:
216,57,207651,1,0,0:0:0:0:
206,85,207726,1,0,0:0:0:0:
184,112,207801,1,0,0:0:0:0:
148,130,207876,1,4,0:2:0:0:
103,131,207951,1,0,0:0:0:0:
62,101,208026,1,0,0:0:0:0:
57,46,208101,1,0,0:0:0:0:
103,7,208176,5,8,0:2:0:0:
119,80,208251,1,8,0:2:0:0:
136,153,208326,5,0,0:0:0:0:
132,162,208401,1,0,0:0:0:0:
128,171,208476,5,8,0:2:0:0:
151,242,208551,1,8,0:2:0:0:
176,312,208626,5,0,0:0:0:0:
171,320,208701,1,0,0:0:0:0:
166,328,208776,6,0,L|113:309,1,50,8|8,0:2|0:2,0:0:0:0:
20,250,208926,2,0,L|73:231,1,50,8|8,0:2|0:2,0:0:0:0:
257,151,209076,5,4,0:2:0:0:
306,126,209151,1,8,1:2:0:0:
360,128,209226,1,2,0:3:0:0:
394,170,209301,1,8,1:2:0:0:
399,224,209376,1,2,0:3:0:0:
377,271,209451,1,8,1:2:0:0:
331,291,209526,1,2,0:3:0:0:
283,288,209601,1,8,1:2:0:0:
248,259,209676,1,2,0:3:0:0:
208,255,209751,1,8,1:2:0:0:
176,269,209826,2,0,P|162:296|159:326,1,50,2|8,0:3|1:2,0:0:0:0:
395,280,209976,5,2,0:3:0:0:
427,235,210051,1,8,1:2:0:0:
423,180,210126,1,2,0:3:0:0:
399,130,210201,1,8,1:2:0:0:
349,105,210276,1,2,0:3:0:0:
296,103,210351,1,8,1:2:0:0:
249,122,210426,1,2,0:3:0:0:
201,124,210501,1,8,1:2:0:0:
162,101,210576,1,2,0:3:0:0:
150,62,210651,1,8,1:2:0:0:
165,30,210726,2,0,L|236:16,1,50,2|8,0:3|1:2,0:0:0:0:
326,198,210876,5,6,0:2:0:0:
382,218,210951,1,8,1:2:0:0:
401,274,211026,1,2,0:3:0:0:
382,330,211101,1,8,1:2:0:0:
326,352,211176,1,2,0:3:0:0:
268,347,211251,1,8,1:2:0:0:
232,304,211326,1,2,0:3:0:0:
230,251,211401,1,8,1:2:0:0:
259,210,211476,1,2,0:3:0:0:
296,185,211551,1,8,1:2:0:0:
308,146,211626,2,0,L|228:130,1,50,2|8,0:3|1:2,0:0:0:0:
101,34,211776,5,4,0:2:0:0:
64,51,211851,1,0,1:2:0:0:
47,87,211926,2,0,P|44:119|51:152,1,50,0|8,0:0|1:2,0:0:0:0:
38,289,212076,5,4,0:2:0:0:
71,299,212151,1,8,1:2:0:0:
106,293,212226,2,0,P|125:274|140:248,1,50,0|8,0:0|1:2,0:0:0:0:
191,98,212376,5,4,0:2:0:0:
186,100,212451,1,8,1:2:0:0:
184,104,212526,1,0,0:0:0:0:
185,108,212601,1,8,1:2:0:0:
189,110,212676,6,0,B|177:141|177:141|231:95|295:68,1,119.999996337891,4|8,0:2|0:3,0:0:0:0:
271,99,212901,1,8,0:3:0:0:
287,137,212976,1,8,0:3:0:0:
448,37,213126,6,0,B|460:68|460:68|406:22|342:-5,1,119.999996337891,4|8,0:2|0:3,0:0:0:0:
366,26,213351,1,8,0:3:0:0:
355,63,213426,1,8,0:3:0:0:
482,184,213576,6,0,B|464:235|464:235|464:248|464:248|445:307,1,119.999996337891,4|8,0:2|0:1,0:0:0:0:
439,327,213801,1,8,0:1:0:0:
425,365,213876,1,8,0:1:0:0:
272,244,214026,5,4,0:2:0:0:
193,353,214176,1,8,0:1:0:0:
160,276,214326,1,8,0:1:0:0:
277,227,214476,6,0,P|293:228|321:242,3,37.5000014305115
79,330,214776,5,8,0:2:0:0:
42,282,214851,1,8,0:2:0:0:
44,222,214926,1,8,0:2:0:0:
90,183,215001,1,8,0:2:0:0:
149,173,215076,5,0,0:0:0:0:
163,170,215151,1,0,0:0:0:0:
173,159,215226,1,0,0:0:0:0:
179,145,215301,1,0,0:0:0:0:
179,130,215376,5,8,0:2:0:0:
124,154,215451,1,8,0:2:0:0:
118,213,215526,1,8,0:2:0:0:
154,260,215601,1,8,0:2:0:0:
213,270,215676,1,8,0:2:0:0:
260,248,215751,1,8,0:2:0:0:
304,244,215826,1,8,0:2:0:0:
337,260,215901,1,8,0:2:0:0:
348,287,215976,1,8,0:2:0:0:
338,330,216051,1,8,0:2:0:0:
284,356,216126,1,8,0:2:0:0:
212,332,216201,1,8,0:2:0:0:
168,247,216276,5,4,0:2:0:0:
163,244,216351,1,0,0:0:0:0:
157,243,216426,1,0,0:0:0:0:
151,243,216501,1,0,0:0:0:0:
146,245,216576,1,0,0:0:0:0:
142,248,216651,1,0,0:0:0:0:
139,252,216726,1,0,0:0:0:0:
137,257,216801,1,0,0:0:0:0:
136,262,216876,1,0,0:0:0:0:
137,267,216951,1,0,0:0:0:0:
139,271,217026,1,0,0:0:0:0:
143,273,217101,1,0,0:0:0:0:
122,325,217176,5,12,0:2:0:0:
148,342,217251,1,0,0:0:0:0:
186,346,217326,1,0,0:0:0:0:
228,334,217401,1,0,0:0:0:0:
256,293,217476,1,0,0:0:0:0:
266,244,217551,1,0,0:0:0:0:
250,196,217626,1,4,0:2:0:0:
206,172,217701,1,0,0:0:0:0:
156,167,217776,1,0,0:0:0:0:
114,194,217851,1,0,0:0:0:0:
66,202,217926,1,4,0:2:0:0:
22,177,218001,1,0,0:0:0:0:
13,128,218076,5,0,0:0:0:0:
26,85,218151,1,0,0:0:0:0:
63,62,218226,1,0,0:0:0:0:
101,59,218301,1,0,0:0:0:0:
132,80,218376,1,0,0:0:0:0:
141,112,218451,1,0,0:0:0:0:
131,137,218526,1,0,0:0:0:0:
110,146,218601,1,0,0:0:0:0:
93,145,218676,1,4,0:2:0:0:
85,138,218751,1,0,0:0:0:0:
81,127,218826,1,0,0:0:0:0:
83,116,218901,1,0,0:0:0:0:
74,68,218976,5,12,0:2:0:0:
117,66,219051,1,0,0:0:0:0:
161,87,219126,1,0,0:0:0:0:
186,129,219201,1,0,0:0:0:0:
188,178,219276,1,0,0:0:0:0:
168,223,219351,1,0,0:0:0:0:
130,255,219426,1,0,0:0:0:0:
80,260,219501,1,0,0:0:0:0:
32,245,219576,5,4,0:2:0:0:
27,234,219651,1,0,0:0:0:0:
27,223,219726,1,0,0:0:0:0:
31,212,219801,1,0,0:0:0:0:
38,203,219876,5,4,0:2:0:0:
67,188,219951,1,0,0:0:0:0:
105,193,220026,1,0,0:0:0:0:
143,214,220101,1,0,0:0:0:0:
166,257,220176,1,0,0:0:0:0:
172,306,220251,1,0,0:0:0:0:
196,348,220326,1,0,0:0:0:0:
241,368,220401,1,0,0:0:0:0:
290,364,220476,1,4,0:2:0:0:
328,333,220551,1,0,0:0:0:0:
347,293,220626,1,0,0:0:0:0:
346,254,220701,1,0,0:0:0:0:
302,210,220776,5,12,0:2:0:0:
274,251,220851,1,0,0:0:0:0:
277,300,220926,1,0,0:0:0:0:
309,337,221001,1,0,0:0:0:0:
357,346,221076,1,0,0:0:0:0:
402,326,221151,1,0,0:0:0:0:
423,281,221226,1,4,0:2:0:0:
419,237,221301,1,0,0:0:0:0:
391,210,221376,1,0,0:0:0:0:
379,179,221451,1,0,0:0:0:0:
384,146,221526,1,4,0:2:0:0:
401,124,221601,1,0,0:0:0:0:
422,118,221676,5,0,0:0:0:0:
438,152,221751,1,0,0:0:0:0:
418,191,221826,1,0,0:0:0:0:
373,213,221901,1,0,0:0:0:0:
326,196,221976,1,0,0:0:0:0:
300,153,222051,1,0,0:0:0:0:
302,103,222126,1,0,0:0:0:0:
281,57,222201,1,0,0:0:0:0:
237,33,222276,1,4,0:2:0:0:
187,30,222351,1,0,0:0:0:0:
150,54,222426,1,0,0:0:0:0:
134,89,222501,1,0,0:0:0:0:
144,137,222576,5,8,0:2:0:0:
153,150,222651,1,8,0:2:0:0:
165,171,222726,2,0,P|165:196|142:233,1,55.0000016784668,8|8,0:3|0:3,0:0:0:0:
117,309,222876,1,8,0:3:0:0:
114,314,222951,1,8,0:3:0:0:
111,318,223026,1,8,0:3:0:0:
107,322,223101,1,8,0:3:0:0:
102,325,223176,5,8,0:2:0:0:
75,333,223251,1,8,0:2:0:0:
43,324,223326,1,8,0:2:0:0:
22,291,223401,1,8,0:2:0:0:
26,247,223476,5,4,0:2:0:0:
64,207,223551,1,8,1:2:0:0:
117,195,223626,1,2,0:3:0:0:
168,212,223701,1,8,1:2:0:0:
200,256,223776,1,2,0:3:0:0:
206,305,223851,1,8,1:2:0:0:
230,341,223926,1,2,0:3:0:0:
259,354,224001,1,8,1:2:0:0:
291,351,224076,1,2,0:3:0:0:
317,331,224151,1,8,1:2:0:0:
329,306,224226,1,2,0:3:0:0:
326,284,224301,1,8,1:2:0:0:
315,270,224376,5,2,0:3:0:0:
278,295,224451,1,8,1:2:0:0:
292,342,224526,1,2,0:3:0:0:
344,359,224601,1,8,1:2:0:0:
398,333,224676,1,2,0:3:0:0:
430,275,224751,1,8,1:2:0:0:
425,209,224826,1,2,0:3:0:0:
376,164,224901,1,8,1:2:0:0:
310,157,224976,1,2,0:3:0:0:
251,187,225051,1,8,1:2:0:0:
218,244,225126,1,2,0:3:0:0:
205,308,225201,1,8,1:2:0:0:
163,358,225276,5,4,0:2:0:0:
100,378,225351,1,8,1:2:0:0:
35,364,225426,1,2,0:3:0:0:
8,303,225501,1,8,1:2:0:0:
11,242,225576,1,2,0:3:0:0:
36,193,225651,1,8,1:2:0:0:
79,168,225726,1,2,0:3:0:0:
122,162,225801,1,8,1:2:0:0:
162,178,225876,1,2,0:3:0:0:
183,216,225951,1,8,1:2:0:0:
182,254,226026,1,2,0:3:0:0:
166,283,226101,1,8,1:2:0:0:
139,302,226176,6,0,L|101:228,3,55.0000016784668,4|8|2|8,0:2|1:2|0:3|1:2,0:0:0:0:
188,153,226476,2,0,L|271:157,3,55.0000016784668,4|8|2|8,0:2|1:2|0:3|1:2,0:0:0:0:
292,269,226776,2,0,L|246:338,3,55.0000016784668,4|8|2|8,0:2|1:2|0:3|1:2,0:0:0:0:
165,62,227076,5,4,0:2:0:0:
199,93,227151,1,8,1:2:0:0:
197,147,227226,1,2,0:3:0:0:
171,195,227301,1,8,1:2:0:0:
178,255,227376,1,2,0:3:0:0:
217,307,227451,1,8,1:2:0:0:
279,327,227526,1,2,0:3:0:0:
343,311,227601,1,8,1:2:0:0:
383,259,227676,1,2,0:3:0:0:
395,194,227751,1,8,1:2:0:0:
365,135,227826,1,2,0:3:0:0:
304,108,227901,1,8,1:2:0:0:
238,115,227976,1,2,0:3:0:0:
194,164,228051,1,8,1:2:0:0:
130,182,228126,1,2,0:3:0:0:
67,162,228201,1,8,1:2:0:0:
42,100,228276,1,2,0:3:0:0:
62,37,228351,1,8,1:2:0:0:
119,4,228426,1,2,0:3:0:0:
184,7,228501,1,8,1:2:0:0:
230,54,228576,1,2,0:3:0:0:
240,119,228651,1,8,1:2:0:0:
207,176,228726,1,2,0:3:0:0:
222,240,228801,1,8,1:2:0:0:
276,276,228876,5,4,0:2:0:0:
330,279,228951,1,8,1:2:0:0:
376,249,229026,1,2,0:3:0:0:
394,197,229101,1,8,1:2:0:0:
386,142,229176,1,2,0:3:0:0:
344,105,229251,1,8,1:2:0:0:
290,92,229326,1,2,0:3:0:0:
239,112,229401,1,8,1:2:0:0:
199,150,229476,1,2,0:3:0:0:
144,148,229551,1,8,1:2:0:0:
102,111,229626,1,2,0:3:0:0:
94,56,229701,1,8,1:2:0:0:
138,23,229776,6,0,P|145:56|152:98,3,55.0000016784668,8|8|8|8,0:2|0:2|0:2|0:2,0:0:0:0:
89,199,230076,6,0,P|70:223|63:250,1,55.0000016784668
7,157,230226,5,8,0:2:0:0:
6,228,230301,1,8,0:2:0:0:
66,265,230376,1,8,0:2:0:0:
136,251,230451,1,8,0:2:0:0:
208,263,230526,6,0,P|244:291|250:315,1,55.0000016784668
188,352,230676,5,4,0:2:0:0:
189,333,230751,1,0,0:0:0:0:
199,315,230826,1,0,0:0:0:0:
217,300,230901,1,0,0:0:0:0:
241,292,230976,1,0,0:0:0:0:
268,295,231051,1,0,0:0:0:0:
292,311,231126,1,0,0:0:0:0:
315,333,231201,1,0,0:0:0:0:
347,343,231276,1,4,0:2:0:0:
383,338,231351,1,0,0:0:0:0:
411,311,231426,1,0,0:0:0:0:
413,269,231501,1,0,0:0:0:0:
381,238,231576,5,12,0:2:0:0:
433,219,231651,1,0,0:0:0:0:
451,169,231726,1,0,0:0:0:0:
437,120,231801,1,0,0:0:0:0:
396,93,231876,1,0,0:0:0:0:
350,91,231951,1,0,0:0:0:0:
310,110,232026,1,4,0:2:0:0:
291,147,232101,1,0,0:0:0:0:
297,185,232176,2,0,P|323:176|339:158,1,45.9999984558106
397,122,232326,2,0,P|391:95|378:77,1,45.9999984558106,4|0,0:2|0:0,0:0:0:0:
225,53,232476,5,0,0:0:0:0:
207,59,232551,1,0,0:0:0:0:
192,73,232626,1,0,0:0:0:0:
183,94,232701,1,0,0:0:0:0:
187,118,232776,1,0,0:0:0:0:
201,141,232851,1,0,0:0:0:0:
224,159,232926,1,0,0:0:0:0:
239,187,233001,1,0,0:0:0:0:
239,221,233076,1,4,0:2:0:0:
225,255,233151,1,0,0:0:0:0:
193,277,233226,1,0,0:0:0:0:
152,284,233301,1,0,0:0:0:0:
113,263,233376,5,12,0:2:0:0:
163,230,233451,1,0,0:0:0:0:
220,229,233526,1,0,0:0:0:0:
262,264,233601,1,0,0:0:0:0:
275,315,233676,1,0,0:0:0:0:
311,349,233751,1,0,0:0:0:0:
359,349,233826,1,0,0:0:0:0:
396,322,233901,1,0,0:0:0:0:
407,279,233976,1,8,0:3:0:0:
389,241,234051,1,8,0:3:0:0:
356,219,234126,1,8,0:3:0:0:
335,188,234201,1,8,0:3:0:0:
339,153,234276,5,4,0:2:0:0:
347,156,234351,1,8,1:2:0:0:
355,166,234426,1,2,0:3:0:0:
358,184,234501,1,8,1:2:0:0:
354,206,234576,1,2,0:3:0:0:
335,226,234651,1,8,1:2:0:0:
304,235,234726,1,2,0:3:0:0:
267,228,234801,1,8,1:2:0:0:
240,195,234876,1,2,0:3:0:0:
208,161,234951,1,8,1:2:0:0:
159,148,235026,1,2,0:3:0:0:
107,166,235101,1,8,1:2:0:0:
82,220,235176,5,2,0:3:0:0:
78,160,235251,1,8,1:2:0:0:
110,121,235326,1,2,0:3:0:0:
149,109,235401,1,8,1:2:0:0:
180,115,235476,1,2,0:3:0:0:
218,129,235551,1,8,1:2:0:0:
267,118,235626,1,2,0:3:0:0:
305,72,235701,1,8,1:2:0:0:
285,5,235776,5,2,0:3:0:0:
262,60,235851,1,8,1:2:0:0:
284,105,235926,1,2,0:3:0:0:
319,126,236001,1,8,1:2:0:0:
351,125,236076,1,4,0:2:0:0:
376,114,236151,1,8,1:2:0:0:
398,111,236226,1,2,0:3:0:0:
415,116,236301,1,8,1:2:0:0:
425,124,236376,1,2,0:3:0:0:
431,135,236451,1,8,1:2:0:0:
434,148,236526,1,2,0:3:0:0:
432,161,236601,1,8,1:2:0:0:
426,173,236676,1,2,0:3:0:0:
409,188,236751,1,8,1:2:0:0:
377,195,236826,1,2,0:3:0:0:
336,184,236901,1,8,1:2:0:0:
313,139,236976,2,0,L|326:84,1,45.9999984558106,4|8,0:2|1:2,0:0:0:0:
423,20,237126,2,0,L|433:64,1,45.9999984558106,0|8,0:0|1:2,0:0:0:0:
488,290,237276,6,0,L|418:316,2,61.3333312744141,8|8|8,0:3|0:3|0:3,0:3:0:0:
353,368,237576,2,0,L|283:342,2,48.000001171875,8|8|8,0:3|0:3|0:3,0:3:0:0:
214,259,237876,5,4,0:2:0:0:
193,245,237976,1,0,0:0:0:0:
162,249,238076,1,0,0:0:0:0:
133,272,238176,1,4,0:2:0:0:
120,313,238276,1,0,0:0:0:0:
104,353,238376,1,0,0:0:0:0:
58,372,238476,1,4,0:2:0:0:
6,351,238576,1,0,0:0:0:0:
1,289,238676,1,0,0:0:0:0:
51,244,238776,5,4,0:2:0:0:
92,304,238876,1,0,0:0:0:0:
159,306,238976,1,0,0:0:0:0:
207,268,239076,1,4,0:2:0:0:
220,214,239176,1,0,0:0:0:0:
203,167,239276,1,0,0:0:0:0:
168,142,239376,1,4,0:2:0:0:
157,106,239476,2,0,B|179:80|179:80|221:71,1,61.3333312744141
389,25,239676,5,4,0:2:0:0:
412,32,239776,1,0,0:0:0:0:
424,60,239876,1,0,0:0:0:0:
422,96,239976,1,4,0:2:0:0:
390,124,240076,1,0,0:0:0:0:
341,130,240176,1,0,0:0:0:0:
294,99,240276,1,4,0:2:0:0:
239,71,240376,1,0,0:0:0:0:
173,88,240476,1,0,0:0:0:0:
138,152,240576,5,12,0:2:0:0:
219,123,240676,1,0,0:0:0:0:
294,148,240776,1,0,0:0:0:0:
316,218,240876,1,4,0:2:0:0:
286,278,240976,1,0,0:0:0:0:
229,300,241076,1,0,0:0:0:0:
175,287,241176,1,4,0:2:0:0:
133,260,241276,1,0,0:0:0:0:
90,265,241376,1,0,0:0:0:0:
46,306,241476,5,4,0:2:0:0:
54,319,241576,1,0,0:0:0:0:
67,327,241676,1,0,0:0:0:0:
81,331,241776,1,4,0:2:0:0:
105,331,241876,1,0,0:0:0:0:
126,319,241976,1,0,0:0:0:0:
138,298,242076,1,4,0:2:0:0:
142,265,242176,1,0,0:0:0:0:
122,228,242276,1,0,0:0:0:0:
77,207,242376,5,12,0:2:0:0:
67,194,242476,1,0,0:0:0:0:
64,177,242576,1,0,0:0:0:0:
71,162,242676,1,4,0:2:0:0:
91,149,242776,1,0,0:0:0:0:
113,141,242876,1,0,0:0:0:0:
137,143,242976,1,4,0:2:0:0:
165,157,243076,1,0,0:0:0:0:
195,183,243176,1,0,0:0:0:0:
242,190,243276,6,0,L|262:104,1,45.9999984558106,8|0,0:2|0:0,0:0:0:0:
229,55,243426,5,0,0:0:0:0:
242,52,243501,1,0,0:0:0:0:
255,49,243576,1,0,0:0:0:0:
268,46,243651,1,0,0:0:0:0:
281,43,243726,6,0,L|302:110,1,45.9999984558106,8|0,0:2|0:0,0:0:0:0:
414,92,243876,5,0,0:0:0:0:
420,85,243951,1,0,0:0:0:0:
424,77,244026,1,0,0:0:0:0:
427,68,244101,1,0,0:0:0:0:
425,56,244176,6,0,P|410:82|403:109,3,37.5000014305115,8|8|8|8,0:3|0:3|0:3|0:3,0:0:0:0:
461,153,244476,2,0,P|474:176|480:200,3,32.4999985122681,8|8|8|8,0:3|0:3|0:3|0:3,0:0:0:0:
415,233,244776,2,0,P|403:252|398:272,3,27.5000008392334,8|8|8|8,0:1|0:1|0:1|0:1,0:0:0:0:
491,343,245076,6,0,B|437:378|395:356|395:356|390:361|390:361|391:355|391:355|334:313|270:347,1,239.999992675781,12|0,0:2|0:0,0:0:0:0:
251,374,245451,1,0,0:0:0:0:
255,362,245526,1,0,0:0:0:0:
256,350,245601,1,0,0:0:0:0:
255,338,245676,1,4,0:2:0:0:
160,235,245826,1,0,0:0:0:0:
250,325,245976,5,12,0:2:0:0:
248,277,246276,6,0,P|279:288|305:313,1,59.9999981689454,8|8,0:3|0:3,0:0:0:0:
391,212,246426,2,0,P|359:223|334:248,1,59.9999981689454
430,297,246576,5,8,0:2:0:0:
470,286,246651,1,8,0:2:0:0:
495,252,246726,1,8,0:2:0:0:
500,210,246801,1,8,0:2:0:0:
482,171,246876,5,0,0:0:0:0:
267,189,247026,1,0,0:0:0:0:
274,195,248676,5,12,0:2:0:0:
274,200,248751,1,0,0:0:0:0:
274,205,248826,1,0,0:0:0:0:
274,210,248901,1,0,0:0:0:0:
274,215,248976,6,0,B|269:193|261:168|264:141|264:141|287:98|287:98|290:66|285:28|285:28,1,179.999994506836
419,93,249276,2,0,P|372:121|302:106,1,120
269,35,249576,1,4,0:2:0:0:
278,209,249726,1,0,0:0:0:0:
152,147,249876,6,0,B|153:195|153:195|171:222|171:222|167:278,1,120
118,353,250176,2,0,L|129:250,1,89.9999972534181
94,237,250476,1,0,0:0:0:0:
82,236,250551,1,0,0:0:0:0:
65,242,250626,1,0,0:0:0:0:
51,261,250701,1,0,0:0:0:0:
46,284,250776,1,0,0:0:0:0:
58,311,250851,1,0,0:0:0:0:
91,325,250926,5,8,0:2:0:0:
137,312,251001,1,8,0:2:0:0:
165,273,251076,1,8,0:2:0:0:
169,225,251151,1,8,0:2:0:0:
139,187,251226,5,0,0:0:0:0:
136,192,251301,1,0,0:0:0:0:
133,197,251376,5,8,0:2:0:0:
85,187,251451,1,8,0:2:0:0:
56,148,251526,1,8,0:2:0:0:
58,100,251601,1,8,0:2:0:0:
87,62,251676,2,0,P|105:88|109:131,3,59.9999981689454,8|8|0|0,0:3|0:3|0:0|0:0,0:0:0:0:
195,133,251976,5,8,0:2:0:0:
240,148,252051,1,8,0:2:0:0:
287,139,252126,1,8,0:2:0:0:
324,108,252201,1,8,0:2:0:0:
338,62,252276,6,0,P|292:62|244:160,1,157.499995193482,4|0,0:2|0:0,0:0:0:0:
309,181,252876,2,0,P|318:155|316:135,1,37.5,0|0,2:0|0:0,0:0:0:0:
242,227,253176,2,0,P|262:246|385:217,1,157.499995193482,0|0,2:0|0:0,0:0:0:0:
411,157,253776,1,0,2:0:0:0:
336,76,254076,5,12,0:2:0:0:
336,78,254151,1,0,0:0:0:0:
336,79,254226,1,0,0:0:0:0:
336,80,254301,1,0,0:0:0:0:
336,81,254376,1,0,0:0:0:0:
336,83,254451,1,0,0:0:0:0:
336,84,254526,1,0,0:0:0:0:
336,85,254601,1,0,0:0:0:0:
336,86,254676,1,0,0:0:0:0:
336,88,254751,1,0,0:0:0:0:
336,89,254826,1,0,0:0:0:0:
336,90,254901,1,0,0:0:0:0:
336,91,254976,1,0,0:0:0:0:
336,93,255051,1,0,0:0:0:0:
336,94,255126,1,0,0:0:0:0:
336,95,255201,1,0,0:0:0:0:
336,96,255276,1,0,0:0:0:0:
336,98,255351,1,0,0:0:0:0:
336,99,255426,1,0,0:0:0:0:
336,100,255501,1,0,0:0:0:0:
336,101,255576,1,0,0:0:0:0:
336,103,255651,1,0,0:0:0:0:
336,104,255726,1,0,0:0:0:0:
336,105,255801,1,0,0:0:0:0:
336,106,255876,1,12,0:2:0:0:
336,106,256776,6,0,B|367:94|367:94|494:124,1,157.499995193482,0|0,2:0|0:0,0:0:0:0:
459,220,257676,1,12,0:2:0:0:
458,215,257751,1,0,0:0:0:0:
457,210,257826,1,0,0:0:0:0:
456,205,257901,1,0,0:0:0:0:
455,200,257976,5,0,0:0:0:0:
475,299,258276,1,0,0:0:0:0:
356,241,258576,6,0,L|297:259,1,44.999998626709
241,278,258876,1,0,0:0:0:0:
173,191,259176,1,0,0:0:0:0:
342,49,259476,5,4,0:2:0:0:
329,123,259626,2,0,B|279:107|234:134|234:134|229:130|229:130|271:95|265:39,1,202.499993820191
188,59,260376,2,0,B|151:60|126:88|126:88|95:38|35:27,1,179.999994506836,4|0,2:2|0:0,0:0:0:0:
44,130,261276,5,12,0:2:0:0:
44,129,261351,1,0,0:0:0:0:
44,128,261426,1,0,0:0:0:0:
44,128,261501,1,0,0:0:0:0:
44,127,261576,1,0,0:0:0:0:
44,126,261651,1,0,0:0:0:0:
44,126,261726,1,0,0:0:0:0:
44,125,261801,1,0,0:0:0:0:
44,125,261876,1,0,0:0:0:0:
44,124,261951,1,0,0:0:0:0:
44,123,262026,1,0,0:0:0:0:
44,123,262101,1,0,0:0:0:0:
44,122,262176,1,4,0:2:0:0:
44,121,262251,1,0,0:0:0:0:
44,121,262326,1,0,0:0:0:0:
44,120,262401,1,0,0:0:0:0:
44,120,262476,1,0,0:0:0:0:
44,119,262551,1,0,0:0:0:0:
44,118,262626,1,0,0:0:0:0:
44,118,262701,1,0,0:0:0:0:
44,117,262776,1,0,0:0:0:0:
44,116,262851,1,0,0:0:0:0:
44,116,262926,1,0,0:0:0:0:
44,115,263001,1,0,0:0:0:0:
44,115,263076,1,4,0:2:0:0:
44,115,263976,6,0,B|50:132|31:167|31:167|56:200|56:200|43:225|35:273,1,157.499995193482,0|0,2:0|0:0,0:0:0:0:
108,321,264576,2,0,P|122:297|123:252,1,67.4999979400635
32,355,264876,5,12,0:2:0:0:
115,308,265176,1,0,0:0:0:0:
204,362,265476,1,0,0:0:0:0:
300,237,265776,6,0,P|271:245|208:285,1,100
219,358,266076,1,0,0:0:0:0:
397,342,266376,1,0,0:0:0:0:
416,103,266676,5,4,0:2:0:0:
403,179,266826,2,0,B|400:215|417:244|465:254|465:254|504:232|497:172|468:147,1,224.999993133545,0|4,0:0|2:2,0:0:0:0:
403,179,268176,1,0,0:0:0:0:
283,153,268476,5,12,0:2:0:0:
287,168,268551,1,0,0:0:0:0:
291,183,268626,1,0,0:0:0:0:
295,198,268701,1,0,0:0:0:0:
299,213,268776,1,0,0:0:0:0:
336,313,269076,1,0,0:0:0:0:
151,209,269376,6,0,B|145:229|145:229|152:268,1,44.999998626709,12|0,0:2|0:0,0:0:0:0:
205,305,269676,1,0,0:0:0:0:
257,190,269976,1,0,0:0:0:0:
78,98,270276,6,0,B|49:102|49:102|28:121,1,44.999998626709,4|0,0:2|0:2,0:2:0:0:
58,189,270576,1,0,0:0:0:0:
93,24,270876,1,0,0:0:0:0:
210,104,271176,5,2,0:3:0:0:
210,99,271251,1,0,0:0:0:0:
210,94,271326,1,0,0:0:0:0:
210,89,271401,1,0,0:0:0:0:
269,123,271476,5,2,0:3:0:0:
271,118,271551,1,0,0:0:0:0:
274,114,271626,1,0,0:0:0:0:
277,110,271701,1,0,0:0:0:0:
308,171,271776,5,2,0:3:0:0:
312,167,271851,1,0,0:0:0:0:
317,166,271926,1,0,0:0:0:0:
321,164,272001,1,0,0:0:0:0:
348,236,272076,5,10,0:2:0:0:
339,233,272151,1,0,0:0:0:0:
330,230,272226,1,2,0:2:0:0:
321,227,272301,1,0,0:0:0:0:
281,274,272376,5,2,0:3:0:0:
275,266,272451,1,0,0:0:0:0:
269,258,272526,1,0,0:0:0:0:
263,250,272601,1,0,0:0:0:0:
202,247,272676,5,2,0:3:0:0:
205,238,272751,1,0,0:0:0:0:
208,229,272826,1,0,0:0:0:0:
211,220,272901,1,0,0:0:0:0:
163,201,272976,5,10,0:2:0:0:
178,255,273051,1,8,0:2:0:0:
193,308,273126,2,0,L|201:333,1,22.4999993133545
15,290,273276,5,8,0:3:0:0:
22,263,273351,1,8,0:3:0:0:
30,236,273426,2,0,L|39:205,1,22.4999993133545
194,212,273576,5,8,0:3:0:0:
190,225,273651,1,8,0:3:0:0:
186,238,273726,2,0,L|174:273,1,22.4999993133545
101,333,273876,5,4,0:2:0:0:
83,307,286476,6,0,B|120:355|190:304|190:304|198:308|198:308|278:257|378:316,1,300.000011444092,0|0,2:0|0:0,0:0:0:0:
438,355,287376,2,0,B|356:377|303:352|303:352|291:362|291:362|303:300|251:283|274:232|274:232|289:242|289:242|358:187|319:40|319:40|256:51|245:137,1,625,0|0,2:0|0:0,0:0:0:0:
461,262,288276,5,12,0:2:0:0:
470,246,288351,1,0,0:0:0:0:
472,229,288426,1,0,0:0:0:0:
472,212,288501,1,0,0:0:0:0:
466,194,288576,1,0,0:0:0:0:
456,178,288651,1,0,0:0:0:0:
440,168,288726,1,0,0:0:0:0:
421,164,288801,1,0,0:0:0:0:
405,157,288876,1,4,0:2:0:0:
392,143,288951,1,0,0:0:0:0:
385,127,289026,1,0,0:0:0:0:
380,110,289101,1,0,0:0:0:0:
403,54,289176,5,12,0:2:0:0:
432,76,289251,1,0,0:0:0:0:
435,113,289326,1,0,0:0:0:0:
417,146,289401,1,0,0:0:0:0:
382,161,289476,1,4,0:2:0:0:
345,154,289551,1,0,0:0:0:0:
307,159,289626,1,0,0:0:0:0:
275,178,289701,1,0,0:0:0:0:
255,210,289776,1,4,0:2:0:0:
250,247,289851,1,0,0:0:0:0:
258,283,289926,1,0,0:0:0:0:
283,310,290001,1,0,0:0:0:0:
310,328,290076,5,0,0:0:0:0:
371,316,290151,1,0,0:0:0:0:
407,265,290226,1,0,0:0:0:0:
405,202,290301,1,0,0:0:0:0:
367,152,290376,1,0,0:0:0:0:
306,136,290451,1,0,0:0:0:0:
250,163,290526,1,0,0:0:0:0:
217,216,290601,1,0,0:0:0:0:
162,246,290676,1,4,0:2:0:0:
99,251,290751,1,0,0:0:0:0:
46,217,290826,1,0,0:0:0:0:
27,157,290901,1,0,0:0:0:0:
41,96,290976,5,12,0:2:0:0:
97,98,291051,1,0,0:0:0:0:
134,139,291126,1,0,0:0:0:0:
140,194,291201,1,0,0:0:0:0:
115,244,291276,1,4,0:2:0:0:
122,299,291351,1,0,0:0:0:0:
167,332,291426,1,0,0:0:0:0:
223,333,291501,1,0,0:0:0:0:
257,288,291576,1,4,0:2:0:0:
257,231,291651,1,0,0:0:0:0:
296,190,291726,1,0,0:0:0:0:
352,189,291801,1,0,0:0:0:0:
394,226,291876,5,0,0:0:0:0:
395,288,291951,1,0,0:0:0:0:
346,327,292026,1,0,0:0:0:0:
283,319,292101,1,0,0:0:0:0:
250,265,292176,1,0,0:0:0:0:
261,203,292251,1,0,0:0:0:0:
314,171,292326,1,0,0:0:0:0:
338,113,292401,1,0,0:0:0:0:
332,50,292476,1,0,0:0:0:0:
285,8,292551,1,0,0:0:0:0:
222,1,292626,1,0,0:0:0:0:
166,28,292701,1,0,0:0:0:0:
144,86,292776,5,12,0:2:0:0:
192,125,292851,1,0,0:0:0:0:
254,122,292926,1,0,0:0:0:0:
308,91,293001,1,0,0:0:0:0:
338,36,293076,1,2,0:3:0:0:
398,19,293151,1,0,0:0:0:0:
456,42,293226,1,2,0:3:0:0:
484,97,293301,1,0,0:0:0:0:
468,157,293376,1,4,0:2:0:0:
416,192,293451,1,0,0:0:0:0:
354,179,293526,1,0,0:0:0:0:
294,197,293601,1,0,0:0:0:0:
260,250,293676,5,4,0:2:0:0:
248,311,293751,1,0,0:0:0:0:
189,333,293826,1,0,0:0:0:0:
131,309,293901,1,0,0:0:0:0:
110,249,293976,1,4,0:2:0:0:
131,190,294051,1,0,0:0:0:0:
183,155,294126,1,0,0:0:0:0:
245,151,294201,1,0,0:0:0:0:
293,190,294276,1,4,0:2:0:0:
314,248,294351,1,0,0:0:0:0:
357,293,294426,1,0,0:0:0:0:
417,309,294501,1,0,0:0:0:0:
478,298,294576,6,0,P|502:271|511:235,3,62.5,8|8|0|0,0:3|0:3|0:0|0:0,0:0:0:0:
411,156,294876,1,8,0:2:0:0:
411,162,294951,1,8,0:2:0:0:
411,168,295026,2,0,L|414:238,1,62.5
332,72,295176,2,0,P|307:98|299:135,3,62.5,8|8|0|0,0:3|0:3|0:0|0:0,0:0:0:0:
491,63,295476,5,4,0:2:0:0:
474,51,295551,1,0,0:0:0:0:
456,49,295626,1,0,0:0:0:0:
436,53,295701,1,0,0:0:0:0:
419,62,295776,1,0,0:0:0:0:
407,76,295851,1,0,0:0:0:0:
402,95,295926,1,0,0:0:0:0:
404,113,296001,1,0,0:0:0:0:
400,131,296076,1,4,0:2:0:0:
389,147,296151,1,0,0:0:0:0:
374,159,296226,1,0,0:0:0:0:
355,165,296301,1,0,0:0:0:0:
311,123,296376,5,12,0:2:0:0:
306,98,296451,1,0,0:0:0:0:
290,78,296526,1,0,0:0:0:0:
267,67,296601,1,0,0:0:0:0:
242,66,296676,5,0,0:0:0:0:
223,90,296751,1,0,0:0:0:0:
193,101,296826,1,0,0:0:0:0:
161,100,296901,1,0,0:0:0:0:
134,83,296976,5,2,0:3:0:0:
96,77,297051,1,0,0:0:0:0:
62,92,297126,1,0,0:0:0:0:
42,124,297201,1,0,0:0:0:0:
46,161,297276,5,4,0:2:0:0:
106,143,297351,1,0,0:0:0:0:
158,176,297426,1,0,0:0:0:0:
174,236,297501,1,0,0:0:0:0:
155,295,297576,1,0,0:0:0:0:
182,351,297651,1,0,0:0:0:0:
240,373,297726,1,0,0:0:0:0:
300,356,297801,1,0,0:0:0:0:
328,300,297876,1,4,0:2:0:0:
322,237,297951,1,0,0:0:0:0:
277,192,298026,1,0,0:0:0:0:
266,130,298101,1,0,0:0:0:0:
290,72,298176,5,12,0:2:0:0:
328,113,298251,1,0,0:0:0:0:
382,128,298326,1,0,0:0:0:0:
437,122,298401,1,0,0:0:0:0:
482,88,298476,1,0,0:0:0:0:
485,31,298551,1,0,0:0:0:0:
435,3,298626,1,0,0:0:0:0:
385,30,298701,1,0,0:0:0:0:
386,86,298776,1,4,0:2:0:0:
432,117,298851,1,0,0:0:0:0:
467,160,298926,1,0,0:0:0:0:
474,215,299001,1,0,0:0:0:0:
447,264,299076,5,4,0:2:0:0:
388,286,299151,1,0,0:0:0:0:
334,252,299226,1,0,0:0:0:0:
316,192,299301,1,0,0:0:0:0:
338,133,299376,1,4,0:2:0:0:
334,70,299451,1,0,0:0:0:0:
285,30,299526,1,0,0:0:0:0:
222,31,299601,1,0,0:0:0:0:
177,74,299676,1,4,0:2:0:0:
169,136,299751,1,0,0:0:0:0:
197,191,299826,1,0,0:0:0:0:
255,212,299901,1,0,0:0:0:0:
312,188,299976,5,12,0:2:0:0:
284,131,300051,1,0,0:0:0:0:
224,112,300126,1,0,0:0:0:0:
166,136,300201,1,0,0:0:0:0:
137,191,300276,1,4,0:2:0:0:
80,217,300351,1,0,0:0:0:0:
21,195,300426,1,0,0:0:0:0:
0,136,300501,1,0,0:0:0:0:
16,75,300576,1,4,0:2:0:0:
71,46,300651,1,0,0:0:0:0:
131,62,300726,1,0,0:0:0:0:
159,117,300801,1,0,0:0:0:0:
183,174,300876,5,4,0:2:0:0:
236,206,300951,1,0,0:0:0:0:
296,191,301026,1,0,0:0:0:0:
337,144,301101,1,0,0:0:0:0:
396,126,301176,1,4,0:2:0:0:
453,150,301251,1,0,0:0:0:0:
479,206,301326,1,0,0:0:0:0:
467,267,301401,1,0,0:0:0:0:
420,309,301476,1,4,0:2:0:0:
357,312,301551,1,0,0:0:0:0:
307,274,301626,1,0,0:0:0:0:
294,212,301701,1,0,0:0:0:0:
316,153,301776,5,0,0:0:0:0:
259,384,301926,1,0,0:0:0:0:
173,163,302076,5,8,0:2:0:0:
137,221,302151,1,8,0:2:0:0:
69,225,302226,1,0,0:0:0:0:
20,178,302301,1,0,0:0:0:0:
10,109,302376,5,8,0:3:0:0:
17,91,302451,1,8,0:3:0:0:
31,77,302526,1,8,0:3:0:0:
48,70,302601,1,8,0:3:0:0:
66,64,302676,5,4,0:2:0:0:
79,140,302751,1,8,1:2:0:0:
141,186,302826,1,0,0:0:0:0:
218,184,302901,1,8,1:2:0:0:
275,131,302976,1,0,0:0:0:0:
350,113,303051,1,8,1:2:0:0:
424,136,303126,1,0,0:0:0:0:
468,200,303201,1,8,1:2:0:0:
468,278,303276,1,0,0:0:0:0:
416,336,303351,1,8,1:2:0:0:
342,362,303426,1,0,0:0:0:0:
265,347,303501,1,8,1:2:0:0:
209,292,303576,5,4,0:2:0:0:
257,256,303651,1,8,1:2:0:0:
268,203,303726,1,0,0:0:0:0:
243,161,303801,1,8,1:2:0:0:
204,143,303876,1,0,0:0:0:0:
177,118,303951,1,8,1:2:0:0:
165,90,304026,1,0,0:0:0:0:
166,66,304101,1,8,1:2:0:0:
177,51,304176,1,4,0:2:0:0:
191,43,304251,1,8,1:2:0:0:
205,43,304326,1,0,0:0:0:0:
215,49,304401,1,8,1:2:0:0:
219,58,304476,5,4,0:2:0:0:
220,111,304551,1,8,1:2:0:0:
194,158,304626,1,0,0:0:0:0:
141,170,304701,1,8,1:2:0:0:
91,147,304776,1,0,0:0:0:0:
38,158,304851,1,8,1:2:0:0:
2,198,304926,1,0,0:0:0:0:
3,251,305001,1,8,1:2:0:0:
38,291,305076,1,0,0:0:0:0:
85,293,305151,1,8,1:2:0:0:
121,272,305226,1,0,0:0:0:0:
129,237,305301,1,8,1:2:0:0:
115,210,305376,5,4,0:2:0:0:
81,259,305451,1,8,1:2:0:0:
93,317,305526,1,0,0:0:0:0:
144,348,305601,1,8,1:2:0:0:
203,340,305676,1,0,0:0:0:0:
250,302,305751,1,8,1:2:0:0:
309,293,305826,2,0,P|340:309|357:335,1,59.9999981689454,0|8,0:0|1:2,0:0:0:0:
227,188,305976,5,4,0:2:0:0:
209,148,306051,1,8,1:2:0:0:
221,118,306126,2,0,P|242:95|272:80,1,59.9999981689454,0|8,0:0|1:2,0:0:0:0:
457,13,306276,5,4,0:2:0:0:
457,16,306351,1,0,0:0:0:0:
458,18,306426,1,0,0:0:0:0:
458,21,306501,1,0,0:0:0:0:
458,23,306576,1,4,0:2:0:0:
459,26,306651,1,0,0:0:0:0:
459,28,306726,1,0,0:0:0:0:
459,30,306801,1,0,0:0:0:0:
460,33,306876,1,4,0:2:0:0:
460,35,306951,1,0,0:0:0:0:
460,38,307026,1,0,0:0:0:0:
461,40,307101,1,0,0:0:0:0:
482,60,307176,5,12,0:2:0:0:
482,63,307251,1,0,0:0:0:0:
481,65,307326,1,0,0:0:0:0:
481,68,307401,1,0,0:0:0:0:
481,70,307476,1,4,0:2:0:0:
480,73,307551,1,0,0:0:0:0:
480,75,307626,1,0,0:0:0:0:
480,77,307701,1,0,0:0:0:0:
479,80,307776,1,4,0:2:0:0:
479,82,307851,1,0,0:0:0:0:
479,85,307926,1,0,0:0:0:0:
478,87,308001,1,0,0:0:0:0:
477,89,308076,5,4,0:2:0:0:
474,92,308151,1,0,0:0:0:0:
468,95,308226,1,0,0:0:0:0:
460,97,308301,1,0,0:0:0:0:
450,98,308376,1,4,0:2:0:0:
438,96,308451,1,0,0:0:0:0:
426,89,308526,1,0,0:0:0:0:
414,79,308601,1,0,0:0:0:0:
400,68,308676,1,4,0:2:0:0:
382,60,308751,1,0,0:0:0:0:
360,58,308826,1,0,0:0:0:0:
337,64,308901,1,0,0:0:0:0:
318,81,308976,5,8,0:2:0:0:
339,127,309051,1,8,0:2:0:0:
322,175,309126,1,8,0:2:0:0:
276,196,309201,1,8,0:2:0:0:
226,192,309276,5,0,0:0:0:0:
220,184,309351,1,0,0:0:0:0:
219,175,309426,5,8,0:2:0:0:
186,137,309501,1,8,0:2:0:0:
136,131,309576,1,8,0:2:0:0:
93,157,309651,1,8,0:2:0:0:
71,203,309726,6,0,B|94:199|94:199|97:196|97:196|128:191,1,50
263,122,309876,5,4,0:2:0:0:
314,102,309951,1,8,1:2:0:0:
367,114,310026,1,0,0:0:0:0:
403,155,310101,1,8,1:2:0:0:
407,209,310176,1,0,0:0:0:0:
378,255,310251,1,8,1:2:0:0:
326,273,310326,1,0,0:0:0:0:
272,260,310401,1,8,1:2:0:0:
227,228,310476,1,0,0:0:0:0:
178,238,310551,1,8,1:2:0:0:
151,274,310626,1,0,0:0:0:0:
153,313,310701,1,8,1:2:0:0:
178,337,310776,5,0,0:0:0:0:
195,319,310851,1,8,1:2:0:0:
202,295,310926,1,0,0:0:0:0:
198,270,311001,1,8,1:2:0:0:
182,250,311076,2,0,P|155:241|130:239,3,50,0|8|0|8,0:0|1:2|0:0|1:2,0:0:0:0:
21,181,311376,2,0,P|48:172|73:170,3,50,0|8|0|8,0:0|1:2|0:0|1:2,0:0:0:0:
272,357,311676,5,0,0:0:0:0:
294,306,311751,1,8,1:2:0:0:
342,280,311826,1,0,0:0:0:0:
396,289,311901,1,8,1:2:0:0:
450,289,311976,1,0,0:0:0:0:
490,251,312051,1,8,1:2:0:0:
492,196,312126,1,0,0:0:0:0:
462,149,312201,1,8,1:2:0:0:
409,134,312276,1,0,0:0:0:0:
377,102,312351,1,8,1:2:0:0:
373,67,312426,1,0,0:0:0:0:
386,45,312501,1,8,1:2:0:0:
400,41,312576,5,4,0:2:0:0:
418,100,312651,1,8,1:2:0:0:
392,157,312726,1,0,0:0:0:0:
333,177,312801,1,8,1:2:0:0:
273,159,312876,1,0,0:0:0:0:
236,108,312951,1,8,1:2:0:0:
183,73,313026,1,0,0:0:0:0:
121,61,313101,1,8,1:2:0:0:
62,82,313176,1,4,0:2:0:0:
39,129,313251,1,8,1:2:0:0:
45,171,313326,1,0,0:0:0:0:
71,189,313401,1,8,1:2:0:0:
93,186,313476,5,8,0:2:0:0:
146,133,313551,1,8,0:2:0:0:
220,125,313626,1,8,0:2:0:0:
271,179,313701,1,8,0:2:0:0:
267,253,313776,1,0,0:0:0:0:
236,278,313851,1,0,0:0:0:0:
232,312,313926,1,0,0:0:0:0:
249,336,314001,1,0,0:0:0:0:
273,341,314076,1,0,0:0:0:0:
270,331,314151,1,0,0:0:0:0:
260,327,314226,1,0,0:0:0:0:
250,325,314301,1,0,0:0:0:0:
240,325,314376,6,0,B|212:344|212:344|133:313,1,100,4|8,0:2|0:3,0:0:0:0:
117,211,314601,1,8,0:3:0:0:
104,216,314676,2,0,P|90:237|82:266,1,50
19,377,314826,2,0,P|42:351|75:338,1,50,8|8,0:3|0:3,0:0:0:0:
197,198,314976,6,0,B|206:148|206:148|204:140|204:140|216:72,1,100,4|0,0:2|0:0,0:0:0:0:
285,33,315201,1,0,0:0:0:0:
286,37,315276,1,0,0:0:0:0:
287,41,315351,1,0,0:0:0:0:
288,45,315426,1,0,0:0:0:0:
289,49,315501,1,0,0:0:0:0:
290,53,315576,5,8,0:2:0:0:
352,36,315651,1,8,0:2:0:0:
410,63,315726,1,8,0:2:0:0:
435,122,315801,1,8,0:2:0:0:
413,183,315876,2,0,P|398:154|394:128,3,50
496,368,316176,5,8,0:2:0:0:
427,352,316251,1,8,0:2:0:0:
358,336,316326,5,8,0:2:0:0:
347,342,316401,1,0,0:0:0:0:
335,348,316476,1,0,0:0:0:0:
324,355,316551,1,0,0:0:0:0:
313,364,316626,2,0,P|281:360|266:342,1,50,8|8,0:3|0:3,0:0:0:0:
299,109,316776,5,8,0:3:0:0:
340,104,316851,1,8,0:3:0:0:
388,137,316926,1,8,0:3:0:0:
396,208,317001,1,8,0:3:0:0:
334,260,317076,6,0,B|302:276|275:250|275:250|280:242|280:242|272:247|272:247|247:218|200:222,1,150,4|0,0:2|0:0,0:0:0:0:
81,153,317376,6,0,B|121:150|141:114|137:96|123:65|133:44|133:44|138:37|138:37|133:44|133:44|117:55|82:62|64:78|50:98|44:121|53:148|53:148|46:164|34:175|34:175|21:181|21:181|21:188|21:188|1:225|36:272|36:272|36:283|36:283|46:282|46:282|74:307|115:304|146:276|146:276|122:266|107:248|105:214,1,640
429,105,318876,6,0,B|453:93|476:94|497:102|497:102|506:107|506:107|497:102|497:102|484:77|455:66|429:65|409:72|384:101|384:101|375:98|375:98|382:105|382:105|350:129|324:138|296:137|269:104|269:104|263:104|263:104|266:102|266:102|251:71|261:41|273:21|294:18|294:18|306:11|306:11|294:18|294:18|279:41|283:73|295:86,1,582.000013764954,8|4,0:2|2:2,0:0:0:0:
465,170,320076,5,0,0:0:0:0:
460,188,320151,1,0,0:0:0:0:
455,206,320226,1,0,0:0:0:0:
450,224,320301,1,0,0:0:0:0:
435,235,320376,5,0,0:0:0:0:
438,248,320451,1,0,0:0:0:0:
441,262,320526,1,0,0:0:0:0:
445,276,320601,1,0,0:0:0:0:
469,293,320676,6,0,B|494:317|479:353|479:353|483:360|483:360|473:359|473:359|459:379|411:376|385:328|385:328|358:322|358:322|341:282|299:273|267:290|238:320|238:320|246:321|246:321|264:356|291:366|319:353,1,432.000010546875,4|4,0:2|2:2,0:0:0:0:
292,260,322176,2,0,P|342:263|360:287,1,72.0000017578125,8|0,2:2|0:0,0:0:0:0:
99,160,322476,5,8,0:2:0:0:
126,299,322626,2,0,B|89:290|59:308|45:333|45:333|47:343|47:343|45:332|45:332|8:295|21:247|46:225|84:221|84:221|93:224|93:224|123:210|138:179|114:142,1,360.000008789063,0|4,0:0|2:2,0:0:0:0:
37,52,323676,5,8,0:1:0:0:
104,75,323826,1,8,0:1:0:0:
246,35,323976,5,8,0:2:0:0:
285,34,324051,1,8,0:2:0:0:
320,51,324126,1,0,0:0:0:0:
337,86,324201,1,0,0:0:0:0:
336,125,324276,1,4,0:2:0:0:
250,179,324426,6,0,B|283:174|295:141|295:141|265:128|241:144|241:144|235:143|235:143|208:169|209:206|209:206|204:209|204:209|206:240|223:258|223:258|226:252|226:252|268:263|325:229,1,360.000008789063,0|4,0:0|2:2,0:0:0:0:
106,38,325776,5,0,0:0:0:0:
88,43,325851,1,0,0:0:0:0:
70,48,325926,1,0,0:0:0:0:
52,53,326001,1,0,0:0:0:0:
15,118,326076,6,0,B|34:158|34:158|65:168|65:168|85:215,1,108.000002636719,8|0,0:2|0:0,0:0:0:0:
86,282,326376,5,8,2:2:0:0:
79,298,326526,2,0,B|89:330|126:337|126:337|122:302|124:255|172:208,1,179.999994506836,0|4,0:0|2:2,0:0:0:0:
323,46,327276,5,0,0:0:0:0:
408,43,327426,1,0,0:0:0:0:
440,118,327576,1,0,0:0:0:0:
373,177,327726,1,0,0:0:0:0:
276,141,327876,5,4,0:2:0:0:
237,129,327951,1,0,0:0:0:0:
190,150,328026,1,0,0:0:0:0:
166,213,328101,1,0,0:0:0:0:
219,279,328176,6,0,B|266:296|279:345|279:345|184:287|57:292,1,300.000011444092,0|4,0:0|2:2,0:0:0:0:
443,213,329376,6,0,P|472:229|494:262,1,72.0000017578125,0|0,2:0|0:0,0:0:0:0:
267,33,329676,5,12,0:2:0:0:
429,70,329826,2,0,B|462:54|463:45|463:45|466:43|466:43|450:3|423:-1|423:-1|423:9|423:9|376:33|395:85|395:85|365:108|333:85|333:85|336:76|336:76|326:78|326:78|305:51|262:61,1,360.000008789063,0|4,0:0|2:2,0:0:0:0:
32,64,330876,5,8,0:1:0:0:
56,130,331026,1,8,0:1:0:0:
196,212,331176,5,8,0:2:0:0:
184,255,331251,1,8,0:2:0:0:
141,290,331326,1,0,0:0:0:0:
92,289,331401,1,0,0:0:0:0:
34,235,331476,5,4,0:2:0:0:
238,348,331626,2,0,B|248:317|288:312|288:312|325:311|325:311|281:257|201:271|201:271|197:276|197:276|121:304|121:304|116:300|116:300|61:318|24:278,1,425.000008106232,0|4,0:0|2:2,0:0:0:0:
450,132,332976,6,0,B|456:115|448:100|430:106|434:122|450:137,1,60
301,73,333276,6,0,B|257:21|311:-33|371:-30|431:-11|420:94|344:112|341:108|334:100|261:107|255:180|252:241|352:298|396:251|424:190|353:153,1,510.000009727478,12|4,0:2|2:2,0:0:0:0:
172,42,334476,5,0,0:0:0:0:
154,47,334551,1,0,0:0:0:0:
136,52,334626,1,0,0:0:0:0:
118,57,334701,1,0,0:0:0:0:
107,72,334776,5,0,0:0:0:0:
94,69,334851,1,0,0:0:0:0:
80,66,334926,1,0,0:0:0:0:
66,62,335001,1,0,0:0:0:0:
46,14,335076,5,4,0:2:0:0:
52,56,335151,1,0,0:0:0:0:
57,97,335226,1,0,0:0:0:0:
66,140,335301,1,0,0:0:0:0:
43,214,335376,6,0,B|124:207|176:283|176:283|154:185|190:114,1,320,0|4,0:0|2:2,0:0:0:0:
261,32,336576,6,0,L|250:112,1,72.0000017578125,8|0,2:2|0:0,0:0:0:0:
373,320,336876,5,12,0:2:0:0:
284,237,337026,6,0,B|284:215|271:195|271:195|319:209|326:264|308:314|266:325|266:325|237:281|210:282|210:282|227:297|231:317|220:333|231:346|266:336,1,360.000008789063,0|4,0:0|2:2,0:0:0:0:
102,158,338076,5,0,0:0:0:0:
104,171,338376,5,0,0:0:0:0:
107,186,338676,5,4,0:2:0:0:
146,87,338826,6,0,B|233:58|240:131|283:164|359:141|403:103|406:98|406:98|349:98|324:66|333:52,1,360.000008789063,0|4,0:0|2:2,0:0:0:0:
422,268,340176,5,0,0:0:0:0:
424,285,340251,1,0,0:0:0:0:
427,298,340326,1,0,0:0:0:0:
430,314,340401,1,0,0:0:0:0:
486,369,340476,6,0,P|509:318|514:286,1,72.0000017578125,4|0,0:2|2:0,0:0:0:0:
390,126,340776,5,8,2:2:0:0:
294,176,340926,6,0,B|365:181|365:181|417:100|417:100|493:111,1,216.000005273438,8|4,2:2|2:2,0:0:0:0:
217,350,341676,5,0,0:0:0:0:
125,359,341826,1,0,0:0:0:0:
81,291,341976,1,0,0:0:0:0:
131,224,342126,1,0,0:0:0:0:
142,125,342276,5,4,0:2:0:0:
128,97,342351,1,0,0:0:0:0:
83,77,342426,1,0,0:0:0:0:
31,104,342501,1,0,0:0:0:0:
42,182,342576,6,0,P|130:121|373:39,1,348.000002920532,0|4,0:0|2:2,0:0:0:0:
455,171,343776,6,0,P|419:148|379:133,1,72.0000017578125,8|0,2:2|0:0,0:0:0:0:
121,178,344076,5,12,0:2:0:0:
53,158,344226,6,0,B|51:130|27:110|27:110|52:124|82:119,1,108.000002636719
168,125,344526,2,0,B|193:137|222:126|222:126|197:141|187:169,1,108.000002636719,0|0,3:0|3:0,3:0:0:0:
116,248,344826,1,0,0:0:0:0:
413,125,344976,5,12,0:2:0:0:
467,229,345126,5,0,0:0:0:0:
465,220,345201,1,0,0:0:0:0:
463,210,345276,1,8,0:2:0:0:
224,318,345426,1,8,0:2:0:0:
403,372,345576,1,8,0:3:0:0:
372,279,345726,1,8,0:3:0:0:
256,192,345876,5,4,0:2:0:0:
256,192,345951,12,0,349476,2:0:0:0:
