osu file format v14

[General]
AudioFilename: audio.mp3
AudioLeadIn: 0
PreviewTime: -1
Countdown: 1
SampleSet: Normal
StackLeniency: 0.7
Mode: 0
LetterboxInBreaks: 0
WidescreenStoryboard: 0

[Editor]
DistanceSpacing: 1
BeatDivisor: 6
GridSize: 4
TimelineZoom: 1

[Metadata]
Title:Bullet for Prisoner
TitleUnicode:Bullet for Prisoner
Artist:Mentai Rocker
ArtistUnicode:明太Rocker
Creator:ReiSoul
Version:Insane
Source:
Tags:Japanese
BeatmapID:1621307
BeatmapSetID:771148

[Difficulty]
HPDrainRate:3
CircleSize:4
OverallDifficulty:7
ApproachRate:8
SliderMultiplier:2.50000000596046
SliderTickRate:1

[Events]
//Background and Video events
//Break Periods
2,20268,35445
//Storyboard Layer 0 (Background)
//Storyboard Layer 1 (Fail)
//Storyboard Layer 2 (Pass)
//Storyboard Layer 3 (Foreground)
//Storyboard Sound Samples

[TimingPoints]
429,540.540540540541,4,1,0,100,1,0

[HitObjects]
452,40,429,6,0,B|471:47|372:16|328:72,1,125.000000298023,0|0,0:3|0:0,0:0:0:0:
288,108,1239,1,0,0:0:0:0:
216,144,1780,2,0,P|140:136|60:176,1,166.666667064031
316,248,2591,2,0,L|208:316,1,125.000000298023
152,344,3401,1,0,0:0:0:0:
60,244,3672,1,0,0:0:0:0:
160,256,4122,2,0,P|224:228|268:144,1,166.666667064031
336,52,5203,5,0,0:0:0:0:
448,160,5474,1,0,0:0:0:0:
352,252,5744,1,0,0:0:0:0:
296,328,6104,6,0,P|208:328|116:252,1,208.333333830038
92,204,6825,1,0,0:0:0:0:
376,68,7456,1,0,0:0:0:0:
108,152,7996,1,0,0:0:0:0:
348,280,8537,1,0,0:0:0:0:
288,296,8807,2,0,P|196:300|88:256,1,208.333333830038
400,164,10429,5,0,0:0:0:0:
324,320,10879,1,0,0:0:0:0:
164,320,11329,1,0,0:0:0:0:
84,216,11600,1,0,0:0:0:0:
84,204,11690,1,0,0:0:0:0:
128,104,11870,1,0,0:0:0:0:
256,36,12140,2,0,L|256:168,1,125.000000298023
256,264,12681,5,0,0:0:0:0:
208,332,12951,1,0,0:0:0:0:
148,308,13041,2,0,P|80:260|60:148,1,166.666667064031
104,64,13762,1,0,0:0:0:0:
136,64,13852,1,0,0:0:0:0:
232,64,14032,1,0,0:0:0:0:
176,136,14302,2,0,L|236:252,1,125.000000298023
256,304,14843,5,0,0:0:0:0:
304,332,15113,1,0,0:0:0:0:
364,308,15203,2,0,P|432:260|452:148,1,166.666667064031
408,64,15924,1,0,0:0:0:0:
376,64,16014,1,0,0:0:0:0:
280,64,16194,1,0,0:0:0:0:
336,136,16464,2,0,L|276:252,1,125.000000298023
208,316,17095,5,0,0:0:0:0:
64,192,17275,1,0,0:0:0:0:
132,80,17546,1,0,0:0:0:0:
256,264,17816,1,0,0:0:0:0:
352,260,18086,2,0,P|305:180|159:258,1,291.666667362054
256,192,19257,12,0,20068,0:0:0:0:
256,192,36645,5,0,0:0:0:0:
108,52,36915,1,0,0:0:0:0:
92,140,37185,1,0,0:0:0:0:
88,232,37456,1,0,0:0:0:0:
120,304,37546,2,0,P|180:240|260:108,1,208.333333830038
296,56,38266,1,0,0:0:0:0:
432,76,38537,1,0,0:0:0:0:
404,52,39077,5,0,0:0:0:0:
420,140,39347,1,0,0:0:0:0:
424,232,39708,1,0,0:0:0:0:
392,304,39798,2,0,P|332:240|252:108,1,208.333333830038
216,56,40429,1,0,0:0:0:0:
80,76,40699,1,0,0:0:0:0:
176,232,40969,2,0,P|208:308|344:232,1,250.000000596046
92,232,41780,2,0,B|159:335|144:345|203:159|167:164|283:269|258:297|381:280,1,333.333334128061
416,244,42861,1,0,0:0:0:0:
348,196,43131,2,0,P|344:124|304:62,1,125.000000298023
260,36,43582,1,0,0:0:0:0:
100,104,43942,2,0,B|160:224|192:88|80:288|-12:132|172:296|80:320|300:220|312:292|204:72|124:144|360:72|344:28|368:264|280:292|436:280,1,583.333334724107
256,192,45654,5,0,0:0:0:0:
108,52,45924,1,0,0:0:0:0:
92,140,46194,1,0,0:0:0:0:
92,188,46284,1,0,0:0:0:0:
128,312,46645,2,0,P|184:340|272:268,1,166.666667064031
188,228,47275,1,0,0:0:0:0:
264,60,47816,5,0,0:0:0:0:
336,132,47996,1,0,0:0:0:0:
420,264,48356,1,0,0:0:0:0:
384,312,48447,2,0,P|328:340|240:268,1,166.666667064031
324,228,49077,1,0,0:0:0:0:
388,148,49257,1,0,0:0:0:0:
408,64,49618,2,0,B|320:28|336:8|284:116|308:116|160:104,1,250.000000596046
80,164,50519,2,0,B|96:284|184:336|72:384|256:184|184:136|344:300,1,416.666667660077
424,296,51600,5,0,0:0:0:0:
432,60,51960,1,0,0:0:0:0:
404,40,52050,1,0,0:0:0:0:
356,32,52140,1,0,0:0:0:0:
352,104,52501,2,0,P|352:180|324:220,1,125.000000298023
288,284,53041,2,0,P|232:348|160:276,1,208.333333830038
148,196,53582,1,0,0:0:0:0:
372,92,53762,1,0,0:0:0:0:
160,136,54392,5,0,0:0:0:0:
388,152,54573,2,0,P|380:224|336:252,1,125.000000298023
276,288,55023,1,0,0:0:0:0:
124,352,55474,5,0,0:0:0:0:
112,320,55564,1,0,0:0:0:0:
100,272,55654,2,0,P|92:192|116:124,1,125.000000298023
140,88,56014,1,0,0:0:0:0:
176,68,56104,1,0,0:0:0:0:
400,72,56465,5,0,0:0:0:0:
352,152,56645,2,0,P|280:172|232:224,1,125.000000298023
228,268,57095,1,0,0:0:0:0:
192,292,57185,2,0,L|80:148,1,166.666667064031
144,156,57816,1,0,0:0:0:0:
168,144,57906,1,0,0:0:0:0:
260,328,58176,1,0,0:0:0:0:
348,288,58447,1,0,0:0:0:0:
436,156,58717,6,0,B|368:122|376:68|365:260,1,166.666667064031
348,288,59257,2,0,P|252:324|44:136,1,416.666667660077
56,64,60338,1,0,0:0:0:0:
144,160,60609,2,0,B|240:88|340:128|340:16|332:216,1,291.666667362054
328,260,61419,1,0,0:0:0:0:
428,168,62320,5,0,0:0:0:0:
360,104,62861,5,0,0:0:0:0:
332,88,62951,1,0,0:0:0:0:
292,80,63041,1,0,0:0:0:0:
244,80,63131,1,0,0:0:0:0:
204,88,63221,1,0,0:0:0:0:
168,108,63311,1,0,0:0:0:0:
144,136,63401,1,0,0:0:0:0:
64,248,63672,5,0,0:0:0:0:
144,336,63852,1,0,0:0:0:0:
432,108,64483,5,0,0:0:0:0:
428,148,64573,1,0,0:0:0:0:
420,188,64663,1,0,0:0:0:0:
400,220,64753,1,0,0:0:0:0:
372,260,64843,1,0,0:0:0:0:
280,344,65023,1,0,0:0:0:0:
80,232,65564,5,0,0:0:0:0:
96,160,66104,2,0,B|212:76|152:24|284:168,1,250.000000596046
392,232,67185,2,0,B|276:316|336:368|204:224,1,250.000000596046
128,80,67996,1,0,0:0:0:0:
400,112,68537,5,0,0:0:0:0:
140,244,68807,1,0,0:0:0:0:
352,264,69167,2,0,B|324:352|436:348|160:340,1,250.000000596046
100,340,69978,1,0,0:0:0:0:
140,164,70248,5,0,0:0:0:0:
176,104,70429,2,0,B|256:28|152:0|340:172,1,250.000000596046
372,244,71510,1,0,0:0:0:0:
316,248,72410,6,0,L|208:316,1,125.000000298023
152,344,73220,1,0,0:0:0:0:
340,228,73491,1,0,0:0:0:0:
88,76,73942,1,0,0:0:0:0:
160,140,74212,2,0,B|292:84|220:80|332:88|416:-16|392:-12|392:148,1,333.333334128061
376,264,75113,5,0,0:0:0:0:
300,332,75383,1,0,0:0:0:0:
196,352,75564,1,0,0:0:0:0:
108,320,75834,2,0,B|76:175|45:248|141:78,1,250.000000596046
328,48,76645,1,0,0:0:0:0:
440,228,77185,1,0,0:0:0:0:
36,48,77726,1,0,0:0:0:0:
168,276,78266,1,0,0:0:0:0:
264,60,78447,1,0,0:0:0:0:
372,220,78987,5,0,0:0:0:0:
336,280,79168,2,0,B|256:356|360:384|172:212,1,250.000000596046
140,140,80249,1,0,0:0:0:0:
196,136,81149,6,0,L|304:68,1,125.000000298023
360,40,81959,1,0,0:0:0:0:
172,156,82230,1,0,0:0:0:0:
424,308,82681,1,0,0:0:0:0:
352,244,82951,2,0,B|220:300|292:304|180:296|96:400|120:396|120:236,1,333.333334128061
120,192,83852,5,0,0:0:0:0:
148,96,84122,1,0,0:0:0:0:
196,84,84302,2,0,P|256:68|356:84,1,125.000000298023
384,136,84933,1,0,0:0:0:0:
336,148,85113,2,0,P|276:164|176:148,1,125.000000298023
84,220,85924,5,0,0:0:0:0:
296,312,86104,1,0,0:0:0:0:
396,232,86465,1,0,0:0:0:0:
336,204,86555,1,0,0:0:0:0:
276,176,86645,1,0,0:0:0:0:
216,148,86735,1,0,0:0:0:0:
156,120,86825,1,0,0:0:0:0:
108,332,87095,6,0,B|224:320|156:388|248:376|232:188,1,250.000000596046
216,140,87816,1,0,0:0:0:0:
252,80,87997,2,0,B|332:4|228:-24|416:148,1,250.000000596046
448,220,89078,1,0,0:0:0:0:
392,224,89888,6,0,L|284:292,1,125.000000298023
228,320,90519,1,0,0:0:0:0:
416,204,90699,1,0,0:0:0:0:
164,52,91510,1,0,0:0:0:0:
236,116,91780,2,0,B|368:60|296:56|408:64|492:-40|468:-36|468:124,1,333.333334128061
456,172,92681,5,0,0:0:0:0:
404,288,92951,1,0,0:0:0:0:
296,324,93132,1,0,0:0:0:0:
196,328,93402,2,0,B|78:237|101:313|65:121,1,250.000000596046
304,60,94213,1,0,0:0:0:0:
424,264,94753,5,0,0:0:0:0:
144,136,95294,1,0,0:0:0:0:
208,280,95834,1,0,0:0:0:0:
292,216,96015,1,0,0:0:0:0:
460,160,96374,5,0,0:0:0:0:
424,100,96555,2,0,B|344:24|448:-4|260:168,1,250.000000596046
228,240,97636,1,0,0:0:0:0:
284,244,98536,6,0,L|392:312,1,125.000000298023
448,340,99346,1,0,0:0:0:0:
260,224,99617,1,0,0:0:0:0:
384,64,100068,1,0,0:0:0:0:
292,136,100338,2,0,B|160:80|232:76|120:84|36:-20|60:-16|60:144,1,333.333334128061
64,184,101329,5,0,0:0:0:0:
64,344,101600,1,0,0:0:0:0:
212,280,101780,1,0,0:0:0:0:
336,208,102140,5,0,0:0:0:0:
392,164,102230,1,0,0:0:0:0:
400,96,102320,1,0,0:0:0:0:
344,52,102410,1,0,0:0:0:0:
276,44,102501,1,0,0:0:0:0:
224,92,102591,1,0,0:0:0:0:
72,88,102861,6,0,B|-24:352|68:372|-48:384|500:188|224:-64|312:332,1,708.33333502213,0|0,0:3|0:3,0:3:0:0:
392,328,104483,1,0,0:0:0:0:
448,256,104663,2,0,B|364:76|568:0|240:332|360:412|204:380|336:352|216:100|416:8|152:20|348:76|120:304|120:308,1,750.000001788138
256,192,106825,5,0,0:0:0:0:
404,52,107005,1,0,0:0:0:0:
420,140,107275,1,0,0:0:0:0:
392,304,107456,2,0,P|332:240|252:108,1,208.333333830038
364,68,108176,1,0,0:0:0:0:
232,28,108356,1,0,0:0:0:0:
108,52,108807,5,0,0:0:0:0:
100,120,108897,1,0,0:0:0:0:
96,188,108987,1,0,0:0:0:0:
112,332,109257,1,0,0:0:0:0:
192,328,109528,2,0,P|252:264|332:132,1,208.333333830038
296,56,110249,5,0,0:0:0:0:
432,76,110519,1,0,0:0:0:0:
336,232,110699,2,0,P|304:308|164:224,1,291.666667362054
420,232,111600,2,0,B|353:335|368:345|309:159|345:164|229:269|254:297|131:280,1,333.333334128061
96,216,112681,1,0,0:0:0:0:
96,184,112771,1,0,0:0:0:0:
216,284,113041,1,0,0:0:0:0:
252,204,113311,2,0,P|256:132|296:70,1,125.000000298023
412,104,113852,2,0,B|352:224|320:88|432:288|524:132|340:296|432:320|212:220|200:292|308:72|388:144|152:72|168:28|144:264|232:292|76:280,1,583.333334724107
256,192,115474,5,0,0:0:0:0:
304,144,115564,1,0,0:0:0:0:
356,100,115654,1,0,0:0:0:0:
424,232,115924,1,0,0:0:0:0:
384,312,116104,2,0,P|328:340|240:268,1,166.666667064031
120,224,116915,1,0,0:0:0:0:
332,116,117095,1,0,0:0:0:0:
376,292,117636,1,0,0:0:0:0:
244,348,117906,2,0,L|120:300,1,125.000000298023
404,156,118356,1,0,0:0:0:0:
80,128,118627,1,0,0:0:0:0:
228,64,118987,1,0,0:0:0:0:
280,64,119167,1,0,0:0:0:0:
352,204,119618,1,0,0:0:0:0:
212,308,119978,1,0,0:0:0:0:
436,188,120429,2,0,B|304:320|512:352|180:168|416:-8|232:176,1,375.000000894069
132,120,121419,1,0,0:0:0:0:
320,96,121780,2,0,B|240:208|380:280|276:368|396:388|168:228,1,416.666667660077
120,184,122861,1,0,0:0:0:0:
112,68,123401,1,0,0:0:0:0:
180,52,123672,1,0,0:0:0:0:
352,136,124211,5,0,0:0:0:0:
124,152,124302,2,0,P|124:200|164:252,1,83.3333335320153
196,280,124753,1,0,0:0:0:0:
260,348,124843,5,0,0:0:0:0:
368,352,125293,1,0,0:0:0:0:
396,312,125383,1,0,0:0:0:0:
412,272,125473,2,0,P|420:192|396:124,1,125.000000298023
372,88,125833,1,0,0:0:0:0:
336,68,125923,1,0,0:0:0:0:
112,72,126374,5,0,0:0:0:0:
160,152,126464,2,0,P|216:172|236:212,1,83.3333335320153
284,268,126914,1,0,0:0:0:0:
320,292,127004,2,0,L|432:148,1,166.666667064031
344,128,127546,1,0,0:0:0:0:
320,116,127726,1,0,0:0:0:0:
252,328,127995,1,0,0:0:0:0:
208,256,128266,6,0,B|92:344|148:340|136:156,1,208.333333830038
140,104,129077,2,0,B|200:180|316:224|184:280|400:180,1,291.666667362054
436,192,130157,1,0,0:0:0:0:
368,160,130428,2,0,B|272:88|172:128|172:16|180:216,1,291.666667362054
184,260,131238,1,0,0:0:0:0:
84,168,132139,5,0,0:0:0:0:
152,104,132680,5,0,0:0:0:0:
180,88,132770,1,0,0:0:0:0:
220,80,132860,1,0,0:0:0:0:
268,80,132950,1,0,0:0:0:0:
308,88,133040,1,0,0:0:0:0:
344,108,133130,1,0,0:0:0:0:
368,136,133220,1,0,0:0:0:0:
448,248,133491,5,0,0:0:0:0:
368,336,133671,1,0,0:0:0:0:
80,108,134302,5,0,0:0:0:0:
84,148,134392,1,0,0:0:0:0:
92,188,134482,1,0,0:0:0:0:
112,220,134572,1,0,0:0:0:0:
140,260,134662,1,0,0:0:0:0:
232,344,134842,1,0,0:0:0:0:
432,232,135383,5,0,0:0:0:0:
416,160,135923,2,0,B|300:76|360:24|228:168,1,250.000000596046
120,232,137004,2,0,B|236:316|176:368|308:224,1,250.000000596046
384,80,137815,1,0,0:0:0:0:
164,176,138626,1,0,0:0:0:0:
160,264,138807,2,0,B|188:352|76:348|352:340,1,250.000000596046
412,340,139797,1,0,0:0:0:0:
140,220,140068,5,0,0:0:0:0:
176,280,140249,2,0,B|256:356|152:384|340:212,1,250.000000596046
372,140,141330,1,0,0:0:0:0:
316,136,142230,6,0,L|208:68,1,125.000000298023
152,40,143040,1,0,0:0:0:0:
340,156,143311,1,0,0:0:0:0:
88,308,143762,1,0,0:0:0:0:
160,244,144032,2,0,B|292:300|220:304|332:296|416:400|392:396|392:236,1,333.333334128061
376,120,144933,5,0,0:0:0:0:
300,52,145203,1,0,0:0:0:0:
196,32,145384,1,0,0:0:0:0:
108,64,145654,2,0,B|76:209|45:136|141:306,1,250.000000596046
328,336,146465,1,0,0:0:0:0:
440,156,147005,1,0,0:0:0:0:
36,336,147546,1,0,0:0:0:0:
168,108,148086,1,0,0:0:0:0:
264,324,148267,1,0,0:0:0:0:
372,164,148807,5,0,0:0:0:0:
336,104,148988,2,0,B|256:28|360:0|172:172,1,250.000000596046
140,244,150069,1,0,0:0:0:0:
196,248,150969,6,0,L|304:316,1,125.000000298023
360,344,151779,1,0,0:0:0:0:
172,228,152050,1,0,0:0:0:0:
424,76,152501,1,0,0:0:0:0:
352,140,152771,2,0,B|220:84|292:80|180:88|96:-16|120:-12|120:148,1,333.333334128061
120,192,153672,5,0,0:0:0:0:
148,288,153942,1,0,0:0:0:0:
196,300,154122,2,0,P|256:316|356:300,1,125.000000298023
384,248,154753,1,0,0:0:0:0:
336,236,154933,2,0,P|276:220|176:236,1,125.000000298023
84,164,155744,5,0,0:0:0:0:
296,72,155924,1,0,0:0:0:0:
396,152,156285,1,0,0:0:0:0:
336,180,156375,1,0,0:0:0:0:
276,208,156465,1,0,0:0:0:0:
216,236,156555,1,0,0:0:0:0:
156,264,156645,1,0,0:0:0:0:
108,52,156915,6,0,B|224:64|156:-4|248:8|232:196,1,250.000000596046
216,244,157636,1,0,0:0:0:0:
252,304,157817,2,0,B|332:380|228:408|416:236,1,250.000000596046
448,164,158898,1,0,0:0:0:0:
392,160,159708,6,0,L|284:92,1,125.000000298023
228,64,160339,1,0,0:0:0:0:
416,180,160519,1,0,0:0:0:0:
164,332,161330,1,0,0:0:0:0:
236,268,161600,2,0,B|368:324|296:328|408:320|492:424|468:420|468:260,1,333.333334128061
456,212,162501,5,0,0:0:0:0:
404,96,162771,1,0,0:0:0:0:
296,60,162952,1,0,0:0:0:0:
196,56,163222,2,0,B|78:147|101:71|65:263,1,250.000000596046
304,324,164033,1,0,0:0:0:0:
424,120,164573,5,0,0:0:0:0:
144,248,165114,1,0,0:0:0:0:
208,104,165654,1,0,0:0:0:0:
292,168,165835,1,0,0:0:0:0:
460,224,166194,5,0,0:0:0:0:
424,284,166375,2,0,B|344:360|448:388|260:216,1,250.000000596046
228,144,167456,1,0,0:0:0:0:
284,140,168356,6,0,L|392:72,1,125.000000298023
448,44,169166,1,0,0:0:0:0:
260,160,169437,1,0,0:0:0:0:
384,320,169888,1,0,0:0:0:0:
292,248,170158,2,0,B|160:304|232:308|120:300|36:404|60:400|60:240,1,333.333334128061
64,200,171149,5,0,0:0:0:0:
64,40,171420,1,0,0:0:0:0:
212,104,171600,1,0,0:0:0:0:
336,176,171960,5,0,0:0:0:0:
392,220,172050,1,0,0:0:0:0:
400,288,172140,1,0,0:0:0:0:
344,332,172230,1,0,0:0:0:0:
276,340,172321,1,0,0:0:0:0:
224,292,172411,1,0,0:0:0:0:
136,356,172681,2,0,P|84:252|116:164,1,208.333333830038
188,104,173311,1,0,0:3:0:0:
264,68,173492,1,0,0:3:0:0:
356,80,173762,2,0,P|420:144|440:184,1,125.000000298023
440,280,174303,1,0,0:0:0:0:
328,232,174483,2,0,P|112:189|324:182,1,625.000001490115
256,192,176645,5,0,0:0:0:0:
