osu file format v14

[General]
AudioFilename: audio.mp3
AudioLeadIn: 0
PreviewTime: -1
Countdown: 1
SampleSet: Normal
StackLeniency: 0.7
Mode: 0
LetterboxInBreaks: 0
WidescreenStoryboard: 1

[Editor]
Bookmarks: 52707
DistanceSpacing: 4.9
BeatDivisor: 2
GridSize: 8
TimelineZoom: 1

[Metadata]
Title:The End is The End is The End
TitleUnicode:The End is The End is The End
Artist:Mensa Group International
ArtistUnicode:Mensa Group International
Creator:Nice Aesthetics
Version:ar7
Source:
Tags:
BeatmapID:2219814
BeatmapSetID:1026831

[Difficulty]
HPDrainRate:1
CircleSize:4
OverallDifficulty:5
ApproachRate:7
SliderMultiplier:0.400000005960464
SliderTickRate:1

[Events]
//Background and Video events
0,0,"Mensa-Group-International-interview-image-e1496282232537.jpg",0,0
//Break Periods
//Storyboard Layer 0 (Background)
//Storyboard Layer 1 (Fail)
//Storyboard Layer 2 (Pass)
//Storyboard Layer 3 (Foreground)
//Storyboard Layer 4 (Overlay)
//Storyboard Sound Samples

[TimingPoints]
0,315.789473684211,4,2,0,20,1,0
2506,314.13612565445,4,2,0,20,1,0
4999,314.13612565445,4,2,0,20,1,0
15051,-100,4,2,0,40,0,0
17544,314.13612565445,4,2,0,40,1,0
20047,314.13612565445,4,2,0,40,1,0
22550,314.13612565445,4,2,0,40,1,0
25063,-100,4,2,0,60,0,0
32602,-100,4,2,0,100,0,0
52707,-100,4,2,0,100,0,1
55220,-100,4,2,0,80,0,1
57733,-100,4,2,0,60,0,1
58989,-100,4,2,0,40,0,1

[HitObjects]
86,51,0,5,4,0:0:0:0:
60,136,157,1,0,0:0:0:0:
49,225,315,1,0,0:0:0:0:
61,314,473,1,0,0:0:0:0:
239,365,631,5,2,0:0:0:0:
216,292,789,1,0,0:0:0:0:
238,219,947,1,0,0:0:0:0:
208,148,1105,1,0,0:0:0:0:
86,51,1263,5,4,0:0:0:0:
60,136,1420,1,0,0:0:0:0:
49,225,1578,1,0,0:0:0:0:
61,314,1736,1,0,0:0:0:0:
239,365,1894,5,2,0:0:0:0:
216,292,2052,1,0,0:0:0:0:
238,219,2210,1,0,0:0:0:0:
208,148,2368,1,0,0:0:0:0:
86,51,2506,5,4,0:0:0:0:
60,136,2663,1,0,0:0:0:0:
49,225,2821,1,0,0:0:0:0:
61,314,2979,1,0,0:0:0:0:
239,365,3137,5,2,0:0:0:0:
216,292,3295,1,0,0:0:0:0:
238,219,3453,1,0,0:0:0:0:
208,148,3611,1,0,0:0:0:0:
86,51,3769,5,4,0:0:0:0:
60,136,3926,1,0,0:0:0:0:
49,225,4084,1,0,0:0:0:0:
61,314,4242,1,0,0:0:0:0:
239,365,4400,5,2,0:0:0:0:
216,292,4558,1,0,0:0:0:0:
238,219,4716,1,0,0:0:0:0:
208,148,4874,1,0,0:0:0:0:
86,51,4999,5,4,0:0:0:0:
60,136,5156,1,0,0:0:0:0:
49,225,5314,1,0,0:0:0:0:
61,314,5472,1,0,0:0:0:0:
239,365,5630,5,2,0:0:0:0:
216,292,5788,1,0,0:0:0:0:
238,219,5946,1,0,0:0:0:0:
208,148,6104,1,0,0:0:0:0:
86,51,6262,5,4,0:0:0:0:
60,136,6419,1,0,0:0:0:0:
49,225,6577,1,0,0:0:0:0:
61,314,6735,1,0,0:0:0:0:
239,365,6893,5,2,0:0:0:0:
216,292,7051,1,0,0:0:0:0:
238,219,7209,1,0,0:0:0:0:
208,148,7367,1,0,0:0:0:0:
46,108,7512,5,4,0:0:0:0:
142,59,7669,1,0,0:0:0:0:
219,133,7826,1,0,0:0:0:0:
309,74,7983,1,0,0:0:0:0:
423,204,8140,5,2,0:0:0:0:
341,246,8297,1,0,0:0:0:0:
261,198,8454,1,0,0:0:0:0:
185,250,8611,1,0,0:0:0:0:
46,108,8768,5,4,0:0:0:0:
142,59,8925,1,0,0:0:0:0:
219,133,9082,1,0,0:0:0:0:
309,74,9239,1,0,0:0:0:0:
423,204,9396,5,2,0:0:0:0:
341,246,9553,1,0,0:0:0:0:
261,198,9710,1,0,0:0:0:0:
185,250,9867,1,0,0:0:0:0:
46,108,10025,5,4,0:0:0:0:
142,59,10182,1,0,0:0:0:0:
219,133,10339,1,0,0:0:0:0:
309,74,10496,1,0,0:0:0:0:
423,204,10653,5,2,0:0:0:0:
341,246,10810,1,0,0:0:0:0:
261,198,10967,1,0,0:0:0:0:
185,250,11124,1,0,0:0:0:0:
46,108,11281,5,4,0:0:0:0:
142,59,11438,1,0,0:0:0:0:
219,133,11595,1,0,0:0:0:0:
309,74,11752,1,0,0:0:0:0:
423,204,11909,5,2,0:0:0:0:
341,246,12066,1,0,0:0:0:0:
261,198,12223,1,0,0:0:0:0:
185,250,12380,1,0,0:0:0:0:
46,108,12538,5,4,0:0:0:0:
142,59,12695,1,0,0:0:0:0:
219,133,12852,1,0,0:0:0:0:
309,74,13009,1,0,0:0:0:0:
423,204,13166,5,2,0:0:0:0:
341,246,13323,1,0,0:0:0:0:
261,198,13480,1,0,0:0:0:0:
185,250,13637,1,0,0:0:0:0:
46,108,13794,5,4,0:0:0:0:
142,59,13951,1,0,0:0:0:0:
219,133,14108,1,0,0:0:0:0:
309,74,14265,1,0,0:0:0:0:
423,204,14422,5,2,0:0:0:0:
341,246,14579,1,0,0:0:0:0:
261,198,14736,1,8,0:0:0:0:
185,250,14893,1,4,0:0:0:0:
65,33,15051,5,4,0:0:0:0:
108,138,15208,1,0,0:0:0:0:
47,234,15365,1,8,0:0:0:0:
117,323,15522,1,2,0:0:0:0:
240,56,15679,5,0,0:0:0:0:
200,144,15836,1,0,0:0:0:0:
240,232,15993,1,8,0:0:0:0:
192,320,16150,1,4,0:0:0:0:
65,33,16307,5,4,0:0:0:0:
108,138,16464,1,0,0:0:0:0:
47,234,16621,1,8,0:0:0:0:
117,323,16778,1,2,0:0:0:0:
240,56,16935,5,0,0:0:0:0:
200,144,17092,1,0,0:0:0:0:
240,232,17249,1,8,0:0:0:0:
192,320,17406,1,4,0:0:0:0:
65,33,17544,5,4,0:0:0:0:
108,138,17701,1,0,0:0:0:0:
47,234,17858,1,8,0:0:0:0:
117,323,18015,1,2,0:0:0:0:
240,56,18172,5,0,0:0:0:0:
200,144,18329,1,0,0:0:0:0:
240,232,18486,1,8,0:0:0:0:
192,320,18643,1,4,0:0:0:0:
65,33,18800,5,4,0:0:0:0:
108,138,18957,1,0,0:0:0:0:
47,234,19114,1,8,0:0:0:0:
117,323,19271,1,2,0:0:0:0:
240,56,19428,5,0,0:0:0:0:
200,144,19585,1,0,0:0:0:0:
240,232,19742,1,8,0:0:0:0:
192,320,19899,1,4,0:0:0:0:
65,33,20047,5,4,0:0:0:0:
108,138,20204,1,0,0:0:0:0:
47,234,20361,1,8,0:0:0:0:
117,323,20518,1,2,0:0:0:0:
240,56,20675,5,0,0:0:0:0:
200,144,20832,1,0,0:0:0:0:
240,232,20989,1,8,0:0:0:0:
192,320,21146,1,4,0:0:0:0:
65,33,21303,5,4,0:0:0:0:
108,138,21460,1,0,0:0:0:0:
47,234,21617,1,8,0:0:0:0:
117,323,21774,1,2,0:0:0:0:
240,56,21931,5,0,0:0:0:0:
200,144,22088,1,0,0:0:0:0:
240,232,22245,1,8,0:0:0:0:
192,320,22402,1,4,0:0:0:0:
65,33,22550,5,4,0:0:0:0:
108,138,22707,1,0,0:0:0:0:
47,234,22864,1,8,0:0:0:0:
117,323,23021,1,2,0:0:0:0:
240,56,23178,5,0,0:0:0:0:
200,144,23335,1,0,0:0:0:0:
240,232,23492,1,8,0:0:0:0:
192,320,23649,1,4,0:0:0:0:
65,33,23806,5,4,0:0:0:0:
108,138,23963,1,0,0:0:0:0:
47,234,24120,1,8,0:0:0:0:
117,323,24277,1,2,0:0:0:0:
240,56,24434,5,0,0:0:0:0:
200,144,24591,1,0,0:0:0:0:
240,232,24748,1,8,0:0:0:0:
192,320,24905,1,4,0:0:0:0:
424,264,25063,5,4,0:0:0:0:
312,168,25220,1,2,0:0:0:0:
192,256,25377,1,2,0:0:0:0:
72,152,25534,1,8,0:0:0:0:
280,352,25691,5,0,0:0:0:0:
312,208,25848,1,0,0:0:0:0:
200,144,26005,1,0,0:0:0:0:
240,16,26162,1,0,0:0:0:0:
424,264,26319,5,4,0:0:0:0:
312,168,26476,1,2,0:0:0:0:
192,256,26633,1,2,0:0:0:0:
72,152,26790,1,8,0:0:0:0:
280,352,26947,5,0,0:0:0:0:
312,208,27104,1,0,0:0:0:0:
200,144,27261,1,0,0:0:0:0:
240,16,27418,1,0,0:0:0:0:
424,264,27576,5,4,0:0:0:0:
312,168,27733,1,2,0:0:0:0:
192,256,27890,1,2,0:0:0:0:
72,152,28047,1,8,0:0:0:0:
280,352,28204,5,0,0:0:0:0:
312,208,28361,1,0,0:0:0:0:
200,144,28518,1,0,0:0:0:0:
240,16,28675,1,0,0:0:0:0:
424,264,28832,5,4,0:0:0:0:
312,168,28989,1,2,0:0:0:0:
192,256,29146,1,2,0:0:0:0:
72,152,29303,1,8,0:0:0:0:
280,352,29460,5,0,0:0:0:0:
312,208,29617,1,0,0:0:0:0:
200,144,29774,1,0,0:0:0:0:
240,16,29931,1,0,0:0:0:0:
424,264,30089,5,4,0:0:0:0:
312,168,30246,1,2,0:0:0:0:
192,256,30403,1,2,0:0:0:0:
72,152,30560,1,8,0:0:0:0:
280,352,30717,5,0,0:0:0:0:
312,208,30874,1,0,0:0:0:0:
200,144,31031,1,0,0:0:0:0:
240,16,31188,1,0,0:0:0:0:
424,264,31345,5,4,0:0:0:0:
312,168,31502,1,2,0:0:0:0:
192,256,31659,1,2,0:0:0:0:
72,152,31816,1,8,0:0:0:0:
280,352,31973,5,0,0:0:0:0:
312,208,32130,1,0,0:0:0:0:
200,144,32287,1,0,0:0:0:0:
240,16,32444,1,0,0:0:0:0:
80,352,32602,5,8,0:0:0:0:
0,168,32759,1,2,0:0:0:0:
200,112,32916,1,2,0:0:0:0:
264,296,33073,1,4,0:0:0:0:
312,24,33230,5,8,0:0:0:0:
248,160,33387,1,2,0:0:0:0:
384,224,33544,1,2,0:0:0:0:
456,80,33701,1,4,0:0:0:0:
80,352,33858,5,8,0:0:0:0:
0,168,34015,1,2,0:0:0:0:
200,112,34172,1,2,0:0:0:0:
264,296,34329,1,4,0:0:0:0:
312,24,34486,5,8,0:0:0:0:
248,160,34643,1,2,0:0:0:0:
384,224,34800,1,2,0:0:0:0:
456,80,34957,1,4,0:0:0:0:
160,16,35115,5,8,0:0:0:0:
0,240,35272,1,8,0:0:0:0:
240,232,35429,1,4,0:0:0:0:
0,80,35586,1,4,0:0:0:0:
408,160,35743,5,8,0:0:0:0:
192,64,35900,1,4,0:0:0:0:
240,240,36057,1,8,0:0:0:0:
352,16,36214,1,4,0:0:0:0:
160,16,36371,5,8,0:0:0:0:
0,240,36528,1,8,0:0:0:0:
240,232,36685,1,4,0:0:0:0:
0,80,36842,1,4,0:0:0:0:
408,160,36999,5,8,0:0:0:0:
192,64,37156,1,4,0:0:0:0:
240,240,37313,1,8,0:0:0:0:
352,16,37470,1,4,0:0:0:0:
160,16,37628,5,8,0:0:0:0:
0,240,37785,1,8,0:0:0:0:
240,232,37942,1,4,0:0:0:0:
0,80,38099,1,4,0:0:0:0:
408,160,38256,5,8,0:0:0:0:
192,64,38413,1,4,0:0:0:0:
240,240,38570,1,8,0:0:0:0:
352,16,38727,1,4,0:0:0:0:
160,16,38885,5,8,0:0:0:0:
0,240,39042,1,8,0:0:0:0:
240,232,39199,1,4,0:0:0:0:
0,80,39356,1,4,0:0:0:0:
408,160,39513,5,8,0:0:0:0:
192,64,39670,1,4,0:0:0:0:
240,240,39827,1,8,0:0:0:0:
352,16,39984,1,4,0:0:0:0:
160,16,40141,5,8,0:0:0:0:
0,240,40298,1,8,0:0:0:0:
240,232,40455,1,4,0:0:0:0:
0,80,40612,1,4,0:0:0:0:
408,160,40769,5,8,0:0:0:0:
192,64,40926,1,4,0:0:0:0:
240,240,41083,1,8,0:0:0:0:
352,16,41240,1,4,0:0:0:0:
160,16,41398,5,8,0:0:0:0:
0,240,41555,1,8,0:0:0:0:
240,232,41712,1,4,0:0:0:0:
0,80,41869,1,4,0:0:0:0:
408,160,42026,5,8,0:0:0:0:
192,64,42183,1,4,0:0:0:0:
240,240,42340,1,8,0:0:0:0:
352,16,42497,1,4,0:0:0:0:
128,344,42654,5,0,0:0:0:0:
8,112,42811,1,0,0:0:0:0:
288,208,42968,1,0,0:0:0:0:
8,272,43125,1,0,0:0:0:0:
200,56,43282,5,0,0:0:0:0:
368,280,43440,1,0,0:0:0:0:
88,184,43597,1,0,0:0:0:0:
360,112,43754,1,0,0:0:0:0:
128,344,43911,5,0,0:0:0:0:
8,112,44068,1,0,0:0:0:0:
288,208,44225,1,0,0:0:0:0:
8,272,44382,1,0,0:0:0:0:
200,56,44539,5,0,0:0:0:0:
368,280,44697,1,0,0:0:0:0:
88,184,44854,1,0,0:0:0:0:
360,112,45011,1,0,0:0:0:0:
80,24,45167,5,0,0:0:0:0:
16,288,45324,1,0,0:0:0:0:
344,160,45481,1,0,0:0:0:0:
32,144,45639,1,0,0:0:0:0:
184,352,45796,5,0,0:0:0:0:
96,80,45953,1,0,0:0:0:0:
8,288,46110,1,0,0:0:0:0:
136,8,46267,1,0,0:0:0:0:
80,24,46424,5,0,0:0:0:0:
16,288,46581,1,0,0:0:0:0:
344,160,46738,1,0,0:0:0:0:
32,144,46896,1,0,0:0:0:0:
184,352,47053,5,0,0:0:0:0:
96,80,47210,1,0,0:0:0:0:
8,288,47367,1,0,0:0:0:0:
136,8,47524,1,0,0:0:0:0:
80,24,47680,5,0,0:0:0:0:
16,288,47837,1,0,0:0:0:0:
344,160,47994,1,0,0:0:0:0:
32,144,48152,1,0,0:0:0:0:
184,352,48309,5,0,0:0:0:0:
96,80,48466,1,0,0:0:0:0:
8,288,48623,1,0,0:0:0:0:
136,8,48780,1,0,0:0:0:0:
80,24,48937,5,0,0:0:0:0:
16,288,49094,1,0,0:0:0:0:
344,160,49251,1,0,0:0:0:0:
32,144,49409,1,0,0:0:0:0:
184,352,49566,5,0,0:0:0:0:
96,80,49723,1,0,0:0:0:0:
8,288,49880,1,0,0:0:0:0:
136,8,50037,1,0,0:0:0:0:
80,24,50193,5,0,0:0:0:0:
16,288,50350,1,0,0:0:0:0:
344,160,50507,1,0,0:0:0:0:
32,144,50665,1,0,0:0:0:0:
184,352,50822,5,0,0:0:0:0:
96,80,50979,1,0,0:0:0:0:
8,288,51136,1,0,0:0:0:0:
136,8,51293,1,0,0:0:0:0:
80,24,51450,5,0,0:0:0:0:
16,288,51607,1,0,0:0:0:0:
344,160,51764,1,0,0:0:0:0:
32,144,51922,1,0,0:0:0:0:
184,352,52079,5,0,0:0:0:0:
96,80,52236,1,0,0:0:0:0:
8,288,52393,1,0,0:0:0:0:
136,8,52550,1,0,0:0:0:0:
432,240,52707,5,0,0:0:0:0:
224,40,52864,1,0,0:0:0:0:
144,352,53021,5,0,0:0:0:0:
32,64,53178,1,0,0:0:0:0:
360,336,53335,5,0,0:0:0:0:
8,200,53492,1,0,0:0:0:0:
136,32,53649,5,0,0:0:0:0:
104,360,53806,1,0,0:0:0:0:
432,240,53963,5,0,0:0:0:0:
224,40,54120,1,0,0:0:0:0:
144,352,54277,5,0,0:0:0:0:
32,64,54434,1,0,0:0:0:0:
360,336,54591,5,0,0:0:0:0:
8,200,54748,1,0,0:0:0:0:
136,32,54905,5,0,0:0:0:0:
104,360,55062,1,0,0:0:0:0:
464,176,55220,5,0,0:0:0:0:
16,88,55377,1,0,0:0:0:0:
272,344,55534,5,0,0:0:0:0:
80,16,55691,1,0,0:0:0:0:
16,352,55848,5,0,0:0:0:0:
312,40,56005,1,0,0:0:0:0:
16,104,56162,5,0,0:0:0:0:
464,160,56319,1,0,0:0:0:0:
304,360,56476,5,0,0:0:0:0:
272,40,56633,1,0,0:0:0:0:
80,344,56790,5,0,0:0:0:0:
168,32,56947,1,0,0:0:0:0:
464,272,57104,5,0,0:0:0:0:
80,80,57262,1,0,0:0:0:0:
464,128,57419,5,0,0:0:0:0:
8,216,57576,1,0,0:0:0:0:
0,8,57733,5,0,0:0:0:0:
152,360,57890,1,0,0:0:0:0:
192,32,58047,5,0,0:0:0:0:
312,360,58204,1,0,0:0:0:0:
448,24,58361,5,0,0:0:0:0:
184,360,58518,1,0,0:0:0:0:
288,8,58675,5,0,0:0:0:0:
24,352,58832,1,0,0:0:0:0:
0,8,58989,5,0,0:0:0:0:
152,360,59146,1,0,0:0:0:0:
192,32,59303,5,0,0:0:0:0:
312,360,59460,1,0,0:0:0:0:
448,24,59617,5,0,0:0:0:0:
184,360,59774,1,0,0:0:0:0:
288,8,59931,5,0,0:0:0:0:
24,352,60088,1,0,0:0:0:0:
8,8,60246,5,0,0:0:0:0:
256,192,60403,12,0,62131,0:0:0:0:
